999
DXF file: 70500825.dxf
999
Pro/ENGINEER 2017380 by Parametric Technology Corporation
  0
SECTION
  2
HEADER
  9
$ACADVER
  1
AC1027
  9
$DWGCODEPAGE
  3
ANSI_1252
  9
$EXTMAX
 10
420.0
 20
297.0
 30
0.0
  9
$EXTMIN
 10
0.0
 20
0.0
 30
0.0
  9
$LIMMIN
 10
0.0
 20
0.0
  9
$LIMMAX
 10
420.0
 20
297.0
  9
$VIEWCTR
 10
210.0
 20
148.5
  9
$VIEWSIZE
 40
297.0
  9
$CLAYER
  8
0
  9
$LTSCALE
 40
23.1
  9
$CELTYPE
  6
BYLAYER
  9
$DIMSCALE
 40
1.0
  9
$DIMASZ
 40
3.5
  9
$DIMEXO
 40
0.0
  9
$DIMDLI
 40
15.96
  9
$DIMEXE
 40
1.5
  9
$DIMCEN
 40
3.78
  9
$DIMLFAC
 40
1.0
  9
$DIMBLK
  1
_FILLED
  9
$DIMALT
 70
0
  9
$DIMALTF
 40
25.4
  9
$DIMTXT
 40
3.5
  9
$DIMTOL
 70
1
  9
$DIMLIM
 70
0
  9
$DIMTFAC
 40
1.0
  9
$DIMTP
 40
0.05
  9
$DIMTM
 40
0.05
  9
$DIMGAP
 40
0.625
  9
$DIMDSEP
 70
46
  9
$AUNITS
 70
0
  9
$PDMODE
 70
3
  9
$PDSIZE
 40
0.3125
  9
$HANDSEED
  5
29A
  9
$TILEMODE
 70
1
  9
$MEASUREMENT
 70
1
  9
$INSUNITS
 70
4
  0
ENDSEC
  0
SECTION
  2
CLASSES
  0
CLASS
  1
ACDBDICTIONARYWDFLT
  2
AcDbDictionaryWithDefault
  3
AutoCAD 2000
 90
0
 91
1
280
0
281
0
  0
CLASS
  1
ACDBPLACEHOLDER
  2
AcDbPlaceHolder
  3
AutoCAD 2000
 90
0
 91
1
280
0
281
0
  0
CLASS
  1
LAYOUT
  2
AcDbLayout
  3
AutoCAD 2000
 90
0
 91
0
280
0
281
0
  0
ENDSEC
  0
SECTION
  2
TABLES
  0
TABLE
  2
VPORT
  5
8
100
AcDbSymbolTable
 70
2
  0
VPORT
  5
1F4
100
AcDbSymbolTableRecord
100
AcDbViewportTableRecord
  2
*ACTIVE
 70
0
 10
0.0
 20
0.0
 11
1.0
 21
1.0
 12
210.0
 22
148.5
 13
0.0
 23
0.0
 14
1.0
 24
1.0
 15
0.0
 25
0.0
 16
0.0
 26
0.0
 36
1.0
 17
0.0
 27
0.0
 37
0.0
 40
297.0
 41
1.4141414141
 42
50.0
 43
0.0
 44
0.0
 50
0.0
 51
0.0
 71
0
 72
100
 73
1
 74
1
 75
0
 76
0
 77
0
 78
0
  0
ENDTAB
  0
TABLE
  2
LTYPE
  5
5
100
AcDbSymbolTable
 70
6
  0
LTYPE
  5
14
100
AcDbSymbolTableRecord
100
AcDbLinetypeTableRecord
  2
BYBLOCK
 70
0
  3

 72
65
 73
0
 40
0.0
  0
LTYPE
  5
15
100
AcDbSymbolTableRecord
100
AcDbLinetypeTableRecord
  2
BYLAYER
 70
0
  3

 72
65
 73
0
 40
0.0
  0
LTYPE
  5
16
100
AcDbSymbolTableRecord
100
AcDbLinetypeTableRecord
  2
CONTINUOUS
 70
64
  3
Solid line
 72
65
 73
0
 40
0.0
  0
LTYPE
  5
1F5
100
AcDbSymbolTableRecord
100
AcDbLinetypeTableRecord
  2
CENTER
 70
64
  3
____ _ ____ _ ____ _ ____ _ ____ _ ____ _ ____
 72
65
 73
4
 40
0.6
 49
0.375
 74
0
 49
-0.075
 74
0
 49
0.075
 74
0
 49
-0.075
 74
0
  0
LTYPE
  5
1F6
100
AcDbSymbolTableRecord
100
AcDbLinetypeTableRecord
  2
HIDDEN
 70
64
  3
- - - - - - - - - - - - - - - - - - - -
 72
65
 73
2
 40
0.2
 49
0.1
 74
0
 49
-0.1
 74
0
  0
LTYPE
  5
1F7
100
AcDbSymbolTableRecord
100
AcDbLinetypeTableRecord
  2
PHANTOM
 70
64
  3
_____ _ _ _____ _ _ _____ _ _ _____
 72
65
 73
6
 40
0.8
 49
0.45
 74
0
 49
-0.05
 74
0
 49
0.1
 74
0
 49
-0.05
 74
0
 49
0.1
 74
0
 49
-0.05
 74
0
  0
LTYPE
  5
1F8
100
AcDbSymbolTableRecord
100
AcDbLinetypeTableRecord
  2
DOT
 70
64
  3
. . . . . . . . . . . . . . . . . . . .
 72
65
 73
2
 40
0.2
 49
0.1
 74
0
 49
-0.1
 74
0
  0
LTYPE
  5
1F9
100
AcDbSymbolTableRecord
100
AcDbLinetypeTableRecord
  2
DASHED
 70
64
  3
- - - - - - - - - - - - - - - - - - - -
 72
65
 73
2
 40
0.2
 49
0.1
 74
0
 49
-0.1
 74
0
  0
ENDTAB
  0
TABLE
  2
LAYER
  5
2
100
AcDbSymbolTable
 70
36
  0
LAYER
  5
10
100
AcDbSymbolTableRecord
100
AcDbLayerTableRecord
  2
0
 70
0
 62
7
  6
CONTINUOUS
370
-3
390
F
  0
LAYER
  5
1FA
100
AcDbSymbolTableRecord
100
AcDbLayerTableRecord
  2
DEFAULT_1
 70
0
 62
7
  6
CENTER
370
-3
390
F
  0
LAYER
  5
1FB
100
AcDbSymbolTableRecord
100
AcDbLayerTableRecord
  2
DEFAULT_2
 70
0
 62
1
  6
HIDDEN
370
-3
390
F
  0
LAYER
  5
1FC
100
AcDbSymbolTableRecord
100
AcDbLayerTableRecord
  2
DEFAULT_3
 70
0
 62
7
  6
PHANTOM
370
-3
390
F
  0
LAYER
  5
1FD
100
AcDbSymbolTableRecord
100
AcDbLayerTableRecord
  2
BG_STARTBEZUEGE
 70
0
 62
7
  6
CONTINUOUS
370
-3
390
F
  0
LAYER
  5
1FE
100
AcDbSymbolTableRecord
100
AcDbLayerTableRecord
  2
HILFEN
 70
0
 62
7
  6
CONTINUOUS
370
-3
390
F
  0
LAYER
  5
1FF
100
AcDbSymbolTableRecord
100
AcDbLayerTableRecord
  2
PLATZIERUNG
 70
0
 62
7
  6
CONTINUOUS
370
-3
390
F
  0
LAYER
  5
200
100
AcDbSymbolTableRecord
100
AcDbLayerTableRecord
  2
T_STARTBEZUEGE
 70
0
 62
7
  6
CONTINUOUS
370
-3
390
F
  0
LAYER
  5
201
100
AcDbSymbolTableRecord
100
AcDbLayerTableRecord
  2
_03_2D_ZEICHNUNG_BEMASSUNGEN
 70
0
 62
7
  6
CONTINUOUS
370
-3
390
F
  0
LAYER
  5
202
100
AcDbSymbolTableRecord
100
AcDbLayerTableRecord
  2
_04_NOTIZEN
 70
0
 62
7
  6
CONTINUOUS
370
-3
390
F
  0
LAYER
  5
203
100
AcDbSymbolTableRecord
100
AcDbLayerTableRecord
  2
_05_2D_ELEMENTE
 70
0
 62
7
  6
CONTINUOUS
370
-3
390
F
  0
LAYER
  5
204
100
AcDbSymbolTableRecord
100
AcDbLayerTableRecord
  2
_07_EINRASTLINIEN
 70
0
 62
7
  6
CONTINUOUS
370
-3
390
F
  0
LAYER
  5
205
100
AcDbSymbolTableRecord
100
AcDbLayerTableRecord
  2
_21_KURVEN
 70
0
 62
7
  6
CONTINUOUS
370
-3
390
F
  0
LAYER
  5
206
100
AcDbSymbolTableRecord
100
AcDbLayerTableRecord
  2
_24_IMPORT
 70
0
 62
7
  6
CONTINUOUS
370
-3
390
F
  0
LAYER
  5
207
100
AcDbSymbolTableRecord
100
AcDbLayerTableRecord
  2
_26_BEZUGSACHSEN
 70
0
 62
7
  6
CONTINUOUS
370
-3
390
F
  0
LAYER
  5
208
100
AcDbSymbolTableRecord
100
AcDbLayerTableRecord
  2
_27_BEZUGSEBENEN
 70
0
 62
7
  6
CONTINUOUS
370
-3
390
F
  0
LAYER
  5
209
100
AcDbSymbolTableRecord
100
AcDbLayerTableRecord
  2
_28_BEZUGSPUNKTE
 70
0
 62
7
  6
CONTINUOUS
370
-3
390
F
  0
LAYER
  5
20A
100
AcDbSymbolTableRecord
100
AcDbLayerTableRecord
  2
_29_KOORDINATENSYSTEME
 70
0
 62
7
  6
CONTINUOUS
370
-3
390
F
  0
LAYER
  5
20B
100
AcDbSymbolTableRecord
100
AcDbLayerTableRecord
  2
_30_VOLUMEN
 70
0
 62
7
  6
CONTINUOUS
370
-3
390
F
  0
ENDTAB
  0
TABLE
  2
STYLE
  5
3
100
AcDbSymbolTable
 70
1
  0
STYLE
  5
11
100
AcDbSymbolTableRecord
100
AcDbTextStyleTableRecord
  2
STANDARD
 70
0
 40
0.0
 41
0.7
 50
0.0
 71
0
 42
0.2
  3
SIMPLEX.SHX
  4

  0
STYLE
  5
20C
100
AcDbSymbolTableRecord
100
AcDbTextStyleTableRecord
  2
TEXTSTYLE_1
 70
0
 40
0.0
 41
0.8
 50
0.0
 71
0
 42
0.2
  3
gdt
  4

  0
ENDTAB
  0
TABLE
  2
VIEW
  5
6
100
AcDbSymbolTable
 70
0
  0
ENDTAB
  0
TABLE
  2
UCS
  5
7
100
AcDbSymbolTable
 70
0
  0
ENDTAB
  0
TABLE
  2
APPID
  5
9
100
AcDbSymbolTable
 70
1
  0
APPID
  5
20D
100
AcDbSymbolTableRecord
100
AcDbRegAppTableRecord
  2
ACAD
 70
0
  0
ENDTAB
  0
TABLE
  2
BLOCK_RECORD
  5
1
100
AcDbSymbolTable
 70
0
  0
BLOCK_RECORD
  5
20E
100
AcDbSymbolTableRecord
100
AcDbBlockTableRecord
  2
*Model_Space
  0
BLOCK_RECORD
  5
20F
100
AcDbSymbolTableRecord
100
AcDbBlockTableRecord
  2
*Paper_Space
  0
BLOCK_RECORD
  5
210
100
AcDbSymbolTableRecord
100
AcDbBlockTableRecord
  2
_FILLED
  0
BLOCK_RECORD
  5
211
100
AcDbSymbolTableRecord
100
AcDbBlockTableRecord
  2
*D0
  0
BLOCK_RECORD
  5
212
100
AcDbSymbolTableRecord
100
AcDbBlockTableRecord
  2
*D1
  0
BLOCK_RECORD
  5
213
100
AcDbSymbolTableRecord
100
AcDbBlockTableRecord
  2
*D2
  0
ENDTAB
  0
TABLE
  2
DIMSTYLE
  5
A
100
AcDbSymbolTable
 70
1
100
AcDbDimStyleTable
 71
0
  0
DIMSTYLE
105
214
100
AcDbSymbolTableRecord
100
AcDbDimStyleTableRecord
  2
STANDARD
 70
0
  3

  4

 40
1.0
 41
3.5
 42
0.0
 43
0.38
 44
1.5
 45
0.0
 46
0.0
 47
0.05
 48
0.05
140
3.5
141
0.09
142
0.0
143
25.4
144
1.0
145
0.0
146
1.0
147
0.625
 71
1.0
 72
0.0
 73
0
 74
0
 75
0
 76
0
 77
1
 78
8
 79
2
170
0
171
1
172
0
173
0
174
0
175
0
176
0
177
0
178
2
270
2
179
2
271
2
272
2
273
2
274
2
275
0
280
0
281
0
282
0
283
1
284
8
285
0
286
0
287
3
288
0
340
11
278
46
341
210
342
210
343
210
344
210
  0
DIMSTYLE
105
215
100
AcDbSymbolTableRecord
100
AcDbDimStyleTableRecord
  2
DIMSTYLE_1
 70
0
  3

  4

 40
1.0
 41
3.5
 42
0.0
 43
0.38
 44
1.5
 45
0.0
 46
0.0
 47
0.2
 48
0.2
140
3.5
141
0.09
142
0.0
143
25.4
144
1.0
145
0.0
146
1.0
147
0.875
 71
0.0
 72
0.0
 73
0
 74
0
 75
0
 76
0
 77
1
 78
8
 79
2
170
0
171
1
172
0
173
0
174
0
175
0
176
0
177
0
178
2
270
2
179
2
271
2
272
2
273
2
274
2
275
0
280
0
281
0
282
0
283
1
284
8
285
0
286
0
287
3
288
0
340
11
278
46
341
210
342
210
343
210
344
210
  0
DIMSTYLE
105
216
100
AcDbSymbolTableRecord
100
AcDbDimStyleTableRecord
  2
DIMSTYLE_2
 70
0
  3

  4

 40
1.0
 41
3.5
 42
0.0
 43
0.38
 44
1.5
 45
0.0
 46
0.0
 47
0.5
 48
0.5
140
3.5
141
0.09
142
0.0
143
25.4
144
1.0
145
0.0
146
1.0
147
0.875
 71
0.0
 72
0.0
 73
0
 74
0
 75
0
 76
0
 77
1
 78
8
 79
2
170
0
171
1
172
0
173
0
174
0
175
0
176
0
177
0
178
2
270
2
179
2
271
2
272
2
273
2
274
2
275
0
280
0
281
0
282
0
283
1
284
8
285
0
286
0
287
3
288
0
340
11
278
46
341
210
342
210
343
210
344
210
  0
ENDTAB
  0
ENDSEC
  0
SECTION
  2
BLOCKS
  0
BLOCK
  5
20
100
AcDbEntity
  8
0
100
AcDbBlockBegin
  2
*Model_Space
 70
0
 10
0.0
 20
0.0
 30
0.0
  3
*Model_Space
  1

  0
ENDBLK
  5
21
100
AcDbEntity
  8
0
100
AcDbBlockEnd
  0
BLOCK
  5
1C
100
AcDbEntity
  8
0
100
AcDbBlockBegin
  2
*Paper_Space
 70
0
 10
0.0
 20
0.0
 30
0.0
  3
*Paper_Space
  1

  0
ENDBLK
  5
1D
100
AcDbEntity
  8
0
100
AcDbBlockEnd
  0
BLOCK
  5
217
100
AcDbEntity
  8
0
100
AcDbBlockBegin
  2
_FILLED
 70
64
 10
0.0
 20
0.0
  3
_FILLED
  1

  0
SOLID
  5
218
100
AcDbEntity
  8
0
  6
BYBLOCK
 62
0
100
AcDbTrace
 10
0.0
 20
0.0
 11
-1.0
 21
0.125
 12
-1.0
 22
-0.125
 13
-1.0
 23
-0.125
  0
ENDBLK
  5
219
100
AcDbEntity
  8
0
  6
BYBLOCK
 62
0
100
AcDbBlockEnd
  0
BLOCK
  5
21A
100
AcDbEntity
  8
_03_2D_ZEICHNUNG_BEMASSUNGEN
100
AcDbBlockBegin
 62
7
  6
CONTINUOUS
  2
*D0
 70
65
 10
0.0
 20
0.0
  3
*D0
  1

  0
TEXT
  5
21B
100
AcDbEntity
  8
_03_2D_ZEICHNUNG_BEMASSUNGEN
100
AcDbText
 62
2
  6
CONTINUOUS
 10
-9.875
 20
9.875
  7
STANDARD
 40
3.5
  1
25
 50
90.0
 41
0.75
 72
1
 11
-9.875
 21
12.5
100
AcDbText
  0
LINE
  5
21C
100
AcDbEntity
  8
_03_2D_ZEICHNUNG_BEMASSUNGEN
100
AcDbLine
 62
7
  6
CONTINUOUS
 10
0.0
 20
25.0
 11
-10.5
 21
25.0
  0
LINE
  5
21D
100
AcDbEntity
  8
_03_2D_ZEICHNUNG_BEMASSUNGEN
100
AcDbLine
 62
7
  6
CONTINUOUS
 10
-0.0
 20
-0.0
 11
-10.5
 21
0.0
  0
LINE
  5
21E
100
AcDbEntity
  8
_03_2D_ZEICHNUNG_BEMASSUNGEN
100
AcDbLine
 62
7
  6
CONTINUOUS
 10
-9.0
 20
25.0
 11
-9.0
 21
31.0
  0
LINE
  5
21F
100
AcDbEntity
  8
_03_2D_ZEICHNUNG_BEMASSUNGEN
100
AcDbLine
 62
7
  6
CONTINUOUS
 10
-9.0
 20
31.0
 11
-9.0
 21
12.5
  0
LINE
  5
220
100
AcDbEntity
  8
_03_2D_ZEICHNUNG_BEMASSUNGEN
100
AcDbLine
 62
7
  6
CONTINUOUS
 10
-9.0
 20
0.0
 11
-9.0
 21
-6.0
  0
LINE
  5
221
100
AcDbEntity
  8
_03_2D_ZEICHNUNG_BEMASSUNGEN
100
AcDbLine
 62
7
  6
CONTINUOUS
 10
-9.0
 20
-6.0
 11
-9.0
 21
12.5
  0
INSERT
  5
222
100
AcDbEntity
  8
_03_2D_ZEICHNUNG_BEMASSUNGEN
100
AcDbBlockReference
 62
7
  6
CONTINUOUS
  2
_FILLED
 10
-9.0
 20
25.0
 41
3.5
 42
3.5
 43
3.5
 50
270.0
  0
INSERT
  5
223
100
AcDbEntity
  8
_03_2D_ZEICHNUNG_BEMASSUNGEN
100
AcDbBlockReference
 62
7
  6
CONTINUOUS
  2
_FILLED
 10
-9.0
 20
0.0
 41
3.5
 42
3.5
 43
3.5
 50
90.0
  0
ENDBLK
  5
224
100
AcDbEntity
  8
0
  6
BYBLOCK
 62
0
100
AcDbBlockEnd
  0
BLOCK
  5
225
100
AcDbEntity
  8
_03_2D_ZEICHNUNG_BEMASSUNGEN
100
AcDbBlockBegin
 62
7
  6
CONTINUOUS
  2
*D1
 70
65
 10
0.0
 20
0.0
  3
*D1
  1

  0
TEXT
  5
226
100
AcDbEntity
  8
_03_2D_ZEICHNUNG_BEMASSUNGEN
100
AcDbText
 62
2
  6
CONTINUOUS
 10
71.375
 20
35.2548881902
  7
STANDARD
 40
3.5
  1
150
 41
0.6904761905
 72
1
 11
75.0
 21
35.2548881902
100
AcDbText
  0
LINE
  5
227
100
AcDbEntity
  8
_03_2D_ZEICHNUNG_BEMASSUNGEN
100
AcDbLine
 62
7
  6
CONTINUOUS
 10
150.0
 20
0.0
 11
150.0
 21
35.8798881902
  0
LINE
  5
228
100
AcDbEntity
  8
_03_2D_ZEICHNUNG_BEMASSUNGEN
100
AcDbLine
 62
7
  6
CONTINUOUS
 10
0.0
 20
0.0
 11
0.0
 21
35.8798881902
  0
LINE
  5
229
100
AcDbEntity
  8
_03_2D_ZEICHNUNG_BEMASSUNGEN
100
AcDbLine
 62
7
  6
CONTINUOUS
 10
150.0
 20
34.3798881902
 11
75.0
 21
34.3798881902
  0
LINE
  5
22A
100
AcDbEntity
  8
_03_2D_ZEICHNUNG_BEMASSUNGEN
100
AcDbLine
 62
7
  6
CONTINUOUS
 10
0.0
 20
34.3798881902
 11
75.0
 21
34.3798881902
  0
INSERT
  5
22B
100
AcDbEntity
  8
_03_2D_ZEICHNUNG_BEMASSUNGEN
100
AcDbBlockReference
 62
7
  6
CONTINUOUS
  2
_FILLED
 10
150.0
 20
34.3798881902
 41
3.5
 42
3.5
 43
3.5
  0
INSERT
  5
22C
100
AcDbEntity
  8
_03_2D_ZEICHNUNG_BEMASSUNGEN
100
AcDbBlockReference
 62
7
  6
CONTINUOUS
  2
_FILLED
 10
0.0
 20
34.3798881902
 41
3.5
 42
3.5
 43
3.5
 50
180.0
  0
ENDBLK
  5
22D
100
AcDbEntity
  8
0
  6
BYBLOCK
 62
0
100
AcDbBlockEnd
  0
BLOCK
  5
22E
100
AcDbEntity
  8
_03_2D_ZEICHNUNG_BEMASSUNGEN
100
AcDbBlockBegin
 62
7
  6
CONTINUOUS
  2
*D2
 70
65
 10
0.0
 20
0.0
  3
*D2
  1

  0
TEXT
  5
22F
100
AcDbEntity
  8
_03_2D_ZEICHNUNG_BEMASSUNGEN
100
AcDbText
 62
2
  6
CONTINUOUS
 10
158.1574588418
 20
8.25
  7
STANDARD
 40
3.5
  1
22
 50
90.0
 41
0.7857142857
 72
1
 11
158.1574588418
 21
11.0
100
AcDbText
  0
LINE
  5
230
100
AcDbEntity
  8
_03_2D_ZEICHNUNG_BEMASSUNGEN
100
AcDbLine
 62
7
  6
CONTINUOUS
 10
150.0
 20
22.0
 11
160.5324588418
 21
22.0
  0
LINE
  5
231
100
AcDbEntity
  8
_03_2D_ZEICHNUNG_BEMASSUNGEN
100
AcDbLine
 62
7
  6
CONTINUOUS
 10
0.0
 20
0.0
 11
160.5324588418
 21
0.0
  0
LINE
  5
232
100
AcDbEntity
  8
_03_2D_ZEICHNUNG_BEMASSUNGEN
100
AcDbLine
 62
7
  6
CONTINUOUS
 10
159.0324588418
 20
22.0
 11
159.0324588418
 21
11.0
  0
LINE
  5
233
100
AcDbEntity
  8
_03_2D_ZEICHNUNG_BEMASSUNGEN
100
AcDbLine
 62
7
  6
CONTINUOUS
 10
159.0324588418
 20
0.0
 11
159.0324588418
 21
11.0
  0
INSERT
  5
234
100
AcDbEntity
  8
_03_2D_ZEICHNUNG_BEMASSUNGEN
100
AcDbBlockReference
 62
7
  6
CONTINUOUS
  2
_FILLED
 10
159.0324588418
 20
22.0
 41
3.5
 42
3.5
 43
3.5
 50
90.0
  0
INSERT
  5
235
100
AcDbEntity
  8
_03_2D_ZEICHNUNG_BEMASSUNGEN
100
AcDbBlockReference
 62
7
  6
CONTINUOUS
  2
_FILLED
 10
159.0324588418
 20
0.0
 41
3.5
 42
3.5
 43
3.5
 50
270.0
  0
ENDBLK
  5
236
100
AcDbEntity
  8
0
  6
BYBLOCK
 62
0
100
AcDbBlockEnd
  0
ENDSEC
  0
SECTION
  2
ENTITIES
  0
DIMENSION
  5
237
100
AcDbEntity
  8
_03_2D_ZEICHNUNG_BEMASSUNGEN
100
AcDbDimension
 62
7
  6
CONTINUOUS
  2
*D0
 10
-9.0
 20
0.0
 11
-9.0
 21
11.9999997234
 70
160
 71
2
 42
25.0
  3
DIMSTYLE_1
100
AcDbAlignedDimension
 13
0.0
 23
25.0
 14
-0.0
 24
-0.0
 50
270.0
100
AcDbRotatedDimension
  0
DIMENSION
  5
238
100
AcDbEntity
  8
_03_2D_ZEICHNUNG_BEMASSUNGEN
100
AcDbDimension
 62
7
  6
CONTINUOUS
  2
*D1
 10
0.0
 20
34.3798881902
 11
74.4999993896
 21
34.3798881902
 70
160
 71
2
 42
150.0
  3
DIMSTYLE_2
100
AcDbAlignedDimension
 13
150.0
 23
0.0
 14
0.0
 24
0.0
 50
180.0
100
AcDbRotatedDimension
  0
DIMENSION
  5
239
100
AcDbEntity
  8
_03_2D_ZEICHNUNG_BEMASSUNGEN
100
AcDbDimension
 62
7
  6
CONTINUOUS
  2
*D2
 10
159.0324588418
 20
0.0
 11
159.0324588418
 21
10.4999978232
 70
160
 71
2
 42
22.0
  3
DIMSTYLE_1
100
AcDbAlignedDimension
 13
150.0
 23
22.0
 14
0.0
 24
0.0
 50
270.0
100
AcDbRotatedDimension
  0
LINE
  5
23A
100
AcDbEntity
  8
_30_VOLUMEN
100
AcDbLine
 62
4
  6
CONTINUOUS
 10
-0.0
 20
0.5
 11
0.0
 21
24.5
  0
LINE
  5
23B
100
AcDbEntity
  8
_30_VOLUMEN
100
AcDbLine
 62
4
  6
CONTINUOUS
 10
0.5
 20
-0.0
 11
0.5
 21
25.0
  0
LINE
  5
23C
100
AcDbEntity
  8
_30_VOLUMEN
100
AcDbLine
 62
4
  6
CONTINUOUS
 10
0.5
 20
25.0
 11
0.0
 21
24.5
  0
LINE
  5
23D
100
AcDbEntity
  8
_30_VOLUMEN
100
AcDbLine
 62
4
  6
CONTINUOUS
 10
0.5
 20
-0.0
 11
-0.0
 21
0.5
  0
LINE
  5
23E
100
AcDbEntity
  8
_30_VOLUMEN
100
AcDbLine
 62
4
  6
CONTINUOUS
 10
143.4026761815
 20
19.2204504525
 11
137.159340304
 21
17.6599499321
  0
LINE
  5
23F
100
AcDbEntity
  8
_30_VOLUMEN
100
AcDbLine
 62
4
  6
CONTINUOUS
 10
0.5
 20
-0.0
 11
118.0
 21
0.0
  0
LINE
  5
240
100
AcDbEntity
  8
0
100
AcDbLine
 62
4
  6
CONTINUOUS
 10
118.0
 20
0.0
 11
141.3544800693
 21
0.0
  0
LINE
  5
241
100
AcDbEntity
  8
_30_VOLUMEN
100
AcDbLine
 62
4
  6
CONTINUOUS
 10
120.3298869526
 20
15.187952063
 11
128.2612340118
 21
18.0295912252
  0
LINE
  5
242
100
AcDbEntity
  8
_30_VOLUMEN
100
AcDbLine
 62
4
  6
CONTINUOUS
 10
129.6253400757
 20
16.8441216113
 11
123.7937804819
 21
14.7547932797
  0
LINE
  5
243
100
AcDbEntity
  8
_30_VOLUMEN
100
AcDbLine
 62
4
  6
CONTINUOUS
 10
137.159340304
 20
17.6599499321
 11
129.6253400757
 21
16.8441216113
  0
LINE
  5
244
100
AcDbEntity
  8
_30_VOLUMEN
100
AcDbLine
 62
4
  6
CONTINUOUS
 10
143.0165308948
 20
19.6273863824
 11
128.2612340118
 21
18.0295912252
  0
LINE
  5
245
100
AcDbEntity
  8
_30_VOLUMEN
100
AcDbLine
 62
4
  6
CONTINUOUS
 10
137.9346714567
 20
25.0111502586
 11
137.3054628133
 21
24.5705736233
  0
LINE
  5
246
100
AcDbEntity
  8
_30_VOLUMEN
100
AcDbLine
 62
7
  6
CONTINUOUS
 10
137.6035904095
 20
24.4353162681
 11
136.9743817661
 21
23.9947396328
  0
LINE
  5
247
100
AcDbEntity
  8
_30_VOLUMEN
100
AcDbLine
 62
4
  6
CONTINUOUS
 10
0.5
 20
25.0
 11
118.0
 21
25.0
  0
LINE
  5
248
100
AcDbEntity
  8
0
100
AcDbLine
 62
4
  6
CONTINUOUS
 10
118.0
 20
25.0
 11
121.5317380831
 21
25.0
  0
LINE
  5
249
100
AcDbEntity
  8
_30_VOLUMEN
100
AcDbLine
 62
4
  6
CONTINUOUS
 10
121.5317380831
 20
25.0
 11
130.5605995333
 21
25.0
  0
LINE
  5
24A
100
AcDbEntity
  8
_30_VOLUMEN
100
AcDbLine
 62
4
  6
CONTINUOUS
 10
120.3298869526
 20
15.187952063
 11
123.7937804819
 21
14.7547932797
  0
LINE
  5
24B
100
AcDbEntity
  8
_30_VOLUMEN
100
AcDbLine
 62
4
  6
CONTINUOUS
 10
133.8973751371
 20
7.5887932501
 11
128.5001030259
 21
4.5585847063
  0
LINE
  5
24C
100
AcDbEntity
  8
_30_VOLUMEN
100
AcDbLine
 62
4
  6
CONTINUOUS
 10
147.3726899738
 20
8.9396796507
 11
146.731524226
 21
9.1204281645
  0
LINE
  5
24D
100
AcDbEntity
  8
_30_VOLUMEN
100
AcDbLine
 62
4
  6
CONTINUOUS
 10
148.0018986173
 20
9.3802562859
 11
140.5993408215
 21
11.4670822349
  0
LINE
  5
24E
100
AcDbEntity
  8
_21_KURVEN
100
AcDbLine
 62
7
  6
CONTINUOUS
 10
148.0018986173
 20
9.3802562859
 11
140.5993408215
 21
11.4670822349
  0
LINE
  5
24F
100
AcDbEntity
  8
_30_VOLUMEN
100
AcDbLine
 62
4
  6
CONTINUOUS
 10
144.810797614
 20
16.1697671029
 11
139.4338825469
 21
12.7321731168
  0
LINE
  5
250
100
AcDbEntity
  8
_30_VOLUMEN
100
AcDbLine
 62
4
  6
CONTINUOUS
 10
126.7433947342
 20
1.2931408984
 11
134.0840790912
 21
5.4144458831
  0
LINE
  5
251
100
AcDbEntity
  8
_26_BEZUGSACHSEN
100
AcDbLine
 62
4
  6
CONTINUOUS
 10
137.4905386215
 20
23.1431284177
 11
130.5605995333
 21
25.0
  0
LINE
  5
252
100
AcDbEntity
  8
_28_BEZUGSPUNKTE
100
AcDbLine
 62
1
  6
CONTINUOUS
 10
150.15625
 20
22.15625
 11
149.84375
 21
21.84375
  0
LINE
  5
253
100
AcDbEntity
  8
_30_VOLUMEN
100
AcDbLine
 62
4
  6
CONTINUOUS
 10
133.8973751371
 20
7.5887932501
 11
139.4338825469
 21
12.7321731168
  0
LINE
  5
254
100
AcDbEntity
  8
_30_VOLUMEN
100
AcDbLine
 62
4
  6
CONTINUOUS
 10
134.0840790912
 20
5.4144458831
 11
144.9272975742
 21
15.4877262941
  0
LINE
  5
255
100
AcDbEntity
  8
_30_VOLUMEN
100
AcDbLine
 62
7
  6
CONTINUOUS
 10
148.0018986173
 20
9.3802562859
 11
147.3726899738
 21
8.9396796507
  0
LINE
  5
256
100
AcDbEntity
  8
_30_VOLUMEN
100
AcDbLine
 62
4
  6
CONTINUOUS
 10
148.6662209543
 20
9.4916804949
 11
148.0370123109
 21
9.0511038597
  0
LINE
  5
257
100
AcDbEntity
  8
_21_KURVEN
100
AcDbLine
 62
7
  6
CONTINUOUS
 10
138.5989937938
 20
25.1225744676
 11
149.3897924536
 21
22.0805828648
  0
LINE
  5
258
100
AcDbEntity
  8
_30_VOLUMEN
100
AcDbLine
 62
4
  6
CONTINUOUS
 10
138.5989937938
 20
25.1225744676
 11
149.3897924536
 21
22.0805828648
  0
LINE
  5
259
100
AcDbEntity
  8
0
100
AcDbLine
 62
4
  6
CONTINUOUS
 10
118.0
 20
25.0
 11
118.0
 21
0.0
  0
LINE
  5
25A
100
AcDbEntity
  8
0
100
AcDbLine
 62
4
  6
CONTINUOUS
 10
122.18
 20
17.1621421345
 11
122.18
 21
15.8508096647
  0
LINE
  5
25B
100
AcDbEntity
  8
0
100
AcDbLine
 62
4
  6
CONTINUOUS
 10
122.18
 20
11.1796975629
 11
122.18
 21
0.0
  0
LINE
  5
25C
100
AcDbEntity
  8
_30_VOLUMEN
100
AcDbLine
 62
4
  6
CONTINUOUS
 10
126.7433947342
 20
1.2931408984
 11
128.5001030259
 21
4.5585847063
  0
LINE
  5
25D
100
AcDbEntity
  8
_30_VOLUMEN
100
AcDbLine
 62
4
  6
CONTINUOUS
 10
128.2612340118
 20
18.0295912252
 11
129.6253400757
 21
16.8441216113
  0
LINE
  5
25E
100
AcDbEntity
  8
_30_VOLUMEN
100
AcDbLine
 62
4
  6
CONTINUOUS
 10
134.1970612944
 20
0.0
 11
131.4437796301
 21
3.9320937208
  0
LINE
  5
25F
100
AcDbEntity
  8
_30_VOLUMEN
100
AcDbLine
 62
4
  6
CONTINUOUS
 10
122.9140529942
 20
16.113805814
 11
122.18
 21
17.1621421345
  0
LINE
  5
260
100
AcDbEntity
  8
_30_VOLUMEN
100
AcDbLine
 62
4
  6
CONTINUOUS
 10
120.3298869526
 20
15.187952063
 11
126.7433947342
 21
1.2931408984
  0
LINE
  5
261
100
AcDbEntity
  8
0
100
AcDbLine
 62
4
  6
CONTINUOUS
 10
121.5317380831
 20
25.0
 11
122.18
 21
17.1621421345
  0
LINE
  5
262
100
AcDbEntity
  8
_30_VOLUMEN
100
AcDbLine
 62
4
  6
CONTINUOUS
 10
146.37262056
 20
5.0181404907
 11
141.3544800693
 21
0.0
  0
LINE
  5
263
100
AcDbEntity
  8
_30_VOLUMEN
100
AcDbLine
 62
4
  6
CONTINUOUS
 10
128.5001030259
 20
4.5585847063
 11
123.7937804819
 21
14.7547932797
  0
LINE
  5
264
100
AcDbEntity
  8
_30_VOLUMEN
100
AcDbLine
 62
4
  6
CONTINUOUS
 10
134.0840790912
 20
5.4144458831
 11
133.8973751371
 21
7.5887932501
  0
LINE
  5
265
100
AcDbEntity
  8
_30_VOLUMEN
100
AcDbLine
 62
4
  6
CONTINUOUS
 10
136.9743817661
 20
23.9947396328
 11
136.9134049058
 21
23.2977709308
  0
LINE
  5
266
100
AcDbEntity
  8
_30_VOLUMEN
100
AcDbLine
 62
4
  6
CONTINUOUS
 10
137.1271561992
 20
18.9896483252
 11
137.6035904095
 21
24.4353162681
  0
LINE
  5
267
100
AcDbEntity
  8
_21_KURVEN
100
AcDbLine
 62
7
  6
CONTINUOUS
 10
137.1271561992
 20
18.9896483252
 11
137.6035904095
 21
24.4353162681
  0
LINE
  5
268
100
AcDbEntity
  8
_30_VOLUMEN
100
AcDbLine
 62
7
  6
CONTINUOUS
 10
143.0165308948
 20
19.6273863824
 11
143.4026761815
 21
19.2204504525
  0
LINE
  5
269
100
AcDbEntity
  8
_30_VOLUMEN
100
AcDbLine
 62
4
  6
CONTINUOUS
 10
137.159340304
 20
17.6599499321
 11
139.4338825469
 21
12.7321731168
  0
LINE
  5
26A
100
AcDbEntity
  8
_21_KURVEN
100
AcDbLine
 62
7
  6
CONTINUOUS
 10
137.159340304
 20
17.6599499321
 11
139.4338825469
 21
12.7321731168
  0
LINE
  5
26B
100
AcDbEntity
  8
_28_BEZUGSPUNKTE
100
AcDbLine
 62
1
  6
CONTINUOUS
 10
150.15625
 20
21.84375
 11
149.84375
 21
22.15625
  0
LINE
  5
26C
100
AcDbEntity
  8
_26_BEZUGSACHSEN
100
AcDbLine
 62
4
  6
CONTINUOUS
 10
146.7842869109
 20
9.7235084124
 11
146.37262056
 21
5.0181404907
  0
LINE
  5
26D
100
AcDbEntity
  8
_30_VOLUMEN
100
AcDbLine
 62
4
  6
CONTINUOUS
 10
149.9742734619
 20
21.2343493754
 11
148.9973020015
 21
10.0675144854
  0
LINE
  5
26E
100
AcDbEntity
  8
_21_KURVEN
100
AcDbLine
 62
7
  6
CONTINUOUS
 10
149.9742734619
 20
21.2343493754
 11
148.9973020015
 21
10.0675144854
  0
LINE
  5
26F
100
AcDbEntity
  8
_30_VOLUMEN
100
AcDbLine
 62
7
  6
CONTINUOUS
 10
144.9272975742
 20
15.4877262941
 11
144.810797614
 21
16.1697671029
  0
ARC
  5
270
100
AcDbEntity
  8
_30_VOLUMEN
100
AcDbCircle
 62
7
  6
CONTINUOUS
 10
143.0402465146
 20
17.0807018927
 40
2.5757208387
100
AcDbArc
 50
90.5386280676
 51
104.3061803114
  0
ARC
  5
271
100
AcDbEntity
  8
_30_VOLUMEN
100
AcDbCircle
 62
7
  6
CONTINUOUS
 10
143.0782345154
 20
17.0517511367
 40
2.5456480593
100
AcDbArc
 50
319.9002316909
 51
344.330906186
  0
ARC
  5
272
100
AcDbEntity
  8
_30_VOLUMEN
100
AcDbCircle
 62
4
  6
CONTINUOUS
 10
142.6877021652
 20
16.7748019308
 40
2.5417370428
100
AcDbArc
 50
315.9212342601
 51
325.5884635186
  0
ARC
  5
273
100
AcDbEntity
  8
_30_VOLUMEN
100
AcDbCircle
 62
7
  6
CONTINUOUS
 10
143.0393478262
 20
17.1412950179
 40
2.5151219642
100
AcDbArc
 50
84.2725104499
 51
90.531132566
  0
ARC
  5
274
100
AcDbEntity
  8
_30_VOLUMEN
100
AcDbCircle
 62
7
  6
CONTINUOUS
 10
143.1047775593
 20
17.0336919582
 40
2.5138420891
100
AcDbArc
 50
304.9962660271
 51
316.1962269713
  0
ARC
  5
275
100
AcDbEntity
  8
_30_VOLUMEN
100
AcDbCircle
 62
4
  6
CONTINUOUS
 10
142.7085609994
 20
16.7549900946
 40
2.5129703654
100
AcDbArc
 50
310.4999980722
 51
315.9148988659
  0
ARC
  5
276
100
AcDbEntity
  8
_30_VOLUMEN
100
AcDbCircle
 62
7
  6
CONTINUOUS
 10
143.115220271
 20
17.0215995091
 40
2.4979356
100
AcDbArc
 50
316.2306087624
 51
319.8828089911
  0
ARC
  5
277
100
AcDbEntity
  8
_30_VOLUMEN
100
AcDbCircle
 62
7
  6
CONTINUOUS
 10
143.0425152467
 20
17.1809613464
 40
2.4753376898
100
AcDbArc
 50
83.7795496332
 51
84.2538316029
  0
ARC
  5
278
100
AcDbEntity
  8
_30_VOLUMEN
100
AcDbCircle
 62
4
  6
CONTINUOUS
 10
143.1410419661
 20
16.9838084821
 40
2.4522201035
100
AcDbArc
 50
293.6782078043
 51
304.9706092393
  0
SPLINE
  5
279
100
AcDbEntity
  8
_30_VOLUMEN
100
AcDbSpline
 62
4
  6
CONTINUOUS
 70
0
 71
3
 72
9
 73
5
 74
0
 42
0.0000001
 43
0.0000001
 44
0.0000000001
 40
0.0
 40
0.0
 40
0.0
 40
0.0
 40
0.5010987576
 40
1.0
 40
1.0
 40
1.0
 40
1.0
 10
138.5989937938
 20
25.1225744676
 30
0.0
 10
138.4879868725
 20
25.1538679921
 30
0.0
 10
138.2496809799
 20
25.1678532023
 30
0.0
 10
138.0287283858
 20
25.0770190993
 30
0.0
 10
137.934671562
 20
25.0111501118
 30
0.0
  0
SPLINE
  5
27A
100
AcDbEntity
  8
_30_VOLUMEN
100
AcDbSpline
 62
4
  6
CONTINUOUS
 70
0
 71
3
 72
11
 73
7
 74
0
 42
0.0000001
 43
0.0000001
 44
0.0000000001
 40
0.0
 40
0.0
 40
0.0
 40
0.0
 40
0.2494161439
 40
0.499974297
 40
0.7505470561
 40
1.0
 40
1.0
 40
1.0
 40
1.0
 10
149.9742734619
 20
21.2343493754
 30
0.0
 10
149.9823108984
 20
21.3262176956
 30
0.0
 10
149.9656270532
 20
21.5146764425
 30
0.0
 10
149.8475258988
 20
21.7717380618
 30
0.0
 10
149.6489186718
 20
21.9732098285
 30
0.0
 10
149.4785652961
 20
22.0555572619
 30
0.0
 10
149.3897924536
 20
22.0805828648
 30
0.0
  0
SPLINE
  5
27B
100
AcDbEntity
  8
_30_VOLUMEN
100
AcDbSpline
 62
4
  6
CONTINUOUS
 70
0
 71
3
 72
9
 73
5
 74
0
 42
0.0000001
 43
0.0000001
 44
0.0000000001
 40
0.0
 40
0.0
 40
0.0
 40
0.0
 40
0.5010529366
 40
1.0
 40
1.0
 40
1.0
 40
1.0
 10
136.9743817661
 20
23.9947396328
 30
0.0
 10
136.9842857415
 20
24.1079425894
 30
0.0
 10
137.0538102148
 20
24.3323993098
 30
0.0
 10
137.2127739821
 20
24.505662435
 30
0.0
 10
137.3054629185
 20
24.5705734766
 30
0.0
  0
SPLINE
  5
27C
100
AcDbEntity
  8
_30_VOLUMEN
100
AcDbSpline
 62
4
  6
CONTINUOUS
 70
0
 71
3
 72
9
 73
5
 74
0
 42
0.0000001
 43
0.0000001
 44
0.0000000001
 40
0.0
 40
0.0
 40
0.0
 40
0.0
 40
0.4989470634
 40
1.0
 40
1.0
 40
1.0
 40
1.0
 10
148.6662208491
 20
9.4916806417
 30
0.0
 10
148.7589097855
 20
9.5565916832
 30
0.0
 10
148.9178735528
 20
9.7298548084
 30
0.0
 10
148.9873980262
 20
9.9543115288
 30
0.0
 10
148.9973020015
 20
10.0675144854
 30
0.0
  0
SPLINE
  5
27D
100
AcDbEntity
  8
_30_VOLUMEN
100
AcDbSpline
 62
4
  6
CONTINUOUS
 70
0
 71
3
 72
9
 73
5
 74
0
 42
0.0000001
 43
0.0000001
 44
0.0000000001
 40
0.0
 40
0.0
 40
0.0
 40
0.0
 40
0.4989012424
 40
1.0
 40
1.0
 40
1.0
 40
1.0
 10
148.0370122057
 20
9.0511040065
 30
0.0
 10
147.9429553819
 20
8.9852350189
 30
0.0
 10
147.7220027877
 20
8.894400916
 30
0.0
 10
147.4836968951
 20
8.9083861262
 30
0.0
 10
147.3726899738
 20
8.9396796507
 30
0.0
  0
SPLINE
  5
27E
100
AcDbEntity
  8
_30_VOLUMEN
100
AcDbSpline
 62
4
  6
CONTINUOUS
 70
0
 71
3
 72
9
 73
5
 74
0
 42
0.0000001
 43
0.0000001
 44
0.0000000001
 40
0.0
 40
0.0
 40
0.0
 40
0.0
 40
0.4992218272
 40
1.0
 40
1.0
 40
1.0
 40
1.0
 10
141.270184969
 20
19.4457713207
 30
0.0
 10
141.5688086353
 20
19.7147280532
 30
0.0
 10
142.2886478659
 20
20.1318780728
 30
0.0
 10
143.1156425629
 20
20.2180986607
 30
0.0
 10
143.5167576889
 20
20.1777365977
 30
0.0
  0
SPLINE
  5
27F
100
AcDbEntity
  8
_30_VOLUMEN
100
AcDbSpline
 62
4
  6
CONTINUOUS
 70
0
 71
3
 72
18
 73
14
 74
0
 42
0.0000001
 43
0.0000001
 44
0.0000000001
 40
0.0
 40
0.0
 40
0.0
 40
0.0
 40
0.1249486096
 40
0.2503744668
 40
0.375961431
 40
0.5012658919
 40
0.6260104725
 40
0.6884372486
 40
0.750752369
 40
0.8130035492
 40
0.8752216614
 40
0.9375232009
 40
1.0
 40
1.0
 40
1.0
 40
1.0
 10
143.5639482207
 20
20.2632571922
 30
0.0
 10
143.9330728426
 20
20.226114162
 30
0.0
 10
144.6656691845
 20
20.011187173
 30
0.0
 10
145.5707826967
 20
19.3174628157
 30
0.0
 10
146.1707863464
 20
18.3450177947
 30
0.0
 10
146.3834645326
 20
17.2249121878
 30
0.0
 10
146.2115700432
 20
16.2895762168
 30
0.0
 10
145.8807238969
 20
15.6227669379
 30
0.0
 10
145.5438657202
 20
15.1771973717
 30
0.0
 10
145.1307244431
 20
14.8024178561
 30
0.0
 10
144.6547758606
 20
14.511451668
 30
0.0
 10
144.1325886937
 20
14.3137804266
 30
0.0
 10
143.7651137599
 20
14.2495820148
 30
0.0
 10
143.5802215834
 20
14.2345560898
 30
0.0
  0
SPLINE
  5
280
100
AcDbEntity
  8
_30_VOLUMEN
100
AcDbSpline
 62
4
  6
CONTINUOUS
 70
0
 71
3
 72
19
 73
15
 74
0
 42
0.0000001
 43
0.0000001
 44
0.0000000001
 40
0.0
 40
0.0
 40
0.0
 40
0.0
 40
0.0624460968
 40
0.1247138465
 40
0.1868878949
 40
0.2490908698
 40
0.311382159
 40
0.3737768522
 40
0.4363191747
 40
0.4990028182
 40
0.6242542039
 40
0.7497613704
 40
0.8751466275
 40
1.0
 40
1.0
 40
1.0
 40
1.0
 10
143.6199307958
 20
14.2694866421
 30
0.0
 10
143.799083693
 20
14.2894341571
 30
0.0
 10
144.1542054624
 20
14.3619600429
 30
0.0
 10
144.6560628194
 20
14.5678921057
 30
0.0
 10
145.1111898532
 20
14.862069675
 30
0.0
 10
145.5036139551
 20
15.2358214873
 30
0.0
 10
145.821657814
 20
15.6753947293
 30
0.0
 10
146.0532371337
 20
16.1671246087
 30
0.0
 10
146.191543604
 20
16.6940230724
 30
0.0
 10
146.2450312144
 20
17.4184760083
 30
0.0
 10
146.0615335982
 20
18.3266481885
 30
0.0
 10
145.4701462945
 20
19.2653237509
 30
0.0
 10
144.58715761
 20
19.9341383938
 30
0.0
 10
143.8753547237
 20
20.141652902
 30
0.0
 10
143.5167576889
 20
20.1777365977
 30
0.0
  0
SPLINE
  5
281
100
AcDbEntity
  8
_30_VOLUMEN
100
AcDbSpline
 62
4
  6
CONTINUOUS
 70
0
 71
3
 72
11
 73
7
 74
0
 42
0.0000001
 43
0.0000001
 44
0.0000000001
 40
0.0
 40
0.0
 40
0.0
 40
0.0
 40
0.2495742638
 40
0.4992262644
 40
0.7496004342
 40
1.0
 40
1.0
 40
1.0
 40
1.0
 10
141.1825809125
 20
19.4306215054
 30
0.0
 10
141.3370649312
 20
19.5820262845
 30
0.0
 10
141.6804206215
 20
19.8519850096
 30
0.0
 10
142.2712077271
 20
20.134369107
 30
0.0
 10
142.9099891109
 20
20.2810642359
 30
0.0
 10
143.3480163622
 20
20.2849852566
 30
0.0
 10
143.5639482207
 20
20.2632571922
 30
0.0
  0
SPLINE
  5
282
100
AcDbEntity
  8
_30_VOLUMEN
100
AcDbSpline
 62
4
  6
CONTINUOUS
 70
0
 71
3
 72
9
 73
5
 74
0
 42
0.0000001
 43
0.0000001
 44
0.0000000001
 40
0.0
 40
0.0
 40
0.0
 40
0.0
 40
0.4989470634
 40
1.0
 40
1.0
 40
1.0
 40
1.0
 10
137.934671562
 20
25.0111501118
 30
0.0
 10
137.8419826256
 20
24.9462390703
 30
0.0
 10
137.6830188582
 20
24.7729759451
 30
0.0
 10
137.6134943849
 20
24.5485192247
 30
0.0
 10
137.6035904095
 20
24.4353162681
 30
0.0
  0
SPLINE
  5
283
100
AcDbEntity
  8
_30_VOLUMEN
100
AcDbSpline
 62
4
  6
CONTINUOUS
 70
0
 71
3
 72
9
 73
5
 74
0
 42
0.0000001
 43
0.0000001
 44
0.0000000001
 40
0.0
 40
0.0
 40
0.0
 40
0.0
 40
0.5010987576
 40
1.0
 40
1.0
 40
1.0
 40
1.0
 10
148.0018986173
 20
9.3802562859
 30
0.0
 10
148.1129055385
 20
9.3489627614
 30
0.0
 10
148.3512114311
 20
9.3349775512
 30
0.0
 10
148.5721640253
 20
9.4258116542
 30
0.0
 10
148.6662208491
 20
9.4916806417
 30
0.0
  0
SPLINE
  5
284
100
AcDbEntity
  8
_21_KURVEN
100
AcDbSpline
 62
7
  6
CONTINUOUS
 70
0
 71
3
 72
9
 73
5
 74
0
 42
0.0000001
 43
0.0000001
 44
0.0000000001
 40
0.0
 40
0.0
 40
0.0
 40
0.0
 40
0.5
 40
1.0
 40
1.0
 40
1.0
 40
1.0
 10
138.5989937938
 20
25.1225744676
 30
0.0
 10
138.545066819
 20
25.1357679625
 30
0.0
 10
138.4287462311
 20
25.1594623083
 30
0.0
 10
138.3163809996
 20
25.1495151634
 30
0.0
 10
138.2571335992
 20
25.1421602734
 30
0.0
  0
SPLINE
  5
285
100
AcDbEntity
  8
_21_KURVEN
100
AcDbSpline
 62
7
  6
CONTINUOUS
 70
0
 71
3
 72
9
 73
5
 74
0
 42
0.0000001
 43
0.0000001
 44
0.0000000001
 40
0.0
 40
0.0
 40
0.0
 40
0.0
 40
0.5
 40
1.0
 40
1.0
 40
1.0
 40
1.0
 10
138.2571336082
 20
25.1421602749
 30
0.0
 10
138.2326640553
 20
25.1377743739
 30
0.0
 10
138.1851207658
 20
25.1286501306
 30
0.0
 10
138.1339952726
 20
25.1116957796
 30
0.0
 10
138.109569483
 20
25.1030488411
 30
0.0
  0
SPLINE
  5
286
100
AcDbEntity
  8
_21_KURVEN
100
AcDbSpline
 62
7
  6
CONTINUOUS
 70
0
 71
3
 72
9
 73
5
 74
0
 42
0.0000001
 43
0.0000001
 44
0.0000000001
 40
0.0
 40
0.0
 40
0.0
 40
0.0
 40
0.5
 40
1.0
 40
1.0
 40
1.0
 40
1.0
 10
138.1095694873
 20
25.1030488427
 30
0.0
 10
138.0813567208
 20
25.0919028308
 30
0.0
 10
138.0201499489
 20
25.0663256666
 30
0.0
 10
137.9641628928
 20
25.0308160843
 30
0.0
 10
137.9351243603
 20
25.0114671457
 30
0.0
  0
SPLINE
  5
287
100
AcDbEntity
  8
_21_KURVEN
100
AcDbSpline
 62
7
  6
CONTINUOUS
 70
0
 71
3
 72
10
 73
6
 74
0
 42
0.0000001
 43
0.0000001
 44
0.0000000001
 40
0.0
 40
0.0
 40
0.0
 40
0.0
 40
0.25
 40
0.5
 40
1.0
 40
1.0
 40
1.0
 40
1.0
 10
137.9351243629
 20
25.0114671475
 30
0.0
 10
137.9174219805
 20
24.9983295
 30
0.0
 10
137.8829528453
 20
24.9724885979
 30
0.0
 10
137.8126893044
 20
24.909481045
 30
0.0
 10
137.7728037366
 20
24.859221825
 30
0.0
 10
137.7440939129
 20
24.820961917
 30
0.0
  0
SPLINE
  5
288
100
AcDbEntity
  8
_21_KURVEN
100
AcDbSpline
 62
7
  6
CONTINUOUS
 70
0
 71
3
 72
9
 73
5
 74
0
 42
0.0000001
 43
0.0000001
 44
0.0000000001
 40
0.0
 40
0.0
 40
0.0
 40
0.0
 40
0.5
 40
1.0
 40
1.0
 40
1.0
 40
1.0
 10
137.7440939141
 20
24.8209619187
 30
0.0
 10
137.7069073061
 20
24.7628318823
 30
0.0
 10
137.6371348172
 20
24.6420281124
 30
0.0
 10
137.612639987
 20
24.5040925595
 30
0.0
 10
137.6035904085
 20
24.4353162565
 30
0.0
  0
SPLINE
  5
289
100
AcDbEntity
  8
_21_KURVEN
100
AcDbSpline
 62
7
  6
CONTINUOUS
 70
0
 71
3
 72
9
 73
5
 74
0
 42
0.0000001
 43
0.0000001
 44
0.0000000001
 40
0.0
 40
0.0
 40
0.0
 40
0.0
 40
0.5
 40
1.0
 40
1.0
 40
1.0
 40
1.0
 10
149.9742734619
 20
21.2343493754
 30
0.0
 10
149.9772652061
 20
21.2953903759
 30
0.0
 10
149.9784763818
 20
21.418657684
 30
0.0
 10
149.9427291245
 20
21.537046781
 30
0.0
 10
149.9216592198
 20
21.5977822625
 30
0.0
  0
SPLINE
  5
28A
100
AcDbEntity
  8
_21_KURVEN
100
AcDbSpline
 62
7
  6
CONTINUOUS
 70
0
 71
3
 72
9
 73
5
 74
0
 42
0.0000001
 43
0.0000001
 44
0.0000000001
 40
0.0
 40
0.0
 40
0.0
 40
0.0
 40
0.5
 40
1.0
 40
1.0
 40
1.0
 40
1.0
 10
149.9216592189
 20
21.5977822647
 30
0.0
 10
149.8970972411
 20
21.6540427276
 30
0.0
 10
149.8441604803
 20
21.7644655073
 30
0.0
 10
149.7567363719
 20
21.8579375526
 30
0.0
 10
149.7121952853
 20
21.901651357
 30
0.0
  0
SPLINE
  5
28B
100
AcDbEntity
  8
_21_KURVEN
100
AcDbSpline
 62
7
  6
CONTINUOUS
 70
0
 71
3
 72
10
 73
6
 74
0
 42
0.0000001
 43
0.0000001
 44
0.0000000001
 40
0.0
 40
0.0
 40
0.0
 40
0.0
 40
0.5
 40
0.75
 40
1.0
 40
1.0
 40
1.0
 40
1.0
 10
149.7121952866
 20
21.9016513558
 30
0.0
 10
149.665240499
 20
21.941161477
 30
0.0
 10
149.5939075872
 20
21.9968400372
 30
0.0
 10
149.4777679558
 20
22.0515114659
 30
0.0
 10
149.4196337349
 20
22.0708896215
 30
0.0
 10
149.3897924614
 20
22.0805828626
 30
0.0
  0
SPLINE
  5
28C
100
AcDbEntity
  8
_21_KURVEN
100
AcDbSpline
 62
7
  6
CONTINUOUS
 70
0
 71
3
 72
9
 73
5
 74
0
 42
0.0000001
 43
0.0000001
 44
0.0000000001
 40
0.0
 40
0.0
 40
0.0
 40
0.0
 40
0.5
 40
1.0
 40
1.0
 40
1.0
 40
1.0
 10
148.0018986173
 20
9.3802562859
 30
0.0
 10
148.0830825028
 20
9.361887666
 30
0.0
 10
148.2495325808
 20
9.3336698896
 30
0.0
 10
148.4123751855
 20
9.375024826
 30
0.0
 10
148.4913229367
 20
9.3997819156
 30
0.0
  0
SPLINE
  5
28D
100
AcDbEntity
  8
_21_KURVEN
100
AcDbSpline
 62
7
  6
CONTINUOUS
 70
0
 71
3
 72
9
 73
5
 74
0
 42
0.0000001
 43
0.0000001
 44
0.0000000001
 40
0.0
 40
0.0
 40
0.0
 40
0.0
 40
0.5
 40
1.0
 40
1.0
 40
1.0
 40
1.0
 10
148.4913229237
 20
9.3997819108
 30
0.0
 10
148.5195356902
 20
9.4109279227
 30
0.0
 10
148.5807424622
 20
9.4365050869
 30
0.0
 10
148.6367295183
 20
9.4720146692
 30
0.0
 10
148.6662209514
 20
9.4916804929
 30
0.0
  0
SPLINE
  5
28E
100
AcDbEntity
  8
_21_KURVEN
100
AcDbSpline
 62
7
  6
CONTINUOUS
 70
0
 71
3
 72
10
 73
6
 74
0
 42
0.0000001
 43
0.0000001
 44
0.0000000001
 40
0.0
 40
0.0
 40
0.0
 40
0.0
 40
0.25
 40
0.5
 40
1.0
 40
1.0
 40
1.0
 40
1.0
 10
148.6662209543
 20
9.4916804949
 30
0.0
 10
148.6839140215
 20
9.5048307041
 30
0.0
 10
148.7183648373
 20
9.5306960679
 30
0.0
 10
148.7885838331
 20
9.5937535718
 30
0.0
 10
148.8284340129
 20
9.644041269
 30
0.0
 10
148.856798502
 20
9.6818688421
 30
0.0
  0
SPLINE
  5
28F
100
AcDbEntity
  8
_21_KURVEN
100
AcDbSpline
 62
7
  6
CONTINUOUS
 70
0
 71
3
 72
8
 73
4
 74
0
 42
0.0000001
 43
0.0000001
 44
0.0000000001
 40
0.0
 40
0.0
 40
0.0
 40
0.0
 40
1.0
 40
1.0
 40
1.0
 40
1.0
 10
148.856798497
 20
9.6818688348
 30
0.0
 10
148.8693781302
 20
9.7000170585
 30
0.0
 10
148.8804630736
 20
9.7171416727
 30
0.0
 10
148.8934516014
 20
9.7390794121
 30
0.0
  0
SPLINE
  5
290
100
AcDbEntity
  8
_21_KURVEN
100
AcDbSpline
 62
7
  6
CONTINUOUS
 70
0
 71
3
 72
9
 73
5
 74
0
 42
0.0000001
 43
0.0000001
 44
0.0000000001
 40
0.0
 40
0.0
 40
0.0
 40
0.0
 40
0.5
 40
1.0
 40
1.0
 40
1.0
 40
1.0
 10
148.8934516001
 20
9.7390794099
 30
0.0
 10
148.9195163103
 20
9.7877997819
 30
0.0
 10
148.9709323468
 20
9.8928172459
 30
0.0
 10
148.9899307411
 20
10.0086261857
 30
0.0
 10
148.9973020023
 20
10.0675144944
 30
0.0
  0
SPLINE
  5
291
100
AcDbEntity
  8
_21_KURVEN
100
AcDbSpline
 62
1
  6
CENTER
 70
0
 71
3
 72
163
 73
159
 74
0
 42
0.0000001
 43
0.0000001
 44
0.0000000001
 40
0.0
 40
0.0
 40
0.0
 40
0.0
 40
0.015625
 40
0.03125
 40
0.0390625
 40
0.046875
 40
0.0546875
 40
0.05859375
 40
0.060546875
 40
0.0625
 40
0.064453125
 40
0.06640625
 40
0.0703125
 40
0.078125
 40
0.09375
 40
0.109375
 40
0.1171875
 40
0.12109375
 40
0.123046875
 40
0.125
 40
0.126953125
 40
0.12890625
 40
0.1328125
 40
0.140625
 40
0.15625
 40
0.171875
 40
0.1796875
 40
0.18359375
 40
0.185546875
 40
0.1875
 40
0.189453125
 40
0.19140625
 40
0.1953125
 40
0.203125
 40
0.21875
 40
0.234375
 40
0.2421875
 40
0.24609375
 40
0.248046875
 40
0.25
 40
0.251953125
 40
0.25390625
 40
0.2578125
 40
0.265625
 40
0.28125
 40
0.296875
 40
0.3046875
 40
0.30859375
 40
0.310546875
 40
0.3125
 40
0.314453125
 40
0.31640625
 40
0.3203125
 40
0.328125
 40
0.34375
 40
0.359375
 40
0.3671875
 40
0.37109375
 40
0.373046875
 40
0.375
 40
0.376953125
 40
0.37890625
 40
0.3828125
 40
0.390625
 40
0.40625
 40
0.421875
 40
0.4296875
 40
0.43359375
 40
0.435546875
 40
0.4375
 40
0.439453125
 40
0.44140625
 40
0.4453125
 40
0.453125
 40
0.46875
 40
0.484375
 40
0.4921875
 40
0.49609375
 40
0.498046875
 40
0.5
 40
0.501953125
 40
0.50390625
 40
0.5078125
 40
0.515625
 40
0.53125
 40
0.546875
 40
0.5546875
 40
0.55859375
 40
0.560546875
 40
0.5625
 40
0.564453125
 40
0.56640625
 40
0.5703125
 40
0.578125
 40
0.59375
 40
0.609375
 40
0.6171875
 40
0.62109375
 40
0.623046875
 40
0.625
 40
0.626953125
 40
0.62890625
 40
0.6328125
 40
0.640625
 40
0.65625
 40
0.671875
 40
0.6796875
 40
0.68359375
 40
0.685546875
 40
0.6875
 40
0.689453125
 40
0.69140625
 40
0.6953125
 40
0.703125
 40
0.71875
 40
0.734375
 40
0.7421875
 40
0.74609375
 40
0.748046875
 40
0.75
 40
0.751953125
 40
0.75390625
 40
0.7578125
 40
0.765625
 40
0.78125
 40
0.796875
 40
0.8046875
 40
0.80859375
 40
0.810546875
 40
0.8125
 40
0.814453125
 40
0.81640625
 40
0.8203125
 40
0.828125
 40
0.84375
 40
0.859375
 40
0.8671875
 40
0.87109375
 40
0.873046875
 40
0.875
 40
0.876953125
 40
0.87890625
 40
0.8828125
 40
0.890625
 40
0.90625
 40
0.921875
 40
0.9296875
 40
0.93359375
 40
0.935546875
 40
0.9375
 40
0.939453125
 40
0.94140625
 40
0.9453125
 40
0.953125
 40
0.9609375
 40
0.96875
 40
0.984375
 40
1.0
 40
1.0
 40
1.0
 40
1.0
 10
142.7500390356
 20
10.9602326372
 30
0.0
 10
142.8524027089
 20
10.9600047789
 30
0.0
 10
143.0571295898
 20
10.9595533861
 30
0.0
 10
143.3130405196
 20
10.9589675265
 30
0.0
 10
143.5177643732
 20
10.9585442377
 30
0.0
 10
143.6713205368
 20
10.9581035456
 30
0.0
 10
143.7992417993
 20
10.9581281377
 30
0.0
 10
143.888869511
 20
10.9573764087
 30
0.0
 10
143.9399560177
 20
10.9581474875
 30
0.0
 10
143.9786352182
 20
10.9553435801
 30
0.0
 10
144.0159218013
 20
10.9654682195
 30
0.0
 10
144.0661229855
 20
10.9744584472
 30
0.0
 10
144.1537489474
 20
10.9922889929
 30
0.0
 10
144.3291640614
 20
11.0264520966
 30
0.0
 10
144.5796503685
 20
11.0761098702
 30
0.0
 10
144.8302526886
 20
11.1252075952
 30
0.0
 10
145.0055053844
 20
11.1601547669
 30
0.0
 10
145.0933546713
 20
11.1769072192
 30
0.0
 10
145.1431962152
 20
11.1876335973
 30
0.0
 10
145.1815878221
 20
11.1924237744
 30
0.0
 10
145.2161166575
 20
11.2096556035
 30
0.0
 10
145.2635023933
 20
11.2282919045
 30
0.0
 10
145.3458006005
 20
11.2629240967
 30
0.0
 10
145.510845714
 20
11.3307467194
 30
0.0
 10
145.7463603434
 20
11.4284589057
 30
0.0
 10
145.9820767248
 20
11.5256264032
 30
0.0
 10
146.1468393855
 20
11.5942115903
 30
0.0
 10
146.2295259654
 20
11.6277952564
 30
0.0
 10
146.2762862698
 20
11.6481200928
 30
0.0
 10
146.3127367934
 20
11.6601637608
 30
0.0
 10
146.3439107208
 20
11.6844401807
 30
0.0
 10
146.387316384
 20
11.712542146
 30
0.0
 10
146.4624199011
 20
11.7637051968
 30
0.0
 10
146.6132414179
 20
11.8646155829
 30
0.0
 10
146.8283274108
 20
12.0095673433
 30
0.0
 10
147.0437362277
 20
12.1540394407
 30
0.0
 10
147.194105791
 20
12.2556213549
 30
0.0
 10
147.2698307441
 20
12.3058610545
 30
0.0
 10
147.3122356532
 20
12.3354499749
 30
0.0
 10
147.3464844783
 20
12.3551576054
 30
0.0
 10
147.3713859767
 20
12.3843612149
 30
0.0
 10
147.4078481944
 20
12.4199873049
 30
0.0
 10
147.4701404103
 20
12.4838736232
 30
0.0
 10
147.5958086693
 20
12.6105466257
 30
0.0
 10
147.7747114645
 20
12.7921297167
 30
0.0
 10
147.9540429836
 20
12.9733207133
 30
0.0
 10
148.0791110289
 20
13.100542648
 30
0.0
 10
148.1422285387
 20
13.1636741846
 30
0.0
 10
148.1773617119
 20
13.2005157672
 30
0.0
 10
148.2063468069
 20
13.2259846776
 30
0.0
 10
148.2252580289
 20
13.259719485
 30
0.0
 10
148.2539866246
 20
13.3018162126
 30
0.0
 10
148.302627077
 20
13.3768265087
 30
0.0
 10
148.4010764878
 20
13.5258906602
 30
0.0
 10
148.5410432525
 20
13.739374524
 30
0.0
 10
148.6814852943
 20
13.9525398759
 30
0.0
 10
148.7792693172
 20
14.102049944
 30
0.0
 10
148.8288246779
 20
14.1764471048
 30
0.0
 10
148.8560799148
 20
14.2195312192
 30
0.0
 10
148.8795181502
 20
14.2502322012
 30
0.0
 10
148.8915002109
 20
14.2870958727
 30
0.0
 10
148.9114720489
 20
14.3340979825
 30
0.0
 10
148.9445639288
 20
14.4173515085
 30
0.0
 10
149.0120760015
 20
14.5831451795
 30
0.0
 10
149.1077582046
 20
14.820394639
 30
0.0
 10
149.203964748
 20
15.0573974869
 30
0.0
 10
149.2707427441
 20
15.2235364143
 30
0.0
 10
149.3048439793
 20
15.3063152127
 30
0.0
 10
149.3231903621
 20
15.3540818189
 30
0.0
 10
149.3401667649
 20
15.3885965139
 30
0.0
 10
149.3448467233
 20
15.4281200293
 30
0.0
 10
149.3553754994
 20
15.4790710732
 30
0.0
 10
149.3718056812
 20
15.5690477831
 30
0.0
 10
149.4060917949
 20
15.7484242337
 30
0.0
 10
149.4542522504
 20
16.0049795675
 30
0.0
 10
149.502975819
 20
16.2614208443
 30
0.0
 10
149.5364735745
 20
16.4409569746
 30
0.0
 10
149.5539877488
 20
16.5307141249
 30
0.0
 10
149.5627708747
 20
16.5820187453
 30
0.0
 10
149.5728144841
 20
16.6204558685
 30
0.0
 10
149.5696455202
 20
16.65905095
 30
0.0
 10
149.5700285917
 20
16.7104559734
 30
0.0
 10
149.5685552275
 20
16.8004403052
 30
0.0
 10
149.5671394974
 20
16.9803916767
 30
0.0
 10
149.5642441237
 20
17.2374673344
 30
0.0
 10
149.5619241711
 20
17.4945668502
 30
0.0
 10
149.5597028514
 20
17.6744848203
 30
0.0
 10
149.5593371728
 20
17.7645150791
 30
0.0
 10
149.5579364391
 20
17.8158461422
 30
0.0
 10
149.5602483605
 20
17.8546684727
 30
0.0
 10
149.5497062822
 20
17.89225207
 30
0.0
 10
149.5401334681
 20
17.9427956008
 30
0.0
 10
149.5212954934
 20
18.031045636
 30
0.0
 10
149.4851088716
 20
18.2076910749
 30
0.0
 10
149.4325654613
 20
18.459945078
 30
0.0
 10
149.3805781814
 20
18.7123086844
 30
0.0
 10
149.3436129771
 20
18.8888006788
 30
0.0
 10
149.3258455533
 20
18.9772617002
 30
0.0
 10
149.3145487351
 20
19.027465461
 30
0.0
 10
149.3093037985
 20
19.0660930291
 30
0.0
 10
149.291720156
 20
19.1009943041
 30
0.0
 10
149.2725788643
 20
19.1488290243
 30
0.0
 10
149.2370796425
 20
19.2319350977
 30
0.0
 10
149.1675110177
 20
19.3985801331
 30
0.0
 10
149.0673114576
 20
19.6363893501
 30
0.0
 10
148.9676516748
 20
19.8743944944
 30
0.0
 10
148.8973273618
 20
20.0407652317
 30
0.0
 10
148.8628672112
 20
20.1242484649
 30
0.0
 10
148.8420526101
 20
20.1714758108
 30
0.0
 10
148.8296103457
 20
20.2082432926
 30
0.0
 10
148.8050548789
 20
20.2398615642
 30
0.0
 10
148.7765391536
 20
20.2838152562
 30
0.0
 10
148.7246714225
 20
20.3598984889
 30
0.0
 10
148.6223377927
 20
20.512664712
 30
0.0
 10
148.4753609692
 20
20.7305369841
 30
0.0
 10
148.3288576838
 20
20.9487276184
 30
0.0
 10
148.2258611006
 20
21.1010481345
 30
0.0
 10
148.1749049304
 20
21.1777442143
 30
0.0
 10
148.144921237
 20
21.2207109838
 30
0.0
 10
148.1248762206
 20
21.2553616542
 30
0.0
 10
148.0954931304
 20
21.2807397324
 30
0.0
 10
148.0595726575
 20
21.3178113237
 30
0.0
 10
147.9951967901
 20
21.3811820678
 30
0.0
 10
147.8675263862
 20
21.5089987355
 30
0.0
 10
147.6845289144
 20
21.6909755261
 30
0.0
 10
147.5019164868
 20
21.8733781516
 30
0.0
 10
147.3737070211
 20
22.0005986504
 30
0.0
 10
147.3100723637
 20
22.0647891268
 30
0.0
 10
147.2729582539
 20
22.1005406297
 30
0.0
 10
147.2472427095
 20
22.1299747856
 30
0.0
 10
147.2134227373
 20
22.1493912114
 30
0.0
 10
147.1711561383
 20
22.1787738304
 30
0.0
 10
147.0958747664
 20
22.228567931
 30
0.0
 10
146.9462497443
 20
22.329318155
 30
0.0
 10
146.7319753761
 20
22.4725753236
 30
0.0
 10
146.5180122181
 20
22.6163060064
 30
0.0
 10
146.3679515018
 20
22.7163933105
 30
0.0
 10
146.2932692095
 20
22.7670989259
 30
0.0
 10
146.250037859
 20
22.7950136509
 30
0.0
 10
146.2191821632
 20
22.8189402996
 30
0.0
 10
146.1823330767
 20
22.8314344845
 30
0.0
 10
146.1352913645
 20
22.8520808848
 30
0.0
 10
146.0519960036
 20
22.8863570949
 30
0.0
 10
145.8860990383
 20
22.9562350931
 30
0.0
 10
145.6487132581
 20
23.0552986532
 30
0.0
 10
145.4115664992
 20
23.1548859094
 30
0.0
 10
145.2453349041
 20
23.2240307331
 30
0.0
 10
145.1624996592
 20
23.2593150581
 30
0.0
 10
145.114716981
 20
23.2783380007
 30
0.0
 10
145.0801445721
 20
23.2958203903
 30
0.0
 10
145.0407378903
 20
23.3010118137
 30
0.0
 10
144.9898818966
 20
23.3122209383
 30
0.0
 10
144.9000982529
 20
23.3298394075
 30
0.0
 10
144.772246655
 20
23.3560529672
 30
0.0
 10
144.6186489182
 20
23.3870622245
 30
0.0
 10
144.4139133716
 20
23.428564099
 30
0.0
 10
144.1579727187
 20
23.4803874921
 30
0.0
 10
143.9532266633
 20
23.5218626485
 30
0.0
 10
143.8508528272
 20
23.5425981715
 30
0.0
  0
SPLINE
  5
292
100
AcDbEntity
  8
_21_KURVEN
100
AcDbSpline
 62
1
  6
CENTER
 70
0
 71
3
 72
65
 73
61
 74
0
 42
0.0000001
 43
0.0000001
 44
0.0000000001
 40
0.0
 40
0.0
 40
0.0
 40
0.0
 40
0.03125
 40
0.0625
 40
0.09375
 40
0.109375
 40
0.125
 40
0.1328125
 40
0.140625
 40
0.15625
 40
0.171875
 40
0.1875
 40
0.21875
 40
0.25
 40
0.265625
 40
0.2734375
 40
0.28125
 40
0.28515625
 40
0.2890625
 40
0.296875
 40
0.3125
 40
0.34375
 40
0.375
 40
0.40625
 40
0.4140625
 40
0.421875
 40
0.4296875
 40
0.4375
 40
0.453125
 40
0.46875
 40
0.5
 40
0.53125
 40
0.546875
 40
0.5625
 40
0.5703125
 40
0.578125
 40
0.5859375
 40
0.59375
 40
0.625
 40
0.65625
 40
0.6875
 40
0.703125
 40
0.7109375
 40
0.71484375
 40
0.71875
 40
0.7265625
 40
0.734375
 40
0.75
 40
0.78125
 40
0.8125
 40
0.828125
 40
0.84375
 40
0.859375
 40
0.8671875
 40
0.875
 40
0.890625
 40
0.90625
 40
0.9375
 40
0.96875
 40
1.0
 40
1.0
 40
1.0
 40
1.0
 10
143.8508533754
 20
23.5425981163
 30
0.0
 10
143.7612851613
 20
23.5427974923
 30
0.0
 10
143.5821486147
 20
23.5432022272
 30
0.0
 10
143.3134445046
 20
23.5437734322
 30
0.0
 10
143.0895223427
 20
23.5443541368
 30
0.0
 10
142.9103892267
 20
23.544585368
 30
0.0
 10
142.7984205305
 20
23.5452608686
 30
0.0
 10
142.7088696169
 20
23.5445852476
 30
0.0
 10
142.6192309287
 20
23.5483489274
 30
0.0
 10
142.5078108242
 20
23.521278798
 30
0.0
 10
142.373960407
 20
23.4962217442
 30
0.0
 10
142.1955415001
 20
23.4602244097
 30
0.0
 10
141.9725212257
 20
23.4160694581
 30
0.0
 10
141.7494271193
 20
23.371782552
 30
0.0
 10
141.5934139406
 20
23.3404696206
 30
0.0
 10
141.5040239382
 20
23.323151127
 30
0.0
 10
141.448717867
 20
23.3109648522
 30
0.0
 10
141.4031824809
 20
23.304341499
 30
0.0
 10
141.3623590672
 20
23.2863052523
 30
0.0
 10
141.2900968498
 20
23.2567309592
 30
0.0
 10
141.1461548275
 20
23.1961716245
 30
0.0
 10
140.9402240788
 20
23.1103839122
 30
0.0
 10
140.6932125358
 20
23.0071802355
 30
0.0
 10
140.5079969584
 20
22.929681996
 30
0.0
 10
140.3844151834
 20
22.8782563965
 30
0.0
 10
140.3228193827
 20
22.8520956371
 30
0.0
 10
140.2604641793
 20
22.8276787377
 30
0.0
 10
140.1872781629
 20
22.7722634478
 30
0.0
 10
140.0923847441
 20
22.7108240505
 30
0.0
 10
139.9424765134
 20
22.6081296865
 30
0.0
 10
139.7543255233
 20
22.4813778339
 30
0.0
 10
139.5668357904
 20
22.3536507324
 30
0.0
 10
139.4158695483
 20
22.2525167665
 30
0.0
 10
139.3236211579
 20
22.187176374
 30
0.0
 10
139.2450128332
 20
22.1397581242
 30
0.0
 10
139.1992221205
 20
22.0909112428
 30
0.0
 10
139.1520922867
 20
22.0434154893
 30
0.0
 10
139.0585205918
 20
21.9477298079
 30
0.0
 10
138.9178868682
 20
21.804480444
 30
0.0
 10
138.7304722575
 20
21.6133807969
 30
0.0
 10
138.5744610017
 20
21.4539697939
 30
0.0
 10
138.4648587444
 20
21.3427647824
 30
0.0
 10
138.4106051918
 20
21.2866305812
 30
0.0
 10
138.3787207997
 20
21.2554107026
 30
0.0
 10
138.3556960357
 20
21.2155877743
 30
0.0
 10
138.3238821016
 20
21.168754325
 30
0.0
 10
138.2746716171
 20
21.0921775551
 30
0.0
 10
138.1877739476
 20
20.9589291605
 30
0.0
 10
138.0639700305
 20
20.7682140496
 30
0.0
 10
137.9403080927
 20
20.5774905512
 30
0.0
 10
137.8407693036
 20
20.4252200917
 30
0.0
 10
137.7678577409
 20
20.3100972617
 30
0.0
 10
137.7015435243
 20
20.2170997135
 30
0.0
 10
137.6713047008
 20
20.1306331125
 30
0.0
 10
137.6370819028
 20
20.0462741604
 30
0.0
 10
137.5956675272
 20
19.9401038065
 30
0.0
 10
137.5286420946
 20
19.7706345908
 30
0.0
 10
137.4451220541
 20
19.5586595969
 30
0.0
 10
137.3447852515
 20
19.3043492547
 30
0.0
 10
137.2779155267
 20
19.1347976646
 30
0.0
 10
137.2444779797
 20
19.0500232898
 30
0.0
  0
LINE
  5
293
100
AcDbEntity
  8
_21_KURVEN
100
AcDbLine
 62
1
  6
CENTER
 10
137.244477923
 20
19.0500230894
 11
137.2308721871
 21
19.0012000864
  0
LINE
  5
294
100
AcDbEntity
  8
_21_KURVEN
100
AcDbLine
 62
1
  6
CENTER
 10
140.6758200024
 20
11.5377193102
 11
140.7186061542
 21
11.517663936
  0
SPLINE
  5
295
100
AcDbEntity
  8
_21_KURVEN
100
AcDbSpline
 62
1
  6
CENTER
 70
0
 71
3
 72
22
 73
18
 74
0
 42
0.0000001
 43
0.0000001
 44
0.0000000001
 40
0.0
 40
0.0
 40
0.0
 40
0.0
 40
0.125
 40
0.1875
 40
0.25
 40
0.3125
 40
0.375
 40
0.4375
 40
0.5
 40
0.5625
 40
0.625
 40
0.6875
 40
0.75
 40
0.8125
 40
0.84375
 40
0.875
 40
1.0
 40
1.0
 40
1.0
 40
1.0
 10
140.7186061532
 20
11.5176639365
 30
0.0
 10
140.7945978842
 20
11.4847622181
 30
0.0
 10
140.9076034316
 20
11.4351279388
 30
0.0
 10
141.0622056913
 20
11.3700757062
 30
0.0
 10
141.1886809754
 20
11.3251851197
 30
0.0
 10
141.3117859646
 20
11.2775679864
 30
0.0
 10
141.4378485444
 20
11.2369584522
 30
0.0
 10
141.5645575276
 20
11.1990552325
 30
0.0
 10
141.6902765418
 20
11.1573242376
 30
0.0
 10
141.8193090285
 20
11.1281980289
 30
0.0
 10
141.9473715735
 20
11.0952252734
 30
0.0
 10
142.0760004128
 20
11.0650339189
 30
0.0
 10
142.2062983604
 20
11.0420105413
 30
0.0
 10
142.3137849505
 20
11.0206916926
 30
0.0
 10
142.4015677475
 20
11.0051711067
 30
0.0
 10
142.5423623133
 20
10.9881627304
 30
0.0
 10
142.6573160218
 20
10.9723556192
 30
0.0
 10
142.7500390194
 20
10.9602326388
 30
0.0
  0
SPLINE
  5
296
100
AcDbEntity
  8
_30_VOLUMEN
100
AcDbSpline
 62
4
  6
CONTINUOUS
 70
0
 71
3
 72
15
 73
11
 74
0
 42
0.0000001
 43
0.0000001
 44
0.0000000001
 40
0.0
 40
0.0
 40
0.0
 40
0.0
 40
0.1241369916
 40
0.2486554088
 40
0.3736905613
 40
0.4991480017
 40
0.6247839796
 40
0.7502879123
 40
0.8753886145
 40
1.0
 40
1.0
 40
1.0
 40
1.0
 10
144.9272975742
 20
15.4877262941
 30
0.0
 10
145.1081202156
 20
15.655709368
 30
0.0
 10
145.418717695
 20
16.0529110621
 30
0.0
 10
145.6750165734
 20
16.7628916214
 30
0.0
 10
145.7003033063
 20
17.5204044038
 30
0.0
 10
145.4917781836
 20
18.2511146895
 30
0.0
 10
145.0703486461
 20
18.8844747914
 30
0.0
 10
144.4764315275
 20
19.3590287177
 30
0.0
 10
143.7684270063
 20
19.6288097134
 30
0.0
 10
143.2628441025
 20
19.6540587058
 30
0.0
 10
143.0165308948
 20
19.6273863824
 30
0.0
  0
ELLIPSE
  5
297
100
AcDbEntity
  8
_30_VOLUMEN
100
AcDbEllipse
 62
4
  6
CONTINUOUS
 10
143.9030819104
 20
17.6075128318
 30
0.0
 11
-0.8743569403
 21
1.4584031791
 31
0.0
 40
0.8957065907
 41
-3.1158309019
 42
-0.2658706291
  0
ENDSEC
  0
SECTION
  2
OBJECTS
  0
DICTIONARY
  5
C
100
AcDbDictionary
280
0
281
1
  3
ACAD_GROUP
350
D
  3
ACAD_MLINESTYLE
350
17
  3
ACAD_LAYOUT
350
1A
  3
ACAD_PLOTSETTINGS
350
19
  3
ACAD_PLOTSTYLENAME
350
E
  0
DICTIONARY
  5
D
102
{ACAD_REACTORS
330
C
102
}
100
AcDbDictionary
280
0
281
1
  0
ACDBDICTIONARYWDFLT
  5
E
102
{ACAD_REACTORS
330
C
102
}
100
AcDbDictionary
281
1
  3
Normal
350
F
100
AcDbDictionaryWithDefault
340
F
  0
DICTIONARY
  5
17
102
{ACAD_REACTORS
330
C
102
}
100
AcDbDictionary
280
0
281
1
  3
Standard
350
18
  0
DICTIONARY
  5
19
102
{ACAD_REACTORS
330
C
102
}
100
AcDbDictionary
281
1
  0
DICTIONARY
  5
1A
102
{ACAD_REACTORS
330
C
102
}
100
AcDbDictionary
281
1
  3
Model
350
298
  3
Layout1
350
299
  0
ACDBPLACEHOLDER
  5
F
102
{ACAD_REACTORS
330
E
102
}
  0
MLINESTYLE
  5
18
102
{ACAD_REACTORS
330
17
102
}
100
AcDbMlineStyle
  2
STANDARD
 70
0
  3

 62
256
 51
90.0
 52
90.0
 71
2
 49
0.5
 62
256
  6
BYLAYER
 49
-0.5
 62
256
  6
BYLAYER
  0
LAYOUT
  5
298
102
{ACAD_REACTORS
330
1A
102
}
100
AcDbPlotSettings
  1

  2
none_device
  4
ISO_A3_(420.00_x_297.00_MM)
  6

 40
0.0
 41
0.0
 42
0.0
 43
0.0
 44
420.0
 45
297.0
 46
0.0
 47
0.0
 48
0.0
 49
0.0
140
0.0
141
0.0
142
1.0
143
1.0
 70
1024
 72
1
 73
0
 74
0
  7

 75
0
147
1.0
148
0.0
149
0.0
100
AcDbLayout
  1
Model
 70
0
 71
0
 10
0.0
 20
0.0
 11
420.0
 21
297.0
 12
0.0
 22
0.0
 32
0.0
 14
0.0
 24
0.0
 34
0.0
 15
0.0
 25
0.0
 35
0.0
146
0.0
 13
0.0
 23
0.0
 33
0.0
 16
1.0
 26
0.0
 36
0.0
 17
0.0
 27
1.0
 37
0.0
 76
0
330
20E
345
0
346
0
  0
LAYOUT
  5
299
102
{ACAD_REACTORS
330
1A
102
}
100
AcDbPlotSettings
  1

  2
none_device
  4
ISO_A3_(420.00_x_297.00_MM)
  6

 40
0.0
 41
0.0
 42
0.0
 43
0.0
 44
420.0
 45
297.0
 46
0.0
 47
0.0
 48
0.0
 49
0.0
140
0.0
141
0.0
142
1.0
143
1.0
 70
0
 72
1
 73
0
 74
0
  7

 75
0
147
1.0
148
0.0
149
0.0
100
AcDbLayout
  1
Layout1
 70
0
 71
1
 10
0.0
 20
0.0
 11
420.0
 21
297.0
 12
0.0
 22
0.0
 32
0.0
 14
0.0
 24
0.0
 34
0.0
 15
0.0
 25
0.0
 35
0.0
146
0.0
 13
0.0
 23
0.0
 33
0.0
 16
1.0
 26
0.0
 36
0.0
 17
0.0
 27
1.0
 37
0.0
 76
0
330
20F
345
0
346
0
  0
ENDSEC
  0
EOF
