999
DXF file: 70501025.dxf
999
Pro/ENGINEER 2017380 by Parametric Technology Corporation
  0
SECTION
  2
HEADER
  9
$ACADVER
  1
AC1027
  9
$DWGCODEPAGE
  3
ANSI_1252
  9
$EXTMAX
 10
420.0
 20
297.0
 30
0.0
  9
$EXTMIN
 10
0.0
 20
0.0
 30
0.0
  9
$LIMMIN
 10
0.0
 20
0.0
  9
$LIMMAX
 10
420.0
 20
297.0
  9
$VIEWCTR
 10
210.0
 20
148.5
  9
$VIEWSIZE
 40
297.0
  9
$CLAYER
  8
0
  9
$LTSCALE
 40
23.1
  9
$CELTYPE
  6
BYLAYER
  9
$DIMSCALE
 40
1.0
  9
$DIMASZ
 40
3.5
  9
$DIMEXO
 40
0.0
  9
$DIMDLI
 40
15.96
  9
$DIMEXE
 40
1.5
  9
$DIMCEN
 40
3.78
  9
$DIMLFAC
 40
1.0
  9
$DIMBLK
  1
_FILLED
  9
$DIMALT
 70
0
  9
$DIMALTF
 40
25.4
  9
$DIMTXT
 40
3.5
  9
$DIMTOL
 70
1
  9
$DIMLIM
 70
0
  9
$DIMTFAC
 40
1.0
  9
$DIMTP
 40
0.05
  9
$DIMTM
 40
0.05
  9
$DIMGAP
 40
0.625
  9
$DIMDSEP
 70
46
  9
$AUNITS
 70
0
  9
$PDMODE
 70
3
  9
$PDSIZE
 40
0.3125
  9
$HANDSEED
  5
28D
  9
$TILEMODE
 70
1
  9
$MEASUREMENT
 70
1
  9
$INSUNITS
 70
4
  0
ENDSEC
  0
SECTION
  2
CLASSES
  0
CLASS
  1
ACDBDICTIONARYWDFLT
  2
AcDbDictionaryWithDefault
  3
AutoCAD 2000
 90
0
 91
1
280
0
281
0
  0
CLASS
  1
ACDBPLACEHOLDER
  2
AcDbPlaceHolder
  3
AutoCAD 2000
 90
0
 91
1
280
0
281
0
  0
CLASS
  1
LAYOUT
  2
AcDbLayout
  3
AutoCAD 2000
 90
0
 91
0
280
0
281
0
  0
ENDSEC
  0
SECTION
  2
TABLES
  0
TABLE
  2
VPORT
  5
8
100
AcDbSymbolTable
 70
2
  0
VPORT
  5
1F4
100
AcDbSymbolTableRecord
100
AcDbViewportTableRecord
  2
*ACTIVE
 70
0
 10
0.0
 20
0.0
 11
1.0
 21
1.0
 12
210.0
 22
148.5
 13
0.0
 23
0.0
 14
1.0
 24
1.0
 15
0.0
 25
0.0
 16
0.0
 26
0.0
 36
1.0
 17
0.0
 27
0.0
 37
0.0
 40
297.0
 41
1.4141414141
 42
50.0
 43
0.0
 44
0.0
 50
0.0
 51
0.0
 71
0
 72
100
 73
1
 74
1
 75
0
 76
0
 77
0
 78
0
  0
ENDTAB
  0
TABLE
  2
LTYPE
  5
5
100
AcDbSymbolTable
 70
6
  0
LTYPE
  5
14
100
AcDbSymbolTableRecord
100
AcDbLinetypeTableRecord
  2
BYBLOCK
 70
0
  3

 72
65
 73
0
 40
0.0
  0
LTYPE
  5
15
100
AcDbSymbolTableRecord
100
AcDbLinetypeTableRecord
  2
BYLAYER
 70
0
  3

 72
65
 73
0
 40
0.0
  0
LTYPE
  5
16
100
AcDbSymbolTableRecord
100
AcDbLinetypeTableRecord
  2
CONTINUOUS
 70
64
  3
Solid line
 72
65
 73
0
 40
0.0
  0
LTYPE
  5
1F5
100
AcDbSymbolTableRecord
100
AcDbLinetypeTableRecord
  2
CENTER
 70
64
  3
____ _ ____ _ ____ _ ____ _ ____ _ ____ _ ____
 72
65
 73
4
 40
0.6
 49
0.375
 74
0
 49
-0.075
 74
0
 49
0.075
 74
0
 49
-0.075
 74
0
  0
LTYPE
  5
1F6
100
AcDbSymbolTableRecord
100
AcDbLinetypeTableRecord
  2
HIDDEN
 70
64
  3
- - - - - - - - - - - - - - - - - - - -
 72
65
 73
2
 40
0.2
 49
0.1
 74
0
 49
-0.1
 74
0
  0
LTYPE
  5
1F7
100
AcDbSymbolTableRecord
100
AcDbLinetypeTableRecord
  2
PHANTOM
 70
64
  3
_____ _ _ _____ _ _ _____ _ _ _____
 72
65
 73
6
 40
0.8
 49
0.45
 74
0
 49
-0.05
 74
0
 49
0.1
 74
0
 49
-0.05
 74
0
 49
0.1
 74
0
 49
-0.05
 74
0
  0
LTYPE
  5
1F8
100
AcDbSymbolTableRecord
100
AcDbLinetypeTableRecord
  2
DOT
 70
64
  3
. . . . . . . . . . . . . . . . . . . .
 72
65
 73
2
 40
0.2
 49
0.1
 74
0
 49
-0.1
 74
0
  0
LTYPE
  5
1F9
100
AcDbSymbolTableRecord
100
AcDbLinetypeTableRecord
  2
DASHED
 70
64
  3
- - - - - - - - - - - - - - - - - - - -
 72
65
 73
2
 40
0.2
 49
0.1
 74
0
 49
-0.1
 74
0
  0
ENDTAB
  0
TABLE
  2
LAYER
  5
2
100
AcDbSymbolTable
 70
36
  0
LAYER
  5
10
100
AcDbSymbolTableRecord
100
AcDbLayerTableRecord
  2
0
 70
0
 62
7
  6
CONTINUOUS
370
-3
390
F
  0
LAYER
  5
1FA
100
AcDbSymbolTableRecord
100
AcDbLayerTableRecord
  2
DEFAULT_1
 70
0
 62
7
  6
CENTER
370
-3
390
F
  0
LAYER
  5
1FB
100
AcDbSymbolTableRecord
100
AcDbLayerTableRecord
  2
DEFAULT_2
 70
0
 62
1
  6
HIDDEN
370
-3
390
F
  0
LAYER
  5
1FC
100
AcDbSymbolTableRecord
100
AcDbLayerTableRecord
  2
DEFAULT_3
 70
0
 62
7
  6
PHANTOM
370
-3
390
F
  0
LAYER
  5
1FD
100
AcDbSymbolTableRecord
100
AcDbLayerTableRecord
  2
BG_STARTBEZUEGE
 70
0
 62
7
  6
CONTINUOUS
370
-3
390
F
  0
LAYER
  5
1FE
100
AcDbSymbolTableRecord
100
AcDbLayerTableRecord
  2
HILFEN
 70
0
 62
7
  6
CONTINUOUS
370
-3
390
F
  0
LAYER
  5
1FF
100
AcDbSymbolTableRecord
100
AcDbLayerTableRecord
  2
PLATZIERUNG
 70
0
 62
7
  6
CONTINUOUS
370
-3
390
F
  0
LAYER
  5
200
100
AcDbSymbolTableRecord
100
AcDbLayerTableRecord
  2
T_STARTBEZUEGE
 70
0
 62
7
  6
CONTINUOUS
370
-3
390
F
  0
LAYER
  5
201
100
AcDbSymbolTableRecord
100
AcDbLayerTableRecord
  2
_03_2D_ZEICHNUNG_BEMASSUNGEN
 70
0
 62
7
  6
CONTINUOUS
370
-3
390
F
  0
LAYER
  5
202
100
AcDbSymbolTableRecord
100
AcDbLayerTableRecord
  2
_04_NOTIZEN
 70
0
 62
7
  6
CONTINUOUS
370
-3
390
F
  0
LAYER
  5
203
100
AcDbSymbolTableRecord
100
AcDbLayerTableRecord
  2
_05_2D_ELEMENTE
 70
0
 62
7
  6
CONTINUOUS
370
-3
390
F
  0
LAYER
  5
204
100
AcDbSymbolTableRecord
100
AcDbLayerTableRecord
  2
_07_EINRASTLINIEN
 70
0
 62
7
  6
CONTINUOUS
370
-3
390
F
  0
LAYER
  5
205
100
AcDbSymbolTableRecord
100
AcDbLayerTableRecord
  2
_21_KURVEN
 70
0
 62
7
  6
CONTINUOUS
370
-3
390
F
  0
LAYER
  5
206
100
AcDbSymbolTableRecord
100
AcDbLayerTableRecord
  2
_26_BEZUGSACHSEN
 70
0
 62
7
  6
CONTINUOUS
370
-3
390
F
  0
LAYER
  5
207
100
AcDbSymbolTableRecord
100
AcDbLayerTableRecord
  2
_27_BEZUGSEBENEN
 70
0
 62
7
  6
CONTINUOUS
370
-3
390
F
  0
LAYER
  5
208
100
AcDbSymbolTableRecord
100
AcDbLayerTableRecord
  2
_28_BEZUGSPUNKTE
 70
0
 62
7
  6
CONTINUOUS
370
-3
390
F
  0
LAYER
  5
209
100
AcDbSymbolTableRecord
100
AcDbLayerTableRecord
  2
_29_KOORDINATENSYSTEME
 70
0
 62
7
  6
CONTINUOUS
370
-3
390
F
  0
LAYER
  5
20A
100
AcDbSymbolTableRecord
100
AcDbLayerTableRecord
  2
_30_VOLUMEN
 70
0
 62
7
  6
CONTINUOUS
370
-3
390
F
  0
ENDTAB
  0
TABLE
  2
STYLE
  5
3
100
AcDbSymbolTable
 70
1
  0
STYLE
  5
11
100
AcDbSymbolTableRecord
100
AcDbTextStyleTableRecord
  2
STANDARD
 70
0
 40
0.0
 41
0.7
 50
0.0
 71
0
 42
0.2
  3
SIMPLEX.SHX
  4

  0
STYLE
  5
20B
100
AcDbSymbolTableRecord
100
AcDbTextStyleTableRecord
  2
TEXTSTYLE_1
 70
0
 40
0.0
 41
0.8
 50
0.0
 71
0
 42
0.2
  3
gdt
  4

  0
ENDTAB
  0
TABLE
  2
VIEW
  5
6
100
AcDbSymbolTable
 70
0
  0
ENDTAB
  0
TABLE
  2
UCS
  5
7
100
AcDbSymbolTable
 70
0
  0
ENDTAB
  0
TABLE
  2
APPID
  5
9
100
AcDbSymbolTable
 70
1
  0
APPID
  5
20C
100
AcDbSymbolTableRecord
100
AcDbRegAppTableRecord
  2
ACAD
 70
0
  0
ENDTAB
  0
TABLE
  2
BLOCK_RECORD
  5
1
100
AcDbSymbolTable
 70
0
  0
BLOCK_RECORD
  5
20D
100
AcDbSymbolTableRecord
100
AcDbBlockTableRecord
  2
*Model_Space
  0
BLOCK_RECORD
  5
20E
100
AcDbSymbolTableRecord
100
AcDbBlockTableRecord
  2
*Paper_Space
  0
BLOCK_RECORD
  5
20F
100
AcDbSymbolTableRecord
100
AcDbBlockTableRecord
  2
_FILLED
  0
BLOCK_RECORD
  5
210
100
AcDbSymbolTableRecord
100
AcDbBlockTableRecord
  2
*D0
  0
BLOCK_RECORD
  5
211
100
AcDbSymbolTableRecord
100
AcDbBlockTableRecord
  2
*D1
  0
BLOCK_RECORD
  5
212
100
AcDbSymbolTableRecord
100
AcDbBlockTableRecord
  2
*D2
  0
BLOCK_RECORD
  5
213
100
AcDbSymbolTableRecord
100
AcDbBlockTableRecord
  2
*D3
  0
ENDTAB
  0
TABLE
  2
DIMSTYLE
  5
A
100
AcDbSymbolTable
 70
1
100
AcDbDimStyleTable
 71
0
  0
DIMSTYLE
105
214
100
AcDbSymbolTableRecord
100
AcDbDimStyleTableRecord
  2
STANDARD
 70
0
  3

  4

 40
1.0
 41
3.5
 42
0.0
 43
0.38
 44
1.5
 45
0.0
 46
0.0
 47
0.05
 48
0.05
140
3.5
141
0.09
142
0.0
143
25.4
144
1.0
145
0.0
146
1.0
147
0.625
 71
1.0
 72
0.0
 73
0
 74
0
 75
0
 76
0
 77
1
 78
8
 79
2
170
0
171
1
172
0
173
0
174
0
175
0
176
0
177
0
178
2
270
2
179
2
271
2
272
2
273
2
274
2
275
0
280
0
281
0
282
0
283
1
284
8
285
0
286
0
287
3
288
0
340
11
278
46
341
20F
342
20F
343
20F
344
20F
  0
DIMSTYLE
105
215
100
AcDbSymbolTableRecord
100
AcDbDimStyleTableRecord
  2
DIMSTYLE_1
 70
0
  3

  4

 40
1.0
 41
3.5
 42
0.0
 43
0.38
 44
1.5
 45
0.0
 46
0.0
 47
0.2
 48
0.2
140
3.5
141
0.09
142
0.0
143
25.4
144
1.0
145
0.0
146
1.0
147
0.875
 71
0.0
 72
0.0
 73
0
 74
0
 75
0
 76
0
 77
1
 78
8
 79
2
170
0
171
1
172
0
173
0
174
0
175
0
176
0
177
0
178
2
270
2
179
2
271
2
272
2
273
2
274
2
275
0
280
0
281
0
282
0
283
1
284
8
285
0
286
0
287
3
288
0
340
11
278
46
341
20F
342
20F
343
20F
344
20F
  0
DIMSTYLE
105
216
100
AcDbSymbolTableRecord
100
AcDbDimStyleTableRecord
  2
DIMSTYLE_2
 70
0
  3

  4

 40
1.0
 41
3.5
 42
0.0
 43
0.38
 44
1.5
 45
0.0
 46
0.0
 47
0.5
 48
0.5
140
3.5
141
0.09
142
0.0
143
25.4
144
1.0
145
0.0
146
1.0
147
0.875
 71
0.0
 72
0.0
 73
0
 74
0
 75
0
 76
0
 77
1
 78
8
 79
2
170
0
171
1
172
0
173
0
174
0
175
0
176
0
177
0
178
2
270
2
179
2
271
2
272
2
273
2
274
2
275
0
280
0
281
0
282
0
283
1
284
8
285
0
286
0
287
3
288
0
340
11
278
46
341
20F
342
20F
343
20F
344
20F
  0
ENDTAB
  0
ENDSEC
  0
SECTION
  2
BLOCKS
  0
BLOCK
  5
20
100
AcDbEntity
  8
0
100
AcDbBlockBegin
  2
*Model_Space
 70
0
 10
0.0
 20
0.0
 30
0.0
  3
*Model_Space
  1

  0
ENDBLK
  5
21
100
AcDbEntity
  8
0
100
AcDbBlockEnd
  0
BLOCK
  5
1C
100
AcDbEntity
  8
0
100
AcDbBlockBegin
  2
*Paper_Space
 70
0
 10
0.0
 20
0.0
 30
0.0
  3
*Paper_Space
  1

  0
ENDBLK
  5
1D
100
AcDbEntity
  8
0
100
AcDbBlockEnd
  0
BLOCK
  5
217
100
AcDbEntity
  8
0
100
AcDbBlockBegin
  2
_FILLED
 70
64
 10
0.0
 20
0.0
  3
_FILLED
  1

  0
SOLID
  5
218
100
AcDbEntity
  8
0
  6
BYBLOCK
 62
0
100
AcDbTrace
 10
0.0
 20
0.0
 11
-1.0
 21
0.125
 12
-1.0
 22
-0.125
 13
-1.0
 23
-0.125
  0
ENDBLK
  5
219
100
AcDbEntity
  8
0
  6
BYBLOCK
 62
0
100
AcDbBlockEnd
  0
BLOCK
  5
21A
100
AcDbEntity
  8
_03_2D_ZEICHNUNG_BEMASSUNGEN
100
AcDbBlockBegin
 62
7
  6
CONTINUOUS
  2
*D0
 70
65
 10
0.0
 20
0.0
  3
*D0
  1

  0
TEXT
  5
21B
100
AcDbEntity
  8
_03_2D_ZEICHNUNG_BEMASSUNGEN
100
AcDbText
 62
2
  6
CONTINUOUS
 10
-9.875
 20
-15.125
  7
STANDARD
 40
3.5
  1
25
 50
90.0
 41
0.75
 72
1
 11
-9.875
 21
-12.5
100
AcDbText
  0
LINE
  5
21C
100
AcDbEntity
  8
_03_2D_ZEICHNUNG_BEMASSUNGEN
100
AcDbLine
 62
7
  6
CONTINUOUS
 10
-0.0
 20
-0.0
 11
-10.5
 21
0.0
  0
LINE
  5
21D
100
AcDbEntity
  8
_03_2D_ZEICHNUNG_BEMASSUNGEN
100
AcDbLine
 62
7
  6
CONTINUOUS
 10
-0.0
 20
-25.0
 11
-10.5
 21
-25.0
  0
LINE
  5
21E
100
AcDbEntity
  8
_03_2D_ZEICHNUNG_BEMASSUNGEN
100
AcDbLine
 62
7
  6
CONTINUOUS
 10
-9.0
 20
0.0
 11
-9.0
 21
6.0
  0
LINE
  5
21F
100
AcDbEntity
  8
_03_2D_ZEICHNUNG_BEMASSUNGEN
100
AcDbLine
 62
7
  6
CONTINUOUS
 10
-9.0
 20
6.0
 11
-9.0
 21
-12.5
  0
LINE
  5
220
100
AcDbEntity
  8
_03_2D_ZEICHNUNG_BEMASSUNGEN
100
AcDbLine
 62
7
  6
CONTINUOUS
 10
-9.0
 20
-25.0
 11
-9.0
 21
-31.0
  0
LINE
  5
221
100
AcDbEntity
  8
_03_2D_ZEICHNUNG_BEMASSUNGEN
100
AcDbLine
 62
7
  6
CONTINUOUS
 10
-9.0
 20
-31.0
 11
-9.0
 21
-12.5
  0
INSERT
  5
222
100
AcDbEntity
  8
_03_2D_ZEICHNUNG_BEMASSUNGEN
100
AcDbBlockReference
 62
7
  6
CONTINUOUS
  2
_FILLED
 10
-9.0
 20
0.0
 41
3.5
 42
3.5
 43
3.5
 50
270.0
  0
INSERT
  5
223
100
AcDbEntity
  8
_03_2D_ZEICHNUNG_BEMASSUNGEN
100
AcDbBlockReference
 62
7
  6
CONTINUOUS
  2
_FILLED
 10
-9.0
 20
-25.0
 41
3.5
 42
3.5
 43
3.5
 50
90.0
  0
ENDBLK
  5
224
100
AcDbEntity
  8
0
  6
BYBLOCK
 62
0
100
AcDbBlockEnd
  0
BLOCK
  5
225
100
AcDbEntity
  8
_03_2D_ZEICHNUNG_BEMASSUNGEN
100
AcDbBlockBegin
 62
7
  6
CONTINUOUS
  2
*D1
 70
65
 10
0.0
 20
0.0
  3
*D1
  1

  0
TEXT
  5
226
100
AcDbEntity
  8
_03_2D_ZEICHNUNG_BEMASSUNGEN
100
AcDbText
 62
2
  6
CONTINUOUS
 10
71.375
 20
19.3103599109
  7
STANDARD
 40
3.5
  1
150
 41
0.6904761905
 72
1
 11
75.0
 21
19.3103599109
100
AcDbText
  0
LINE
  5
227
100
AcDbEntity
  8
_03_2D_ZEICHNUNG_BEMASSUNGEN
100
AcDbLine
 62
7
  6
CONTINUOUS
 10
150.0
 20
0.0
 11
150.0
 21
19.9353599109
  0
LINE
  5
228
100
AcDbEntity
  8
_03_2D_ZEICHNUNG_BEMASSUNGEN
100
AcDbLine
 62
7
  6
CONTINUOUS
 10
0.0
 20
0.0
 11
0.0
 21
19.9353599109
  0
LINE
  5
229
100
AcDbEntity
  8
_03_2D_ZEICHNUNG_BEMASSUNGEN
100
AcDbLine
 62
7
  6
CONTINUOUS
 10
150.0
 20
18.4353599109
 11
75.0
 21
18.4353599109
  0
LINE
  5
22A
100
AcDbEntity
  8
_03_2D_ZEICHNUNG_BEMASSUNGEN
100
AcDbLine
 62
7
  6
CONTINUOUS
 10
0.0
 20
18.4353599109
 11
75.0
 21
18.4353599109
  0
INSERT
  5
22B
100
AcDbEntity
  8
_03_2D_ZEICHNUNG_BEMASSUNGEN
100
AcDbBlockReference
 62
7
  6
CONTINUOUS
  2
_FILLED
 10
150.0
 20
18.4353599109
 41
3.5
 42
3.5
 43
3.5
  0
INSERT
  5
22C
100
AcDbEntity
  8
_03_2D_ZEICHNUNG_BEMASSUNGEN
100
AcDbBlockReference
 62
7
  6
CONTINUOUS
  2
_FILLED
 10
0.0
 20
18.4353599109
 41
3.5
 42
3.5
 43
3.5
 50
180.0
  0
ENDBLK
  5
22D
100
AcDbEntity
  8
0
  6
BYBLOCK
 62
0
100
AcDbBlockEnd
  0
BLOCK
  5
22E
100
AcDbEntity
  8
_03_2D_ZEICHNUNG_BEMASSUNGEN
100
AcDbBlockBegin
 62
7
  6
CONTINUOUS
  2
*D2
 70
65
 10
0.0
 20
0.0
  3
*D2
  1

  0
TEXT
  5
22F
100
AcDbEntity
  8
_03_2D_ZEICHNUNG_BEMASSUNGEN
100
AcDbText
 62
2
  6
CONTINUOUS
 10
158.1574588418
 20
-13.75
  7
STANDARD
 40
3.5
  1
22
 50
90.0
 41
0.7857142857
 72
1
 11
158.1574588418
 21
-11.0
100
AcDbText
  0
LINE
  5
230
100
AcDbEntity
  8
_03_2D_ZEICHNUNG_BEMASSUNGEN
100
AcDbLine
 62
7
  6
CONTINUOUS
 10
150.0
 20
-22.0
 11
160.5324588418
 21
-22.0
  0
LINE
  5
231
100
AcDbEntity
  8
_03_2D_ZEICHNUNG_BEMASSUNGEN
100
AcDbLine
 62
7
  6
CONTINUOUS
 10
0.0
 20
0.0
 11
160.5324588418
 21
0.0
  0
LINE
  5
232
100
AcDbEntity
  8
_03_2D_ZEICHNUNG_BEMASSUNGEN
100
AcDbLine
 62
7
  6
CONTINUOUS
 10
159.0324588418
 20
-22.0
 11
159.0324588418
 21
-11.0
  0
LINE
  5
233
100
AcDbEntity
  8
_03_2D_ZEICHNUNG_BEMASSUNGEN
100
AcDbLine
 62
7
  6
CONTINUOUS
 10
159.0324588418
 20
0.0
 11
159.0324588418
 21
-11.0
  0
INSERT
  5
234
100
AcDbEntity
  8
_03_2D_ZEICHNUNG_BEMASSUNGEN
100
AcDbBlockReference
 62
7
  6
CONTINUOUS
  2
_FILLED
 10
159.0324588418
 20
-22.0
 41
3.5
 42
3.5
 43
3.5
 50
270.0
  0
INSERT
  5
235
100
AcDbEntity
  8
_03_2D_ZEICHNUNG_BEMASSUNGEN
100
AcDbBlockReference
 62
7
  6
CONTINUOUS
  2
_FILLED
 10
159.0324588418
 20
0.0
 41
3.5
 42
3.5
 43
3.5
 50
90.0
  0
ENDBLK
  5
236
100
AcDbEntity
  8
0
  6
BYBLOCK
 62
0
100
AcDbBlockEnd
  0
BLOCK
  5
237
100
AcDbEntity
  8
_03_2D_ZEICHNUNG_BEMASSUNGEN
100
AcDbBlockBegin
 62
7
  6
CONTINUOUS
  2
*D3
 70
65
 10
0.0
 20
0.0
  3
*D3
  1

  0
TEXT
  5
238
100
AcDbEntity
  8
_03_2D_ZEICHNUNG_BEMASSUNGEN
100
AcDbText
 62
2
  6
CONTINUOUS
 10
131.025
 20
10.3103599109
  7
STANDARD
 40
3.5
  1
27.7
 41
0.7321428571
 72
1
 11
136.15
 21
10.3103599109
100
AcDbText
  0
LINE
  5
239
100
AcDbEntity
  8
_03_2D_ZEICHNUNG_BEMASSUNGEN
100
AcDbLine
 62
7
  6
CONTINUOUS
 10
122.3
 20
0.0
 11
122.3
 21
10.9353599109
  0
LINE
  5
23A
100
AcDbEntity
  8
_03_2D_ZEICHNUNG_BEMASSUNGEN
100
AcDbLine
 62
7
  6
CONTINUOUS
 10
150.0
 20
-22.0
 11
150.0
 21
10.9353599109
  0
LINE
  5
23B
100
AcDbEntity
  8
_03_2D_ZEICHNUNG_BEMASSUNGEN
100
AcDbLine
 62
7
  6
CONTINUOUS
 10
122.3
 20
9.4353599109
 11
136.15
 21
9.4353599109
  0
LINE
  5
23C
100
AcDbEntity
  8
_03_2D_ZEICHNUNG_BEMASSUNGEN
100
AcDbLine
 62
7
  6
CONTINUOUS
 10
150.0
 20
9.4353599109
 11
136.15
 21
9.4353599109
  0
INSERT
  5
23D
100
AcDbEntity
  8
_03_2D_ZEICHNUNG_BEMASSUNGEN
100
AcDbBlockReference
 62
7
  6
CONTINUOUS
  2
_FILLED
 10
122.3
 20
9.4353599109
 41
3.5
 42
3.5
 43
3.5
 50
180.0
  0
INSERT
  5
23E
100
AcDbEntity
  8
_03_2D_ZEICHNUNG_BEMASSUNGEN
100
AcDbBlockReference
 62
7
  6
CONTINUOUS
  2
_FILLED
 10
150.0
 20
9.4353599109
 41
3.5
 42
3.5
 43
3.5
 50
360.0
  0
ENDBLK
  5
23F
100
AcDbEntity
  8
0
  6
BYBLOCK
 62
0
100
AcDbBlockEnd
  0
ENDSEC
  0
SECTION
  2
ENTITIES
  0
DIMENSION
  5
240
100
AcDbEntity
  8
_03_2D_ZEICHNUNG_BEMASSUNGEN
100
AcDbDimension
 62
7
  6
CONTINUOUS
  2
*D0
 10
-9.0
 20
-25.0
 11
-9.0
 21
-13.0000002766
 70
160
 71
2
 42
25.0
  3
DIMSTYLE_1
100
AcDbAlignedDimension
 13
-0.0
 23
-0.0
 14
-0.0
 24
-25.0
 50
270.0
100
AcDbRotatedDimension
  0
DIMENSION
  5
241
100
AcDbEntity
  8
_03_2D_ZEICHNUNG_BEMASSUNGEN
100
AcDbDimension
 62
7
  6
CONTINUOUS
  2
*D1
 10
0.0
 20
18.4353599109
 11
74.4999993896
 21
18.4353599109
 70
160
 71
2
 42
150.0
  3
DIMSTYLE_2
100
AcDbAlignedDimension
 13
150.0
 23
0.0
 14
0.0
 24
0.0
 50
180.0
100
AcDbRotatedDimension
  0
DIMENSION
  5
242
100
AcDbEntity
  8
_03_2D_ZEICHNUNG_BEMASSUNGEN
100
AcDbDimension
 62
7
  6
CONTINUOUS
  2
*D2
 10
159.0324588418
 20
0.0
 11
159.0324588418
 21
-11.5000021768
 70
160
 71
2
 42
22.0
  3
DIMSTYLE_1
100
AcDbAlignedDimension
 13
150.0
 23
-22.0
 14
0.0
 24
0.0
 50
90.0
100
AcDbRotatedDimension
  0
DIMENSION
  5
243
100
AcDbEntity
  8
_03_2D_ZEICHNUNG_BEMASSUNGEN
100
AcDbDimension
 62
7
  6
CONTINUOUS
  2
*D3
 10
150.0
 20
9.4353599109
 11
135.6500024414
 21
9.4353599109
 70
160
 71
2
 42
27.7
  3
DIMSTYLE_1
100
AcDbAlignedDimension
 13
122.3
 23
0.0
 14
150.0
 24
-22.0
 50
360.0
100
AcDbRotatedDimension
  0
LINE
  5
244
100
AcDbEntity
  8
_30_VOLUMEN
100
AcDbLine
 62
4
  6
CONTINUOUS
 10
-0.0
 20
-24.5
 11
-0.0
 21
-0.5
  0
LINE
  5
245
100
AcDbEntity
  8
_30_VOLUMEN
100
AcDbLine
 62
4
  6
CONTINUOUS
 10
0.5
 20
-25.0
 11
0.5
 21
-0.0
  0
LINE
  5
246
100
AcDbEntity
  8
_30_VOLUMEN
100
AcDbLine
 62
4
  6
CONTINUOUS
 10
0.5
 20
-0.0
 11
-0.0
 21
-0.5
  0
LINE
  5
247
100
AcDbEntity
  8
_30_VOLUMEN
100
AcDbLine
 62
4
  6
CONTINUOUS
 10
0.5
 20
-25.0
 11
-0.0
 21
-24.5
  0
LINE
  5
248
100
AcDbEntity
  8
_30_VOLUMEN
100
AcDbLine
 62
4
  6
CONTINUOUS
 10
149.3257632479
 20
-22.1605179449
 11
138.4982269853
 21
-25.0617475424
  0
LINE
  5
249
100
AcDbEntity
  8
_21_KURVEN
100
AcDbLine
 62
7
  6
CONTINUOUS
 10
149.3257632479
 20
-22.1605179449
 11
138.4982269853
 21
-25.0617475424
  0
LINE
  5
24A
100
AcDbEntity
  8
_26_BEZUGSACHSEN
100
AcDbLine
 62
4
  6
CONTINUOUS
 10
137.5871422353
 20
-24.247312777
 11
134.7780752767
 21
-25.0
  0
LINE
  5
24B
100
AcDbEntity
  8
_26_BEZUGSACHSEN
100
AcDbLine
 62
4
  6
CONTINUOUS
 10
136.5684335692
 20
-12.6034194422
 11
147.8536453367
 21
-9.4220497851
  0
LINE
  5
24C
100
AcDbEntity
  8
_30_VOLUMEN
100
AcDbLine
 62
4
  6
CONTINUOUS
 10
137.2751291632
 20
-12.3423128086
 11
148.1026654257
 21
-9.4410832111
  0
LINE
  5
24D
100
AcDbEntity
  8
_21_KURVEN
100
AcDbLine
 62
7
  6
CONTINUOUS
 10
137.2751291632
 20
-12.3423128086
 11
148.1026654257
 21
-9.4410832111
  0
LINE
  5
24E
100
AcDbEntity
  8
_30_VOLUMEN
100
AcDbLine
 62
4
  6
CONTINUOUS
 10
0.5
 20
-25.0
 11
122.3
 21
-25.0
  0
LINE
  5
24F
100
AcDbEntity
  8
0
100
AcDbLine
 62
4
  6
CONTINUOUS
 10
122.3
 20
-25.0
 11
123.1869223202
 21
-25.0
  0
LINE
  5
250
100
AcDbEntity
  8
_30_VOLUMEN
100
AcDbLine
 62
4
  6
CONTINUOUS
 10
123.1869223202
 20
-25.0
 11
134.7780752767
 21
-25.0
  0
LINE
  5
251
100
AcDbEntity
  8
_30_VOLUMEN
100
AcDbLine
 62
4
  6
CONTINUOUS
 10
147.0293227933
 20
0.0
 11
131.8079700373
 21
0.0
  0
LINE
  5
252
100
AcDbEntity
  8
_30_VOLUMEN
100
AcDbLine
 62
4
  6
CONTINUOUS
 10
0.5
 20
-0.0
 11
122.3
 21
0.0
  0
LINE
  5
253
100
AcDbEntity
  8
0
100
AcDbLine
 62
4
  6
CONTINUOUS
 10
122.3
 20
0.0
 11
131.8079700373
 21
0.0
  0
LINE
  5
254
100
AcDbEntity
  8
_30_VOLUMEN
100
AcDbLine
 62
4
  6
CONTINUOUS
 10
137.8438836465
 20
-24.9475799494
 11
137.214675003
 21
-24.5070033142
  0
LINE
  5
255
100
AcDbEntity
  8
_30_VOLUMEN
100
AcDbLine
 62
7
  6
CONTINUOUS
 10
137.5119675186
 20
-24.3614304754
 11
137.4149019394
 21
-24.2934644252
  0
LINE
  5
256
100
AcDbEntity
  8
_30_VOLUMEN
100
AcDbLine
 62
7
  6
CONTINUOUS
 10
136.679834076
 20
-13.1809741985
 11
136.6149907462
 21
-13.1355704102
  0
LINE
  5
257
100
AcDbEntity
  8
0
100
AcDbLine
 62
4
  6
CONTINUOUS
 10
131.8079700373
 20
0.0
 11
123.5057713659
 21
-11.856768484
  0
LINE
  5
258
100
AcDbEntity
  8
_30_VOLUMEN
100
AcDbLine
 62
7
  6
CONTINUOUS
 10
148.1026654257
 20
-9.4410832111
 11
147.8391686764
 21
-9.2565808009
  0
LINE
  5
259
100
AcDbEntity
  8
_30_VOLUMEN
100
AcDbLine
 62
4
  6
CONTINUOUS
 10
148.7570087646
 20
-9.555250804
 11
148.1278001211
 21
-9.1146741688
  0
LINE
  5
25A
100
AcDbEntity
  8
0
100
AcDbLine
 62
4
  6
CONTINUOUS
 10
122.3
 20
0.0
 11
122.3
 21
-25.0
  0
LINE
  5
25B
100
AcDbEntity
  8
0
100
AcDbLine
 62
4
  6
CONTINUOUS
 10
123.5057713659
 20
0.0
 11
123.5057713659
 21
-11.856768484
  0
LINE
  5
25C
100
AcDbEntity
  8
0
100
AcDbLine
 62
4
  6
CONTINUOUS
 10
123.5057713659
 20
-11.856768484
 11
123.1869223202
 21
-25.0
  0
LINE
  5
25D
100
AcDbEntity
  8
_28_BEZUGSPUNKTE
100
AcDbLine
 62
1
  6
CONTINUOUS
 10
150.15625
 20
-22.15625
 11
149.84375
 21
-21.84375
  0
LINE
  5
25E
100
AcDbEntity
  8
_26_BEZUGSACHSEN
100
AcDbLine
 62
4
  6
CONTINUOUS
 10
137.5871422353
 20
-24.247312777
 11
136.5684335692
 21
-12.6034194422
  0
LINE
  5
25F
100
AcDbEntity
  8
_30_VOLUMEN
100
AcDbLine
 62
4
  6
CONTINUOUS
 10
137.5119675186
 20
-24.3614304754
 11
136.679834076
 21
-13.1809741985
  0
LINE
  5
260
100
AcDbEntity
  8
_21_KURVEN
100
AcDbLine
 62
7
  6
CONTINUOUS
 10
137.5119675186
 20
-24.3614304754
 11
136.679834076
 21
-13.1809741985
  0
LINE
  5
261
100
AcDbEntity
  8
_28_BEZUGSPUNKTE
100
AcDbLine
 62
1
  6
CONTINUOUS
 10
150.15625
 20
-21.84375
 11
149.84375
 21
-22.15625
  0
LINE
  5
262
100
AcDbEntity
  8
_26_BEZUGSACHSEN
100
AcDbLine
 62
4
  6
CONTINUOUS
 10
147.8536453367
 20
-9.4220497851
 11
147.0293227933
 21
0.0
  0
LINE
  5
263
100
AcDbEntity
  8
_21_KURVEN
100
AcDbLine
 62
7
  6
CONTINUOUS
 10
149.0889248925
 20
-10.1414002781
 11
149.9210583351
 21
-21.321856555
  0
LINE
  5
264
100
AcDbEntity
  8
_30_VOLUMEN
100
AcDbLine
 62
4
  6
CONTINUOUS
 10
149.0889248925
 20
-10.1414002781
 11
149.9210583351
 21
-21.321856555
  0
ARC
  5
265
100
AcDbEntity
  8
_30_VOLUMEN
100
AcDbCircle
 62
7
  6
CONTINUOUS
 10
143.0936098549
 20
-17.0439459608
 40
2.5287619464
100
AcDbArc
 50
14.1988137084
 51
54.9296955062
  0
ARC
  5
266
100
AcDbEntity
  8
_30_VOLUMEN
100
AcDbCircle
 62
4
  6
CONTINUOUS
 10
142.704691195
 20
-16.7619191205
 40
2.5207469402
100
AcDbArc
 50
44.1767297875
 51
48.2952857029
  0
ARC
  5
267
100
AcDbEntity
  8
_30_VOLUMEN
100
AcDbCircle
 62
4
  6
CONTINUOUS
 10
142.6315223681
 20
-16.8650126624
 40
2.5129703654
100
AcDbArc
 50
240.4999980722
 51
245.9148988659
  0
ARC
  5
268
100
AcDbEntity
  8
_30_VOLUMEN
100
AcDbCircle
 62
4
  6
CONTINUOUS
 10
137.6642458192
 20
-23.8659414531
 40
0.7829903867
100
AcDbArc
 50
221.4718601451
 51
234.958372064
  0
ARC
  5
269
100
AcDbEntity
  8
_30_VOLUMEN
100
AcDbCircle
 62
4
  6
CONTINUOUS
 10
147.67986541
 20
-9.7548648008
 40
0.7813381269
100
AcDbArc
 50
55.019918341
 51
80.0051112865
  0
SPLINE
  5
26A
100
AcDbEntity
  8
_30_VOLUMEN
100
AcDbSpline
 62
4
  6
CONTINUOUS
 70
0
 71
3
 72
9
 73
5
 74
0
 42
0.0000001
 43
0.0000001
 44
0.0000000001
 40
0.0
 40
0.0
 40
0.0
 40
0.0
 40
0.5010987576
 40
1.0
 40
1.0
 40
1.0
 40
1.0
 10
149.0889248925
 20
-10.1414002781
 30
0.0
 10
149.0803645834
 20
-10.0263848775
 30
0.0
 10
149.0120009667
 20
-9.7976673652
 30
0.0
 10
148.8510745925
 20
-9.6211069358
 30
0.0
 10
148.7570086626
 20
-9.5552509531
 30
0.0
  0
SPLINE
  5
26B
100
AcDbEntity
  8
_30_VOLUMEN
100
AcDbSpline
 62
4
  6
CONTINUOUS
 70
0
 71
3
 72
11
 73
7
 74
0
 42
0.0000001
 43
0.0000001
 44
0.0000000001
 40
0.0
 40
0.0
 40
0.0
 40
0.0
 40
0.2494161439
 40
0.499974297
 40
0.7505470561
 40
1.0
 40
1.0
 40
1.0
 40
1.0
 10
149.3257632479
 20
-22.1605179449
 30
0.0
 10
149.4148401956
 20
-22.1366498487
 30
0.0
 10
149.5862272783
 20
-22.0565154747
 30
0.0
 10
149.7873932113
 20
-21.8576164396
 30
0.0
 10
149.9087870715
 20
-21.6020792914
 30
0.0
 10
149.9279040611
 20
-21.4138350004
 30
0.0
 10
149.9210583351
 20
-21.321856555
 30
0.0
  0
SPLINE
  5
26C
100
AcDbEntity
  8
_30_VOLUMEN
100
AcDbSpline
 62
4
  6
CONTINUOUS
 70
0
 71
3
 72
15
 73
11
 74
0
 42
0.0000001
 43
0.0000001
 44
0.0000000001
 40
0.0
 40
0.0
 40
0.0
 40
0.0
 40
0.1247477001
 40
0.2501496045
 40
0.3756292865
 40
0.501187189
 40
0.6265093303
 40
0.7514230349
 40
0.8758930826
 40
1.0
 40
1.0
 40
1.0
 40
1.0
 10
145.1496742716
 20
-16.1467436267
 30
0.0
 10
145.2086297491
 20
-16.3788138981
 30
0.0
 10
145.2607164741
 20
-16.8636004614
 30
0.0
 10
145.136294569
 20
-17.5828704591
 30
0.0
 10
144.8177071878
 20
-18.2419123543
 30
0.0
 10
144.3313930232
 20
-18.7885767432
 30
0.0
 10
143.7144973171
 20
-19.1801846567
 30
0.0
 10
143.0154561501
 20
-19.386075857
 30
0.0
 10
142.2893412968
 20
-19.39027927
 30
0.0
 10
141.8234617288
 20
-19.2564351997
 30
0.0
 10
141.6059965557
 20
-19.1592046477
 30
0.0
  0
SPLINE
  5
26D
100
AcDbEntity
  8
_30_VOLUMEN
100
AcDbSpline
 62
4
  6
CONTINUOUS
 70
0
 71
3
 72
9
 73
5
 74
0
 42
0.0000001
 43
0.0000001
 44
0.0000000001
 40
0.0
 40
0.0
 40
0.0
 40
0.0
 40
0.4966853917
 40
1.0
 40
1.0
 40
1.0
 40
1.0
 10
141.5868926226
 20
-19.2011706799
 30
0.0
 10
141.3497915655
 20
-19.0351507324
 30
0.0
 10
140.9291207377
 20
-18.6117069225
 30
0.0
 10
140.6845245593
 20
-18.0674397016
 30
0.0
 10
140.6123055754
 20
-17.783159429
 30
0.0
  0
SPLINE
  5
26E
100
AcDbEntity
  8
_30_VOLUMEN
100
AcDbSpline
 62
4
  6
CONTINUOUS
 70
0
 71
3
 72
9
 73
5
 74
0
 42
0.0000001
 43
0.0000001
 44
0.0000000001
 40
0.0
 40
0.0
 40
0.0
 40
0.0
 40
0.4989470634
 40
1.0
 40
1.0
 40
1.0
 40
1.0
 10
137.8438837484
 20
-24.9475798004
 30
0.0
 10
137.9365816584
 20
-25.0124780262
 30
0.0
 10
138.1537645491
 20
-25.1025956264
 30
0.0
 10
138.3884636433
 20
-25.0911585413
 30
0.0
 10
138.4982269853
 20
-25.0617475424
 30
0.0
  0
SPLINE
  5
26F
100
AcDbEntity
  8
_30_VOLUMEN
100
AcDbSpline
 62
4
  6
CONTINUOUS
 70
0
 71
3
 72
9
 73
5
 74
0
 42
0.0000001
 43
0.0000001
 44
0.0000000001
 40
0.0
 40
0.0
 40
0.0
 40
0.0
 40
0.4999454315
 40
1.0
 40
1.0
 40
1.0
 40
1.0
 10
144.5125550107
 20
-15.0052764249
 30
0.0
 10
144.665656972
 20
-15.1628507038
 30
0.0
 10
144.9308712491
 20
-15.520353101
 30
0.0
 10
145.0955668192
 20
-15.9337569505
 30
0.0
 10
145.1496742716
 20
-16.1467436267
 30
0.0
  0
SPLINE
  5
270
100
AcDbEntity
  8
_30_VOLUMEN
100
AcDbSpline
 62
4
  6
CONTINUOUS
 70
0
 71
3
 72
15
 73
11
 74
0
 42
0.0000001
 43
0.0000001
 44
0.0000000001
 40
0.0
 40
0.0
 40
0.0
 40
0.0
 40
0.1247702476
 40
0.2515306936
 40
0.3792586864
 40
0.5068027214
 40
0.6329799454
 40
0.7570623128
 40
0.8792212165
 40
1.0
 40
1.0
 40
1.0
 40
1.0
 10
140.6123055754
 20
-17.783159429
 30
0.0
 10
140.5486811878
 20
-17.5327106236
 30
0.0
 10
140.4983424089
 20
-17.0046760597
 30
0.0
 10
140.662670242
 20
-16.2248526637
 30
0.0
 10
141.0537042635
 20
-15.523155883
 30
0.0
 10
141.6333755093
 20
-14.968958928
 30
0.0
 10
142.3446903226
 20
-14.6152480111
 30
0.0
 10
143.1182657777
 20
-14.4912697754
 30
0.0
 10
143.8815078741
 20
-14.6050650951
 30
0.0
 10
144.3416463094
 20
-14.8308730993
 30
0.0
 10
144.5465470342
 20
-14.9743461313
 30
0.0
  0
SPLINE
  5
271
100
AcDbEntity
  8
_30_VOLUMEN
100
AcDbSpline
 62
4
  6
CONTINUOUS
 70
0
 71
3
 72
9
 73
5
 74
0
 42
0.0000001
 43
0.0000001
 44
0.0000000001
 40
0.0
 40
0.0
 40
0.0
 40
0.0
 40
0.7481837888
 40
1.0
 40
1.0
 40
1.0
 40
1.0
 10
137.2751291632
 20
-12.3423128086
 30
0.0
 10
137.2008499835
 20
-12.3622158548
 30
0.0
 10
137.1048245815
 20
-12.4040106571
 30
0.0
 10
137.0198000279
 20
-12.4618459992
 30
0.0
 10
136.9991169819
 20
-12.4774053129
 30
0.0
  0
SPLINE
  5
272
100
AcDbEntity
  8
_30_VOLUMEN
100
AcDbSpline
 62
4
  6
CONTINUOUS
 70
0
 71
3
 72
9
 73
5
 74
0
 42
0.0000001
 43
0.0000001
 44
0.0000000001
 40
0.0
 40
0.0
 40
0.0
 40
0.0
 40
0.5006003715
 40
1.0
 40
1.0
 40
1.0
 40
1.0
 10
136.9991169819
 20
-12.4774053129
 30
0.0
 10
136.8927996841
 20
-12.5573850311
 30
0.0
 10
136.7182182691
 20
-12.7743658417
 30
0.0
 10
136.669983104
 20
-13.0486175889
 30
0.0
 10
136.679834076
 20
-13.1809741985
 30
0.0
  0
SPLINE
  5
273
100
AcDbEntity
  8
_30_VOLUMEN
100
AcDbSpline
 62
4
  6
CONTINUOUS
 70
0
 71
3
 72
15
 73
11
 74
0
 42
0.0000001
 43
0.0000001
 44
0.0000000001
 40
0.0
 40
0.0
 40
0.0
 40
0.0
 40
0.1251901271
 40
0.2508906145
 40
0.3766919851
 40
0.5021265182
 40
0.6269388249
 40
0.7512371245
 40
0.87543332
 40
1.0
 40
1.0
 40
1.0
 40
1.0
 10
140.3920213821
 20
-17.9897726807
 30
0.0
 10
140.2969575719
 20
-17.615566836
 30
0.0
 10
140.2551925076
 20
-16.8193884492
 30
0.0
 10
140.650305291
 20
-15.6968733282
 30
0.0
 10
141.440327865
 20
-14.8041317448
 30
0.0
 10
142.5071652134
 20
-14.2781760768
 30
0.0
 10
143.6899012993
 20
-14.1993491041
 30
0.0
 10
144.8083808246
 20
-14.5823937378
 30
0.0
 10
145.6897382032
 20
-15.3672717772
 30
0.0
 10
146.0296811552
 20
-16.0814785793
 30
0.0
 10
146.1242715474
 20
-16.4538208781
 30
0.0
  0
SPLINE
  5
274
100
AcDbEntity
  8
_30_VOLUMEN
100
AcDbSpline
 62
4
  6
CONTINUOUS
 70
0
 71
3
 72
15
 73
11
 74
0
 42
0.0000001
 43
0.0000001
 44
0.0000000001
 40
0.0
 40
0.0
 40
0.0
 40
0.0
 40
0.1252056169
 40
0.250888832
 40
0.3766939519
 40
0.5021265069
 40
0.6269369442
 40
0.7512389165
 40
0.8754178902
 40
1.0
 40
1.0
 40
1.0
 40
1.0
 10
146.2207747315
 20
-16.4689157066
 30
0.0
 10
146.3176464984
 20
-16.8502383285
 30
0.0
 10
146.3602801819
 20
-17.6614774803
 30
0.0
 10
145.9574413447
 20
-18.8051005789
 30
0.0
 10
145.1526309679
 20
-19.7147481424
 30
0.0
 10
144.0655880747
 20
-20.2505433141
 30
0.0
 10
142.860511229
 20
-20.3309690383
 30
0.0
 10
141.7210018996
 20
-19.9405846946
 30
0.0
 10
140.8228109571
 20
-19.1410947292
 30
0.0
 10
140.476507038
 20
-18.4133387335
 30
0.0
 10
140.3801176795
 20
-18.0339150469
 30
0.0
  0
SPLINE
  5
275
100
AcDbEntity
  8
_30_VOLUMEN
100
AcDbSpline
 62
4
  6
CONTINUOUS
 70
0
 71
3
 72
15
 73
11
 74
0
 42
0.0000001
 43
0.0000001
 44
0.0000000001
 40
0.0
 40
0.0
 40
0.0
 40
0.0
 40
0.12456668
 40
0.2487628755
 40
0.3730611751
 40
0.4978734818
 40
0.6233080149
 40
0.7491093855
 40
0.8748098729
 40
1.0
 40
1.0
 40
1.0
 40
1.0
 10
140.3920213821
 20
-17.9897726807
 30
0.0
 10
140.4866117744
 20
-18.3621149796
 30
0.0
 10
140.8265547263
 20
-19.0763217816
 30
0.0
 10
141.707912105
 20
-19.861199821
 30
0.0
 10
142.8263916302
 20
-20.2442444547
 30
0.0
 10
144.0091277161
 20
-20.1654174821
 30
0.0
 10
145.0759650646
 20
-19.639461814
 30
0.0
 10
145.8659876386
 20
-18.7467202307
 30
0.0
 10
146.2611004219
 20
-17.6242051097
 30
0.0
 10
146.2193353576
 20
-16.8280267228
 30
0.0
 10
146.1242715474
 20
-16.4538208781
 30
0.0
  0
SPLINE
  5
276
100
AcDbEntity
  8
_30_VOLUMEN
100
AcDbSpline
 62
4
  6
CONTINUOUS
 70
0
 71
3
 72
15
 73
11
 74
0
 42
0.0000001
 43
0.0000001
 44
0.0000000001
 40
0.0
 40
0.0
 40
0.0
 40
0.0
 40
0.1252056169
 40
0.250888832
 40
0.3766939519
 40
0.5021265069
 40
0.6269369442
 40
0.7512389165
 40
0.8754178902
 40
1.0
 40
1.0
 40
1.0
 40
1.0
 10
140.3801176795
 20
-18.0339150469
 30
0.0
 10
140.2832459127
 20
-17.652592425
 30
0.0
 10
140.2406122291
 20
-16.8413532732
 30
0.0
 10
140.6434510663
 20
-15.6977301746
 30
0.0
 10
141.4482614431
 20
-14.7880826111
 30
0.0
 10
142.5353043364
 20
-14.2522874394
 30
0.0
 10
143.740381182
 20
-14.1718617152
 30
0.0
 10
144.8798905114
 20
-14.5622460589
 30
0.0
 10
145.7780814539
 20
-15.3617360243
 30
0.0
 10
146.124385373
 20
-16.08949202
 30
0.0
 10
146.2207747315
 20
-16.4689157066
 30
0.0
  0
SPLINE
  5
277
100
AcDbEntity
  8
_30_VOLUMEN
100
AcDbSpline
 62
4
  6
CONTINUOUS
 70
0
 71
3
 72
9
 73
5
 74
0
 42
0.0000001
 43
0.0000001
 44
0.0000000001
 40
0.0
 40
0.0
 40
0.0
 40
0.0
 40
0.4989470634
 40
1.0
 40
1.0
 40
1.0
 40
1.0
 10
148.7570086626
 20
-9.5552509531
 30
0.0
 10
148.6643107526
 20
-9.4903527273
 30
0.0
 10
148.4471278619
 20
-9.4002351271
 30
0.0
 10
148.2124287677
 20
-9.4116722122
 30
0.0
 10
148.1026654257
 20
-9.4410832111
 30
0.0
  0
SPLINE
  5
278
100
AcDbEntity
  8
_30_VOLUMEN
100
AcDbSpline
 62
7
  6
CONTINUOUS
 70
0
 71
3
 72
16
 73
12
 74
0
 42
0.0000001
 43
0.0000001
 44
0.0000000001
 40
0.0
 40
0.0
 40
0.0
 40
0.0
 40
0.1239449247
 40
0.186231775
 40
0.2486135446
 40
0.3733701506
 40
0.4985916714
 40
0.6241467234
 40
0.7496944002
 40
0.8752443435
 40
1.0
 40
1.0
 40
1.0
 40
1.0
 10
141.5869157138
 20
-19.201137703
 30
0.0
 10
141.7978384456
 20
-19.3488313414
 30
0.0
 10
142.1524593759
 20
-19.5228076427
 30
0.0
 10
142.6574129081
 20
-19.6379715719
 30
0.0
 10
143.1760077589
 20
-19.6763400061
 30
0.0
 10
143.8277228865
 20
-19.572297871
 30
0.0
 10
144.5366821838
 20
-19.2196800678
 30
0.0
 10
145.1107704778
 20
-18.6716512003
 30
0.0
 10
145.4972754189
 20
-17.977411237
 30
0.0
 10
145.6590122467
 20
-17.20191994
 30
0.0
 10
145.6089709016
 20
-16.6748599114
 30
0.0
 10
145.5451565379
 20
-16.4236632908
 30
0.0
  0
SPLINE
  5
279
100
AcDbEntity
  8
_30_VOLUMEN
100
AcDbSpline
 62
4
  6
CONTINUOUS
 70
0
 71
3
 72
9
 73
5
 74
0
 42
0.0000001
 43
0.0000001
 44
0.0000000001
 40
0.0
 40
0.0
 40
0.0
 40
0.0
 40
0.5010987576
 40
1.0
 40
1.0
 40
1.0
 40
1.0
 10
137.5119675186
 20
-24.3614304754
 30
0.0
 10
137.5205278276
 20
-24.4764458759
 30
0.0
 10
137.5888914443
 20
-24.7051633883
 30
0.0
 10
137.7498178185
 20
-24.8817238176
 30
0.0
 10
137.8438837484
 20
-24.9475798004
 30
0.0
  0
SPLINE
  5
27A
100
AcDbEntity
  8
_21_KURVEN
100
AcDbSpline
 62
7
  6
CONTINUOUS
 70
0
 71
3
 72
9
 73
5
 74
0
 42
0.0000001
 43
0.0000001
 44
0.0000000001
 40
0.0
 40
0.0
 40
0.0
 40
0.0
 40
0.5
 40
1.0
 40
1.0
 40
1.0
 40
1.0
 10
149.0889248925
 20
-10.1414002781
 30
0.0
 10
149.0828786107
 20
-10.0862130568
 30
0.0
 10
149.0653600284
 20
-9.9688035152
 30
0.0
 10
149.0175815972
 20
-9.8666168602
 30
0.0
 10
148.9904064569
 20
-9.8134580357
 30
0.0
  0
SPLINE
  5
27B
100
AcDbEntity
  8
_21_KURVEN
100
AcDbSpline
 62
7
  6
CONTINUOUS
 70
0
 71
3
 72
9
 73
5
 74
0
 42
0.0000001
 43
0.0000001
 44
0.0000000001
 40
0.0
 40
0.0
 40
0.0
 40
0.0
 40
0.5
 40
1.0
 40
1.0
 40
1.0
 40
1.0
 10
148.9904064614
 20
-9.8134580438
 30
0.0
 10
148.984938763
 20
-9.8038555941
 30
0.0
 10
148.97462584
 20
-9.7858769998
 30
0.0
 10
148.9602206937
 20
-9.7639520953
 30
0.0
 10
148.9534496008
 20
-9.7538892093
 30
0.0
  0
SPLINE
  5
27C
100
AcDbEntity
  8
_21_KURVEN
100
AcDbSpline
 62
7
  6
CONTINUOUS
 70
0
 71
3
 72
9
 73
5
 74
0
 42
0.0000001
 43
0.0000001
 44
0.0000000001
 40
0.0
 40
0.0
 40
0.0
 40
0.0
 40
0.5
 40
1.0
 40
1.0
 40
1.0
 40
1.0
 10
148.9534496021
 20
-9.7538892112
 30
0.0
 10
148.9275013964
 20
-9.7181691466
 30
0.0
 10
148.8699477707
 20
-9.6435340743
 30
0.0
 10
148.7964172403
 20
-9.5847428556
 30
0.0
 10
148.7574614413
 20
-9.5555680111
 30
0.0
  0
SPLINE
  5
27D
100
AcDbEntity
  8
_21_KURVEN
100
AcDbSpline
 62
7
  6
CONTINUOUS
 70
0
 71
3
 72
9
 73
5
 74
0
 42
0.0000001
 43
0.0000001
 44
0.0000000001
 40
0.0
 40
0.0
 40
0.0
 40
0.0
 40
0.5
 40
1.0
 40
1.0
 40
1.0
 40
1.0
 10
148.7574614459
 20
-9.5555680143
 30
0.0
 10
148.7276654553
 20
-9.5356789814
 30
0.0
 10
148.6669954976
 20
-9.4971835476
 30
0.0
 10
148.6002783045
 20
-9.470384075
 30
0.0
 10
148.5658294716
 20
-9.4574874119
 30
0.0
  0
SPLINE
  5
27E
100
AcDbEntity
  8
_21_KURVEN
100
AcDbSpline
 62
7
  6
CONTINUOUS
 70
0
 71
3
 72
10
 73
6
 74
0
 42
0.0000001
 43
0.0000001
 44
0.0000000001
 40
0.0
 40
0.0
 40
0.0
 40
0.0
 40
0.5
 40
0.75
 40
1.0
 40
1.0
 40
1.0
 40
1.0
 10
148.5658294795
 20
-9.4574874147
 30
0.0
 10
148.4917127613
 20
-9.4357513414
 30
0.0
 10
148.3798257434
 20
-9.4089539222
 30
0.0
 10
148.2190375376
 20
-9.4169703098
 30
0.0
 10
148.1419970613
 20
-9.4326480232
 30
0.0
 10
148.1026654436
 20
-9.4410832063
 30
0.0
  0
SPLINE
  5
27F
100
AcDbEntity
  8
_21_KURVEN
100
AcDbSpline
 62
7
  6
CONTINUOUS
 70
0
 71
3
 72
9
 73
5
 74
0
 42
0.0000001
 43
0.0000001
 44
0.0000000001
 40
0.0
 40
0.0
 40
0.0
 40
0.0
 40
0.5
 40
1.0
 40
1.0
 40
1.0
 40
1.0
 10
149.3257632479
 20
-22.1605179449
 30
0.0
 10
149.3841462625
 20
-22.1424520131
 30
0.0
 10
149.5003938887
 20
-22.1014302436
 30
0.0
 10
149.5994169675
 20
-22.0273473538
 30
0.0
 10
149.6492833194
 20
-21.9867753617
 30
0.0
  0
SPLINE
  5
280
100
AcDbEntity
  8
_21_KURVEN
100
AcDbSpline
 62
7
  6
CONTINUOUS
 70
0
 71
3
 72
9
 73
5
 74
0
 42
0.0000001
 43
0.0000001
 44
0.0000000001
 40
0.0
 40
0.0
 40
0.0
 40
0.0
 40
0.5
 40
1.0
 40
1.0
 40
1.0
 40
1.0
 10
149.6492833211
 20
-21.9867753601
 30
0.0
 10
149.6937501718
 20
-21.9444524392
 30
0.0
 10
149.7794082046
 20
-21.8569413408
 30
0.0
 10
149.8373423897
 20
-21.7428202289
 30
0.0
 10
149.8631859803
 20
-21.6860142968
 30
0.0
  0
SPLINE
  5
281
100
AcDbEntity
  8
_21_KURVEN
100
AcDbSpline
 62
7
  6
CONTINUOUS
 70
0
 71
3
 72
10
 73
6
 74
0
 42
0.0000001
 43
0.0000001
 44
0.0000000001
 40
0.0
 40
0.0
 40
0.0
 40
0.0
 40
0.5
 40
0.75
 40
1.0
 40
1.0
 40
1.0
 40
1.0
 10
149.8631859796
 20
-21.6860142986
 30
0.0
 10
149.8842538658
 20
-21.6283779738
 30
0.0
 10
149.9121773052
 20
-21.5423037738
 30
0.0
 10
149.9238295499
 20
-21.4144694893
 30
0.0
 10
149.9221559852
 20
-21.3532134713
 30
0.0
 10
149.9210583357
 20
-21.3218565632
 30
0.0
  0
SPLINE
  5
282
100
AcDbEntity
  8
_21_KURVEN
100
AcDbSpline
 62
7
  6
CONTINUOUS
 70
0
 71
3
 72
9
 73
5
 74
0
 42
0.0000001
 43
0.0000001
 44
0.0000000001
 40
0.0
 40
0.0
 40
0.0
 40
0.0
 40
0.5
 40
1.0
 40
1.0
 40
1.0
 40
1.0
 10
137.5119675186
 20
-24.3614304754
 30
0.0
 10
137.5201242964
 20
-24.4303302832
 30
0.0
 10
137.542826996
 20
-24.5685964655
 30
0.0
 10
137.6110180607
 20
-24.6903211604
 30
0.0
 10
137.6474428154
 20
-24.7489415518
 30
0.0
  0
SPLINE
  5
283
100
AcDbEntity
  8
_21_KURVEN
100
AcDbSpline
 62
7
  6
CONTINUOUS
 70
0
 71
3
 72
9
 73
5
 74
0
 42
0.0000001
 43
0.0000001
 44
0.0000000001
 40
0.0
 40
0.0
 40
0.0
 40
0.0
 40
0.5
 40
1.0
 40
1.0
 40
1.0
 40
1.0
 10
137.6474428089
 20
-24.7489415423
 30
0.0
 10
137.6750788156
 20
-24.7868442569
 30
0.0
 10
137.7328939534
 20
-24.861273821
 30
0.0
 10
137.8066315294
 20
-24.9198042874
 30
0.0
 10
137.8444665275
 20
-24.9479876907
 30
0.0
  0
SPLINE
  5
284
100
AcDbEntity
  8
_21_KURVEN
100
AcDbSpline
 62
7
  6
CONTINUOUS
 70
0
 71
3
 72
9
 73
5
 74
0
 42
0.0000001
 43
0.0000001
 44
0.0000000001
 40
0.0
 40
0.0
 40
0.0
 40
0.0
 40
0.5
 40
1.0
 40
1.0
 40
1.0
 40
1.0
 10
137.8444665302
 20
-24.9479876926
 30
0.0
 10
137.8719681851
 20
-24.9663510504
 30
0.0
 10
137.9325641962
 20
-25.0049624832
 30
0.0
 10
137.9992292925
 20
-25.0318891807
 30
0.0
 10
138.0350629255
 20
-25.0453433367
 30
0.0
  0
SPLINE
  5
285
100
AcDbEntity
  8
_21_KURVEN
100
AcDbSpline
 62
7
  6
CONTINUOUS
 70
0
 71
3
 72
8
 73
4
 74
0
 42
0.0000001
 43
0.0000001
 44
0.0000000001
 40
0.0
 40
0.0
 40
0.0
 40
0.0
 40
1.0
 40
1.0
 40
1.0
 40
1.0
 10
138.0350629316
 20
-25.0453433388
 30
0.0
 10
138.0716967528
 20
-25.0575777799
 30
0.0
 10
138.1127795715
 20
-25.0685152058
 30
0.0
 10
138.1540800356
 20
-25.0764914975
 30
0.0
  0
SPLINE
  5
286
100
AcDbEntity
  8
_21_KURVEN
100
AcDbSpline
 62
7
  6
CONTINUOUS
 70
0
 71
3
 72
9
 73
5
 74
0
 42
0.0000001
 43
0.0000001
 44
0.0000000001
 40
0.0
 40
0.0
 40
0.0
 40
0.0
 40
0.5
 40
1.0
 40
1.0
 40
1.0
 40
1.0
 10
138.1540800393
 20
-25.0764914981
 30
0.0
 10
138.2087768693
 20
-25.0843209654
 30
0.0
 10
138.3250463254
 20
-25.0967181474
 30
0.0
 10
138.4403689651
 20
-25.0749618081
 30
0.0
 10
138.4982269941
 20
-25.0617475401
 30
0.0
  0
SPLINE
  5
287
100
AcDbEntity
  8
_21_KURVEN
100
AcDbSpline
 62
1
  6
CENTER
 70
0
 71
3
 72
163
 73
159
 74
0
 42
0.0000001
 43
0.0000001
 44
0.0000000001
 40
0.0
 40
0.0
 40
0.0
 40
0.0
 40
0.015625
 40
0.03125
 40
0.0390625
 40
0.046875
 40
0.0546875
 40
0.05859375
 40
0.060546875
 40
0.0625
 40
0.064453125
 40
0.06640625
 40
0.0703125
 40
0.078125
 40
0.09375
 40
0.109375
 40
0.1171875
 40
0.12109375
 40
0.123046875
 40
0.125
 40
0.126953125
 40
0.12890625
 40
0.1328125
 40
0.140625
 40
0.15625
 40
0.171875
 40
0.1796875
 40
0.18359375
 40
0.185546875
 40
0.1875
 40
0.189453125
 40
0.19140625
 40
0.1953125
 40
0.203125
 40
0.21875
 40
0.234375
 40
0.2421875
 40
0.24609375
 40
0.248046875
 40
0.25
 40
0.251953125
 40
0.25390625
 40
0.2578125
 40
0.265625
 40
0.28125
 40
0.296875
 40
0.3046875
 40
0.30859375
 40
0.310546875
 40
0.3125
 40
0.314453125
 40
0.31640625
 40
0.3203125
 40
0.328125
 40
0.34375
 40
0.359375
 40
0.3671875
 40
0.37109375
 40
0.373046875
 40
0.375
 40
0.376953125
 40
0.37890625
 40
0.3828125
 40
0.390625
 40
0.40625
 40
0.421875
 40
0.4296875
 40
0.43359375
 40
0.435546875
 40
0.4375
 40
0.439453125
 40
0.44140625
 40
0.4453125
 40
0.453125
 40
0.46875
 40
0.484375
 40
0.4921875
 40
0.49609375
 40
0.498046875
 40
0.5
 40
0.501953125
 40
0.50390625
 40
0.5078125
 40
0.515625
 40
0.53125
 40
0.546875
 40
0.5546875
 40
0.55859375
 40
0.560546875
 40
0.5625
 40
0.564453125
 40
0.56640625
 40
0.5703125
 40
0.578125
 40
0.59375
 40
0.609375
 40
0.6171875
 40
0.62109375
 40
0.623046875
 40
0.625
 40
0.626953125
 40
0.62890625
 40
0.6328125
 40
0.640625
 40
0.65625
 40
0.671875
 40
0.6796875
 40
0.68359375
 40
0.685546875
 40
0.6875
 40
0.689453125
 40
0.69140625
 40
0.6953125
 40
0.703125
 40
0.71875
 40
0.734375
 40
0.7421875
 40
0.74609375
 40
0.748046875
 40
0.75
 40
0.751953125
 40
0.75390625
 40
0.7578125
 40
0.765625
 40
0.78125
 40
0.796875
 40
0.8046875
 40
0.80859375
 40
0.810546875
 40
0.8125
 40
0.814453125
 40
0.81640625
 40
0.8203125
 40
0.828125
 40
0.84375
 40
0.859375
 40
0.8671875
 40
0.87109375
 40
0.873046875
 40
0.875
 40
0.876953125
 40
0.87890625
 40
0.8828125
 40
0.890625
 40
0.90625
 40
0.921875
 40
0.9296875
 40
0.93359375
 40
0.935546875
 40
0.9375
 40
0.939453125
 40
0.94140625
 40
0.9453125
 40
0.953125
 40
0.9609375
 40
0.96875
 40
0.984375
 40
1.0
 40
1.0
 40
1.0
 40
1.0
 10
137.20041787
 20
-18.8859130431
 30
0.0
 10
137.2352141915
 20
-18.9821813636
 30
0.0
 10
137.3048107381
 20
-19.1747160883
 30
0.0
 10
137.391786903
 20
-19.4153940763
 30
0.0
 10
137.4614088235
 20
-19.6079163442
 30
0.0
 10
137.5135140094
 20
-19.7523626636
 30
0.0
 10
137.557288767
 20
-19.872560919
 30
0.0
 10
137.5872368556
 20
-19.9570405248
 30
0.0
 10
137.605434047
 20
-20.0047824137
 30
0.0
 10
137.6160283016
 20
-20.0420879657
 30
0.0
 10
137.638295113
 20
-20.0736630621
 30
0.0
 10
137.6639129798
 20
-20.1177619055
 30
0.0
 10
137.7106380562
 20
-20.1940049695
 30
0.0
 10
137.802736375
 20
-20.347156788
 30
0.0
 10
137.9350707811
 20
-20.5655529636
 30
0.0
 10
138.0669185924
 20
-20.7842497036
 30
0.0
 10
138.1596981439
 20
-20.9369807319
 30
0.0
 10
138.2054865254
 20
-21.0138023825
 30
0.0
 10
138.2326128358
 20
-21.0569694761
 30
0.0
 10
138.2502448327
 20
-21.0914074488
 30
0.0
 10
138.2782470126
 20
-21.1179603079
 30
0.0
 10
138.3119662833
 20
-21.1561143438
 30
0.0
 10
138.3726575433
 20
-21.2216044545
 30
0.0
 10
138.4928387148
 20
-21.3534994267
 30
0.0
 10
138.6652088825
 20
-21.54139125
 30
0.0
 10
138.8371362135
 20
-21.7296589528
 30
0.0
 10
138.9579373565
 20
-21.8610276937
 30
0.0
 10
139.0177761556
 20
-21.9272413724
 30
0.0
 10
139.0528682204
 20
-21.9642301819
 30
0.0
 10
139.0766523797
 20
-21.9943632929
 30
0.0
 10
139.1101268635
 20
-22.0153541778
 30
0.0
 10
139.151379684
 20
-22.0465307211
 30
0.0
 10
139.2251441409
 20
-22.0996061479
 30
0.0
 10
139.3715528829
 20
-22.2068186295
 30
0.0
 10
139.5813267246
 20
-22.3593569281
 30
0.0
 10
139.7907602429
 20
-22.5123626363
 30
0.0
 10
139.9376454377
 20
-22.6189207444
 30
0.0
 10
140.010754772
 20
-22.6728959348
 30
0.0
 10
140.0530625952
 20
-22.7026235082
 30
0.0
 10
140.0832954982
 20
-22.7280664698
 30
0.0
 10
140.1192547286
 20
-22.7414780014
 30
0.0
 10
140.1652031155
 20
-22.7635564379
 30
0.0
 10
140.2465418099
 20
-22.8002415658
 30
0.0
 10
140.4085565716
 20
-22.875006383
 30
0.0
 10
140.6403772219
 20
-22.9810149446
 30
0.0
 10
140.8719760563
 20
-23.0875604792
 30
0.0
 10
141.0343013603
 20
-23.1615735341
 30
0.0
 10
141.1152130591
 20
-23.1992923351
 30
0.0
 10
141.1618490754
 20
-23.2197061553
 30
0.0
 10
141.1956955089
 20
-23.2382323548
 30
0.0
 10
141.2338638773
 20
-23.244465107
 30
0.0
 10
141.28324762
 20
-23.2570632275
 30
0.0
 10
141.3703702562
 20
-23.2771152695
 30
0.0
 10
141.544116421
 20
-23.3186445118
 30
0.0
 10
141.7925970854
 20
-23.3771544661
 30
0.0
 10
142.0409410009
 20
-23.4362199722
 30
0.0
 10
142.2148786141
 20
-23.4769714421
 30
0.0
 10
142.3017380087
 20
-23.4980929212
 30
0.0
 10
142.3515456731
 20
-23.5089688313
 30
0.0
 10
142.388411508
 20
-23.5204932138
 30
0.0
 10
142.4271501342
 20
-23.5191445497
 30
0.0
 10
142.4781484408
 20
-23.5218362701
 30
0.0
 10
142.5676992544
 20
-23.5244580826
 30
0.0
 10
142.7465848323
 20
-23.531193904
 30
0.0
 10
143.0022516396
 20
-23.53996167
 30
0.0
 10
143.2578660426
 20
-23.549306501
 30
0.0
 10
143.4368249865
 20
-23.5552344314
 30
0.0
 10
143.5262749219
 20
-23.5589670939
 30
0.0
 10
143.5774356816
 20
-23.559869913
 30
0.0
 10
143.6156751576
 20
-23.5640177925
 30
0.0
 10
143.6544157534
 20
-23.5548976764
 30
0.0
 10
143.7058951269
 20
-23.5473652063
 30
0.0
 10
143.7960650304
 20
-23.5320306797
 30
0.0
 10
143.9763502989
 20
-23.5028987284
 30
0.0
 10
144.2339052987
 20
-23.460407661
 30
0.0
 10
144.4915457161
 20
-23.4184847566
 30
0.0
 10
144.6717114001
 20
-23.3885573773
 30
0.0
 10
144.7620457323
 20
-23.3743165642
 30
0.0
 10
144.8132603115
 20
-23.3650227891
 30
0.0
 10
144.8528145092
 20
-23.3613144245
 30
0.0
 10
144.887998173
 20
-23.3451362771
 30
0.0
 10
144.9364341123
 20
-23.3279146931
 30
0.0
 10
145.0204878047
 20
-23.2957537296
 30
0.0
 10
145.1891025724
 20
-23.2328763845
 30
0.0
 10
145.4296843948
 20
-23.14223057
 30
0.0
 10
145.6704854421
 20
-23.0521173144
 30
0.0
 10
145.8387932949
 20
-22.9884943868
 30
0.0
 10
145.9232689952
 20
-22.9573585993
 30
0.0
 10
145.9710253373
 20
-22.9384860825
 30
0.0
 10
146.0082971185
 20
-22.9273805591
 30
0.0
 10
146.0400085444
 20
-22.9046198985
 30
0.0
 10
146.0842298321
 20
-22.8783374901
 30
0.0
 10
146.1607147721
 20
-22.8304522946
 30
0.0
 10
146.314330634
 20
-22.7360316947
 30
0.0
 10
146.5334009546
 20
-22.6003810895
 30
0.0
 10
146.7527644763
 20
-22.4652155894
 30
0.0
 10
146.9059698566
 20
-22.3701158424
 30
0.0
 10
146.9830192088
 20
-22.3231644742
 30
0.0
 10
147.0263315729
 20
-22.2953782401
 30
0.0
 10
147.0608357397
 20
-22.2772382055
 30
0.0
 10
147.0876182503
 20
-22.2487780473
 30
0.0
 10
147.1260214766
 20
-22.2144306788
 30
0.0
 10
147.1919741916
 20
-22.152648371
 30
0.0
 10
147.3247754306
 20
-22.0302792887
 30
0.0
 10
147.5139727291
 20
-21.854786959
 30
0.0
 10
147.7035387537
 20
-21.6797348429
 30
0.0
 10
147.8358237762
 20
-21.5567494616
 30
0.0
 10
147.9024862889
 20
-21.495814565
 30
0.0
 10
147.9397464644
 20
-21.4601025343
 30
0.0
 10
147.9700410907
 20
-21.4358354108
 30
0.0
 10
147.9913540829
 20
-21.401946734
 30
0.0
 10
148.0229040905
 20
-21.3601176694
 30
0.0
 10
148.076659134
 20
-21.2853559471
 30
0.0
 10
148.1852122638
 20
-21.1369446647
 30
0.0
 10
148.339676196
 20
-20.9243149225
 30
0.0
 10
148.4946012502
 20
-20.7120212743
 30
0.0
 10
148.6025088091
 20
-20.5631394604
 30
0.0
 10
148.6571515126
 20
-20.489024719
 30
0.0
 10
148.6872720418
 20
-20.4461537629
 30
0.0
 10
148.7129772217
 20
-20.4154663817
 30
0.0
 10
148.7267752058
 20
-20.3791754947
 30
0.0
 10
148.7493255813
 20
-20.3327420605
 30
0.0
 10
148.7868567585
 20
-20.2505744619
 30
0.0
 10
148.8632992881
 20
-20.0868876505
 30
0.0
 10
148.9717127138
 20
-19.8526865486
 30
0.0
 10
149.0806579864
 20
-19.6187016258
 30
0.0
 10
149.1563559305
 20
-19.4547121637
 30
0.0
 10
149.1949109128
 20
-19.3729607098
 30
0.0
 10
149.2158125632
 20
-19.3258571205
 30
0.0
 10
149.2346763881
 20
-19.2916253391
 30
0.0
 10
149.2413547484
 20
-19.253204152
 30
0.0
 10
149.2545093504
 20
-19.2034370932
 30
0.0
 10
149.2755527537
 20
-19.1156651582
 30
0.0
 10
149.3190522242
 20
-18.940605023
 30
0.0
 10
149.3803837783
 20
-18.690256143
 30
0.0
 10
149.4422667303
 20
-18.4400377535
 30
0.0
 10
149.4849942437
 20
-18.2647949317
 30
0.0
 10
149.507099088
 20
-18.1772741908
 30
0.0
 10
149.5185443564
 20
-18.1271026116
 30
0.0
 10
149.5304747821
 20
-18.0899243461
 30
0.0
 10
149.5296123457
 20
-18.0510242686
 30
0.0
 10
149.5329244025
 20
-17.9997580339
 30
0.0
 10
149.536644813
 20
-17.9097628437
 30
0.0
 10
149.5455685484
 20
-17.7299710066
 30
0.0
 10
149.5574671262
 20
-17.4730196076
 30
0.0
 10
149.5699395674
 20
-17.2161137006
 30
0.0
 10
149.5780598941
 20
-17.0362581748
 30
0.0
 10
149.5828849916
 20
-16.9463505566
 30
0.0
 10
149.5844180719
 20
-16.8949432969
 30
0.0
 10
149.5890216842
 20
-16.85647653
 30
0.0
 10
149.5804221475
 20
-16.8176707906
 30
0.0
 10
149.5735615049
 20
-16.7660480421
 30
0.0
 10
149.5594096358
 20
-16.6756531433
 30
0.0
 10
149.5403145025
 20
-16.5465463747
 30
0.0
 10
149.5169201528
 20
-16.3916059243
 30
0.0
 10
149.485895477
 20
-16.1850229648
 30
0.0
 10
149.4470566783
 20
-15.9267927776
 30
0.0
 10
149.4160033016
 20
-15.7202090813
 30
0.0
 10
149.4004744054
 20
-15.6169171765
 30
0.0
  0
SPLINE
  5
288
100
AcDbEntity
  8
_21_KURVEN
100
AcDbSpline
 62
1
  6
CENTER
 70
0
 71
3
 72
163
 73
159
 74
0
 42
0.0000001
 43
0.0000001
 44
0.0000000001
 40
0.0
 40
0.0
 40
0.0
 40
0.0
 40
0.015625
 40
0.03125
 40
0.0390625
 40
0.046875
 40
0.0546875
 40
0.05859375
 40
0.060546875
 40
0.0625
 40
0.064453125
 40
0.06640625
 40
0.0703125
 40
0.078125
 40
0.09375
 40
0.109375
 40
0.1171875
 40
0.12109375
 40
0.123046875
 40
0.125
 40
0.126953125
 40
0.12890625
 40
0.1328125
 40
0.140625
 40
0.15625
 40
0.171875
 40
0.1796875
 40
0.18359375
 40
0.185546875
 40
0.1875
 40
0.189453125
 40
0.19140625
 40
0.1953125
 40
0.203125
 40
0.21875
 40
0.234375
 40
0.2421875
 40
0.24609375
 40
0.248046875
 40
0.25
 40
0.251953125
 40
0.25390625
 40
0.2578125
 40
0.265625
 40
0.28125
 40
0.296875
 40
0.3046875
 40
0.30859375
 40
0.310546875
 40
0.3125
 40
0.314453125
 40
0.31640625
 40
0.3203125
 40
0.328125
 40
0.34375
 40
0.359375
 40
0.3671875
 40
0.37109375
 40
0.373046875
 40
0.375
 40
0.376953125
 40
0.37890625
 40
0.3828125
 40
0.390625
 40
0.40625
 40
0.421875
 40
0.4296875
 40
0.43359375
 40
0.435546875
 40
0.4375
 40
0.439453125
 40
0.44140625
 40
0.4453125
 40
0.453125
 40
0.46875
 40
0.484375
 40
0.4921875
 40
0.49609375
 40
0.498046875
 40
0.5
 40
0.501953125
 40
0.50390625
 40
0.5078125
 40
0.515625
 40
0.53125
 40
0.546875
 40
0.5546875
 40
0.55859375
 40
0.560546875
 40
0.5625
 40
0.564453125
 40
0.56640625
 40
0.5703125
 40
0.578125
 40
0.59375
 40
0.609375
 40
0.6171875
 40
0.62109375
 40
0.623046875
 40
0.625
 40
0.626953125
 40
0.62890625
 40
0.6328125
 40
0.640625
 40
0.65625
 40
0.671875
 40
0.6796875
 40
0.68359375
 40
0.685546875
 40
0.6875
 40
0.689453125
 40
0.69140625
 40
0.6953125
 40
0.703125
 40
0.71875
 40
0.734375
 40
0.7421875
 40
0.74609375
 40
0.748046875
 40
0.75
 40
0.751953125
 40
0.75390625
 40
0.7578125
 40
0.765625
 40
0.78125
 40
0.796875
 40
0.8046875
 40
0.80859375
 40
0.810546875
 40
0.8125
 40
0.814453125
 40
0.81640625
 40
0.8203125
 40
0.828125
 40
0.84375
 40
0.859375
 40
0.8671875
 40
0.87109375
 40
0.873046875
 40
0.875
 40
0.876953125
 40
0.87890625
 40
0.8828125
 40
0.890625
 40
0.90625
 40
0.921875
 40
0.9296875
 40
0.93359375
 40
0.935546875
 40
0.9375
 40
0.939453125
 40
0.94140625
 40
0.9453125
 40
0.953125
 40
0.9609375
 40
0.96875
 40
0.984375
 40
1.0
 40
1.0
 40
1.0
 40
1.0
 10
149.400474541
 20
-15.6169177104
 30
0.0
 10
149.3656782196
 20
-15.5206493899
 30
0.0
 10
149.296081673
 20
-15.3281146652
 30
0.0
 10
149.209105508
 20
-15.0874366771
 30
0.0
 10
149.1394835876
 20
-14.8949144093
 30
0.0
 10
149.0873784016
 20
-14.7504680899
 30
0.0
 10
149.043603644
 20
-14.6302698345
 30
0.0
 10
149.0136555554
 20
-14.5457902287
 30
0.0
 10
148.9954583641
 20
-14.4980483398
 30
0.0
 10
148.9848641095
 20
-14.4607427878
 30
0.0
 10
148.962597298
 20
-14.4291676914
 30
0.0
 10
148.9369794312
 20
-14.385068848
 30
0.0
 10
148.8902543549
 20
-14.308825784
 30
0.0
 10
148.798156036
 20
-14.1556739655
 30
0.0
 10
148.66582163
 20
-13.9372777899
 30
0.0
 10
148.5339738186
 20
-13.7185810499
 30
0.0
 10
148.4411942672
 20
-13.5658500215
 30
0.0
 10
148.3954058856
 20
-13.489028371
 30
0.0
 10
148.3682795752
 20
-13.4458612774
 30
0.0
 10
148.3506475783
 20
-13.4114233047
 30
0.0
 10
148.3226453984
 20
-13.3848704456
 30
0.0
 10
148.2889261278
 20
-13.3467164097
 30
0.0
 10
148.2282348677
 20
-13.281226299
 30
0.0
 10
148.1080536963
 20
-13.1493313268
 30
0.0
 10
147.9356835285
 20
-12.9614395035
 30
0.0
 10
147.7637561976
 20
-12.7731718007
 30
0.0
 10
147.6429550546
 20
-12.6418030598
 30
0.0
 10
147.5831162554
 20
-12.5755893811
 30
0.0
 10
147.5480241906
 20
-12.5386005715
 30
0.0
 10
147.5242400314
 20
-12.5084674606
 30
0.0
 10
147.4907655476
 20
-12.4874765757
 30
0.0
 10
147.449512727
 20
-12.4563000324
 30
0.0
 10
147.3757482701
 20
-12.4032246056
 30
0.0
 10
147.2293395281
 20
-12.2960121239
 30
0.0
 10
147.0195656864
 20
-12.1434738254
 30
0.0
 10
146.8101321681
 20
-11.9904681172
 30
0.0
 10
146.6632469733
 20
-11.8839100091
 30
0.0
 10
146.5901376391
 20
-11.8299348187
 30
0.0
 10
146.5478298158
 20
-11.8002072453
 30
0.0
 10
146.5175969128
 20
-11.7747642837
 30
0.0
 10
146.4816376824
 20
-11.7613527521
 30
0.0
 10
146.4356892955
 20
-11.7392743156
 30
0.0
 10
146.3543506011
 20
-11.7025891877
 30
0.0
 10
146.1923358394
 20
-11.6278243705
 30
0.0
 10
145.9605151891
 20
-11.5218158089
 30
0.0
 10
145.7289163547
 20
-11.4152702743
 30
0.0
 10
145.5665910507
 20
-11.3412572194
 30
0.0
 10
145.485679352
 20
-11.3035384184
 30
0.0
 10
145.4390433357
 20
-11.2831245982
 30
0.0
 10
145.4051969021
 20
-11.2645983987
 30
0.0
 10
145.3670285338
 20
-11.2583656465
 30
0.0
 10
145.317644791
 20
-11.245767526
 30
0.0
 10
145.2305221548
 20
-11.225715484
 30
0.0
 10
145.05677599
 20
-11.1841862417
 30
0.0
 10
144.8082953256
 20
-11.1256762874
 30
0.0
 10
144.5599514102
 20
-11.0666107813
 30
0.0
 10
144.3860137969
 20
-11.0258593114
 30
0.0
 10
144.2991544024
 20
-11.0047378323
 30
0.0
 10
144.249346738
 20
-10.9938619222
 30
0.0
 10
144.2124809031
 20
-10.9823375397
 30
0.0
 10
144.1737422769
 20
-10.9836862038
 30
0.0
 10
144.1227439702
 20
-10.9809944834
 30
0.0
 10
144.0331931567
 20
-10.9783726709
 30
0.0
 10
143.8543075787
 20
-10.9716368495
 30
0.0
 10
143.5986407715
 20
-10.9628690835
 30
0.0
 10
143.3430263684
 20
-10.9535242525
 30
0.0
 10
143.1640674246
 20
-10.9475963221
 30
0.0
 10
143.0746174891
 20
-10.9438636595
 30
0.0
 10
143.0234567294
 20
-10.9429608405
 30
0.0
 10
142.9852172534
 20
-10.938812961
 30
0.0
 10
142.9464766576
 20
-10.9479330771
 30
0.0
 10
142.8949972841
 20
-10.9554655472
 30
0.0
 10
142.8048273806
 20
-10.9708000738
 30
0.0
 10
142.6245421122
 20
-10.9999320251
 30
0.0
 10
142.3669871123
 20
-11.0424230924
 30
0.0
 10
142.1093466949
 20
-11.0843459969
 30
0.0
 10
141.929181011
 20
-11.1142733762
 30
0.0
 10
141.8388466787
 20
-11.1285141893
 30
0.0
 10
141.7876320996
 20
-11.1378079644
 30
0.0
 10
141.7480779018
 20
-11.141516329
 30
0.0
 10
141.712894238
 20
-11.1576944764
 30
0.0
 10
141.6644582987
 20
-11.1749160604
 30
0.0
 10
141.5804046064
 20
-11.2070770238
 30
0.0
 10
141.4117898387
 20
-11.269954369
 30
0.0
 10
141.1712080163
 20
-11.3606001835
 30
0.0
 10
140.930406969
 20
-11.4507134391
 30
0.0
 10
140.7620991162
 20
-11.5143363667
 30
0.0
 10
140.6776234159
 20
-11.5454721542
 30
0.0
 10
140.6298670738
 20
-11.5643446709
 30
0.0
 10
140.5925952926
 20
-11.5754501944
 30
0.0
 10
140.5608838666
 20
-11.598210855
 30
0.0
 10
140.516662579
 20
-11.6244932634
 30
0.0
 10
140.4401776389
 20
-11.6723784589
 30
0.0
 10
140.2865617771
 20
-11.7667990587
 30
0.0
 10
140.0674914565
 20
-11.902449664
 30
0.0
 10
139.8481279347
 20
-12.0376151641
 30
0.0
 10
139.6949225545
 20
-12.132714911
 30
0.0
 10
139.6178732022
 20
-12.1796662793
 30
0.0
 10
139.5745608381
 20
-12.2074525134
 30
0.0
 10
139.5400566713
 20
-12.225592548
 30
0.0
 10
139.5132741607
 20
-12.2540527062
 30
0.0
 10
139.4748709344
 20
-12.2884000747
 30
0.0
 10
139.4089182194
 20
-12.3501823825
 30
0.0
 10
139.2761169804
 20
-12.4725514648
 30
0.0
 10
139.0869196819
 20
-12.6480437945
 30
0.0
 10
138.8973536574
 20
-12.8230959106
 30
0.0
 10
138.7650686348
 20
-12.9460812919
 30
0.0
 10
138.6984061222
 20
-13.0070161885
 30
0.0
 10
138.6611459466
 20
-13.0427282192
 30
0.0
 10
138.6308513203
 20
-13.0669953427
 30
0.0
 10
138.6095383282
 20
-13.1008840195
 30
0.0
 10
138.5779883205
 20
-13.1427130841
 30
0.0
 10
138.524233277
 20
-13.2174748064
 30
0.0
 10
138.4156801472
 20
-13.3658860887
 30
0.0
 10
138.2612162151
 20
-13.578515831
 30
0.0
 10
138.1062911608
 20
-13.7908094792
 30
0.0
 10
137.998383602
 20
-13.9396912931
 30
0.0
 10
137.9437408984
 20
-14.0138060344
 30
0.0
 10
137.9136203693
 20
-14.0566769906
 30
0.0
 10
137.8879151893
 20
-14.0873643718
 30
0.0
 10
137.8741172052
 20
-14.1236552588
 30
0.0
 10
137.8515668298
 20
-14.170088693
 30
0.0
 10
137.8140356526
 20
-14.2522562916
 30
0.0
 10
137.737593123
 20
-14.415943103
 30
0.0
 10
137.6291796972
 20
-14.6501442049
 30
0.0
 10
137.5202344246
 20
-14.8841291277
 30
0.0
 10
137.4445364806
 20
-15.0481185898
 30
0.0
 10
137.4059814982
 20
-15.1298700437
 30
0.0
 10
137.3850798479
 20
-15.176973633
 30
0.0
 10
137.366216023
 20
-15.2112054144
 30
0.0
 10
137.3595376626
 20
-15.2496266015
 30
0.0
 10
137.3463830606
 20
-15.2993936603
 30
0.0
 10
137.3253396573
 20
-15.3871655953
 30
0.0
 10
137.2818401869
 20
-15.5622257305
 30
0.0
 10
137.2205086328
 20
-15.8125746105
 30
0.0
 10
137.1586256807
 20
-16.0627929999
 30
0.0
 10
137.1158981673
 20
-16.2380358218
 30
0.0
 10
137.093793323
 20
-16.3255565627
 30
0.0
 10
137.0823480546
 20
-16.3757281419
 30
0.0
 10
137.0704176289
 20
-16.4129064073
 30
0.0
 10
137.0712800653
 20
-16.4518064849
 30
0.0
 10
137.0679680085
 20
-16.5030727196
 30
0.0
 10
137.0642475981
 20
-16.5930679098
 30
0.0
 10
137.0553238627
 20
-16.7728597469
 30
0.0
 10
137.0434252848
 20
-17.0298111459
 30
0.0
 10
137.0309528436
 20
-17.2867170529
 30
0.0
 10
137.0228325169
 20
-17.4665725787
 30
0.0
 10
137.0180074195
 20
-17.5564801969
 30
0.0
 10
137.0164743391
 20
-17.6078874566
 30
0.0
 10
137.0118707268
 20
-17.6463542235
 30
0.0
 10
137.0204702635
 20
-17.6851599629
 30
0.0
 10
137.0273309061
 20
-17.7367827114
 30
0.0
 10
137.0414827753
 20
-17.8271776102
 30
0.0
 10
137.0605779085
 20
-17.9562843788
 30
0.0
 10
137.0839722582
 20
-18.1112248292
 30
0.0
 10
137.114996934
 20
-18.3178077886
 30
0.0
 10
137.1538357327
 20
-18.5760379759
 30
0.0
 10
137.1848891095
 20
-18.7826216722
 30
0.0
 10
137.2004180057
 20
-18.885913577
 30
0.0
  0
SPLINE
  5
289
100
AcDbEntity
  8
_21_KURVEN
100
AcDbSpline
 62
7
  6
CONTINUOUS
 70
0
 71
3
 72
9
 73
5
 74
0
 42
0.0000001
 43
0.0000001
 44
0.0000000001
 40
0.0
 40
0.0
 40
0.0
 40
0.0
 40
0.5
 40
1.0
 40
1.0
 40
1.0
 40
1.0
 10
137.2751291632
 20
-12.3423128086
 30
0.0
 10
137.224626947
 20
-12.3576517407
 30
0.0
 10
137.1252227684
 20
-12.391148
 30
0.0
 10
137.0332661054
 20
-12.4528351301
 30
0.0
 10
136.9894966762
 20
-12.4846375862
 30
0.0
  0
SPLINE
  5
28A
100
AcDbEntity
  8
_21_KURVEN
100
AcDbSpline
 62
7
  6
CONTINUOUS
 70
0
 71
3
 72
21
 73
17
 74
0
 42
0.0000001
 43
0.0000001
 44
0.0000000001
 40
0.0
 40
0.0
 40
0.0
 40
0.0
 40
0.125
 40
0.1875
 40
0.25
 40
0.3125
 40
0.375
 40
0.4375
 40
0.5
 40
0.5625
 40
0.625
 40
0.6875
 40
0.75
 40
0.8125
 40
0.875
 40
1.0
 40
1.0
 40
1.0
 40
1.0
 10
136.9894966685
 20
-12.4846375922
 30
0.0
 10
136.9653734716
 20
-12.5067954137
 30
0.0
 10
136.9286599936
 20
-12.5395372804
 30
0.0
 10
136.8818234201
 20
-12.5851725651
 30
0.0
 10
136.8530431934
 20
-12.6252973768
 30
0.0
 10
136.8210848474
 20
-12.6625330733
 30
0.0
 10
136.7954917749
 20
-12.7054268825
 30
0.0
 10
136.7724342212
 20
-12.749939265
 30
0.0
 10
136.7452785655
 20
-12.7930001961
 30
0.0
 10
136.7319797991
 20
-12.8402483598
 30
0.0
 10
136.7145003468
 20
-12.8861758766
 30
0.0
 10
136.6998867486
 20
-12.9331987482
 30
0.0
 10
136.6932356697
 20
-12.983158141
 30
0.0
 10
136.6823591594
 20
-13.0322706805
 30
0.0
 10
136.6797760873
 20
-13.098355256
 30
0.0
 10
136.6801142801
 20
-13.1479278428
 30
0.0
 10
136.679834076
 20
-13.1809741995
 30
0.0
  0
ENDSEC
  0
SECTION
  2
OBJECTS
  0
DICTIONARY
  5
C
100
AcDbDictionary
280
0
281
1
  3
ACAD_GROUP
350
D
  3
ACAD_MLINESTYLE
350
17
  3
ACAD_LAYOUT
350
1A
  3
ACAD_PLOTSETTINGS
350
19
  3
ACAD_PLOTSTYLENAME
350
E
  0
DICTIONARY
  5
D
102
{ACAD_REACTORS
330
C
102
}
100
AcDbDictionary
280
0
281
1
  0
ACDBDICTIONARYWDFLT
  5
E
102
{ACAD_REACTORS
330
C
102
}
100
AcDbDictionary
281
1
  3
Normal
350
F
100
AcDbDictionaryWithDefault
340
F
  0
DICTIONARY
  5
17
102
{ACAD_REACTORS
330
C
102
}
100
AcDbDictionary
280
0
281
1
  3
Standard
350
18
  0
DICTIONARY
  5
19
102
{ACAD_REACTORS
330
C
102
}
100
AcDbDictionary
281
1
  0
DICTIONARY
  5
1A
102
{ACAD_REACTORS
330
C
102
}
100
AcDbDictionary
281
1
  3
Model
350
28B
  3
Layout1
350
28C
  0
ACDBPLACEHOLDER
  5
F
102
{ACAD_REACTORS
330
E
102
}
  0
MLINESTYLE
  5
18
102
{ACAD_REACTORS
330
17
102
}
100
AcDbMlineStyle
  2
STANDARD
 70
0
  3

 62
256
 51
90.0
 52
90.0
 71
2
 49
0.5
 62
256
  6
BYLAYER
 49
-0.5
 62
256
  6
BYLAYER
  0
LAYOUT
  5
28B
102
{ACAD_REACTORS
330
1A
102
}
100
AcDbPlotSettings
  1

  2
none_device
  4
ISO_A3_(420.00_x_297.00_MM)
  6

 40
0.0
 41
0.0
 42
0.0
 43
0.0
 44
420.0
 45
297.0
 46
0.0
 47
0.0
 48
0.0
 49
0.0
140
0.0
141
0.0
142
1.0
143
1.0
 70
1024
 72
1
 73
0
 74
0
  7

 75
0
147
1.0
148
0.0
149
0.0
100
AcDbLayout
  1
Model
 70
0
 71
0
 10
0.0
 20
0.0
 11
420.0
 21
297.0
 12
0.0
 22
0.0
 32
0.0
 14
0.0
 24
0.0
 34
0.0
 15
0.0
 25
0.0
 35
0.0
146
0.0
 13
0.0
 23
0.0
 33
0.0
 16
1.0
 26
0.0
 36
0.0
 17
0.0
 27
1.0
 37
0.0
 76
0
330
20D
345
0
346
0
  0
LAYOUT
  5
28C
102
{ACAD_REACTORS
330
1A
102
}
100
AcDbPlotSettings
  1

  2
none_device
  4
ISO_A3_(420.00_x_297.00_MM)
  6

 40
0.0
 41
0.0
 42
0.0
 43
0.0
 44
420.0
 45
297.0
 46
0.0
 47
0.0
 48
0.0
 49
0.0
140
0.0
141
0.0
142
1.0
143
1.0
 70
0
 72
1
 73
0
 74
0
  7

 75
0
147
1.0
148
0.0
149
0.0
100
AcDbLayout
  1
Layout1
 70
0
 71
1
 10
0.0
 20
0.0
 11
420.0
 21
297.0
 12
0.0
 22
0.0
 32
0.0
 14
0.0
 24
0.0
 34
0.0
 15
0.0
 25
0.0
 35
0.0
146
0.0
 13
0.0
 23
0.0
 33
0.0
 16
1.0
 26
0.0
 36
0.0
 17
0.0
 27
1.0
 37
0.0
 76
0
330
20E
345
0
346
0
  0
ENDSEC
  0
EOF
