999
DXF file: 70501032.dxf
999
Pro/ENGINEER 2017380 by Parametric Technology Corporation
  0
SECTION
  2
HEADER
  9
$ACADVER
  1
AC1027
  9
$DWGCODEPAGE
  3
ANSI_1252
  9
$EXTMAX
 10
420.0
 20
297.0
 30
0.0
  9
$EXTMIN
 10
0.0
 20
0.0
 30
0.0
  9
$LIMMIN
 10
0.0
 20
0.0
  9
$LIMMAX
 10
420.0
 20
297.0
  9
$VIEWCTR
 10
210.0
 20
148.5
  9
$VIEWSIZE
 40
297.0
  9
$CLAYER
  8
0
  9
$LTSCALE
 40
23.1
  9
$CELTYPE
  6
BYLAYER
  9
$DIMSCALE
 40
1.0
  9
$DIMASZ
 40
3.5
  9
$DIMEXO
 40
0.0
  9
$DIMDLI
 40
15.96
  9
$DIMEXE
 40
1.5
  9
$DIMCEN
 40
3.78
  9
$DIMLFAC
 40
1.0
  9
$DIMBLK
  1
_FILLED
  9
$DIMALT
 70
0
  9
$DIMALTF
 40
25.4
  9
$DIMTXT
 40
3.5
  9
$DIMTOL
 70
1
  9
$DIMLIM
 70
0
  9
$DIMTFAC
 40
1.0
  9
$DIMTP
 40
0.05
  9
$DIMTM
 40
0.05
  9
$DIMGAP
 40
0.625
  9
$DIMDSEP
 70
46
  9
$AUNITS
 70
0
  9
$PDMODE
 70
3
  9
$PDSIZE
 40
0.3125
  9
$HANDSEED
  5
28F
  9
$TILEMODE
 70
1
  9
$MEASUREMENT
 70
1
  9
$INSUNITS
 70
4
  0
ENDSEC
  0
SECTION
  2
CLASSES
  0
CLASS
  1
ACDBDICTIONARYWDFLT
  2
AcDbDictionaryWithDefault
  3
AutoCAD 2000
 90
0
 91
1
280
0
281
0
  0
CLASS
  1
ACDBPLACEHOLDER
  2
AcDbPlaceHolder
  3
AutoCAD 2000
 90
0
 91
1
280
0
281
0
  0
CLASS
  1
LAYOUT
  2
AcDbLayout
  3
AutoCAD 2000
 90
0
 91
0
280
0
281
0
  0
ENDSEC
  0
SECTION
  2
TABLES
  0
TABLE
  2
VPORT
  5
8
100
AcDbSymbolTable
 70
2
  0
VPORT
  5
1F4
100
AcDbSymbolTableRecord
100
AcDbViewportTableRecord
  2
*ACTIVE
 70
0
 10
0.0
 20
0.0
 11
1.0
 21
1.0
 12
210.0
 22
148.5
 13
0.0
 23
0.0
 14
1.0
 24
1.0
 15
0.0
 25
0.0
 16
0.0
 26
0.0
 36
1.0
 17
0.0
 27
0.0
 37
0.0
 40
297.0
 41
1.4141414141
 42
50.0
 43
0.0
 44
0.0
 50
0.0
 51
0.0
 71
0
 72
100
 73
1
 74
1
 75
0
 76
0
 77
0
 78
0
  0
ENDTAB
  0
TABLE
  2
LTYPE
  5
5
100
AcDbSymbolTable
 70
6
  0
LTYPE
  5
14
100
AcDbSymbolTableRecord
100
AcDbLinetypeTableRecord
  2
BYBLOCK
 70
0
  3

 72
65
 73
0
 40
0.0
  0
LTYPE
  5
15
100
AcDbSymbolTableRecord
100
AcDbLinetypeTableRecord
  2
BYLAYER
 70
0
  3

 72
65
 73
0
 40
0.0
  0
LTYPE
  5
16
100
AcDbSymbolTableRecord
100
AcDbLinetypeTableRecord
  2
CONTINUOUS
 70
64
  3
Solid line
 72
65
 73
0
 40
0.0
  0
LTYPE
  5
1F5
100
AcDbSymbolTableRecord
100
AcDbLinetypeTableRecord
  2
CENTER
 70
64
  3
____ _ ____ _ ____ _ ____ _ ____ _ ____ _ ____
 72
65
 73
4
 40
0.6
 49
0.375
 74
0
 49
-0.075
 74
0
 49
0.075
 74
0
 49
-0.075
 74
0
  0
LTYPE
  5
1F6
100
AcDbSymbolTableRecord
100
AcDbLinetypeTableRecord
  2
HIDDEN
 70
64
  3
- - - - - - - - - - - - - - - - - - - -
 72
65
 73
2
 40
0.2
 49
0.1
 74
0
 49
-0.1
 74
0
  0
LTYPE
  5
1F7
100
AcDbSymbolTableRecord
100
AcDbLinetypeTableRecord
  2
PHANTOM
 70
64
  3
_____ _ _ _____ _ _ _____ _ _ _____
 72
65
 73
6
 40
0.8
 49
0.45
 74
0
 49
-0.05
 74
0
 49
0.1
 74
0
 49
-0.05
 74
0
 49
0.1
 74
0
 49
-0.05
 74
0
  0
LTYPE
  5
1F8
100
AcDbSymbolTableRecord
100
AcDbLinetypeTableRecord
  2
DOT
 70
64
  3
. . . . . . . . . . . . . . . . . . . .
 72
65
 73
2
 40
0.2
 49
0.1
 74
0
 49
-0.1
 74
0
  0
LTYPE
  5
1F9
100
AcDbSymbolTableRecord
100
AcDbLinetypeTableRecord
  2
DASHED
 70
64
  3
- - - - - - - - - - - - - - - - - - - -
 72
65
 73
2
 40
0.2
 49
0.1
 74
0
 49
-0.1
 74
0
  0
ENDTAB
  0
TABLE
  2
LAYER
  5
2
100
AcDbSymbolTable
 70
36
  0
LAYER
  5
10
100
AcDbSymbolTableRecord
100
AcDbLayerTableRecord
  2
0
 70
0
 62
7
  6
CONTINUOUS
370
-3
390
F
  0
LAYER
  5
1FA
100
AcDbSymbolTableRecord
100
AcDbLayerTableRecord
  2
DEFAULT_1
 70
0
 62
7
  6
CENTER
370
-3
390
F
  0
LAYER
  5
1FB
100
AcDbSymbolTableRecord
100
AcDbLayerTableRecord
  2
DEFAULT_2
 70
0
 62
1
  6
HIDDEN
370
-3
390
F
  0
LAYER
  5
1FC
100
AcDbSymbolTableRecord
100
AcDbLayerTableRecord
  2
DEFAULT_3
 70
0
 62
7
  6
PHANTOM
370
-3
390
F
  0
LAYER
  5
1FD
100
AcDbSymbolTableRecord
100
AcDbLayerTableRecord
  2
BG_STARTBEZUEGE
 70
0
 62
7
  6
CONTINUOUS
370
-3
390
F
  0
LAYER
  5
1FE
100
AcDbSymbolTableRecord
100
AcDbLayerTableRecord
  2
HILFEN
 70
0
 62
7
  6
CONTINUOUS
370
-3
390
F
  0
LAYER
  5
1FF
100
AcDbSymbolTableRecord
100
AcDbLayerTableRecord
  2
PLATZIERUNG
 70
0
 62
7
  6
CONTINUOUS
370
-3
390
F
  0
LAYER
  5
200
100
AcDbSymbolTableRecord
100
AcDbLayerTableRecord
  2
T_STARTBEZUEGE
 70
0
 62
7
  6
CONTINUOUS
370
-3
390
F
  0
LAYER
  5
201
100
AcDbSymbolTableRecord
100
AcDbLayerTableRecord
  2
_03_2D_ZEICHNUNG_BEMASSUNGEN
 70
0
 62
7
  6
CONTINUOUS
370
-3
390
F
  0
LAYER
  5
202
100
AcDbSymbolTableRecord
100
AcDbLayerTableRecord
  2
_04_NOTIZEN
 70
0
 62
7
  6
CONTINUOUS
370
-3
390
F
  0
LAYER
  5
203
100
AcDbSymbolTableRecord
100
AcDbLayerTableRecord
  2
_05_2D_ELEMENTE
 70
0
 62
7
  6
CONTINUOUS
370
-3
390
F
  0
LAYER
  5
204
100
AcDbSymbolTableRecord
100
AcDbLayerTableRecord
  2
_07_EINRASTLINIEN
 70
0
 62
7
  6
CONTINUOUS
370
-3
390
F
  0
LAYER
  5
205
100
AcDbSymbolTableRecord
100
AcDbLayerTableRecord
  2
_21_KURVEN
 70
0
 62
7
  6
CONTINUOUS
370
-3
390
F
  0
LAYER
  5
206
100
AcDbSymbolTableRecord
100
AcDbLayerTableRecord
  2
_26_BEZUGSACHSEN
 70
0
 62
7
  6
CONTINUOUS
370
-3
390
F
  0
LAYER
  5
207
100
AcDbSymbolTableRecord
100
AcDbLayerTableRecord
  2
_27_BEZUGSEBENEN
 70
0
 62
7
  6
CONTINUOUS
370
-3
390
F
  0
LAYER
  5
208
100
AcDbSymbolTableRecord
100
AcDbLayerTableRecord
  2
_28_BEZUGSPUNKTE
 70
0
 62
7
  6
CONTINUOUS
370
-3
390
F
  0
LAYER
  5
209
100
AcDbSymbolTableRecord
100
AcDbLayerTableRecord
  2
_29_KOORDINATENSYSTEME
 70
0
 62
7
  6
CONTINUOUS
370
-3
390
F
  0
LAYER
  5
20A
100
AcDbSymbolTableRecord
100
AcDbLayerTableRecord
  2
_30_VOLUMEN
 70
0
 62
7
  6
CONTINUOUS
370
-3
390
F
  0
ENDTAB
  0
TABLE
  2
STYLE
  5
3
100
AcDbSymbolTable
 70
1
  0
STYLE
  5
11
100
AcDbSymbolTableRecord
100
AcDbTextStyleTableRecord
  2
STANDARD
 70
0
 40
0.0
 41
0.7
 50
0.0
 71
0
 42
0.2
  3
SIMPLEX.SHX
  4

  0
STYLE
  5
20B
100
AcDbSymbolTableRecord
100
AcDbTextStyleTableRecord
  2
TEXTSTYLE_1
 70
0
 40
0.0
 41
0.8
 50
0.0
 71
0
 42
0.2
  3
gdt
  4

  0
ENDTAB
  0
TABLE
  2
VIEW
  5
6
100
AcDbSymbolTable
 70
0
  0
ENDTAB
  0
TABLE
  2
UCS
  5
7
100
AcDbSymbolTable
 70
0
  0
ENDTAB
  0
TABLE
  2
APPID
  5
9
100
AcDbSymbolTable
 70
1
  0
APPID
  5
20C
100
AcDbSymbolTableRecord
100
AcDbRegAppTableRecord
  2
ACAD
 70
0
  0
ENDTAB
  0
TABLE
  2
BLOCK_RECORD
  5
1
100
AcDbSymbolTable
 70
0
  0
BLOCK_RECORD
  5
20D
100
AcDbSymbolTableRecord
100
AcDbBlockTableRecord
  2
*Model_Space
  0
BLOCK_RECORD
  5
20E
100
AcDbSymbolTableRecord
100
AcDbBlockTableRecord
  2
*Paper_Space
  0
BLOCK_RECORD
  5
20F
100
AcDbSymbolTableRecord
100
AcDbBlockTableRecord
  2
_FILLED
  0
BLOCK_RECORD
  5
210
100
AcDbSymbolTableRecord
100
AcDbBlockTableRecord
  2
*D0
  0
BLOCK_RECORD
  5
211
100
AcDbSymbolTableRecord
100
AcDbBlockTableRecord
  2
*D1
  0
BLOCK_RECORD
  5
212
100
AcDbSymbolTableRecord
100
AcDbBlockTableRecord
  2
*D2
  0
BLOCK_RECORD
  5
213
100
AcDbSymbolTableRecord
100
AcDbBlockTableRecord
  2
*D3
  0
ENDTAB
  0
TABLE
  2
DIMSTYLE
  5
A
100
AcDbSymbolTable
 70
1
100
AcDbDimStyleTable
 71
0
  0
DIMSTYLE
105
214
100
AcDbSymbolTableRecord
100
AcDbDimStyleTableRecord
  2
STANDARD
 70
0
  3

  4

 40
1.0
 41
3.5
 42
0.0
 43
0.38
 44
1.5
 45
0.0
 46
0.0
 47
0.05
 48
0.05
140
3.5
141
0.09
142
0.0
143
25.4
144
1.0
145
0.0
146
1.0
147
0.625
 71
1.0
 72
0.0
 73
0
 74
0
 75
0
 76
0
 77
1
 78
8
 79
2
170
0
171
1
172
0
173
0
174
0
175
0
176
0
177
0
178
2
270
2
179
2
271
2
272
2
273
2
274
2
275
0
280
0
281
0
282
0
283
1
284
8
285
0
286
0
287
3
288
0
340
11
278
46
341
20F
342
20F
343
20F
344
20F
  0
DIMSTYLE
105
215
100
AcDbSymbolTableRecord
100
AcDbDimStyleTableRecord
  2
DIMSTYLE_1
 70
0
  3

  4

 40
1.0
 41
3.5
 42
0.0
 43
0.38
 44
1.5
 45
0.0
 46
0.0
 47
0.3
 48
0.3
140
3.5
141
0.09
142
0.0
143
25.4
144
1.0
145
0.0
146
1.0
147
0.875
 71
0.0
 72
0.0
 73
0
 74
0
 75
0
 76
0
 77
1
 78
8
 79
2
170
0
171
1
172
0
173
0
174
0
175
0
176
0
177
0
178
2
270
2
179
2
271
2
272
2
273
2
274
2
275
0
280
0
281
0
282
0
283
1
284
8
285
0
286
0
287
3
288
0
340
11
278
46
341
20F
342
20F
343
20F
344
20F
  0
DIMSTYLE
105
216
100
AcDbSymbolTableRecord
100
AcDbDimStyleTableRecord
  2
DIMSTYLE_2
 70
0
  3

  4

 40
1.0
 41
3.5
 42
0.0
 43
0.38
 44
1.5
 45
0.0
 46
0.0
 47
0.5
 48
0.5
140
3.5
141
0.09
142
0.0
143
25.4
144
1.0
145
0.0
146
1.0
147
0.875
 71
0.0
 72
0.0
 73
0
 74
0
 75
0
 76
0
 77
1
 78
8
 79
2
170
0
171
1
172
0
173
0
174
0
175
0
176
0
177
0
178
2
270
2
179
2
271
2
272
2
273
2
274
2
275
0
280
0
281
0
282
0
283
1
284
8
285
0
286
0
287
3
288
0
340
11
278
46
341
20F
342
20F
343
20F
344
20F
  0
DIMSTYLE
105
217
100
AcDbSymbolTableRecord
100
AcDbDimStyleTableRecord
  2
DIMSTYLE_3
 70
0
  3

  4

 40
1.0
 41
3.5
 42
0.0
 43
0.38
 44
1.5
 45
0.0
 46
0.0
 47
0.2
 48
0.2
140
3.5
141
0.09
142
0.0
143
25.4
144
1.0
145
0.0
146
1.0
147
0.875
 71
0.0
 72
0.0
 73
0
 74
0
 75
0
 76
0
 77
1
 78
8
 79
2
170
0
171
1
172
0
173
0
174
0
175
0
176
0
177
0
178
2
270
2
179
2
271
2
272
2
273
2
274
2
275
0
280
0
281
0
282
0
283
1
284
8
285
0
286
0
287
3
288
0
340
11
278
46
341
20F
342
20F
343
20F
344
20F
  0
ENDTAB
  0
ENDSEC
  0
SECTION
  2
BLOCKS
  0
BLOCK
  5
20
100
AcDbEntity
  8
0
100
AcDbBlockBegin
  2
*Model_Space
 70
0
 10
0.0
 20
0.0
 30
0.0
  3
*Model_Space
  1

  0
ENDBLK
  5
21
100
AcDbEntity
  8
0
100
AcDbBlockEnd
  0
BLOCK
  5
1C
100
AcDbEntity
  8
0
100
AcDbBlockBegin
  2
*Paper_Space
 70
0
 10
0.0
 20
0.0
 30
0.0
  3
*Paper_Space
  1

  0
ENDBLK
  5
1D
100
AcDbEntity
  8
0
100
AcDbBlockEnd
  0
BLOCK
  5
218
100
AcDbEntity
  8
0
100
AcDbBlockBegin
  2
_FILLED
 70
64
 10
0.0
 20
0.0
  3
_FILLED
  1

  0
SOLID
  5
219
100
AcDbEntity
  8
0
  6
BYBLOCK
 62
0
100
AcDbTrace
 10
0.0
 20
0.0
 11
-1.0
 21
0.125
 12
-1.0
 22
-0.125
 13
-1.0
 23
-0.125
  0
ENDBLK
  5
21A
100
AcDbEntity
  8
0
  6
BYBLOCK
 62
0
100
AcDbBlockEnd
  0
BLOCK
  5
21B
100
AcDbEntity
  8
_03_2D_ZEICHNUNG_BEMASSUNGEN
100
AcDbBlockBegin
 62
7
  6
CONTINUOUS
  2
*D0
 70
65
 10
0.0
 20
0.0
  3
*D0
  1

  0
TEXT
  5
21C
100
AcDbEntity
  8
_03_2D_ZEICHNUNG_BEMASSUNGEN
100
AcDbText
 62
2
  6
CONTINUOUS
 10
-9.875
 20
-18.625
  7
STANDARD
 40
3.5
  1
32
 50
90.0
 41
0.75
 72
1
 11
-9.875
 21
-16.0
100
AcDbText
  0
LINE
  5
21D
100
AcDbEntity
  8
_03_2D_ZEICHNUNG_BEMASSUNGEN
100
AcDbLine
 62
7
  6
CONTINUOUS
 10
-0.0
 20
-0.0
 11
-10.5
 21
0.0
  0
LINE
  5
21E
100
AcDbEntity
  8
_03_2D_ZEICHNUNG_BEMASSUNGEN
100
AcDbLine
 62
7
  6
CONTINUOUS
 10
-0.0
 20
-32.0
 11
-10.5
 21
-32.0
  0
LINE
  5
21F
100
AcDbEntity
  8
_03_2D_ZEICHNUNG_BEMASSUNGEN
100
AcDbLine
 62
7
  6
CONTINUOUS
 10
-9.0
 20
0.0
 11
-9.0
 21
6.0
  0
LINE
  5
220
100
AcDbEntity
  8
_03_2D_ZEICHNUNG_BEMASSUNGEN
100
AcDbLine
 62
7
  6
CONTINUOUS
 10
-9.0
 20
6.0
 11
-9.0
 21
-16.0
  0
LINE
  5
221
100
AcDbEntity
  8
_03_2D_ZEICHNUNG_BEMASSUNGEN
100
AcDbLine
 62
7
  6
CONTINUOUS
 10
-9.0
 20
-32.0
 11
-9.0
 21
-38.0
  0
LINE
  5
222
100
AcDbEntity
  8
_03_2D_ZEICHNUNG_BEMASSUNGEN
100
AcDbLine
 62
7
  6
CONTINUOUS
 10
-9.0
 20
-38.0
 11
-9.0
 21
-16.0
  0
INSERT
  5
223
100
AcDbEntity
  8
_03_2D_ZEICHNUNG_BEMASSUNGEN
100
AcDbBlockReference
 62
7
  6
CONTINUOUS
  2
_FILLED
 10
-9.0
 20
0.0
 41
3.5
 42
3.5
 43
3.5
 50
270.0
  0
INSERT
  5
224
100
AcDbEntity
  8
_03_2D_ZEICHNUNG_BEMASSUNGEN
100
AcDbBlockReference
 62
7
  6
CONTINUOUS
  2
_FILLED
 10
-9.0
 20
-32.0
 41
3.5
 42
3.5
 43
3.5
 50
90.0
  0
ENDBLK
  5
225
100
AcDbEntity
  8
0
  6
BYBLOCK
 62
0
100
AcDbBlockEnd
  0
BLOCK
  5
226
100
AcDbEntity
  8
_03_2D_ZEICHNUNG_BEMASSUNGEN
100
AcDbBlockBegin
 62
7
  6
CONTINUOUS
  2
*D1
 70
65
 10
0.0
 20
0.0
  3
*D1
  1

  0
TEXT
  5
227
100
AcDbEntity
  8
_03_2D_ZEICHNUNG_BEMASSUNGEN
100
AcDbText
 62
2
  6
CONTINUOUS
 10
81.25
 20
18.875
  7
STANDARD
 40
3.5
  1
170
 41
0.7142857143
 72
1
 11
85.0
 21
18.875
100
AcDbText
  0
LINE
  5
228
100
AcDbEntity
  8
_03_2D_ZEICHNUNG_BEMASSUNGEN
100
AcDbLine
 62
7
  6
CONTINUOUS
 10
170.0
 20
0.0
 11
170.0
 21
19.5
  0
LINE
  5
229
100
AcDbEntity
  8
_03_2D_ZEICHNUNG_BEMASSUNGEN
100
AcDbLine
 62
7
  6
CONTINUOUS
 10
0.0
 20
0.0
 11
0.0
 21
19.5
  0
LINE
  5
22A
100
AcDbEntity
  8
_03_2D_ZEICHNUNG_BEMASSUNGEN
100
AcDbLine
 62
7
  6
CONTINUOUS
 10
170.0
 20
18.0
 11
85.0
 21
18.0
  0
LINE
  5
22B
100
AcDbEntity
  8
_03_2D_ZEICHNUNG_BEMASSUNGEN
100
AcDbLine
 62
7
  6
CONTINUOUS
 10
0.0
 20
18.0
 11
85.0
 21
18.0
  0
INSERT
  5
22C
100
AcDbEntity
  8
_03_2D_ZEICHNUNG_BEMASSUNGEN
100
AcDbBlockReference
 62
7
  6
CONTINUOUS
  2
_FILLED
 10
170.0
 20
18.0
 41
3.5
 42
3.5
 43
3.5
  0
INSERT
  5
22D
100
AcDbEntity
  8
_03_2D_ZEICHNUNG_BEMASSUNGEN
100
AcDbBlockReference
 62
7
  6
CONTINUOUS
  2
_FILLED
 10
0.0
 20
18.0
 41
3.5
 42
3.5
 43
3.5
 50
180.0
  0
ENDBLK
  5
22E
100
AcDbEntity
  8
0
  6
BYBLOCK
 62
0
100
AcDbBlockEnd
  0
BLOCK
  5
22F
100
AcDbEntity
  8
_03_2D_ZEICHNUNG_BEMASSUNGEN
100
AcDbBlockBegin
 62
7
  6
CONTINUOUS
  2
*D2
 70
65
 10
0.0
 20
0.0
  3
*D2
  1

  0
TEXT
  5
230
100
AcDbEntity
  8
_03_2D_ZEICHNUNG_BEMASSUNGEN
100
AcDbText
 62
2
  6
CONTINUOUS
 10
178.1761755137
 20
-16.25
  7
STANDARD
 40
3.5
  1
27
 50
90.0
 41
0.7857142857
 72
1
 11
178.1761755137
 21
-13.5
100
AcDbText
  0
LINE
  5
231
100
AcDbEntity
  8
_03_2D_ZEICHNUNG_BEMASSUNGEN
100
AcDbLine
 62
7
  6
CONTINUOUS
 10
170.0
 20
-27.0
 11
180.5511755137
 21
-27.0
  0
LINE
  5
232
100
AcDbEntity
  8
_03_2D_ZEICHNUNG_BEMASSUNGEN
100
AcDbLine
 62
7
  6
CONTINUOUS
 10
0.0
 20
0.0
 11
180.5511755137
 21
0.0
  0
LINE
  5
233
100
AcDbEntity
  8
_03_2D_ZEICHNUNG_BEMASSUNGEN
100
AcDbLine
 62
7
  6
CONTINUOUS
 10
179.0511755137
 20
-27.0
 11
179.0511755137
 21
-13.5
  0
LINE
  5
234
100
AcDbEntity
  8
_03_2D_ZEICHNUNG_BEMASSUNGEN
100
AcDbLine
 62
7
  6
CONTINUOUS
 10
179.0511755137
 20
0.0
 11
179.0511755137
 21
-13.5
  0
INSERT
  5
235
100
AcDbEntity
  8
_03_2D_ZEICHNUNG_BEMASSUNGEN
100
AcDbBlockReference
 62
7
  6
CONTINUOUS
  2
_FILLED
 10
179.0511755137
 20
-27.0
 41
3.5
 42
3.5
 43
3.5
 50
270.0
  0
INSERT
  5
236
100
AcDbEntity
  8
_03_2D_ZEICHNUNG_BEMASSUNGEN
100
AcDbBlockReference
 62
7
  6
CONTINUOUS
  2
_FILLED
 10
179.0511755137
 20
0.0
 41
3.5
 42
3.5
 43
3.5
 50
90.0
  0
ENDBLK
  5
237
100
AcDbEntity
  8
0
  6
BYBLOCK
 62
0
100
AcDbBlockEnd
  0
BLOCK
  5
238
100
AcDbEntity
  8
_03_2D_ZEICHNUNG_BEMASSUNGEN
100
AcDbBlockBegin
 62
7
  6
CONTINUOUS
  2
*D3
 70
65
 10
0.0
 20
0.0
  3
*D3
  1

  0
TEXT
  5
239
100
AcDbEntity
  8
_03_2D_ZEICHNUNG_BEMASSUNGEN
100
AcDbText
 62
2
  6
CONTINUOUS
 10
148.375
 20
9.875
  7
STANDARD
 40
3.5
  1
38
 41
0.75
 72
1
 11
151.0
 21
9.875
100
AcDbText
  0
LINE
  5
23A
100
AcDbEntity
  8
_03_2D_ZEICHNUNG_BEMASSUNGEN
100
AcDbLine
 62
7
  6
CONTINUOUS
 10
132.0
 20
0.0
 11
132.0
 21
10.5
  0
LINE
  5
23B
100
AcDbEntity
  8
_03_2D_ZEICHNUNG_BEMASSUNGEN
100
AcDbLine
 62
7
  6
CONTINUOUS
 10
170.0
 20
-27.0
 11
170.0
 21
10.5
  0
LINE
  5
23C
100
AcDbEntity
  8
_03_2D_ZEICHNUNG_BEMASSUNGEN
100
AcDbLine
 62
7
  6
CONTINUOUS
 10
132.0
 20
9.0
 11
151.0
 21
9.0
  0
LINE
  5
23D
100
AcDbEntity
  8
_03_2D_ZEICHNUNG_BEMASSUNGEN
100
AcDbLine
 62
7
  6
CONTINUOUS
 10
170.0
 20
9.0
 11
151.0
 21
9.0
  0
INSERT
  5
23E
100
AcDbEntity
  8
_03_2D_ZEICHNUNG_BEMASSUNGEN
100
AcDbBlockReference
 62
7
  6
CONTINUOUS
  2
_FILLED
 10
132.0
 20
9.0
 41
3.5
 42
3.5
 43
3.5
 50
180.0
  0
INSERT
  5
23F
100
AcDbEntity
  8
_03_2D_ZEICHNUNG_BEMASSUNGEN
100
AcDbBlockReference
 62
7
  6
CONTINUOUS
  2
_FILLED
 10
170.0
 20
9.0
 41
3.5
 42
3.5
 43
3.5
 50
360.0
  0
ENDBLK
  5
240
100
AcDbEntity
  8
0
  6
BYBLOCK
 62
0
100
AcDbBlockEnd
  0
ENDSEC
  0
SECTION
  2
ENTITIES
  0
DIMENSION
  5
241
100
AcDbEntity
  8
_03_2D_ZEICHNUNG_BEMASSUNGEN
100
AcDbDimension
 62
7
  6
CONTINUOUS
  2
*D0
 10
-9.0
 20
-32.0
 11
-9.0
 21
-16.5000002766
 70
160
 71
2
 42
32.0
  3
DIMSTYLE_1
100
AcDbAlignedDimension
 13
-0.0
 23
-0.0
 14
-0.0
 24
-32.0
 50
270.0
100
AcDbRotatedDimension
  0
DIMENSION
  5
242
100
AcDbEntity
  8
_03_2D_ZEICHNUNG_BEMASSUNGEN
100
AcDbDimension
 62
7
  6
CONTINUOUS
  2
*D1
 10
0.0
 20
18.0
 11
84.4999996948
 21
18.0
 70
160
 71
2
 42
170.0
  3
DIMSTYLE_2
100
AcDbAlignedDimension
 13
170.0
 23
0.0
 14
0.0
 24
0.0
 50
180.0
100
AcDbRotatedDimension
  0
DIMENSION
  5
243
100
AcDbEntity
  8
_03_2D_ZEICHNUNG_BEMASSUNGEN
100
AcDbDimension
 62
7
  6
CONTINUOUS
  2
*D2
 10
179.0511755137
 20
0.0
 11
179.0511755137
 21
-13.9999984507
 70
160
 71
2
 42
27.0
  3
DIMSTYLE_3
100
AcDbAlignedDimension
 13
170.0
 23
-27.0
 14
0.0
 24
0.0
 50
90.0
100
AcDbRotatedDimension
  0
DIMENSION
  5
244
100
AcDbEntity
  8
_03_2D_ZEICHNUNG_BEMASSUNGEN
100
AcDbDimension
 62
7
  6
CONTINUOUS
  2
*D3
 10
170.0
 20
9.0
 11
150.4999978638
 21
9.0
 70
160
 71
2
 42
38.0
  3
DIMSTYLE_1
100
AcDbAlignedDimension
 13
132.0
 23
0.0
 14
170.0
 24
-27.0
 50
360.0
100
AcDbRotatedDimension
  0
LINE
  5
245
100
AcDbEntity
  8
_30_VOLUMEN
100
AcDbLine
 62
4
  6
CONTINUOUS
 10
-0.0
 20
-31.5
 11
-0.0
 21
-0.5
  0
LINE
  5
246
100
AcDbEntity
  8
_30_VOLUMEN
100
AcDbLine
 62
4
  6
CONTINUOUS
 10
0.5
 20
-32.0
 11
0.5
 21
-0.0
  0
LINE
  5
247
100
AcDbEntity
  8
_30_VOLUMEN
100
AcDbLine
 62
4
  6
CONTINUOUS
 10
0.5
 20
-0.0
 11
-0.0
 21
-0.5
  0
LINE
  5
248
100
AcDbEntity
  8
_30_VOLUMEN
100
AcDbLine
 62
4
  6
CONTINUOUS
 10
0.5
 20
-32.0
 11
-0.0
 21
-31.5
  0
LINE
  5
249
100
AcDbEntity
  8
_30_VOLUMEN
100
AcDbLine
 62
4
  6
CONTINUOUS
 10
168.9597726601
 20
-27.2877056331
 11
152.7507336749
 21
-31.6309045392
  0
LINE
  5
24A
100
AcDbEntity
  8
_21_KURVEN
100
AcDbLine
 62
7
  6
CONTINUOUS
 10
168.9597726601
 20
-27.2877056331
 11
152.7507336749
 21
-31.6309045392
  0
LINE
  5
24B
100
AcDbEntity
  8
_26_BEZUGSACHSEN
100
AcDbLine
 62
4
  6
CONTINUOUS
 10
151.4802036078
 20
-30.8866113323
 11
147.3249805313
 21
-32.0
  0
LINE
  5
24C
100
AcDbEntity
  8
_30_VOLUMEN
100
AcDbLine
 62
4
  6
CONTINUOUS
 10
151.0084103679
 20
-12.5805228504
 11
167.2174493532
 21
-8.2373239442
  0
LINE
  5
24D
100
AcDbEntity
  8
_21_KURVEN
100
AcDbLine
 62
7
  6
CONTINUOUS
 10
151.0084103679
 20
-12.5805228504
 11
167.2174493532
 21
-8.2373239442
  0
LINE
  5
24E
100
AcDbEntity
  8
_30_VOLUMEN
100
AcDbLine
 62
4
  6
CONTINUOUS
 10
0.5
 20
-32.0
 11
132.0
 21
-32.0
  0
LINE
  5
24F
100
AcDbEntity
  8
0
100
AcDbLine
 62
4
  6
CONTINUOUS
 10
132.0
 20
-32.0
 11
133.3882318326
 21
-32.0
  0
LINE
  5
250
100
AcDbEntity
  8
_30_VOLUMEN
100
AcDbLine
 62
4
  6
CONTINUOUS
 10
133.3882318326
 20
-32.0
 11
147.3249805313
 21
-32.0
  0
LINE
  5
251
100
AcDbEntity
  8
_26_BEZUGSACHSEN
100
AcDbLine
 62
4
  6
CONTINUOUS
 10
149.9170075143
 20
-13.0191982246
 11
167.2974804982
 21
-8.032370422
  0
LINE
  5
252
100
AcDbEntity
  8
_30_VOLUMEN
100
AcDbLine
 62
4
  6
CONTINUOUS
 10
166.5947391451
 20
0.0
 11
150.5604513021
 21
0.0
  0
LINE
  5
253
100
AcDbEntity
  8
_30_VOLUMEN
100
AcDbLine
 62
4
  6
CONTINUOUS
 10
0.5
 20
-0.0
 11
132.0
 21
0.0
  0
LINE
  5
254
100
AcDbEntity
  8
0
100
AcDbLine
 62
4
  6
CONTINUOUS
 10
132.0
 20
0.0
 11
150.5604513021
 21
0.0
  0
LINE
  5
255
100
AcDbEntity
  8
_30_VOLUMEN
100
AcDbLine
 62
4
  6
CONTINUOUS
 10
151.7753872496
 20
-31.4613708907
 11
151.1000278205
 21
-30.9884791275
  0
LINE
  5
256
100
AcDbEntity
  8
_30_VOLUMEN
100
AcDbLine
 62
7
  6
CONTINUOUS
 10
150.1126256317
 20
-13.836491167
 11
149.9804119416
 21
-13.7439141446
  0
LINE
  5
257
100
AcDbEntity
  8
0
100
AcDbLine
 62
4
  6
CONTINUOUS
 10
132.0
 20
0.0
 11
132.0
 21
-32.0
  0
LINE
  5
258
100
AcDbEntity
  8
0
100
AcDbLine
 62
4
  6
CONTINUOUS
 10
150.5604513021
 20
0.0
 11
133.6076951546
 21
-24.2110449009
  0
LINE
  5
259
100
AcDbEntity
  8
0
100
AcDbLine
 62
4
  6
CONTINUOUS
 10
133.6076951546
 20
0.0
 11
133.6076951546
 21
-24.2110449009
  0
LINE
  5
25A
100
AcDbEntity
  8
0
100
AcDbLine
 62
4
  6
CONTINUOUS
 10
133.6076951546
 20
-24.2110449009
 11
133.3882318326
 21
-32.0
  0
LINE
  5
25B
100
AcDbEntity
  8
_30_VOLUMEN
100
AcDbLine
 62
7
  6
CONTINUOUS
 10
167.2174493532
 20
-8.2373239442
 11
167.0330854926
 21
-8.1082309792
  0
LINE
  5
25C
100
AcDbEntity
  8
_30_VOLUMEN
100
AcDbLine
 62
4
  6
CONTINUOUS
 10
168.1927957784
 20
-8.4068575927
 11
167.2739555225
 21
-7.7634787191
  0
LINE
  5
25D
100
AcDbEntity
  8
_28_BEZUGSPUNKTE
100
AcDbLine
 62
1
  6
CONTINUOUS
 10
170.15625
 20
-27.15625
 11
169.84375
 21
-26.84375
  0
LINE
  5
25E
100
AcDbEntity
  8
_26_BEZUGSACHSEN
100
AcDbLine
 62
4
  6
CONTINUOUS
 10
151.4802036078
 20
-30.8866113323
 11
149.9170075143
 21
-13.0191982246
  0
LINE
  5
25F
100
AcDbEntity
  8
_30_VOLUMEN
100
AcDbLine
 62
4
  6
CONTINUOUS
 10
151.2808395353
 20
-30.5818406526
 11
150.1126256317
 21
-13.836491167
  0
LINE
  5
260
100
AcDbEntity
  8
_21_KURVEN
100
AcDbLine
 62
7
  6
CONTINUOUS
 10
151.2808395353
 20
-30.5818406526
 11
150.1126256317
 21
-13.836491167
  0
LINE
  5
261
100
AcDbEntity
  8
_28_BEZUGSPUNKTE
100
AcDbLine
 62
1
  6
CONTINUOUS
 10
170.15625
 20
-26.84375
 11
169.84375
 21
-27.15625
  0
LINE
  5
262
100
AcDbEntity
  8
_26_BEZUGSACHSEN
100
AcDbLine
 62
4
  6
CONTINUOUS
 10
167.2974804982
 20
-8.032370422
 11
166.5947391451
 21
0.0
  0
LINE
  5
263
100
AcDbEntity
  8
_21_KURVEN
100
AcDbLine
 62
7
  6
CONTINUOUS
 10
168.6873434927
 20
-9.2863878308
 11
169.8555573964
 21
-26.0317373164
  0
LINE
  5
264
100
AcDbEntity
  8
_30_VOLUMEN
100
AcDbLine
 62
4
  6
CONTINUOUS
 10
168.6873434927
 20
-9.2863878308
 11
169.8555573964
 21
-26.0317373164
  0
ARC
  5
265
100
AcDbEntity
  8
_30_VOLUMEN
100
AcDbCircle
 62
4
  6
CONTINUOUS
 10
160.1086503738
 20
-20.0214476425
 40
4.5034509778
100
AcDbArc
 50
122.7694931258
 51
167.2282716582
  0
ARC
  5
266
100
AcDbEntity
  8
_30_VOLUMEN
100
AcDbCircle
 62
4
  6
CONTINUOUS
 10
160.0368833995
 20
-20.0062204437
 40
4.4300935026
100
AcDbArc
 50
167.2151459595
 51
193.9224262302
  0
ARC
  5
267
100
AcDbEntity
  8
_30_VOLUMEN
100
AcDbCircle
 62
4
  6
CONTINUOUS
 10
159.8748622592
 20
-19.8414421403
 40
4.0371285067
100
AcDbArc
 50
121.4100325605
 51
121.7437721488
  0
ARC
  5
268
100
AcDbEntity
  8
_30_VOLUMEN
100
AcDbCircle
 62
4
  6
CONTINUOUS
 10
159.0488009483
 20
-19.1666006724
 40
3.8799922578
100
AcDbArc
 50
13.955246279
 51
41.1973861108
  0
ARC
  5
269
100
AcDbEntity
  8
_30_VOLUMEN
100
AcDbCircle
 62
4
  6
CONTINUOUS
 10
159.075472731
 20
-19.1489410512
 40
3.8482939888
100
AcDbArc
 50
41.2611036573
 51
42.2722204142
  0
ARC
  5
26A
100
AcDbEntity
  8
_30_VOLUMEN
100
AcDbCircle
 62
4
  6
CONTINUOUS
 10
158.9336543338
 20
-19.3566262782
 40
3.8403833954
100
AcDbArc
 50
241.0269009883
 51
247.7133778702
  0
ARC
  5
26B
100
AcDbEntity
  8
_30_VOLUMEN
100
AcDbCircle
 62
4
  6
CONTINUOUS
 10
159.0820977711
 20
-19.1427937264
 40
3.8392567215
100
AcDbArc
 50
42.2708414764
 51
48.4114456809
  0
ARC
  5
26C
100
AcDbEntity
  8
_30_VOLUMEN
100
AcDbCircle
 62
4
  6
CONTINUOUS
 10
151.3227834343
 20
-13.7484347973
 40
1.2094828402
100
AcDbArc
 50
105.0655255716
 51
131.4147887871
  0
ARC
  5
26D
100
AcDbEntity
  8
_30_VOLUMEN
100
AcDbCircle
 62
4
  6
CONTINUOUS
 10
152.4686672275
 20
-30.4988651769
 40
1.1906542533
100
AcDbArc
 50
184.0187445292
 51
200.7439227111
  0
ARC
  5
26E
100
AcDbEntity
  8
_30_VOLUMEN
100
AcDbCircle
 62
4
  6
CONTINUOUS
 10
152.4491329726
 20
-30.5060999789
 40
1.1698238519
100
AcDbArc
 50
200.7514204731
 51
204.010459767
  0
ARC
  5
26F
100
AcDbEntity
  8
_30_VOLUMEN
100
AcDbCircle
 62
4
  6
CONTINUOUS
 10
152.4416875533
 20
-30.5099318222
 40
1.1614635811
100
AcDbArc
 50
203.9872392265
 51
234.9961478632
  0
SPLINE
  5
270
100
AcDbEntity
  8
_30_VOLUMEN
100
AcDbSpline
 62
4
  6
CONTINUOUS
 70
0
 71
3
 72
9
 73
5
 74
0
 42
0.0000001
 43
0.0000001
 44
0.0000000001
 40
0.0
 40
0.0
 40
0.0
 40
0.0
 40
0.5015662504
 40
1.0
 40
1.0
 40
1.0
 40
1.0
 10
168.6873434927
 20
-9.2863878308
 30
0.0
 10
168.6753055876
 20
-9.1138347335
 30
0.0
 10
168.5744515992
 20
-8.7705325945
 30
0.0
 10
168.3335468499
 20
-8.5055288986
 30
0.0
 10
168.192747581
 20
-8.406926186
 30
0.0
  0
SPLINE
  5
271
100
AcDbEntity
  8
_30_VOLUMEN
100
AcDbSpline
 62
4
  6
CONTINUOUS
 70
0
 71
3
 72
11
 73
7
 74
0
 42
0.0000001
 43
0.0000001
 44
0.0000000001
 40
0.0
 40
0.0
 40
0.0
 40
0.0
 40
0.2494800552
 40
0.4999527537
 40
0.7504521303
 40
1.0
 40
1.0
 40
1.0
 40
1.0
 10
168.9597726601
 20
-27.2877056331
 30
0.0
 10
169.0933476386
 20
-27.2519143254
 30
0.0
 10
169.3505479483
 20
-27.1322239963
 30
0.0
 10
169.6516705304
 20
-26.8338397034
 30
0.0
 10
169.8357345673
 20
-26.4519261798
 30
0.0
 10
169.8651840034
 20
-26.1697265143
 30
0.0
 10
169.8555573964
 20
-26.0317373164
 30
0.0
  0
SPLINE
  5
272
100
AcDbEntity
  8
_30_VOLUMEN
100
AcDbSpline
 62
4
  6
CONTINUOUS
 70
0
 71
3
 72
15
 73
11
 74
0
 42
0.0000001
 43
0.0000001
 44
0.0000000001
 40
0.0
 40
0.0
 40
0.0
 40
0.0
 40
0.1247573895
 40
0.2501264694
 40
0.3758021148
 40
0.5015332702
 40
0.6269751944
 40
0.7518933761
 40
0.8762022097
 40
1.0
 40
1.0
 40
1.0
 40
1.0
 10
162.8142728887
 20
-18.2308865141
 30
0.0
 10
162.9018902344
 20
-18.5826675548
 30
0.0
 10
162.9792394854
 20
-19.3164033246
 30
0.0
 10
162.7921301451
 20
-20.4055929685
 30
0.0
 10
162.3169681297
 20
-21.4072026968
 30
0.0
 10
161.5905068191
 20
-22.244623492
 30
0.0
 10
160.6672260603
 20
-22.8545280162
 30
0.0
 10
159.6168277328
 20
-23.1902821355
 30
0.0
 10
158.5199907037
 20
-23.2260631587
 30
0.0
 10
157.8101119745
 20
-23.046508949
 30
0.0
 10
157.477226859
 20
-22.9101264729
 30
0.0
  0
SPLINE
  5
273
100
AcDbEntity
  8
_30_VOLUMEN
100
AcDbSpline
 62
4
  6
CONTINUOUS
 70
0
 71
3
 72
9
 73
5
 74
0
 42
0.0000001
 43
0.0000001
 44
0.0000000001
 40
0.0
 40
0.0
 40
0.0
 40
0.0
 40
0.4969413678
 40
1.0
 40
1.0
 40
1.0
 40
1.0
 10
157.4352373995
 20
-22.9958624943
 30
0.0
 10
157.069509128
 20
-22.7397768016
 30
0.0
 10
156.4217236664
 20
-22.0856490145
 30
0.0
 10
156.0479884433
 20
-21.2448265028
 30
0.0
 10
155.9387549659
 20
-20.8062573351
 30
0.0
  0
SPLINE
  5
274
100
AcDbEntity
  8
_30_VOLUMEN
100
AcDbSpline
 62
4
  6
CONTINUOUS
 70
0
 71
3
 72
9
 73
5
 74
0
 42
0.0000001
 43
0.0000001
 44
0.0000000001
 40
0.0
 40
0.0
 40
0.0
 40
0.0
 40
0.498482477
 40
1.0
 40
1.0
 40
1.0
 40
1.0
 10
151.775435447
 20
-31.4613022974
 30
0.0
 10
151.9134514963
 20
-31.5579559018
 30
0.0
 10
152.2372287101
 20
-31.6922061504
 30
0.0
 10
152.5869896882
 20
-31.6747796082
 30
0.0
 10
152.7507336749
 20
-31.6309045392
 30
0.0
  0
SPLINE
  5
275
100
AcDbEntity
  8
_30_VOLUMEN
100
AcDbSpline
 62
4
  6
CONTINUOUS
 70
0
 71
3
 72
11
 73
7
 74
0
 42
0.0000001
 43
0.0000001
 44
0.0000000001
 40
0.0
 40
0.0
 40
0.0
 40
0.0
 40
0.2466843276
 40
0.4968767407
 40
0.748807204
 40
1.0
 40
1.0
 40
1.0
 40
1.0
 10
155.9387549659
 20
-20.8062573351
 30
0.0
 10
155.8381337541
 20
-20.4022661583
 30
0.0
 10
155.767040248
 20
-19.5498433536
 30
0.0
 10
156.0646896889
 20
-18.3007868022
 30
0.0
 10
156.7349227996
 20
-17.1968074761
 30
0.0
 10
157.39031758
 20
-16.6312752757
 30
0.0
 10
157.750842193
 20
-16.4082300382
 30
0.0
  0
SPLINE
  5
276
100
AcDbEntity
  8
_30_VOLUMEN
100
AcDbSpline
 62
4
  6
CONTINUOUS
 70
0
 71
3
 72
11
 73
7
 74
0
 42
0.0000001
 43
0.0000001
 44
0.0000000001
 40
0.0
 40
0.0
 40
0.0
 40
0.0
 40
0.2550530359
 40
0.5063827907
 40
0.7542875519
 40
1.0
 40
1.0
 40
1.0
 40
1.0
 10
157.7708760742
 20
-16.3959162424
 30
0.0
 10
158.0938076433
 20
-16.1987203288
 30
0.0
 10
158.7944879139
 20
-15.8960097571
 30
0.0
 10
159.9204930327
 20
-15.7600356678
 30
0.0
 10
161.0247893054
 20
-15.9494859513
 30
0.0
 10
161.6908350279
 20
-16.2827137985
 30
0.0
 10
161.9894343041
 20
-16.4917952627
 30
0.0
  0
SPLINE
  5
277
100
AcDbEntity
  8
_30_VOLUMEN
100
AcDbSpline
 62
4
  6
CONTINUOUS
 70
0
 71
3
 72
23
 73
19
 74
0
 42
0.0000001
 43
0.0000001
 44
0.0000000001
 40
0.0
 40
0.0
 40
0.0
 40
0.0
 40
0.0624916933
 40
0.1252705205
 40
0.1881685206
 40
0.2511934884
 40
0.314252687
 40
0.3772596267
 40
0.4401409036
 40
0.5028349298
 40
0.5653135794
 40
0.6275810633
 40
0.6896689474
 40
0.7516435393
 40
0.8135832917
 40
0.8755610067
 40
0.9377245399
 40
1.0
 40
1.0
 40
1.0
 40
1.0
 10
164.2312475241
 20
-18.7960922187
 30
0.0
 10
164.3005798255
 20
-19.0744593496
 30
0.0
 10
164.3844117007
 20
-19.6477800251
 30
0.0
 10
164.3412908611
 20
-20.5157203564
 30
0.0
 10
164.1304476626
 20
-21.3616048033
 30
0.0
 10
163.7606065862
 20
-22.1522933251
 30
0.0
 10
163.2458533451
 20
-22.8579148216
 30
0.0
 10
162.605937653
 20
-23.4514198698
 30
0.0
 10
161.8652086878
 20
-23.9099164221
 30
0.0
 10
161.0520626781
 20
-24.2157495857
 30
0.0
 10
160.1977092887
 20
-24.3573029439
 30
0.0
 10
159.3348858011
 20
-24.328776175
 30
0.0
 10
158.4968614063
 20
-24.1311119215
 30
0.0
 10
157.7159180373
 20
-23.7720071943
 30
0.0
 10
157.0222619497
 20
-23.2652768364
 30
0.0
 10
156.4423783357
 20
-22.6301973524
 30
0.0
 10
155.9994446532
 20
-21.8916965452
 30
0.0
 10
155.8060279022
 20
-21.349540192
 30
0.0
 10
155.7369355039
 20
-21.0721362648
 30
0.0
  0
SPLINE
  5
278
100
AcDbEntity
  8
_30_VOLUMEN
100
AcDbSpline
 62
4
  6
CONTINUOUS
 70
0
 71
3
 72
23
 73
19
 74
0
 42
0.0000001
 43
0.0000001
 44
0.0000000001
 40
0.0
 40
0.0
 40
0.0
 40
0.0
 40
0.0622566447
 40
0.1244404302
 40
0.1864220286
 40
0.248353849
 40
0.3103302332
 40
0.37242058
 40
0.4346850981
 40
0.4971649202
 40
0.5598605021
 40
0.6227387084
 40
0.6857480162
 40
0.7488091161
 40
0.8118260754
 40
0.8747280223
 40
0.937527014
 40
1.0
 40
1.0
 40
1.0
 40
1.0
 10
155.7418489941
 20
-21.0232035522
 30
0.0
 10
155.8100404237
 20
-21.296990117
 30
0.0
 10
156.0011402587
 20
-21.8321834954
 30
0.0
 10
156.4382201083
 20
-22.5614103402
 30
0.0
 10
157.0107819227
 20
-23.188485205
 30
0.0
 10
157.6957333787
 20
-23.6885164811
 30
0.0
 10
158.4665632968
 20
-24.0433470115
 30
0.0
 10
159.2939922086
 20
-24.2383071562
 30
0.0
 10
160.1457897434
 20
-24.2663871009
 30
0.0
 10
160.9893254631
 20
-24.1269534582
 30
0.0
 10
161.7920110505
 20
-23.8247092313
 30
0.0
 10
162.5233178712
 20
-23.372143609
 30
0.0
 10
163.1552390179
 20
-22.786319364
 30
0.0
 10
163.6631490561
 20
-22.0895086214
 30
0.0
 10
164.028507671
 20
-21.30903937
 30
0.0
 10
164.2366827497
 20
-20.4738264445
 30
0.0
 10
164.2790066602
 20
-19.6169237107
 30
0.0
 10
164.1963978859
 20
-19.0508873079
 30
0.0
 10
164.1279694917
 20
-18.7761493372
 30
0.0
  0
SPLINE
  5
279
100
AcDbEntity
  8
_30_VOLUMEN
100
AcDbSpline
 62
4
  6
CONTINUOUS
 70
0
 71
3
 72
9
 73
5
 74
0
 42
0.0000001
 43
0.0000001
 44
0.0000000001
 40
0.0
 40
0.0
 40
0.0
 40
0.0
 40
0.498482477
 40
1.0
 40
1.0
 40
1.0
 40
1.0
 10
168.192747581
 20
-8.406926186
 30
0.0
 10
168.0547315318
 20
-8.3102725816
 30
0.0
 10
167.7309543179
 20
-8.176022333
 30
0.0
 10
167.3811933398
 20
-8.1934488752
 30
0.0
 10
167.2174493532
 20
-8.2373239442
 30
0.0
  0
SPLINE
  5
27A
100
AcDbEntity
  8
_30_VOLUMEN
100
AcDbSpline
 62
7
  6
CONTINUOUS
 70
0
 71
3
 72
18
 73
14
 74
0
 42
0.0000001
 43
0.0000001
 44
0.0000000001
 40
0.0
 40
0.0
 40
0.0
 40
0.0
 40
0.1235711578
 40
0.2475270843
 40
0.3099109939
 40
0.3724710424
 40
0.4351896407
 40
0.4980544787
 40
0.623716323
 40
0.7494234801
 40
0.8123531332
 40
0.8752234573
 40
1.0
 40
1.0
 40
1.0
 40
1.0
 10
157.4352427575
 20
-22.9958548375
 30
0.0
 10
157.7582359738
 20
-23.2218701069
 30
0.0
 10
158.4801749646
 20
-23.5765339377
 30
0.0
 10
159.4745711206
 20
-23.722345876
 30
0.0
 10
160.2684903857
 20
-23.656268181
 30
0.0
 10
160.8529663818
 20
-23.5161122352
 30
0.0
 10
161.411160204
 20
-23.289145609
 30
0.0
 10
162.1018940756
 20
-22.8775047541
 30
0.0
 10
162.83887923
 20
-22.1745317847
 30
0.0
 10
163.3356915829
 20
-21.2853082435
 30
0.0
 10
163.5620417841
 20
-20.5126482404
 30
0.0
 10
163.6700173649
 20
-19.7184115148
 30
0.0
 10
163.614683472
 20
-19.1102386208
 30
0.0
 10
163.5184779196
 20
-18.7239761851
 30
0.0
  0
SPLINE
  5
27B
100
AcDbEntity
  8
_30_VOLUMEN
100
AcDbSpline
 62
4
  6
CONTINUOUS
 70
0
 71
3
 72
15
 73
11
 74
0
 42
0.0000001
 43
0.0000001
 44
0.0000000001
 40
0.0
 40
0.0
 40
0.0
 40
0.0
 40
0.1260929072
 40
0.2516832501
 40
0.376756599
 40
0.5014128576
 40
0.625837795
 40
0.7502263512
 40
0.8749680504
 40
1.0
 40
1.0
 40
1.0
 40
1.0
 10
157.6710486834
 20
-16.2347236265
 30
0.0
 10
157.9579282151
 20
-16.052408969
 30
0.0
 10
158.5751602686
 20
-15.7537177474
 30
0.0
 10
159.5756923443
 20
-15.5331941918
 30
0.0
 10
160.596822426
 20
-15.5516493288
 30
0.0
 10
161.5819838357
 20
-15.8089050927
 30
0.0
 10
162.4766253458
 20
-16.2911910992
 30
0.0
 10
163.2321733971
 20
-16.9715621486
 30
0.0
 10
163.80558459
 20
-17.8124464708
 30
0.0
 10
164.0465099432
 20
-18.4490916694
 30
0.0
 10
164.1279694917
 20
-18.7761493372
 30
0.0
  0
SPLINE
  5
27C
100
AcDbEntity
  8
_30_VOLUMEN
100
AcDbSpline
 62
7
  6
CONTINUOUS
 70
0
 71
3
 72
9
 73
5
 74
0
 42
0.0000001
 43
0.0000001
 44
0.0000000001
 40
0.0
 40
0.0
 40
0.0
 40
0.0
 40
0.4989702739
 40
1.0
 40
1.0
 40
1.0
 40
1.0
 10
161.9894289461
 20
-16.4918029194
 30
0.0
 10
162.3641324327
 20
-16.7540025731
 30
0.0
 10
163.0251321821
 20
-17.42114522
 30
0.0
 10
163.4074921089
 20
-18.2783714515
 30
0.0
 10
163.5184779196
 20
-18.7239761851
 30
0.0
  0
SPLINE
  5
27D
100
AcDbEntity
  8
_30_VOLUMEN
100
AcDbSpline
 62
4
  6
CONTINUOUS
 70
0
 71
3
 72
15
 73
11
 74
0
 42
0.0000001
 43
0.0000001
 44
0.0000000001
 40
0.0
 40
0.0
 40
0.0
 40
0.0
 40
0.1260956702
 40
0.2516950889
 40
0.3767767315
 40
0.5014302858
 40
0.6258492311
 40
0.7502451155
 40
0.8749444121
 40
1.0
 40
1.0
 40
1.0
 40
1.0
 10
157.6711098959
 20
-16.2346987562
 30
0.0
 10
157.9615513473
 20
-16.0479611959
 30
0.0
 10
158.5870351647
 20
-15.7413057168
 30
0.0
 10
159.6024958785
 20
-15.5127220791
 30
0.0
 10
160.639945716
 20
-15.5277237259
 30
0.0
 10
161.6414857554
 20
-15.786119957
 30
0.0
 10
162.5515377321
 20
-16.2737992487
 30
0.0
 10
163.320120164
 20
-16.9636282387
 30
0.0
 10
163.9036759232
 20
-17.8171078859
 30
0.0
 10
164.1484840323
 20
-18.4637992568
 30
0.0
 10
164.2312475241
 20
-18.7960922187
 30
0.0
  0
SPLINE
  5
27E
100
AcDbEntity
  8
_30_VOLUMEN
100
AcDbSpline
 62
4
  6
CONTINUOUS
 70
0
 71
3
 72
9
 73
5
 74
0
 42
0.0000001
 43
0.0000001
 44
0.0000000001
 40
0.0
 40
0.0
 40
0.0
 40
0.0
 40
0.500738701
 40
1.0
 40
1.0
 40
1.0
 40
1.0
 10
150.5227039357
 20
-12.8413948111
 30
0.0
 10
150.3843443461
 20
-12.9633960907
 30
0.0
 10
150.160953431
 20
-13.2745745741
 30
0.0
 10
150.0998257239
 20
-13.6530154107
 30
0.0
 10
150.1126256317
 20
-13.836491167
 30
0.0
  0
SPLINE
  5
27F
100
AcDbEntity
  8
_21_KURVEN
100
AcDbSpline
 62
7
  6
CONTINUOUS
 70
0
 71
3
 72
21
 73
17
 74
0
 42
0.0000001
 43
0.0000001
 44
0.0000000001
 40
0.0
 40
0.0
 40
0.0
 40
0.0
 40
0.125
 40
0.1875
 40
0.25
 40
0.3125
 40
0.375
 40
0.4375
 40
0.5
 40
0.5625
 40
0.625
 40
0.6875
 40
0.75
 40
0.8125
 40
0.875
 40
1.0
 40
1.0
 40
1.0
 40
1.0
 10
168.6873434927
 20
-9.2863878308
 30
0.0
 10
168.6833751436
 20
-9.2544487989
 30
0.0
 10
168.6779361246
 20
-9.206608598
 30
0.0
 10
168.6686300805
 20
-9.1425482754
 30
0.0
 10
168.6556649846
 20
-9.0942358187
 30
0.0
 10
168.6454279299
 20
-9.0452275448
 30
0.0
 10
168.6302642731
 20
-8.9992697541
 30
0.0
 10
168.613251964
 20
-8.9542530182
 30
0.0
 10
168.5991473568
 20
-8.9086451648
 30
0.0
 10
168.5752605944
 20
-8.8644607268
 30
0.0
 10
168.5542953882
 20
-8.8197242839
 30
0.0
 10
168.5314261121
 20
-8.7757724449
 30
0.0
 10
168.5035766183
 20
-8.7348398969
 30
0.0
 10
168.4782021835
 20
-8.6922569843
 30
0.0
 10
168.4378095789
 20
-8.6402559904
 30
0.0
 10
168.4062876289
 20
-8.6021742398
 30
0.0
 10
168.3855457726
 20
-8.576582185
 30
0.0
  0
SPLINE
  5
280
100
AcDbEntity
  8
_21_KURVEN
100
AcDbSpline
 62
7
  6
CONTINUOUS
 70
0
 71
3
 72
12
 73
8
 74
0
 42
0.0000001
 43
0.0000001
 44
0.0000000001
 40
0.0
 40
0.0
 40
0.0
 40
0.0
 40
0.25
 40
0.375
 40
0.5
 40
0.75
 40
1.0
 40
1.0
 40
1.0
 40
1.0
 10
168.3855457715
 20
-8.5765821838
 30
0.0
 10
168.3597622386
 20
-8.5499800168
 30
0.0
 10
168.3210968821
 20
-8.5103060812
 30
0.0
 10
168.2645929658
 20
-8.4616195365
 30
0.0
 10
168.2020511952
 20
-8.4114731238
 30
0.0
 10
168.1276547462
 20
-8.3631803033
 30
0.0
 10
168.0588630709
 20
-8.3267225268
 30
0.0
 10
168.024115998
 20
-8.3088107572
 30
0.0
  0
SPLINE
  5
281
100
AcDbEntity
  8
_21_KURVEN
100
AcDbSpline
 62
7
  6
CONTINUOUS
 70
0
 71
3
 72
21
 73
17
 74
0
 42
0.0000001
 43
0.0000001
 44
0.0000000001
 40
0.0
 40
0.0
 40
0.0
 40
0.0
 40
0.125
 40
0.1875
 40
0.25
 40
0.3125
 40
0.375
 40
0.4375
 40
0.5
 40
0.5625
 40
0.625
 40
0.6875
 40
0.75
 40
0.8125
 40
0.875
 40
1.0
 40
1.0
 40
1.0
 40
1.0
 10
168.0241159988
 20
-8.3088107576
 30
0.0
 10
167.9926293148
 20
-8.2961003045
 30
0.0
 10
167.9455825145
 20
-8.2765223194
 30
0.0
 10
167.8821205447
 20
-8.252467561
 30
0.0
 10
167.8324429566
 20
-8.2405552007
 30
0.0
 10
167.783629528
 20
-8.2256069206
 30
0.0
 10
167.7334405723
 20
-8.2166736112
 30
0.0
 10
167.6826706054
 20
-8.2099324136
 30
0.0
 10
167.6329907302
 20
-8.2000158356
 30
0.0
 10
167.5795314997
 20
-8.2006086674
 30
0.0
 10
167.5269741594
 20
-8.1980117254
 30
0.0
 10
167.4745886138
 20
-8.1976644688
 30
0.0
 10
167.423826203
 20
-8.2036425359
 30
0.0
 10
167.3728238658
 20
-8.2063382052
 30
0.0
 10
167.3039361768
 20
-8.2190047878
 30
0.0
 10
167.2520092792
 20
-8.2302257476
 30
0.0
 10
167.2174493765
 20
-8.2373239379
 30
0.0
  0
SPLINE
  5
282
100
AcDbEntity
  8
_21_KURVEN
100
AcDbSpline
 62
7
  6
CONTINUOUS
 70
0
 71
3
 72
33
 73
29
 74
0
 42
0.0000001
 43
0.0000001
 44
0.0000000001
 40
0.0
 40
0.0
 40
0.0
 40
0.0
 40
0.0625
 40
0.09375
 40
0.125
 40
0.140625
 40
0.15625
 40
0.1875
 40
0.25
 40
0.28125
 40
0.3125
 40
0.375
 40
0.4375
 40
0.46875
 40
0.5
 40
0.53125
 40
0.5625
 40
0.625
 40
0.6875
 40
0.71875
 40
0.75
 40
0.8125
 40
0.84375
 40
0.859375
 40
0.875
 40
0.90625
 40
0.9375
 40
1.0
 40
1.0
 40
1.0
 40
1.0
 10
168.9597726601
 20
-27.2877056331
 30
0.0
 10
168.9921091333
 20
-27.2755038768
 30
0.0
 10
169.0405556979
 20
-27.2570792809
 30
0.0
 10
169.1053836984
 20
-27.2330009992
 30
0.0
 10
169.1454166547
 20
-27.216935727
 30
0.0
 10
169.1785477802
 20
-27.2064007784
 30
0.0
 10
169.2076474992
 20
-27.18740983
 30
0.0
 10
169.2594444515
 20
-27.1558780141
 30
0.0
 10
169.317224336
 20
-27.1177211171
 30
0.0
 10
169.3782570388
 20
-27.0839802922
 30
0.0
 10
169.4281673115
 20
-27.0354025604
 30
0.0
 10
169.4910653475
 20
-26.975787626
 30
0.0
 10
169.5570654176
 20
-26.9186621836
 30
0.0
 10
169.5954717524
 20
-26.8603309423
 30
0.0
 10
169.6263523473
 20
-26.8183595442
 30
0.0
 10
169.6561264276
 20
-26.7755954582
 30
0.0
 10
169.6989588212
 20
-26.7204349684
 30
0.0
 10
169.7317634499
 20
-26.6395288898
 30
0.0
 10
169.76792298
 20
-26.5607585199
 30
0.0
 10
169.7978203787
 20
-26.4978445669
 30
0.0
 10
169.8100947045
 20
-26.429171029
 30
0.0
 10
169.8275972125
 20
-26.3621778405
 30
0.0
 10
169.8407530702
 20
-26.3029276111
 30
0.0
 10
169.8493574751
 20
-26.2693122015
 30
0.0
 10
169.8486048454
 20
-26.233772204
 30
0.0
 10
169.8508692925
 20
-26.190006471
 30
0.0
 10
169.8526929781
 20
-26.1196111852
 30
0.0
 10
169.854465614
 20
-26.0668979963
 30
0.0
 10
169.8555573997
 20
-26.0317373647
 30
0.0
  0
SPLINE
  5
283
100
AcDbEntity
  8
_21_KURVEN
100
AcDbSpline
 62
7
  6
CONTINUOUS
 70
0
 71
3
 72
8
 73
4
 74
0
 42
0.0000001
 43
0.0000001
 44
0.0000000001
 40
0.0
 40
0.0
 40
0.0
 40
0.0
 40
1.0
 40
1.0
 40
1.0
 40
1.0
 10
151.2808395353
 20
-30.5818406526
 30
0.0
 10
151.2840940238
 20
-30.6232947995
 30
0.0
 10
151.2891481012
 20
-30.6645597369
 30
0.0
 10
151.295986386
 20
-30.7055098735
 30
0.0
  0
SPLINE
  5
284
100
AcDbEntity
  8
_21_KURVEN
100
AcDbSpline
 62
7
  6
CONTINUOUS
 70
0
 71
3
 72
9
 73
5
 74
0
 42
0.0000001
 43
0.0000001
 44
0.0000000001
 40
0.0
 40
0.0
 40
0.0
 40
0.0
 40
0.5
 40
1.0
 40
1.0
 40
1.0
 40
1.0
 10
151.2959863854
 20
-30.7055098701
 30
0.0
 10
151.3021963746
 20
-30.7381234858
 30
0.0
 10
151.3172139251
 20
-30.8113809126
 30
0.0
 10
151.3412628019
 20
-30.8820151774
 30
0.0
 10
151.3549972477
 20
-30.9201815405
 30
0.0
  0
SPLINE
  5
285
100
AcDbEntity
  8
_21_KURVEN
100
AcDbSpline
 62
7
  6
CONTINUOUS
 70
0
 71
3
 72
8
 73
4
 74
0
 42
0.0000001
 43
0.0000001
 44
0.0000000001
 40
0.0
 40
0.0
 40
0.0
 40
0.0
 40
1.0
 40
1.0
 40
1.0
 40
1.0
 10
151.3549972472
 20
-30.9201815393
 30
0.0
 10
151.3730955719
 20
-30.9664051767
 30
0.0
 10
151.3932205685
 20
-31.0108845413
 30
0.0
 10
151.4168265428
 20
-31.0563182551
 30
0.0
  0
SPLINE
  5
286
100
AcDbEntity
  8
_21_KURVEN
100
AcDbSpline
 62
7
  6
CONTINUOUS
 70
0
 71
3
 72
12
 73
8
 74
0
 42
0.0000001
 43
0.0000001
 44
0.0000000001
 40
0.0
 40
0.0
 40
0.0
 40
0.0
 40
0.25
 40
0.5
 40
0.625
 40
0.75
 40
1.0
 40
1.0
 40
1.0
 40
1.0
 10
151.4168265469
 20
-31.0563182626
 30
0.0
 10
151.427900522
 20
-31.07613804
 30
0.0
 10
151.4503359373
 20
-31.1159454791
 30
0.0
 10
151.4862805785
 20
-31.1712736152
 30
0.0
 10
151.5121062535
 20
-31.2061366053
 30
0.0
 10
151.5420064918
 20
-31.2448349462
 30
0.0
 10
151.5664080848
 20
-31.2730132327
 30
0.0
 10
151.582637258
 20
-31.2916463012
 30
0.0
  0
SPLINE
  5
287
100
AcDbEntity
  8
_21_KURVEN
100
AcDbSpline
 62
7
  6
CONTINUOUS
 70
0
 71
3
 72
12
 73
8
 74
0
 42
0.0000001
 43
0.0000001
 44
0.0000000001
 40
0.0
 40
0.0
 40
0.0
 40
0.0
 40
0.25
 40
0.375
 40
0.5
 40
0.75
 40
1.0
 40
1.0
 40
1.0
 40
1.0
 10
151.5826372565
 20
-31.2916462996
 30
0.0
 10
151.6084207894
 20
-31.3182484666
 30
0.0
 10
151.6470861459
 20
-31.3579224022
 30
0.0
 10
151.7035900622
 20
-31.4066089469
 30
0.0
 10
151.7661318328
 20
-31.4567553597
 30
0.0
 10
151.8405282818
 20
-31.5050481801
 30
0.0
 10
151.9093199571
 20
-31.5415059566
 30
0.0
 10
151.94406703
 20
-31.5594177262
 30
0.0
  0
SPLINE
  5
288
100
AcDbEntity
  8
_21_KURVEN
100
AcDbSpline
 62
7
  6
CONTINUOUS
 70
0
 71
3
 72
21
 73
17
 74
0
 42
0.0000001
 43
0.0000001
 44
0.0000000001
 40
0.0
 40
0.0
 40
0.0
 40
0.0
 40
0.125
 40
0.1875
 40
0.25
 40
0.3125
 40
0.375
 40
0.4375
 40
0.5
 40
0.5625
 40
0.625
 40
0.6875
 40
0.75
 40
0.8125
 40
0.875
 40
1.0
 40
1.0
 40
1.0
 40
1.0
 10
151.9440670292
 20
-31.5594177259
 30
0.0
 10
151.9755537132
 20
-31.572128179
 30
0.0
 10
152.0226005135
 20
-31.591706164
 30
0.0
 10
152.0860624833
 20
-31.6157609225
 30
0.0
 10
152.1357400714
 20
-31.6276732827
 30
0.0
 10
152.1845535001
 20
-31.6426215628
 30
0.0
 10
152.2347424558
 20
-31.6515548722
 30
0.0
 10
152.2855124226
 20
-31.6582960698
 30
0.0
 10
152.3351922979
 20
-31.6682126478
 30
0.0
 10
152.3886515283
 20
-31.667619816
 30
0.0
 10
152.4412088686
 20
-31.670216758
 30
0.0
 10
152.4935944142
 20
-31.6705640146
 30
0.0
 10
152.5443568251
 20
-31.6645859475
 30
0.0
 10
152.5953591622
 20
-31.6618902782
 30
0.0
 10
152.6642468512
 20
-31.6492236956
 30
0.0
 10
152.7161737488
 20
-31.6380027358
 30
0.0
 10
152.7507336515
 20
-31.6309045455
 30
0.0
  0
SPLINE
  5
289
100
AcDbEntity
  8
_21_KURVEN
100
AcDbSpline
 62
1
  6
CENTER
 70
0
 71
3
 72
191
 73
187
 74
0
 42
0.0000001
 43
0.0000001
 44
0.0000000001
 40
0.0
 40
0.0
 40
0.0
 40
0.0
 40
0.015625
 40
0.03125
 40
0.0390625
 40
0.046875
 40
0.0546875
 40
0.05859375
 40
0.060546875
 40
0.0625
 40
0.064453125
 40
0.06640625
 40
0.0703125
 40
0.078125
 40
0.0859375
 40
0.09375
 40
0.1015625
 40
0.109375
 40
0.1171875
 40
0.12109375
 40
0.123046875
 40
0.125
 40
0.126953125
 40
0.12890625
 40
0.1328125
 40
0.140625
 40
0.1484375
 40
0.15625
 40
0.1640625
 40
0.171875
 40
0.1796875
 40
0.18359375
 40
0.185546875
 40
0.1875
 40
0.189453125
 40
0.19140625
 40
0.1953125
 40
0.203125
 40
0.2109375
 40
0.21875
 40
0.2265625
 40
0.234375
 40
0.2421875
 40
0.24609375
 40
0.248046875
 40
0.25
 40
0.251953125
 40
0.25390625
 40
0.2578125
 40
0.265625
 40
0.2734375
 40
0.28125
 40
0.2890625
 40
0.296875
 40
0.3046875
 40
0.30859375
 40
0.310546875
 40
0.3125
 40
0.314453125
 40
0.31640625
 40
0.3203125
 40
0.328125
 40
0.3359375
 40
0.34375
 40
0.3515625
 40
0.359375
 40
0.3671875
 40
0.37109375
 40
0.373046875
 40
0.375
 40
0.376953125
 40
0.37890625
 40
0.3828125
 40
0.390625
 40
0.3984375
 40
0.40625
 40
0.4140625
 40
0.421875
 40
0.4296875
 40
0.43359375
 40
0.435546875
 40
0.4375
 40
0.439453125
 40
0.44140625
 40
0.4453125
 40
0.453125
 40
0.4609375
 40
0.46875
 40
0.4765625
 40
0.484375
 40
0.4921875
 40
0.49609375
 40
0.498046875
 40
0.5
 40
0.501953125
 40
0.50390625
 40
0.5078125
 40
0.515625
 40
0.5234375
 40
0.53125
 40
0.5390625
 40
0.546875
 40
0.5546875
 40
0.55859375
 40
0.560546875
 40
0.5625
 40
0.564453125
 40
0.56640625
 40
0.5703125
 40
0.578125
 40
0.5859375
 40
0.59375
 40
0.6015625
 40
0.609375
 40
0.6171875
 40
0.62109375
 40
0.623046875
 40
0.625
 40
0.626953125
 40
0.62890625
 40
0.6328125
 40
0.640625
 40
0.6484375
 40
0.65625
 40
0.6640625
 40
0.671875
 40
0.6796875
 40
0.68359375
 40
0.685546875
 40
0.6875
 40
0.689453125
 40
0.69140625
 40
0.6953125
 40
0.703125
 40
0.7109375
 40
0.71875
 40
0.7265625
 40
0.734375
 40
0.7421875
 40
0.74609375
 40
0.748046875
 40
0.75
 40
0.751953125
 40
0.75390625
 40
0.7578125
 40
0.765625
 40
0.7734375
 40
0.78125
 40
0.7890625
 40
0.796875
 40
0.8046875
 40
0.80859375
 40
0.810546875
 40
0.8125
 40
0.814453125
 40
0.81640625
 40
0.8203125
 40
0.828125
 40
0.8359375
 40
0.84375
 40
0.8515625
 40
0.859375
 40
0.8671875
 40
0.87109375
 40
0.873046875
 40
0.875
 40
0.876953125
 40
0.87890625
 40
0.8828125
 40
0.890625
 40
0.8984375
 40
0.90625
 40
0.9140625
 40
0.921875
 40
0.9296875
 40
0.93359375
 40
0.935546875
 40
0.9375
 40
0.939453125
 40
0.94140625
 40
0.9453125
 40
0.953125
 40
0.9609375
 40
0.96875
 40
0.984375
 40
1.0
 40
1.0
 40
1.0
 40
1.0
 10
150.8522267293
 20
-22.3809900362
 30
0.0
 10
150.9035998354
 20
-22.5251795554
 30
0.0
 10
151.0063518974
 20
-22.8135557242
 30
0.0
 10
151.1347627259
 20
-23.174040283
 30
0.0
 10
151.2375528117
 20
-23.4623977996
 30
0.0
 10
151.3144786565
 20
-23.6787477199
 30
0.0
 10
151.3791136661
 20
-23.858779265
 30
0.0
 10
151.4233178208
 20
-23.9853116823
 30
0.0
 10
151.4502017567
 20
-24.056819076
 30
0.0
 10
151.4657886955
 20
-24.1126943453
 30
0.0
 10
151.4988674771
 20
-24.1599891412
 30
0.0
 10
151.536871158
 20
-24.2260418415
 30
0.0
 10
151.6062204429
 20
-24.3402395131
 30
0.0
 10
151.7038037253
 20
-24.5041087179
 30
0.0
 10
151.821543935
 20
-24.7004368802
 30
0.0
 10
151.9391024608
 20
-24.8968570978
 30
0.0
 10
152.0567474513
 20
-25.0932239777
 30
0.0
 10
152.1742282671
 20
-25.2897121533
 30
0.0
 10
152.2726041417
 20
-25.4530924287
 30
0.0
 10
152.3405411715
 20
-25.5681612835
 30
0.0
 10
152.3808073428
 20
-25.6328183127
 30
0.0
 10
152.4069365318
 20
-25.6844001303
 30
0.0
 10
152.4486249733
 20
-25.7241740663
 30
0.0
 10
152.4987823107
 20
-25.781324711
 30
0.0
 10
152.5890864059
 20
-25.8794192591
 30
0.0
 10
152.7167694066
 20
-26.0205583483
 30
0.0
 10
152.8705586748
 20
-26.1894924262
 30
0.0
 10
153.0241858332
 20
-26.3585513881
 30
0.0
 10
153.1778917634
 20
-26.527543643
 30
0.0
 10
153.3314447161
 20
-26.6966778416
 30
0.0
 10
153.4598497917
 20
-26.8372054509
 30
0.0
 10
153.5488672808
 20
-26.936389545
 30
0.0
 10
153.6010858137
 20
-26.9917946927
 30
0.0
 10
153.6364429716
 20
-27.0369301952
 30
0.0
 10
153.6863513983
 20
-27.0683748695
 30
0.0
 10
153.7478203151
 20
-27.1150766272
 30
0.0
 10
153.8577558269
 20
-27.1945795854
 30
0.0
 10
154.0135696187
 20
-27.3093194582
 30
0.0
 10
154.2010779751
 20
-27.446505042
 30
0.0
 10
154.3884382097
 20
-27.5838369306
 30
0.0
 10
154.5758591249
 20
-27.7210858638
 30
0.0
 10
154.7631854396
 20
-27.8585203137
 30
0.0
 10
154.9195554697
 20
-27.9724997626
 30
0.0
 10
155.0284998661
 20
-28.0533576579
 30
0.0
 10
155.0915565902
 20
-28.0978887512
 30
0.0
 10
155.136587819
 20
-28.13600096
 30
0.0
 10
155.1902629133
 20
-28.1560943224
 30
0.0
 10
155.258814624
 20
-28.1891706598
 30
0.0
 10
155.380184947
 20
-28.2441257437
 30
0.0
 10
155.5528362856
 20
-28.3241650376
 30
0.0
 10
155.7603340716
 20
-28.4195521699
 30
0.0
 10
155.9677428783
 20
-28.5151281336
 30
0.0
 10
156.1751914224
 20
-28.6106087922
 30
0.0
 10
156.382569996
 20
-28.7062818399
 30
0.0
 10
156.5555855947
 20
-28.7854475035
 30
0.0
 10
156.6763068723
 20
-28.8419592378
 30
0.0
 10
156.7458983802
 20
-28.8725417577
 30
0.0
 10
156.7963795752
 20
-28.9002952696
 30
0.0
 10
156.8534065534
 20
-28.9096372437
 30
0.0
 10
156.9271592794
 20
-28.9285153724
 30
0.0
 10
157.0572903811
 20
-28.9585597666
 30
0.0
 10
157.2426355694
 20
-29.0030457689
 30
0.0
 10
157.4652888318
 20
-29.0557544774
 30
0.0
 10
157.6878761653
 20
-29.1086564606
 30
0.0
 10
157.9104881778
 20
-29.1614598391
 30
0.0
 10
158.1330674035
 20
-29.2144643615
 30
0.0
 10
158.3186388149
 20
-29.258046488
 30
0.0
 10
158.4483668281
 20
-29.2897014246
 30
0.0
 10
158.5227653183
 20
-29.3059993986
 30
0.0
 10
158.577808731
 20
-29.3232667205
 30
0.0
 10
158.6357398648
 20
-29.3212539573
 30
0.0
 10
158.7119741062
 20
-29.3252953956
 30
0.0
 10
158.8458533434
 20
-29.3292344229
 30
0.0
 10
159.0368639616
 20
-29.3365008786
 30
0.0
 10
159.2661820723
 20
-29.3445143735
 30
0.0
 10
159.4954714032
 20
-29.3527300377
 30
0.0
 10
159.7247704847
 20
-29.3608432769
 30
0.0
 10
159.9540593435
 20
-29.3691640469
 30
0.0
 10
160.1451593427
 20
-29.3754916066
 30
0.0
 10
160.2788793192
 20
-29.3811035757
 30
0.0
 10
160.3553687028
 20
-29.382464893
 30
0.0
 10
160.4125161273
 20
-29.3886845397
 30
0.0
 10
160.4705030207
 20
-29.3750323126
 30
0.0
 10
160.5475260655
 20
-29.3637608878
 30
0.0
 10
160.6824527903
 20
-29.3408062336
 30
0.0
 10
160.8751341908
 20
-29.3097033839
 30
0.0
 10
161.1063812133
 20
-29.271652382
 30
0.0
 10
161.3376245698
 20
-29.2338084876
 30
0.0
 10
161.5688532483
 20
-29.1958637453
 30
0.0
 10
161.8001443049
 20
-29.1581152873
 30
0.0
 10
161.9926911569
 20
-29.1260879976
 30
0.0
 10
162.1278576227
 20
-29.1047805274
 30
0.0
 10
162.2044965926
 20
-29.0908702467
 30
0.0
 10
162.2636632319
 20
-29.0853236773
 30
0.0
 10
162.3163797291
 20
-29.0610998352
 30
0.0
 10
162.388918279
 20
-29.0353162328
 30
0.0
 10
162.5148124258
 20
-28.9871594199
 30
0.0
 10
162.6952096926
 20
-28.9199519167
 30
0.0
 10
162.9114498311
 20
-28.8386190881
 30
0.0
 10
163.1277587192
 20
-28.7574808486
 30
0.0
 10
163.3440291905
 20
-28.6762480776
 30
0.0
 10
163.5603845796
 20
-28.5951988434
 30
0.0
 10
163.7404296917
 20
-28.527124802
 30
0.0
 10
163.8669513141
 20
-28.4805120027
 30
0.0
 10
163.9384846223
 20
-28.4522548275
 30
0.0
 10
163.9942888762
 20
-28.4356289503
 30
0.0
 10
164.0418584201
 20
-28.4015457011
 30
0.0
 10
164.1081568446
 20
-28.3621907063
 30
0.0
 10
164.2228407285
 20
-28.2904822246
 30
0.0
 10
164.3873751252
 20
-28.1895257276
 30
0.0
 10
164.5845141789
 20
-28.0677389356
 30
0.0
 10
164.781741679
 20
-27.9461334201
 30
0.0
 10
164.9789176157
 20
-27.8244417943
 30
0.0
 10
165.1762113595
 20
-27.7029133331
 30
0.0
 10
165.3402730917
 20
-27.601167492
 30
0.0
 10
165.4557991777
 20
-27.530865478
 30
0.0
 10
165.5207483601
 20
-27.4892572646
 30
0.0
 10
165.5724623119
 20
-27.4620951279
 30
0.0
 10
165.6127008655
 20
-27.4194747148
 30
0.0
 10
165.6703550263
 20
-27.368039527
 30
0.0
 10
165.7693847641
 20
-27.2755156047
 30
0.0
 10
165.9118315701
 20
-27.1446528356
 30
0.0
 10
166.0823470843
 20
-26.987051551
 30
0.0
 10
166.2529840073
 20
-26.8296112929
 30
0.0
 10
166.423555948
 20
-26.6720928907
 30
0.0
 10
166.5942664091
 20
-26.5147260379
 30
0.0
 10
166.7361175441
 20
-26.3831469494
 30
0.0
 10
166.8362086593
 20
-26.2918993782
 30
0.0
 10
166.8921624502
 20
-26.2384194239
 30
0.0
 10
166.937623955
 20
-26.2020798301
 30
0.0
 10
166.9697213793
 20
-26.1513279911
 30
0.0
 10
167.0171794971
 20
-26.0886860315
 30
0.0
 10
167.0980591895
 20
-25.9767202901
 30
0.0
 10
167.2147380475
 20
-25.8179943454
 30
0.0
 10
167.3542623666
 20
-25.6269965185
 30
0.0
 10
167.493929623
 20
-25.4361452813
 30
0.0
 10
167.6335154409
 20
-25.2452343788
 30
0.0
 10
167.7732840753
 20
-25.0544155478
 30
0.0
 10
167.8892164146
 20
-24.8951426714
 30
0.0
 10
167.9714262674
 20
-24.7841514628
 30
0.0
 10
168.016753414
 20
-24.7199482619
 30
0.0
 10
168.0553964489
 20
-24.6739920193
 30
0.0
 10
168.0762737399
 20
-24.6196409709
 30
0.0
 10
168.1103070302
 20
-24.5501011133
 30
0.0
 10
168.166977917
 20
-24.4270420115
 30
0.0
 10
168.2494468398
 20
-24.2519569551
 30
0.0
 10
168.3477587904
 20
-24.0415478335
 30
0.0
 10
168.4462569469
 20
-23.8312250711
 30
0.0
 10
168.5446610364
 20
-23.6208639261
 30
0.0
 10
168.6432551884
 20
-23.410569952
 30
0.0
 10
168.724861829
 20
-23.2351330559
 30
0.0
 10
168.7830691458
 20
-23.1127008687
 30
0.0
 10
168.8146410126
 20
-23.0421566683
 30
0.0
 10
168.8430789502
 20
-22.9908906154
 30
0.0
 10
168.8533254661
 20
-22.933347648
 30
0.0
 10
168.8733328713
 20
-22.8588131519
 30
0.0
 10
168.9053892736
 20
-22.7273576504
 30
0.0
 10
168.9527308606
 20
-22.5400976008
 30
0.0
 10
169.0088743215
 20
-22.3151563594
 30
0.0
 10
169.0652087935
 20
-22.0902782069
 30
0.0
 10
169.1214456649
 20
-21.8653768807
 30
0.0
 10
169.1778819275
 20
-21.6405051604
 30
0.0
 10
169.2243288429
 20
-21.4530326855
 30
0.0
 10
169.2579793873
 20
-21.3219556871
 30
0.0
 10
169.2754329117
 20
-21.2468148135
 30
0.0
 10
169.293524071
 20
-21.1911344294
 30
0.0
 10
169.2924988455
 20
-21.1328728265
 30
0.0
 10
169.2977999001
 20
-21.0560910479
 30
0.0
 10
169.3039698611
 20
-20.9213034349
 30
0.0
 10
169.314409448
 20
-20.7289690764
 30
0.0
 10
169.3262366899
 20
-20.4980737073
 30
0.0
 10
169.3382644099
 20
-20.2672038948
 30
0.0
 10
169.3501904803
 20
-20.0363259949
 30
0.0
 10
169.3623226708
 20
-19.8054548878
 30
0.0
 10
169.3718304705
 20
-19.6130463955
 30
0.0
 10
169.3796607068
 20
-19.4783908754
 30
0.0
 10
169.3823019326
 20
-19.4013974784
 30
0.0
 10
169.3894467865
 20
-19.3437858946
 30
0.0
 10
169.3768524996
 20
-19.285664148
 30
0.0
 10
169.3669453505
 20
-19.2083464364
 30
0.0
 10
169.346399881
 20
-19.0729575307
 30
0.0
 10
169.3187263721
 20
-18.8795881549
 30
0.0
 10
169.2848002619
 20
-18.6475263496
 30
0.0
 10
169.2398163005
 20
-18.3381170925
 30
0.0
 10
169.1834997057
 20
-17.9513532819
 30
0.0
 10
169.1384728354
 20
-17.6419429158
 30
0.0
 10
169.1159560996
 20
-17.4872376475
 30
0.0
  0
SPLINE
  5
28A
100
AcDbEntity
  8
_21_KURVEN
100
AcDbSpline
 62
1
  6
CENTER
 70
0
 71
3
 72
191
 73
187
 74
0
 42
0.0000001
 43
0.0000001
 44
0.0000000001
 40
0.0
 40
0.0
 40
0.0
 40
0.0
 40
0.015625
 40
0.03125
 40
0.0390625
 40
0.046875
 40
0.0546875
 40
0.05859375
 40
0.060546875
 40
0.0625
 40
0.064453125
 40
0.06640625
 40
0.0703125
 40
0.078125
 40
0.0859375
 40
0.09375
 40
0.1015625
 40
0.109375
 40
0.1171875
 40
0.12109375
 40
0.123046875
 40
0.125
 40
0.126953125
 40
0.12890625
 40
0.1328125
 40
0.140625
 40
0.1484375
 40
0.15625
 40
0.1640625
 40
0.171875
 40
0.1796875
 40
0.18359375
 40
0.185546875
 40
0.1875
 40
0.189453125
 40
0.19140625
 40
0.1953125
 40
0.203125
 40
0.2109375
 40
0.21875
 40
0.2265625
 40
0.234375
 40
0.2421875
 40
0.24609375
 40
0.248046875
 40
0.25
 40
0.251953125
 40
0.25390625
 40
0.2578125
 40
0.265625
 40
0.2734375
 40
0.28125
 40
0.2890625
 40
0.296875
 40
0.3046875
 40
0.30859375
 40
0.310546875
 40
0.3125
 40
0.314453125
 40
0.31640625
 40
0.3203125
 40
0.328125
 40
0.3359375
 40
0.34375
 40
0.3515625
 40
0.359375
 40
0.3671875
 40
0.37109375
 40
0.373046875
 40
0.375
 40
0.376953125
 40
0.37890625
 40
0.3828125
 40
0.390625
 40
0.3984375
 40
0.40625
 40
0.4140625
 40
0.421875
 40
0.4296875
 40
0.43359375
 40
0.435546875
 40
0.4375
 40
0.439453125
 40
0.44140625
 40
0.4453125
 40
0.453125
 40
0.4609375
 40
0.46875
 40
0.4765625
 40
0.484375
 40
0.4921875
 40
0.49609375
 40
0.498046875
 40
0.5
 40
0.501953125
 40
0.50390625
 40
0.5078125
 40
0.515625
 40
0.5234375
 40
0.53125
 40
0.5390625
 40
0.546875
 40
0.5546875
 40
0.55859375
 40
0.560546875
 40
0.5625
 40
0.564453125
 40
0.56640625
 40
0.5703125
 40
0.578125
 40
0.5859375
 40
0.59375
 40
0.6015625
 40
0.609375
 40
0.6171875
 40
0.62109375
 40
0.623046875
 40
0.625
 40
0.626953125
 40
0.62890625
 40
0.6328125
 40
0.640625
 40
0.6484375
 40
0.65625
 40
0.6640625
 40
0.671875
 40
0.6796875
 40
0.68359375
 40
0.685546875
 40
0.6875
 40
0.689453125
 40
0.69140625
 40
0.6953125
 40
0.703125
 40
0.7109375
 40
0.71875
 40
0.7265625
 40
0.734375
 40
0.7421875
 40
0.74609375
 40
0.748046875
 40
0.75
 40
0.751953125
 40
0.75390625
 40
0.7578125
 40
0.765625
 40
0.7734375
 40
0.78125
 40
0.7890625
 40
0.796875
 40
0.8046875
 40
0.80859375
 40
0.810546875
 40
0.8125
 40
0.814453125
 40
0.81640625
 40
0.8203125
 40
0.828125
 40
0.8359375
 40
0.84375
 40
0.8515625
 40
0.859375
 40
0.8671875
 40
0.87109375
 40
0.873046875
 40
0.875
 40
0.876953125
 40
0.87890625
 40
0.8828125
 40
0.890625
 40
0.8984375
 40
0.90625
 40
0.9140625
 40
0.921875
 40
0.9296875
 40
0.93359375
 40
0.935546875
 40
0.9375
 40
0.939453125
 40
0.94140625
 40
0.9453125
 40
0.953125
 40
0.9609375
 40
0.96875
 40
0.984375
 40
1.0
 40
1.0
 40
1.0
 40
1.0
 10
169.1159562988
 20
-17.4872384472
 30
0.0
 10
169.0645831927
 20
-17.3430489281
 30
0.0
 10
168.9618311306
 20
-17.0546727593
 30
0.0
 10
168.8334203021
 20
-16.6941882004
 30
0.0
 10
168.7306302163
 20
-16.4058306838
 30
0.0
 10
168.6537043715
 20
-16.1894807636
 30
0.0
 10
168.5890693619
 20
-16.0094492184
 30
0.0
 10
168.5448652072
 20
-15.8829168011
 30
0.0
 10
168.5179812714
 20
-15.8114094074
 30
0.0
 10
168.5023943325
 20
-15.7555341381
 30
0.0
 10
168.4693155509
 20
-15.7082393422
 30
0.0
 10
168.4313118701
 20
-15.6421866419
 30
0.0
 10
168.3619625851
 20
-15.5279889704
 30
0.0
 10
168.2643793027
 20
-15.3641197655
 30
0.0
 10
168.146639093
 20
-15.1677916032
 30
0.0
 10
168.0290805672
 20
-14.9713713856
 30
0.0
 10
167.9114355768
 20
-14.7750045057
 30
0.0
 10
167.7939547609
 20
-14.5785163301
 30
0.0
 10
167.6955788863
 20
-14.4151360547
 30
0.0
 10
167.6276418566
 20
-14.3000671999
 30
0.0
 10
167.5873756852
 20
-14.2354101707
 30
0.0
 10
167.5612464962
 20
-14.1838283532
 30
0.0
 10
167.5195580547
 20
-14.1440544172
 30
0.0
 10
167.4694007174
 20
-14.0869037724
 30
0.0
 10
167.3790966221
 20
-13.9888092243
 30
0.0
 10
167.2514136214
 20
-13.8476701351
 30
0.0
 10
167.0976243532
 20
-13.6787360572
 30
0.0
 10
166.9439971949
 20
-13.5096770954
 30
0.0
 10
166.7902912647
 20
-13.3406848404
 30
0.0
 10
166.6367383119
 20
-13.1715506418
 30
0.0
 10
166.5083332364
 20
-13.0310230325
 30
0.0
 10
166.4193157472
 20
-12.9318389384
 30
0.0
 10
166.3670972143
 20
-12.8764337907
 30
0.0
 10
166.3317400565
 20
-12.8312982882
 30
0.0
 10
166.2818316297
 20
-12.799853614
 30
0.0
 10
166.2203627129
 20
-12.7531518562
 30
0.0
 10
166.1104272011
 20
-12.673648898
 30
0.0
 10
165.9546134093
 20
-12.5589090253
 30
0.0
 10
165.767105053
 20
-12.4217234414
 30
0.0
 10
165.5797448183
 20
-12.2843915528
 30
0.0
 10
165.3923239031
 20
-12.1471426196
 30
0.0
 10
165.2049975884
 20
-12.0097081697
 30
0.0
 10
165.0486275584
 20
-11.8957287208
 30
0.0
 10
164.9396831619
 20
-11.8148708256
 30
0.0
 10
164.8766264378
 20
-11.7703397323
 30
0.0
 10
164.8315952091
 20
-11.7322275234
 30
0.0
 10
164.7779201147
 20
-11.712134161
 30
0.0
 10
164.709368404
 20
-11.6790578236
 30
0.0
 10
164.587998081
 20
-11.6241027397
 30
0.0
 10
164.4153467424
 20
-11.5440634458
 30
0.0
 10
164.2078489565
 20
-11.4486763135
 30
0.0
 10
164.0004401498
 20
-11.3531003498
 30
0.0
 10
163.7929916056
 20
-11.2576196912
 30
0.0
 10
163.5856130321
 20
-11.1619466435
 30
0.0
 10
163.4125974333
 20
-11.0827809799
 30
0.0
 10
163.2918761557
 20
-11.0262692456
 30
0.0
 10
163.2222846478
 20
-10.9956867257
 30
0.0
 10
163.1718034528
 20
-10.9679332139
 30
0.0
 10
163.1147764746
 20
-10.9585912397
 30
0.0
 10
163.0410237487
 20
-10.939713111
 30
0.0
 10
162.9108926469
 20
-10.9096687168
 30
0.0
 10
162.7255474587
 20
-10.8651827145
 30
0.0
 10
162.5028941963
 20
-10.812474006
 30
0.0
 10
162.2803068627
 20
-10.7595720228
 30
0.0
 10
162.0576948503
 20
-10.7067686443
 30
0.0
 10
161.8351156245
 20
-10.6537641219
 30
0.0
 10
161.6495442131
 20
-10.6101819954
 30
0.0
 10
161.5198161999
 20
-10.5785270588
 30
0.0
 10
161.4454177098
 20
-10.5622290848
 30
0.0
 10
161.390374297
 20
-10.5449617629
 30
0.0
 10
161.3324431633
 20
-10.5469745261
 30
0.0
 10
161.2562089219
 20
-10.5429330878
 30
0.0
 10
161.1223296846
 20
-10.5389940605
 30
0.0
 10
160.9313190665
 20
-10.5317276048
 30
0.0
 10
160.7020009557
 20
-10.5237141099
 30
0.0
 10
160.4727116248
 20
-10.5154984457
 30
0.0
 10
160.2434125433
 20
-10.5073852065
 30
0.0
 10
160.0141236845
 20
-10.4990644366
 30
0.0
 10
159.8230236854
 20
-10.4927368768
 30
0.0
 10
159.6893037089
 20
-10.4871249077
 30
0.0
 10
159.6128143252
 20
-10.4857635904
 30
0.0
 10
159.5556669008
 20
-10.4795439437
 30
0.0
 10
159.4976800073
 20
-10.4931961708
 30
0.0
 10
159.4206569625
 20
-10.5044675957
 30
0.0
 10
159.2857302377
 20
-10.5274222498
 30
0.0
 10
159.0930488372
 20
-10.5585250995
 30
0.0
 10
158.8618018147
 20
-10.5965761014
 30
0.0
 10
158.6305584582
 20
-10.6344199958
 30
0.0
 10
158.3993297797
 20
-10.6723647382
 30
0.0
 10
158.1680387231
 20
-10.7101131961
 30
0.0
 10
157.9754918712
 20
-10.7421404858
 30
0.0
 10
157.8403254053
 20
-10.763447956
 30
0.0
 10
157.7636864354
 20
-10.7773582367
 30
0.0
 10
157.7045197961
 20
-10.7829048062
 30
0.0
 10
157.6518032989
 20
-10.8071286482
 30
0.0
 10
157.579264749
 20
-10.8329122507
 30
0.0
 10
157.4533706023
 20
-10.8810690635
 30
0.0
 10
157.2729733354
 20
-10.9482765667
 30
0.0
 10
157.056733197
 20
-11.0296093953
 30
0.0
 10
156.8404243088
 20
-11.1107476348
 30
0.0
 10
156.6241538376
 20
-11.1919804058
 30
0.0
 10
156.4077984485
 20
-11.27302964
 30
0.0
 10
156.2277533364
 20
-11.3411036814
 30
0.0
 10
156.1012317139
 20
-11.3877164807
 30
0.0
 10
156.0296984057
 20
-11.415973656
 30
0.0
 10
155.9738941518
 20
-11.4325995332
 30
0.0
 10
155.926324608
 20
-11.4666827823
 30
0.0
 10
155.8600261834
 20
-11.5060377772
 30
0.0
 10
155.7453422995
 20
-11.5777462588
 30
0.0
 10
155.5808079028
 20
-11.6787027558
 30
0.0
 10
155.3836688492
 20
-11.8004895478
 30
0.0
 10
155.1864413491
 20
-11.9220950633
 30
0.0
 10
154.9892654124
 20
-12.0437866891
 30
0.0
 10
154.7919716685
 20
-12.1653151503
 30
0.0
 10
154.6279099363
 20
-12.2670609914
 30
0.0
 10
154.5123838503
 20
-12.3373630054
 30
0.0
 10
154.4474346679
 20
-12.3789712188
 30
0.0
 10
154.3957207161
 20
-12.4061333555
 30
0.0
 10
154.3554821625
 20
-12.4487537686
 30
0.0
 10
154.2978280018
 20
-12.5001889564
 30
0.0
 10
154.198798264
 20
-12.5927128787
 30
0.0
 10
154.056351458
 20
-12.7235756478
 30
0.0
 10
153.8858359438
 20
-12.8811769324
 30
0.0
 10
153.7151990208
 20
-13.0386171906
 30
0.0
 10
153.54462708
 20
-13.1961355927
 30
0.0
 10
153.373916619
 20
-13.3535024455
 30
0.0
 10
153.2320654839
 20
-13.485081534
 30
0.0
 10
153.1319743688
 20
-13.5763291053
 30
0.0
 10
153.0760205779
 20
-13.6298090596
 30
0.0
 10
153.0305590731
 20
-13.6661486533
 30
0.0
 10
152.9984616487
 20
-13.7169004924
 30
0.0
 10
152.9510035309
 20
-13.779542452
 30
0.0
 10
152.8701238385
 20
-13.8915081934
 30
0.0
 10
152.7534449806
 20
-14.0502341381
 30
0.0
 10
152.6139206614
 20
-14.2412319649
 30
0.0
 10
152.4742534051
 20
-14.4320832021
 30
0.0
 10
152.3346675871
 20
-14.6229941046
 30
0.0
 10
152.1948989528
 20
-14.8138129356
 30
0.0
 10
152.0789666134
 20
-14.973085812
 30
0.0
 10
151.9967567606
 20
-15.0840770206
 30
0.0
 10
151.951429614
 20
-15.1482802215
 30
0.0
 10
151.9127865791
 20
-15.1942364642
 30
0.0
 10
151.8919092881
 20
-15.2485875125
 30
0.0
 10
151.8578759978
 20
-15.3181273702
 30
0.0
 10
151.801205111
 20
-15.4411864719
 30
0.0
 10
151.7187361882
 20
-15.6162715283
 30
0.0
 10
151.6204242376
 20
-15.8266806499
 30
0.0
 10
151.5219260811
 20
-16.0370034124
 30
0.0
 10
151.4235219917
 20
-16.2473645574
 30
0.0
 10
151.3249278396
 20
-16.4576585314
 30
0.0
 10
151.243321199
 20
-16.6330954276
 30
0.0
 10
151.1851138822
 20
-16.7555276148
 30
0.0
 10
151.1535420155
 20
-16.8260718152
 30
0.0
 10
151.1251040778
 20
-16.877337868
 30
0.0
 10
151.114857562
 20
-16.9348808354
 30
0.0
 10
151.0948501567
 20
-17.0094153315
 30
0.0
 10
151.0627937545
 20
-17.140870833
 30
0.0
 10
151.0154521675
 20
-17.3281308827
 30
0.0
 10
150.9593087065
 20
-17.553072124
 30
0.0
 10
150.9029742345
 20
-17.7779502765
 30
0.0
 10
150.8467373631
 20
-18.0028516027
 30
0.0
 10
150.7903011005
 20
-18.2277233231
 30
0.0
 10
150.7438541852
 20
-18.415195798
 30
0.0
 10
150.7102036408
 20
-18.5462727963
 30
0.0
 10
150.6927501163
 20
-18.62141367
 30
0.0
 10
150.674658957
 20
-18.677094054
 30
0.0
 10
150.6756841826
 20
-18.735355657
 30
0.0
 10
150.6703831279
 20
-18.8121374355
 30
0.0
 10
150.6642131669
 20
-18.9469250486
 30
0.0
 10
150.6537735801
 20
-19.139259407
 30
0.0
 10
150.6419463381
 20
-19.3701547761
 30
0.0
 10
150.6299186182
 20
-19.6010245887
 30
0.0
 10
150.6179925477
 20
-19.8319024885
 30
0.0
 10
150.6058603572
 20
-20.0627735956
 30
0.0
 10
150.5963525576
 20
-20.255182088
 30
0.0
 10
150.5885223212
 20
-20.389837608
 30
0.0
 10
150.5858810954
 20
-20.466831005
 30
0.0
 10
150.5787362415
 20
-20.5244425889
 30
0.0
 10
150.5913305285
 20
-20.5825643354
 30
0.0
 10
150.6012376776
 20
-20.659882047
 30
0.0
 10
150.621783147
 20
-20.7952709527
 30
0.0
 10
150.649456656
 20
-20.9886403286
 30
0.0
 10
150.6833827662
 20
-21.2207021339
 30
0.0
 10
150.7283667275
 20
-21.5301113909
 30
0.0
 10
150.7846833223
 20
-21.9168752016
 30
0.0
 10
150.8297101926
 20
-22.2262855676
 30
0.0
 10
150.8522269285
 20
-22.3809908359
 30
0.0
  0
SPLINE
  5
28B
100
AcDbEntity
  8
_21_KURVEN
100
AcDbSpline
 62
7
  6
CONTINUOUS
 70
0
 71
3
 72
15
 73
11
 74
0
 42
0.0000001
 43
0.0000001
 44
0.0000000001
 40
0.0
 40
0.0
 40
0.0
 40
0.0
 40
0.125
 40
0.25
 40
0.375
 40
0.5
 40
0.625
 40
0.75
 40
0.875
 40
1.0
 40
1.0
 40
1.0
 40
1.0
 10
151.0084103679
 20
-12.5805228504
 30
0.0
 10
150.9865561161
 20
-12.5872845398
 30
0.0
 10
150.9431202755
 20
-12.5997772096
 30
0.0
 10
150.8763305357
 20
-12.6247004689
 30
0.0
 10
150.8104511074
 20
-12.6529375805
 30
0.0
 10
150.7501440545
 20
-12.6817702348
 30
0.0
 10
150.6866080874
 20
-12.7200185362
 30
0.0
 10
150.6290835402
 20
-12.7580243735
 30
0.0
 10
150.572869737
 20
-12.7993264461
 30
0.0
 10
150.5349807744
 20
-12.8316819137
 30
0.0
 10
150.5160879299
 20
-12.8472570534
 30
0.0
  0
SPLINE
  5
28C
100
AcDbEntity
  8
_21_KURVEN
100
AcDbSpline
 62
7
  6
CONTINUOUS
 70
0
 71
3
 72
21
 73
17
 74
0
 42
0.0000001
 43
0.0000001
 44
0.0000000001
 40
0.0
 40
0.0
 40
0.0
 40
0.0
 40
0.125
 40
0.1875
 40
0.25
 40
0.3125
 40
0.375
 40
0.4375
 40
0.5
 40
0.5625
 40
0.625
 40
0.6875
 40
0.75
 40
0.8125
 40
0.875
 40
1.0
 40
1.0
 40
1.0
 40
1.0
 10
150.5160879268
 20
-12.8472570561
 30
0.0
 10
150.4842037834
 20
-12.8804302113
 30
0.0
 10
150.4356529722
 20
-12.9295744074
 30
0.0
 10
150.3738169418
 20
-12.9975621491
 30
0.0
 10
150.3362077212
 20
-13.0556952075
 30
0.0
 10
150.2941056264
 20
-13.1106234232
 30
0.0
 10
150.2612072261
 20
-13.1712287573
 30
0.0
 10
150.2317643531
 20
-13.2336135408
 30
0.0
 10
150.197184392
 20
-13.2938449484
 30
0.0
 10
150.1796972561
 20
-13.3609104102
 30
0.0
 10
150.1570034353
 20
-13.4259978047
 30
0.0
 10
150.1380435286
 20
-13.4921634141
 30
0.0
 10
150.1296955682
 20
-13.5606404348
 30
0.0
 10
150.1158477438
 20
-13.6280860026
 30
0.0
 10
150.1125673243
 20
-13.7204326265
 30
0.0
 10
150.1129862022
 20
-13.7901254856
 30
0.0
 10
150.1126256335
 20
-13.8364911937
 30
0.0
  0
ENDSEC
  0
SECTION
  2
OBJECTS
  0
DICTIONARY
  5
C
100
AcDbDictionary
280
0
281
1
  3
ACAD_GROUP
350
D
  3
ACAD_MLINESTYLE
350
17
  3
ACAD_LAYOUT
350
1A
  3
ACAD_PLOTSETTINGS
350
19
  3
ACAD_PLOTSTYLENAME
350
E
  0
DICTIONARY
  5
D
102
{ACAD_REACTORS
330
C
102
}
100
AcDbDictionary
280
0
281
1
  0
ACDBDICTIONARYWDFLT
  5
E
102
{ACAD_REACTORS
330
C
102
}
100
AcDbDictionary
281
1
  3
Normal
350
F
100
AcDbDictionaryWithDefault
340
F
  0
DICTIONARY
  5
17
102
{ACAD_REACTORS
330
C
102
}
100
AcDbDictionary
280
0
281
1
  3
Standard
350
18
  0
DICTIONARY
  5
19
102
{ACAD_REACTORS
330
C
102
}
100
AcDbDictionary
281
1
  0
DICTIONARY
  5
1A
102
{ACAD_REACTORS
330
C
102
}
100
AcDbDictionary
281
1
  3
Model
350
28D
  3
Layout1
350
28E
  0
ACDBPLACEHOLDER
  5
F
102
{ACAD_REACTORS
330
E
102
}
  0
MLINESTYLE
  5
18
102
{ACAD_REACTORS
330
17
102
}
100
AcDbMlineStyle
  2
STANDARD
 70
0
  3

 62
256
 51
90.0
 52
90.0
 71
2
 49
0.5
 62
256
  6
BYLAYER
 49
-0.5
 62
256
  6
BYLAYER
  0
LAYOUT
  5
28D
102
{ACAD_REACTORS
330
1A
102
}
100
AcDbPlotSettings
  1

  2
none_device
  4
ISO_A3_(420.00_x_297.00_MM)
  6

 40
0.0
 41
0.0
 42
0.0
 43
0.0
 44
420.0
 45
297.0
 46
0.0
 47
0.0
 48
0.0
 49
0.0
140
0.0
141
0.0
142
1.0
143
1.0
 70
1024
 72
1
 73
0
 74
0
  7

 75
0
147
1.0
148
0.0
149
0.0
100
AcDbLayout
  1
Model
 70
0
 71
0
 10
0.0
 20
0.0
 11
420.0
 21
297.0
 12
0.0
 22
0.0
 32
0.0
 14
0.0
 24
0.0
 34
0.0
 15
0.0
 25
0.0
 35
0.0
146
0.0
 13
0.0
 23
0.0
 33
0.0
 16
1.0
 26
0.0
 36
0.0
 17
0.0
 27
1.0
 37
0.0
 76
0
330
20D
345
0
346
0
  0
LAYOUT
  5
28E
102
{ACAD_REACTORS
330
1A
102
}
100
AcDbPlotSettings
  1

  2
none_device
  4
ISO_A3_(420.00_x_297.00_MM)
  6

 40
0.0
 41
0.0
 42
0.0
 43
0.0
 44
420.0
 45
297.0
 46
0.0
 47
0.0
 48
0.0
 49
0.0
140
0.0
141
0.0
142
1.0
143
1.0
 70
0
 72
1
 73
0
 74
0
  7

 75
0
147
1.0
148
0.0
149
0.0
100
AcDbLayout
  1
Layout1
 70
0
 71
1
 10
0.0
 20
0.0
 11
420.0
 21
297.0
 12
0.0
 22
0.0
 32
0.0
 14
0.0
 24
0.0
 34
0.0
 15
0.0
 25
0.0
 35
0.0
146
0.0
 13
0.0
 23
0.0
 33
0.0
 16
1.0
 26
0.0
 36
0.0
 17
0.0
 27
1.0
 37
0.0
 76
0
330
20E
345
0
346
0
  0
ENDSEC
  0
EOF
