  0
SECTION
  2
HEADER
  9
$ACADVER
  1
AC1018
  9
$ACADMAINTVER
 70
     0
  9
$DWGCODEPAGE
  3
ANSI_1252
  9
$LASTSAVEDBY
  1
piechottad
  9
$INSBASE
 10
0.0
 20
0.0
 30
0.0
  9
$EXTMIN
 10
0.0
 20
0.0
 30
0.0
  9
$EXTMAX
 10
297.0
 20
210.0
 30
0.0
  9
$LIMMIN
 10
0.0
 20
0.0
  9
$LIMMAX
 10
297.0
 20
210.0
  9
$ORTHOMODE
 70
     0
  9
$REGENMODE
 70
     1
  9
$FILLMODE
 70
     1
  9
$QTEXTMODE
 70
     0
  9
$MIRRTEXT
 70
     1
  9
$LTSCALE
 40
1.0
  9
$ATTMODE
 70
     1
  9
$TEXTSIZE
 40
3.5
  9
$TRACEWID
 40
1.0
  9
$TEXTSTYLE
  7
Standard
  9
$CLAYER
  8
0
  9
$CELTYPE
  6
ByLayer
  9
$CECOLOR
 62
   256
  9
$CELTSCALE
 40
1.0
  9
$DISPSILH
 70
     0
  9
$DIMSCALE
 40
1.0
  9
$DIMASZ
 40
3.302
  9
$DIMEXO
 40
1.0
  9
$DIMDLI
 40
3.75
  9
$DIMRND
 40
0.0
  9
$DIMDLE
 40
0.0
  9
$DIMEXE
 40
1.0
  9
$DIMTP
 40
0.0
  9
$DIMTM
 40
0.0
  9
$DIMTXT
 40
3.5
  9
$DIMCEN
 40
2.5
  9
$DIMTSZ
 40
0.0
  9
$DIMTOL
 70
     0
  9
$DIMLIM
 70
     0
  9
$DIMTIH
 70
     1
  9
$DIMTOH
 70
     1
  9
$DIMSE1
 70
     0
  9
$DIMSE2
 70
     0
  9
$DIMTAD
 70
     1
  9
$DIMZIN
 70
     0
  9
$DIMBLK
  1

  9
$DIMASO
 70
     1
  9
$DIMSHO
 70
     1
  9
$DIMPOST
  1

  9
$DIMAPOST
  1

  9
$DIMALT
 70
     0
  9
$DIMALTD
 70
     3
  9
$DIMALTF
 40
0.0393700787
  9
$DIMLFAC
 40
1.0
  9
$DIMTOFL
 70
     1
  9
$DIMTVP
 40
0.0
  9
$DIMTIX
 70
     0
  9
$DIMSOXD
 70
     0
  9
$DIMSAH
 70
     0
  9
$DIMBLK1
  1

  9
$DIMBLK2
  1

  9
$DIMSTYLE
  2
ISO-25
  9
$DIMCLRD
 70
     0
  9
$DIMCLRE
 70
     0
  9
$DIMCLRT
 70
     0
  9
$DIMTFAC
 40
1.0
  9
$DIMGAP
 40
1.524
  9
$DIMJUST
 70
     0
  9
$DIMSD1
 70
     0
  9
$DIMSD2
 70
     0
  9
$DIMTOLJ
 70
     0
  9
$DIMTZIN
 70
     0
  9
$DIMALTZ
 70
     0
  9
$DIMALTTZ
 70
     0
  9
$DIMUPT
 70
     0
  9
$DIMDEC
 70
     2
  9
$DIMTDEC
 70
     2
  9
$DIMALTU
 70
     2
  9
$DIMALTTD
 70
     3
  9
$DIMTXSTY
  7
Standard
  9
$DIMAUNIT
 70
     0
  9
$DIMADEC
 70
     2
  9
$DIMALTRND
 40
0.0
  9
$DIMAZIN
 70
     0
  9
$DIMDSEP
 70
    44
  9
$DIMATFIT
 70
     3
  9
$DIMFRAC
 70
     0
  9
$DIMLDRBLK
  1

  9
$DIMLUNIT
 70
     2
  9
$DIMLWD
 70
    -2
  9
$DIMLWE
 70
    -2
  9
$DIMTMOVE
 70
     0
  9
$LUNITS
 70
     2
  9
$LUPREC
 70
     2
  9
$SKETCHINC
 40
1.0
  9
$FILLETRAD
 40
10.0
  9
$AUNITS
 70
     0
  9
$AUPREC
 70
     2
  9
$MENU
  1
.
  9
$ELEVATION
 40
0.0
  9
$PELEVATION
 40
0.0
  9
$THICKNESS
 40
0.0
  9
$LIMCHECK
 70
     0
  9
$CHAMFERA
 40
0.0
  9
$CHAMFERB
 40
0.0
  9
$CHAMFERC
 40
0.0
  9
$CHAMFERD
 40
0.0
  9
$SKPOLY
 70
     0
  9
$TDCREATE
 40
2456995.442799225
  9
$TDUCREATE
 40
2456995.401132558
  9
$TDUPDATE
 40
2457031.45852662
  9
$TDUUPDATE
 40
2457031.416859954
  9
$TDINDWG
 40
0.0002521875
  9
$TDUSRTIMER
 40
2457031.416608032
  9
$USRTIMER
 70
     1
  9
$ANGBASE
 50
0.0
  9
$ANGDIR
 70
     0
  9
$PDMODE
 70
     0
  9
$PDSIZE
 40
-1.0
  9
$PLINEWID
 40
0.0
  9
$SPLFRAME
 70
     0
  9
$SPLINETYPE
 70
     6
  9
$SPLINESEGS
 70
     8
  9
$HANDSEED
  5
1C8
  9
$SURFTAB1
 70
     6
  9
$SURFTAB2
 70
     6
  9
$SURFTYPE
 70
     6
  9
$SURFU
 70
     6
  9
$SURFV
 70
     6
  9
$UCSBASE
  2

  9
$UCSNAME
  2

  9
$UCSORG
 10
0.0
 20
0.0
 30
0.0
  9
$UCSXDIR
 10
1.0
 20
0.0
 30
0.0
  9
$UCSYDIR
 10
0.0
 20
1.0
 30
0.0
  9
$UCSORTHOREF
  2

  9
$UCSORTHOVIEW
 70
     0
  9
$UCSORGTOP
 10
0.0
 20
0.0
 30
0.0
  9
$UCSORGBOTTOM
 10
0.0
 20
0.0
 30
0.0
  9
$UCSORGLEFT
 10
0.0
 20
0.0
 30
0.0
  9
$UCSORGRIGHT
 10
0.0
 20
0.0
 30
0.0
  9
$UCSORGFRONT
 10
0.0
 20
0.0
 30
0.0
  9
$UCSORGBACK
 10
0.0
 20
0.0
 30
0.0
  9
$PUCSBASE
  2

  9
$PUCSNAME
  2

  9
$PUCSORG
 10
0.0
 20
0.0
 30
0.0
  9
$PUCSXDIR
 10
1.0
 20
0.0
 30
0.0
  9
$PUCSYDIR
 10
0.0
 20
1.0
 30
0.0
  9
$PUCSORTHOREF
  2

  9
$PUCSORTHOVIEW
 70
     0
  9
$PUCSORGTOP
 10
0.0
 20
0.0
 30
0.0
  9
$PUCSORGBOTTOM
 10
0.0
 20
0.0
 30
0.0
  9
$PUCSORGLEFT
 10
0.0
 20
0.0
 30
0.0
  9
$PUCSORGRIGHT
 10
0.0
 20
0.0
 30
0.0
  9
$PUCSORGFRONT
 10
0.0
 20
0.0
 30
0.0
  9
$PUCSORGBACK
 10
0.0
 20
0.0
 30
0.0
  9
$USERI1
 70
     0
  9
$USERI2
 70
     0
  9
$USERI3
 70
     0
  9
$USERI4
 70
     0
  9
$USERI5
 70
     0
  9
$USERR1
 40
0.0
  9
$USERR2
 40
0.0
  9
$USERR3
 40
0.0
  9
$USERR4
 40
0.0
  9
$USERR5
 40
0.0
  9
$WORLDVIEW
 70
     1
  9
$SHADEDGE
 70
     3
  9
$SHADEDIF
 70
    70
  9
$TILEMODE
 70
     1
  9
$MAXACTVP
 70
    64
  9
$PINSBASE
 10
0.0
 20
0.0
 30
0.0
  9
$PLIMCHECK
 70
     0
  9
$PEXTMIN
 10
1.000000000000000E+20
 20
1.000000000000000E+20
 30
1.000000000000000E+20
  9
$PEXTMAX
 10
-1.000000000000000E+20
 20
-1.000000000000000E+20
 30
-1.000000000000000E+20
  9
$PLIMMIN
 10
0.0
 20
0.0
  9
$PLIMMAX
 10
0.0
 20
0.0
  9
$UNITMODE
 70
     0
  9
$VISRETAIN
 70
     1
  9
$PLINEGEN
 70
     0
  9
$PSLTSCALE
 70
     1
  9
$TREEDEPTH
 70
  3020
  9
$CMLSTYLE
  2
Standard
  9
$CMLJUST
 70
     0
  9
$CMLSCALE
 40
20.0
  9
$PROXYGRAPHICS
 70
     1
  9
$MEASUREMENT
 70
     1
  9
$CELWEIGHT
370
    -1
  9
$ENDCAPS
280
     0
  9
$JOINSTYLE
280
     0
  9
$LWDISPLAY
290
     1
  9
$INSUNITS
 70
     4
  9
$HYPERLINKBASE
  1

  9
$STYLESHEET
  1

  9
$XEDIT
290
     1
  9
$CEPSNTYPE
380
     0
  9
$PSTYLEMODE
290
     1
  9
$FINGERPRINTGUID
  2
{3242B4C8-3D20-474A-8ADF-73B39AE21C16}
  9
$VERSIONGUID
  2
{FAEB1C32-E019-11D5-929B-00C0DF256EC4}
  9
$EXTNAMES
290
     1
  9
$PSVPSCALE
 40
0.0
  9
$OLESTARTUP
290
     0
  9
$SORTENTS
280
   127
  9
$INDEXCTL
280
     0
  9
$HIDETEXT
280
     1
  9
$XCLIPFRAME
290
     0
  9
$HALOGAP
280
     0
  9
$OBSCOLOR
 70
   257
  9
$OBSLTYPE
280
     0
  9
$INTERSECTIONDISPLAY
280
     0
  9
$INTERSECTIONCOLOR
 70
   257
  9
$DIMASSOC
280
     2
  9
$PROJECTNAME
  1

  0
ENDSEC
  0
SECTION
  2
CLASSES
  0
CLASS
  1
ACDBDICTIONARYWDFLT
  2
AcDbDictionaryWithDefault
  3
ObjectDBX Classes
 90
        0
 91
       83
280
     0
281
     0
  0
CLASS
  1
VISUALSTYLE
  2
AcDbVisualStyle
  3
ObjectDBX Classes
 90
     4095
 91
       83
280
     0
281
     0
  0
CLASS
  1
MATERIAL
  2
AcDbMaterial
  3
ObjectDBX Classes
 90
     1153
 91
       83
280
     0
281
     0
  0
CLASS
  1
SCALE
  2
AcDbScale
  3
ObjectDBX Classes
 90
     1153
 91
       83
280
     0
281
     0
  0
CLASS
  1
SUN
  2
AcDbSun
  3
SCENEOE
 90
     1153
 91
       83
280
     0
281
     0
  0
CLASS
  1
DICTIONARYVAR
  2
AcDbDictionaryVar
  3
ObjectDBX Classes
 90
        0
 91
       36
280
     0
281
     0
  0
CLASS
  1
TABLESTYLE
  2
AcDbTableStyle
  3
ObjectDBX Classes
 90
     4095
 91
       83
280
     0
281
     0
  0
CLASS
  1
RASTERVARIABLES
  2
AcDbRasterVariables
  3
ISM
 90
        0
 91
       83
280
     0
281
     0
  0
CLASS
  1
CELLSTYLEMAP
  2
AcDbCellStyleMap
  3
ObjectDBX Classes
 90
     1152
 91
        4
280
     0
281
     0
  0
ENDSEC
  0
SECTION
  2
TABLES
  0
TABLE
  2
VPORT
  5
8
330
0
100
AcDbSymbolTable
 70
     1
  0
VPORT
  5
29
330
8
100
AcDbSymbolTableRecord
100
AcDbViewportTableRecord
  2
*Active
 70
     0
 10
0.0
 20
0.0
 11
1.0
 21
1.0
 12
109.7704918032787
 22
51.6393442622951
 13
0.0
 23
0.0
 14
10.0
 24
10.0
 15
10.0
 25
10.0
 16
0.0
 26
0.0
 36
1.0
 17
0.0
 27
0.0
 37
0.0
 40
210.0
 41
1.497950819672131
 42
50.0
 43
0.0
 44
0.0
 50
0.0
 51
0.0
 71
    16
 72
  2000
 73
     1
 74
     3
 75
     0
 76
     0
 77
     0
 78
     0
281
     0
 65
     1
110
0.0
120
0.0
130
0.0
111
1.0
121
0.0
131
0.0
112
0.0
122
1.0
132
0.0
 79
     0
146
0.0
  0
ENDTAB
  0
TABLE
  2
LTYPE
  5
5
330
0
100
AcDbSymbolTable
 70
     8
  0
LTYPE
  5
14
330
5
100
AcDbSymbolTableRecord
100
AcDbLinetypeTableRecord
  2
ByBlock
 70
     0
  3

 72
    65
 73
     0
 40
0.0
  0
LTYPE
  5
15
330
5
100
AcDbSymbolTableRecord
100
AcDbLinetypeTableRecord
  2
ByLayer
 70
     0
  3

 72
    65
 73
     0
 40
0.0
  0
LTYPE
  5
16
330
5
100
AcDbSymbolTableRecord
100
AcDbLinetypeTableRecord
  2
Continuous
 70
     0
  3
Solid line
 72
    65
 73
     0
 40
0.0
  0
LTYPE
  5
6A
330
5
100
AcDbSymbolTableRecord
100
AcDbLinetypeTableRecord
  2
SLD-Durchgehend
 70
     0
  3
SolidWorks Line Style
 72
    65
 73
     0
 40
0.0
  0
LTYPE
  5
6B
330
5
100
AcDbSymbolTableRecord
100
AcDbLinetypeTableRecord
  2
SLD-Gestrichelt
 70
     0
  3
SolidWorks Line Style
 72
    65
 73
     2
 40
1.905
 49
1.27
 74
     0
 49
-0.635
 74
     0
  0
LTYPE
  5
6C
330
5
100
AcDbSymbolTableRecord
100
AcDbLinetypeTableRecord
  2
SLD-Phantom
 70
     0
  3
SolidWorks Line Style
 72
    65
 73
     6
 40
12.7
 49
6.35
 74
     0
 49
-1.27
 74
     0
 49
1.27
 74
     0
 49
-1.27
 74
     0
 49
1.27
 74
     0
 49
-1.27
 74
     0
  0
LTYPE
  5
6D
330
5
100
AcDbSymbolTableRecord
100
AcDbLinetypeTableRecord
  2
SLD-Kette
 70
     0
  3
SolidWorks Line Style
 72
    65
 73
     4
 40
10.16
 49
6.35
 74
     0
 49
-1.27
 74
     0
 49
1.27
 74
     0
 49
-1.27
 74
     0
  0
LTYPE
  5
6E
330
5
100
AcDbSymbolTableRecord
100
AcDbLinetypeTableRecord
  2
SLD-Punktstrich
 70
     0
  3
SolidWorks Line Style
 72
    65
 73
     4
 40
19.05
 49
15.24
 74
     0
 49
-1.27
 74
     0
 49
1.27
 74
     0
 49
-1.27
 74
     0
  0
LTYPE
  5
6F
330
5
100
AcDbSymbolTableRecord
100
AcDbLinetypeTableRecord
  2
SLD-Naht
 70
     0
  3
SolidWorks Line Style
 72
    65
 73
     2
 40
0.635
 49
0.0
 74
     0
 49
-0.635
 74
     0
  0
LTYPE
  5
70
330
5
100
AcDbSymbolTableRecord
100
AcDbLinetypeTableRecord
  2
SLD-Dicke-Dünne-Kette
 70
     0
  3
SolidWorks Line Style
 72
    65
 73
     4
 40
10.16
 49
6.35
 74
     0
 49
-1.27
 74
     0
 49
1.27
 74
     0
 49
-1.27
 74
     0
  0
ENDTAB
  0
TABLE
  2
LAYER
  5
2
330
0
100
AcDbSymbolTable
 70
     4
  0
LAYER
  5
10
330
2
100
AcDbSymbolTableRecord
100
AcDbLayerTableRecord
  2
0
 70
     0
 62
     7
  6
Continuous
370
    -3
390
F
  0
LAYER
  5
71
330
2
100
AcDbSymbolTableRecord
100
AcDbLayerTableRecord
  2
1
 70
     0
 62
     4
  6
Continuous
370
    -1
390
F
  0
LAYER
  5
72
330
2
100
AcDbSymbolTableRecord
100
AcDbLayerTableRecord
  2
2
 70
     0
 62
     7
  6
SLD-Durchgehend
370
    -3
390
F
  0
LAYER
  5
1B4
330
2
100
AcDbSymbolTableRecord
100
AcDbLayerTableRecord
  2
Defpoints
 70
     0
 62
     7
  6
Continuous
290
     0
370
    -3
390
F
  0
ENDTAB
  0
TABLE
  2
STYLE
  5
3
330
0
100
AcDbSymbolTable
 70
     2
  0
STYLE
  5
11
330
3
100
AcDbSymbolTableRecord
100
AcDbTextStyleTableRecord
  2
Standard
 70
     0
 40
0.0
 41
1.0
 50
0.0
 71
     0
 42
3.5
  3
txt
  4

  0
STYLE
  5
150
330
3
100
AcDbSymbolTableRecord
100
AcDbTextStyleTableRecord
  2
SLDTEXTSTYLE0
 70
     0
 40
0.0
 41
0.75
 50
0.0
 71
     0
 42
3.5
  3
TXT
  4

  0
ENDTAB
  0
TABLE
  2
VIEW
  5
6
330
0
100
AcDbSymbolTable
 70
     0
  0
ENDTAB
  0
TABLE
  2
UCS
  5
7
330
0
100
AcDbSymbolTable
 70
     0
  0
ENDTAB
  0
TABLE
  2
APPID
  5
9
330
0
100
AcDbSymbolTable
 70
     1
  0
APPID
  5
12
330
9
100
AcDbSymbolTableRecord
100
AcDbRegAppTableRecord
  2
ACAD
 70
     0
  0
ENDTAB
  0
TABLE
  2
DIMSTYLE
  5
A
330
0
100
AcDbSymbolTable
 70
     2
100
AcDbDimStyleTable
  0
DIMSTYLE
105
27
330
A
100
AcDbSymbolTableRecord
100
AcDbDimStyleTableRecord
  2
ISO-25
 70
     0
 41
2.5
 42
0.625
 43
3.75
 44
1.25
 73
     0
 74
     0
 77
     1
 78
     8
140
2.5
141
2.5
143
0.0393700787
147
0.625
171
     3
172
     1
178
     0
271
     2
272
     2
274
     3
278
    44
283
     0
284
     8
340
11
  0
DIMSTYLE
105
151
102
{ACAD_REACTORS
330
14F
330
15B
330
165
330
16F
102
}
330
A
100
AcDbSymbolTableRecord
100
AcDbDimStyleTableRecord
  2
SLDDIMSTYLE0
 70
     0
 41
3.302
 44
0.0
 45
0.000000001
 73
     0
 74
     0
 77
     1
 78
    12
 79
     3
140
3.5
147
0.875
173
     1
178
     0
271
     2
272
     2
276
     2
284
    12
340
150
  0
ENDTAB
  0
TABLE
  2
BLOCK_RECORD
  5
1
330
0
100
AcDbSymbolTable
 70
     7
  0
BLOCK_RECORD
  5
1F
330
1
100
AcDbSymbolTableRecord
100
AcDbBlockTableRecord
  2
*Model_Space
340
22
  0
BLOCK_RECORD
  5
1B
330
1
100
AcDbSymbolTableRecord
100
AcDbBlockTableRecord
  2
*Paper_Space
340
1E
  0
BLOCK_RECORD
  5
23
330
1
100
AcDbSymbolTableRecord
100
AcDbBlockTableRecord
  2
*Paper_Space0
340
26
  0
BLOCK_RECORD
  5
152
330
1
100
AcDbSymbolTableRecord
100
AcDbBlockTableRecord
  2
_D
340
0
  0
BLOCK_RECORD
  5
15C
330
1
100
AcDbSymbolTableRecord
100
AcDbBlockTableRecord
  2
_D_1
340
0
  0
BLOCK_RECORD
  5
166
330
1
100
AcDbSymbolTableRecord
100
AcDbBlockTableRecord
  2
_D_2
340
0
  0
BLOCK_RECORD
  5
170
330
1
100
AcDbSymbolTableRecord
100
AcDbBlockTableRecord
  2
_D_3
340
0
  0
BLOCK_RECORD
  5
179
330
1
100
AcDbSymbolTableRecord
100
AcDbBlockTableRecord
  2
SW_CENTERMARKSYMBOL_0
340
0
102
{BLKREFS
331
0
102
}
  0
BLOCK_RECORD
  5
185
330
1
100
AcDbSymbolTableRecord
100
AcDbBlockTableRecord
  2
SW_CENTERMARKSYMBOL_1
340
0
102
{BLKREFS
331
0
102
}
  0
ENDTAB
  0
ENDSEC
  0
SECTION
  2
BLOCKS
  0
BLOCK
  5
20
330
1F
100
AcDbEntity
  8
0
100
AcDbBlockBegin
  2
*Model_Space
 70
     0
 10
0.0
 20
0.0
 30
0.0
  3
*Model_Space
  1
*Model_Space
  0
ENDBLK
  5
21
330
1F
100
AcDbEntity
  8
0
100
AcDbBlockEnd
  0
BLOCK
  5
1C
330
1B
100
AcDbEntity
 67
     1
  8
0
100
AcDbBlockBegin
  2
*Paper_Space
 70
     0
 10
0.0
 20
0.0
 30
0.0
  3
*Paper_Space
  1
*Paper_Space
  0
ENDBLK
  5
1D
330
1B
100
AcDbEntity
 67
     1
  8
0
100
AcDbBlockEnd
  0
BLOCK
  5
24
330
23
100
AcDbEntity
  8
0
100
AcDbBlockBegin
  2
*Paper_Space0
 70
     0
 10
0.0
 20
0.0
 30
0.0
  3
*Paper_Space0
  1
*Paper_Space0
  0
ENDBLK
  5
25
330
23
100
AcDbEntity
  8
0
100
AcDbBlockEnd
  0
BLOCK
  5
153
330
152
100
AcDbEntity
  8
0
100
AcDbBlockBegin
  2
_D
 70
     0
 10
0.0
 20
0.0
 30
0.0
  3
_D
  1
_D
  0
LINE
  5
155
330
152
100
AcDbEntity
  8
2
  6
SLD-Durchgehend
 62
     0
370
    -2
100
AcDbLine
 10
150.0027086782
 20
32.0605059343
 30
0.0
 11
150.0027086782
 21
44.0066850922
 31
0.0
  0
LINE
  5
156
330
152
100
AcDbEntity
  8
2
  6
SLD-Durchgehend
 62
     0
370
    -2
100
AcDbLine
 10
0.0027086782
 20
0.0605059343
 30
0.0
 11
0.0027086781999941
 21
44.0066850922
 31
0.0
  0
LINE
  5
157
330
152
100
AcDbEntity
  8
2
  6
SLD-Durchgehend
 62
     0
370
    -2
100
AcDbLine
 10
146.7007086782
 20
44.0066850922
 30
0.0
 11
3.304708678199994
 21
44.0066850922
 31
0.0
  0
SOLID
  5
158
330
152
100
AcDbEntity
  8
2
 62
     0
100
AcDbTrace
 10
146.7007086782
 20
43.45635175886667
 30
0.0
 11
146.7007086782
 21
44.55701842553334
 31
0.0
 12
150.0027086782
 22
44.0066850922
 32
0.0
 13
150.0027086782
 23
44.0066850922
 33
0.0
  0
SOLID
  5
159
330
152
100
AcDbEntity
  8
2
 62
     0
100
AcDbTrace
 10
3.304708678199994
 20
44.55701842553334
 30
0.0
 11
3.304708678199994
 21
43.45635175886667
 31
0.0
 12
0.0027086781999941
 22
44.0066850922
 32
0.0
 13
0.0027086781999941
 23
44.0066850922
 33
0.0
  0
MTEXT
  5
15A
330
152
100
AcDbEntity
  8
2
 62
     0
370
    15
100
AcDbMText
 10
75.0027086782
 20
48.3816850922
 30
0.0
 40
3.5
 41
0.0
 71
     2
 72
     1
  1
\A1;150
  7
SLDTEXTSTYLE0
 73
     1
 44
1.0
  0
POINT
  5
1B5
330
152
100
AcDbEntity
  8
Defpoints
 62
     0
100
AcDbPoint
 10
150.0027086782
 20
31.9980059343
 30
0.0
  0
POINT
  5
1B6
330
152
100
AcDbEntity
  8
Defpoints
 62
     0
100
AcDbPoint
 10
0.0027086782
 20
-0.0019940657
 30
0.0
  0
POINT
  5
1B7
330
152
100
AcDbEntity
  8
Defpoints
 62
     0
100
AcDbPoint
 10
0.0027086782
 20
44.0066850922
 30
0.0
  0
ENDBLK
  5
154
330
152
100
AcDbEntity
  8
0
100
AcDbBlockEnd
  0
BLOCK
  5
15D
330
15C
100
AcDbEntity
  8
0
100
AcDbBlockBegin
  2
_D_1
 70
     0
 10
0.0
 20
0.0
 30
0.0
  3
_D_1
  1
_D_1
  0
LINE
  5
15F
330
15C
100
AcDbEntity
  8
2
  6
SLD-Durchgehend
 62
     0
370
    -2
100
AcDbLine
 10
0.9402086782000001
 20
24.9980059343
 30
0.0
 11
-5.997291321799999
 21
24.9980059343
 31
0.0
  0
LINE
  5
160
330
15C
100
AcDbEntity
  8
2
  6
SLD-Durchgehend
 62
     0
370
    -2
100
AcDbLine
 10
0.9402086782000001
 20
-0.0019940657
 30
0.0
 11
-5.997291321800001
 21
-0.0019940656999999
 31
0.0
  0
LINE
  5
161
330
15C
100
AcDbEntity
  8
2
  6
SLD-Durchgehend
 62
     0
370
    -2
100
AcDbLine
 10
-5.997291321799999
 20
21.6960059343
 30
0.0
 11
-5.997291321800001
 21
3.3000059343
 31
0.0
  0
SOLID
  5
162
330
15C
100
AcDbEntity
  8
2
 62
     0
100
AcDbTrace
 10
-5.446957988466665
 20
21.6960059343
 30
0.0
 11
-6.547624655133332
 21
21.6960059343
 31
0.0
 12
-5.997291321799999
 22
24.9980059343
 32
0.0
 13
-5.997291321799999
 23
24.9980059343
 33
0.0
  0
SOLID
  5
163
330
15C
100
AcDbEntity
  8
2
 62
     0
100
AcDbTrace
 10
-6.547624655133334
 20
3.3000059343
 30
0.0
 11
-5.446957988466667
 21
3.3000059343
 31
0.0
 12
-5.997291321800001
 22
-0.0019940656999999
 32
0.0
 13
-5.997291321800001
 23
-0.0019940656999999
 33
0.0
  0
MTEXT
  5
164
330
15C
100
AcDbEntity
  8
2
 62
     0
370
    15
100
AcDbMText
 10
-10.3722913218
 20
12.4980059343
 30
0.0
 40
3.5
 41
0.0
 71
     2
 72
     1
  1
\A1;25
  7
SLDTEXTSTYLE0
 11
7.105427357601002E-17
 21
1.0
 31
0.0
 73
     1
 44
1.0
  0
POINT
  5
1B8
330
15C
100
AcDbEntity
  8
Defpoints
 62
     0
100
AcDbPoint
 10
1.0027086782
 20
24.9980059343
 30
0.0
  0
POINT
  5
1B9
330
15C
100
AcDbEntity
  8
Defpoints
 62
     0
100
AcDbPoint
 10
1.0027086782
 20
-0.0019940657
 30
0.0
  0
POINT
  5
1BA
330
15C
100
AcDbEntity
  8
Defpoints
 62
     0
100
AcDbPoint
 10
-5.9972913218
 20
-0.0019940656999996
 30
0.0
  0
ENDBLK
  5
15E
330
15C
100
AcDbEntity
  8
0
100
AcDbBlockEnd
  0
BLOCK
  5
167
330
166
100
AcDbEntity
  8
0
100
AcDbBlockBegin
  2
_D_2
 70
     0
 10
0.0
 20
0.0
 30
0.0
  3
_D_2
  1
_D_2
  0
LINE
  5
169
330
166
100
AcDbEntity
  8
2
  6
SLD-Durchgehend
 62
     0
370
    -2
100
AcDbLine
 10
150.0652086782
 20
31.9980059343
 30
0.0
 11
156.0065197036
 21
31.9980059343
 31
0.0
  0
LINE
  5
16A
330
166
100
AcDbEntity
  8
2
  6
SLD-Durchgehend
 62
     0
370
    -2
100
AcDbLine
 10
150.0652086782
 20
-0.0019940657
 30
0.0
 11
156.0065197036
 21
-0.0019940656999999
 31
0.0
  0
LINE
  5
16B
330
166
100
AcDbEntity
  8
2
  6
SLD-Durchgehend
 62
     0
370
    -2
100
AcDbLine
 10
156.0065197036
 20
28.6960059343
 30
0.0
 11
156.0065197036
 21
3.3000059343
 31
0.0
  0
SOLID
  5
16C
330
166
100
AcDbEntity
  8
2
 62
     0
100
AcDbTrace
 10
156.5568530369333
 20
28.6960059343
 30
0.0
 11
155.4561863702667
 21
28.6960059343
 31
0.0
 12
156.0065197036
 22
31.9980059343
 32
0.0
 13
156.0065197036
 23
31.9980059343
 33
0.0
  0
SOLID
  5
16D
330
166
100
AcDbEntity
  8
2
 62
     0
100
AcDbTrace
 10
155.4561863702667
 20
3.3000059343
 30
0.0
 11
156.5568530369333
 21
3.3000059343
 31
0.0
 12
156.0065197036
 22
-0.0019940656999999
 32
0.0
 13
156.0065197036
 23
-0.0019940656999999
 33
0.0
  0
MTEXT
  5
16E
330
166
100
AcDbEntity
  8
2
 62
     0
370
    15
100
AcDbMText
 10
151.6315197036
 20
15.9980059343
 30
0.0
 40
3.5
 41
0.0
 71
     2
 72
     1
  1
\A1;32
  7
SLDTEXTSTYLE0
 11
0.0
 21
1.0
 31
0.0
 73
     1
 44
1.0
  0
POINT
  5
1BB
330
166
100
AcDbEntity
  8
Defpoints
 62
     0
100
AcDbPoint
 10
150.0027086782
 20
31.9980059343
 30
0.0
  0
POINT
  5
1BC
330
166
100
AcDbEntity
  8
Defpoints
 62
     0
100
AcDbPoint
 10
150.0027086782
 20
-0.0019940657
 30
0.0
  0
POINT
  5
1BD
330
166
100
AcDbEntity
  8
Defpoints
 62
     0
100
AcDbPoint
 10
156.0065197036
 20
-0.0019940657000004
 30
0.0
  0
ENDBLK
  5
168
330
166
100
AcDbEntity
  8
0
100
AcDbBlockEnd
  0
BLOCK
  5
171
330
170
100
AcDbEntity
  8
0
100
AcDbBlockBegin
  2
_D_3
 70
     0
 10
0.0
 20
0.0
 30
0.0
  3
_D_3
  1
_D_3
  0
LINE
  5
173
330
170
100
AcDbEntity
  8
2
  6
SLD-Durchgehend
 62
     0
370
    -2
100
AcDbLine
 10
111.0027086782
 20
0.0605059343
 30
0.0
 11
111.0027086782
 21
38.0066850922
 31
0.0
  0
LINE
  5
174
330
170
100
AcDbEntity
  8
2
  6
SLD-Durchgehend
 62
     0
370
    -2
100
AcDbLine
 10
150.0027086782
 20
32.0605059343
 30
0.0
 11
150.0027086782
 21
38.0066850922
 31
0.0
  0
LINE
  5
175
330
170
100
AcDbEntity
  8
2
  6
SLD-Durchgehend
 62
     0
370
    -2
100
AcDbLine
 10
114.3047086782
 20
38.0066850922
 30
0.0
 11
146.7007086782
 21
38.0066850922
 31
0.0
  0
SOLID
  5
176
330
170
100
AcDbEntity
  8
2
 62
     0
100
AcDbTrace
 10
114.3047086782
 20
38.55701842553334
 30
0.0
 11
114.3047086782
 21
37.45635175886667
 31
0.0
 12
111.0027086782
 22
38.0066850922
 32
0.0
 13
111.0027086782
 23
38.0066850922
 33
0.0
  0
SOLID
  5
177
330
170
100
AcDbEntity
  8
2
 62
     0
100
AcDbTrace
 10
146.7007086782
 20
37.45635175886667
 30
0.0
 11
146.7007086782
 21
38.55701842553334
 31
0.0
 12
150.0027086782
 22
38.0066850922
 32
0.0
 13
150.0027086782
 23
38.0066850922
 33
0.0
  0
MTEXT
  5
178
330
170
100
AcDbEntity
  8
2
 62
     0
370
    15
100
AcDbMText
 10
130.5027086782
 20
42.3816850922
 30
0.0
 40
3.5
 41
0.0
 71
     2
 72
     1
  1
\A1;39
  7
SLDTEXTSTYLE0
 73
     1
 44
1.0
  0
POINT
  5
1BE
330
170
100
AcDbEntity
  8
Defpoints
 62
     0
100
AcDbPoint
 10
111.0027086782
 20
-0.0019940657
 30
0.0
  0
POINT
  5
1BF
330
170
100
AcDbEntity
  8
Defpoints
 62
     0
100
AcDbPoint
 10
150.0027086782
 20
31.9980059343
 30
0.0
  0
POINT
  5
1C0
330
170
100
AcDbEntity
  8
Defpoints
 62
     0
100
AcDbPoint
 10
150.0027086782
 20
38.0066850922
 30
0.0
  0
ENDBLK
  5
172
330
170
100
AcDbEntity
  8
0
100
AcDbBlockEnd
  0
BLOCK
  5
17A
330
179
100
AcDbEntity
  8
0
100
AcDbBlockBegin
  2
SW_CENTERMARKSYMBOL_0
 70
     0
 10
0.0
 20
0.0
 30
0.0
  3
SW_CENTERMARKSYMBOL_0
  1
SW_CENTERMARKSYMBOL_0
  0
LINE
  5
17C
330
179
100
AcDbEntity
  8
0
  6
SLD-Punktstrich
 62
     0
370
    15
100
AcDbLine
 10
0.0
 20
0.0
 30
0.0
 11
0.0
 21
2.5
 31
0.0
  0
LINE
  5
17D
330
179
100
AcDbEntity
  8
0
  6
SLD-Punktstrich
 62
     0
370
    15
100
AcDbLine
 10
0.0
 20
0.0
 30
0.0
 11
-2.5
 21
0.0
 31
0.0
  0
LINE
  5
17E
330
179
100
AcDbEntity
  8
0
  6
SLD-Punktstrich
 62
     0
370
    15
100
AcDbLine
 10
0.0
 20
0.0
 30
0.0
 11
0.0
 21
-2.5
 31
0.0
  0
LINE
  5
17F
330
179
100
AcDbEntity
  8
0
  6
SLD-Punktstrich
 62
     0
370
    15
100
AcDbLine
 10
0.0
 20
0.0
 30
0.0
 11
2.5
 21
0.0
 31
0.0
  0
LINE
  5
180
330
179
100
AcDbEntity
  8
0
  6
SLD-Punktstrich
 62
     0
370
    15
100
AcDbLine
 10
0.0
 20
2.5
 30
0.0
 11
0.0
 21
4.7
 31
0.0
  0
LINE
  5
181
330
179
100
AcDbEntity
  8
0
  6
SLD-Punktstrich
 62
     0
370
    15
100
AcDbLine
 10
-2.5
 20
0.0
 30
0.0
 11
-4.7
 21
0.0
 31
0.0
  0
LINE
  5
182
330
179
100
AcDbEntity
  8
0
  6
SLD-Punktstrich
 62
     0
370
    15
100
AcDbLine
 10
0.0
 20
-2.5
 30
0.0
 11
0.0
 21
-4.7
 31
0.0
  0
LINE
  5
183
330
179
100
AcDbEntity
  8
0
  6
SLD-Punktstrich
 62
     0
370
    15
100
AcDbLine
 10
2.5
 20
0.0
 30
0.0
 11
4.7
 21
0.0
 31
0.0
  0
ENDBLK
  5
17B
330
179
100
AcDbEntity
  8
0
100
AcDbBlockEnd
  0
BLOCK
  5
186
330
185
100
AcDbEntity
  8
0
100
AcDbBlockBegin
  2
SW_CENTERMARKSYMBOL_1
 70
     0
 10
0.0
 20
0.0
 30
0.0
  3
SW_CENTERMARKSYMBOL_1
  1
SW_CENTERMARKSYMBOL_1
  0
LINE
  5
188
330
185
100
AcDbEntity
  8
0
  6
SLD-Punktstrich
 62
     0
370
    15
100
AcDbLine
 10
0.0
 20
0.0
 30
0.0
 11
0.0
 21
2.5
 31
0.0
  0
LINE
  5
189
330
185
100
AcDbEntity
  8
0
  6
SLD-Punktstrich
 62
     0
370
    15
100
AcDbLine
 10
0.0
 20
0.0
 30
0.0
 11
-2.5
 21
0.0
 31
0.0
  0
LINE
  5
18A
330
185
100
AcDbEntity
  8
0
  6
SLD-Punktstrich
 62
     0
370
    15
100
AcDbLine
 10
0.0
 20
0.0
 30
0.0
 11
0.0
 21
-2.5
 31
0.0
  0
LINE
  5
18B
330
185
100
AcDbEntity
  8
0
  6
SLD-Punktstrich
 62
     0
370
    15
100
AcDbLine
 10
0.0
 20
0.0
 30
0.0
 11
2.5
 21
0.0
 31
0.0
  0
LINE
  5
18C
330
185
100
AcDbEntity
  8
0
  6
SLD-Punktstrich
 62
     0
370
    15
100
AcDbLine
 10
0.0
 20
2.5
 30
0.0
 11
0.0
 21
4.7
 31
0.0
  0
LINE
  5
18D
330
185
100
AcDbEntity
  8
0
  6
SLD-Punktstrich
 62
     0
370
    15
100
AcDbLine
 10
-2.5
 20
0.0
 30
0.0
 11
-4.7
 21
0.0
 31
0.0
  0
LINE
  5
18E
330
185
100
AcDbEntity
  8
0
  6
SLD-Punktstrich
 62
     0
370
    15
100
AcDbLine
 10
0.0
 20
-2.5
 30
0.0
 11
0.0
 21
-4.7
 31
0.0
  0
LINE
  5
18F
330
185
100
AcDbEntity
  8
0
  6
SLD-Punktstrich
 62
     0
370
    15
100
AcDbLine
 10
2.5
 20
0.0
 30
0.0
 11
4.7
 21
0.0
 31
0.0
  0
ENDBLK
  5
187
330
185
100
AcDbEntity
  8
0
100
AcDbBlockEnd
  0
ENDSEC
  0
SECTION
  2
ENTITIES
  0
LINE
  5
73
330
1F
100
AcDbEntity
  8
0
  6
SLD-Punktstrich
 62
     7
100
AcDbLine
 10
0.0027086782
 20
-0.0019940657
 30
0.0
 11
150.0027086782
 21
-0.0019940657
 31
0.0
  0
POINT
  5
74
330
1F
100
AcDbEntity
  8
1
 62
     4
420
    65535
100
AcDbPoint
 10
150.0027086782
 20
-0.0019940657
 30
0.0
  0
POINT
  5
75
330
1F
100
AcDbEntity
  8
1
 62
     4
420
    65535
100
AcDbPoint
 10
111.0027086782
 20
-0.0019940657
 30
0.0
  0
POINT
  5
76
330
1F
100
AcDbEntity
  8
1
 62
     4
420
    65535
100
AcDbPoint
 10
150.0027086782
 20
31.9980059343
 30
0.0
  0
LINE
  5
77
330
1F
100
AcDbEntity
  8
1
 62
     4
420
    65535
100
AcDbLine
 10
135.5527218865
 20
31.401671576
 30
0.0
 11
134.4844316706
 21
31.0781011063
 31
0.0
  0
LINE
  5
78
330
1F
100
AcDbEntity
  8
1
 62
     4
420
    65535
100
AcDbLine
 10
138.6497725455
 20
22.0015038965
 30
0.0
 11
138.8893309805
 21
22.0740628642
 31
0.0
  0
LINE
  5
79
330
1F
100
AcDbEntity
  8
1
 62
     4
420
    65535
100
AcDbLine
 10
123.3926802147
 20
14.6503629991
 30
0.0
 11
124.5950191637
 21
13.300936827
 31
0.0
  0
LINE
  5
7A
330
1F
100
AcDbEntity
  8
1
 62
     4
420
    65535
100
AcDbLine
 10
123.1770116957
 20
14.4388295716
 30
0.0
 11
123.4415514434
 21
14.5955131457
 31
0.0
  0
SPLINE
  5
7B
330
1F
100
AcDbEntity
  8
1
 62
     4
420
    65535
100
AcDbSpline
210
0.0
220
0.0
230
1.0
 70
     8
 71
     3
 72
     9
 73
     5
 74
     0
 42
0.000000001
 43
0.00000001
 40
0.0
 40
0.0
 40
0.0
 40
0.0
 40
0.5123127630849517
 40
1.0
 40
1.0
 40
1.0
 40
1.0
 10
134.4445072189594
 20
17.12873745961433
 30
0.0
 10
134.5336987483818
 20
17.24674485726339
 30
0.0
 10
134.7077946051497
 20
17.47708734753919
 30
0.0
 10
134.8394071943283
 20
17.73990321908386
 30
0.0
 10
134.903592974288
 20
17.8680751652949
 30
0.0
  0
ARC
  5
7C
330
1F
100
AcDbEntity
  8
1
 62
     4
420
    65535
100
AcDbCircle
 10
123.0750900818
 20
14.610910903
 30
0.0
 40
0.2000000000000008
100
AcDbArc
 50
286.8508415669
 51
300.6377269846
  0
LINE
  5
7D
330
1F
100
AcDbEntity
  8
1
 62
     4
420
    65535
100
AcDbLine
 10
134.9035929743
 20
17.8680751653
 30
0.0
 11
138.337846271
 21
25.0621247984
 31
0.0
  0
LINE
  5
7E
330
1F
100
AcDbEntity
  8
1
 62
     4
420
    65535
100
AcDbLine
 10
122.6340065726
 20
14.2683400153
 30
0.0
 11
123.1330663144
 21
14.4194983734
 31
0.0
  0
LINE
  5
7F
330
1F
100
AcDbEntity
  8
1
 62
     4
420
    65535
100
AcDbLine
 10
131.9984477615
 20
14.0287151998
 30
0.0
 11
134.4206913339
 21
17.0863636515
 31
0.0
  0
SPLINE
  5
80
330
1F
100
AcDbEntity
  8
1
 62
     4
420
    65535
100
AcDbSpline
210
0.0
220
0.0
230
1.0
 70
     8
 71
     3
 72
    13
 73
     9
 74
     0
 42
0.000000001
 43
0.00000001
 40
0.0
 40
0.0
 40
0.0
 40
0.0
 40
0.1107786252749303
 40
0.3239983418646945
 40
0.5391351523144347
 40
0.755414811499985
 40
0.9548595680190262
 40
0.9999999999999999
 40
0.9999999999999999
 40
0.9999999999999999
 40
0.9999999999999999
 10
122.1376270635047
 20
20.42830823020761
 30
0.0
 10
122.0931546498744
 20
20.38812507200164
 30
0.0
 10
121.963084537168
 20
20.27059990324899
 30
0.0
 10
121.7237755673272
 20
20.08827547088181
 30
0.0
 10
121.4336725137654
 20
19.90615892217787
 30
0.0
 10
121.165595966476
 20
19.77625413756484
 30
0.0
 10
120.9951006136762
 20
19.71976040631588
 30
0.0
 10
120.9201053894472
 20
19.70390906960462
 30
0.0
 10
120.9062643353794
 20
19.70098356053757
 30
0.0
  0
LINE
  5
81
330
1F
100
AcDbEntity
  8
1
 62
     4
420
    65535
100
AcDbLine
 10
123.5007863711
 20
21.6976655686
 30
0.0
 11
122.1376270635
 21
20.4283082302
 31
0.0
  0
LINE
  5
82
330
1F
100
AcDbEntity
  8
1
 62
     4
420
    65535
100
AcDbLine
 10
133.1152793363
 20
26.7124858374
 30
0.0
 11
125.5842024832
 21
23.1100238527
 31
0.0
  0
LINE
  5
83
330
1F
100
AcDbEntity
  8
1
 62
     4
420
    65535
100
AcDbLine
 10
129.7950847416
 20
11.8472847972
 30
0.0
 11
131.1582440492
 21
13.1166421355
 31
0.0
  0
LINE
  5
84
330
1F
100
AcDbEntity
  8
1
 62
     4
420
    65535
100
AcDbLine
 10
138.7875837716
 20
26.7800744351
 30
0.0
 11
138.7776928767
 21
26.8543463811
 31
0.0
  0
SPLINE
  5
85
330
1F
100
AcDbEntity
  8
1
 62
     4
420
    65535
100
AcDbSpline
210
0.0
220
0.0
230
1.0
 70
     8
 71
     3
 72
    10
 73
     6
 74
     0
 42
0.000000001
 43
0.00000001
 40
0.0
 40
0.0
 40
0.0
 40
0.0
 40
0.3178703196907149
 40
0.755756928564127
 40
1.0
 40
1.0
 40
1.0
 40
1.0
 10
138.7575696297087
 20
26.19077193084432
 30
0.0
 10
138.7695099917392
 20
26.24574902192553
 30
0.0
 10
138.7978989628859
 20
26.37646055717471
 30
0.0
 10
138.8108407852299
 20
26.57975836180016
 30
0.0
 10
138.7894824380488
 20
26.72068295689356
 30
0.0
 10
138.7818348770837
 20
26.77114235917446
 30
0.0
  0
SPLINE
  5
86
330
1F
100
AcDbEntity
  8
1
 62
     4
420
    65535
100
AcDbSpline
210
0.0
220
0.0
230
1.0
 70
     8
 71
     3
 72
     9
 73
     5
 74
     0
 42
0.000000001
 43
0.00000001
 40
0.0
 40
0.0
 40
0.0
 40
0.0
 40
0.5037216479372439
 40
1.0
 40
1.0
 40
1.0
 40
1.0
 10
138.6924220744318
 20
25.9317372789428
 30
0.0
 10
138.7064911717708
 20
25.97169135184039
 30
0.0
 10
138.7344214729532
 20
26.05100911207802
 30
0.0
 10
138.7498919612641
 20
26.14441607647981
 30
0.0
 10
138.7575696297087
 20
26.19077193084432
 30
0.0
  0
SPLINE
  5
87
330
1F
100
AcDbEntity
  8
1
 62
     4
420
    65535
100
AcDbSpline
210
0.0
220
0.0
230
1.0
 70
     8
 71
     3
 72
    10
 73
     6
 74
     0
 42
0.000000001
 43
0.00000001
 40
0.0
 40
0.0
 40
0.0
 40
0.0
 40
0.2688605743237178
 40
0.8095805074008101
 40
1.0
 40
1.0
 40
1.0
 40
1.0
 10
138.3378462710017
 20
25.0621247984321
 30
0.0
 10
138.3758111272403
 20
25.14336665310377
 30
0.0
 10
138.4901291437599
 20
25.38799836265326
 30
0.0
 10
138.6116669464729
 20
25.66724573358869
 30
0.0
 10
138.6757358374634
 20
25.87708602999461
 30
0.0
 10
138.6924220744318
 20
25.93173727894281
 30
0.0
  0
SPLINE
  5
88
330
1F
100
AcDbEntity
  8
1
 62
     4
420
    65535
100
AcDbSpline
210
0.0
220
0.0
230
1.0
 70
     8
 71
     3
 72
    13
 73
     9
 74
     0
 42
0.000000001
 43
0.00000001
 40
0.0
 40
0.0
 40
0.0
 40
0.0
 40
0.1122342076844955
 40
0.2981452274021141
 40
0.4865489775373049
 40
0.6778551005811896
 40
0.8719546754908681
 40
1.0
 40
1.0
 40
1.0
 40
1.0
 10
138.7776928767248
 20
26.85434638106271
 30
0.0
 10
138.7630963626422
 20
26.93766752646958
 30
0.0
 10
138.7243213661395
 20
27.15900647791092
 30
0.0
 10
138.5821660177447
 20
27.5012605909216
 30
0.0
 10
138.3362841511932
 20
27.85233703750984
 30
0.0
 10
138.0113892924441
 20
28.13961622527764
 30
0.0
 10
137.6716777993313
 20
28.32812585095996
 30
0.0
 10
137.4401689169332
 20
28.39409949929124
 30
0.0
 10
137.3481493629161
 20
28.42032253502725
 30
0.0
  0
LINE
  5
89
330
1F
100
AcDbEntity
  8
1
 62
     4
420
    65535
100
AcDbLine
 10
136.5494791577
 20
28.3943221018
 30
0.0
 11
136.419560268
 21
28.3549714501
 31
0.0
  0
LINE
  5
8A
330
1F
100
AcDbEntity
  8
1
 62
     4
420
    65535
100
AcDbLine
 10
135.3016719155
 20
31.2702497499
 30
0.0
 11
124.7321703001
 21
22.9014271513
 31
0.0
  0
ARC
  5
8B
330
1F
100
AcDbEntity
  8
1
 62
     4
420
    65535
100
AcDbCircle
 10
135.7722471224
 20
30.6767461318
 30
0.0
 40
0.7574216593127565
100
AcDbArc
 50
92.43782130010001
 51
128.4100802442
  0
LINE
  5
8C
330
1F
100
AcDbEntity
  8
1
 62
     4
420
    65535
100
AcDbLine
 10
149.1823309104
 20
32.0059964247
 30
0.0
 11
135.740030062
 21
31.4334823018
 31
0.0
  0
ARC
  5
8D
330
1F
100
AcDbEntity
  8
1
 62
     4
420
    65535
100
AcDbCircle
 10
149.2019574119
 20
31.2001872279
 30
0.0
 40
0.8060481754688115
100
AcDbArc
 50
309.0606314575
 51
91.3952352757
  0
LINE
  5
8E
330
1F
100
AcDbEntity
  8
1
 62
     4
420
    65535
100
AcDbLine
 10
139.1403809515
 20
22.2054846903
 30
0.0
 11
149.7098825669
 21
30.5743072889
 31
0.0
  0
ARC
  5
8F
330
1F
100
AcDbEntity
  8
1
 62
     4
420
    65535
100
AcDbCircle
 10
138.6698057447
 20
22.7989883084
 30
0.0
 40
0.7574216593119655
100
AcDbArc
 50
272.4378213
 51
308.4100802442
  0
LINE
  5
90
330
1F
100
AcDbEntity
  8
1
 62
     4
420
    65535
100
AcDbLine
 10
136.8587606779
 20
21.963746709
 30
0.0
 11
138.702022805
 21
22.0422521384
 31
0.0
  0
ARC
  5
91
330
1F
100
AcDbEntity
  8
1
 62
     4
420
    65535
100
AcDbCircle
 10
125.2233840634
 20
22.2865642989
 30
0.0
 40
0.7869862060639539
100
AcDbArc
 50
128.6213478915
 51
167.716139755
  0
ARC
  5
92
330
1F
100
AcDbEntity
  8
1
 62
     4
420
    65535
100
AcDbCircle
 10
137.221079048
 20
26.7187007751
 30
0.0
 40
2.160680901270583
100
AcDbArc
 50
297.3004492107
 51
149.3307004331
  0
LINE
  5
93
330
1F
100
AcDbEntity
  8
1
 62
     4
420
    65535
100
AcDbLine
 10
134.2333816996
 20
30.9466792802
 30
0.0
 11
134.1224616596
 21
30.8588539342
 31
0.0
  0
LINE
  5
94
330
1F
100
AcDbEntity
  8
1
 62
     4
420
    65535
100
AcDbLine
 10
134.2333816996
 20
30.9466792802
 30
0.0
 11
135.3016719155
 21
31.2702497499
 31
0.0
  0
ARC
  5
95
330
1F
100
AcDbEntity
  8
1
 62
     4
420
    65535
100
AcDbCircle
 10
137.185290289
 20
26.715830693
 30
0.0
 40
1.89217692811864
100
AcDbArc
 50
314.0443725701
 51
136.1940592103
  0
ARC
  5
96
330
1F
100
AcDbEntity
  8
1
 62
     4
420
    65535
100
AcDbCircle
 10
134.7045737827
 20
30.3520758648
 30
0.0
 40
0.7586667258207811
100
AcDbArc
 50
106.8681172381
 51
128.394982417
  0
SPLINE
  5
97
330
1F
100
AcDbEntity
  8
1
 62
     4
420
    65535
100
AcDbSpline
210
0.0
220
0.0
230
1.0
 70
     8
 71
     3
 72
    18
 73
    14
 74
     0
 42
0.000000001
 43
0.00000001
 40
0.0
 40
0.0
 40
0.0
 40
0.0
 40
0.0712315802030647
 40
0.1423594750135165
 40
0.2135117540798599
 40
0.2848163795935741
 40
0.3564005190022679
 40
0.4283898790396847
 40
0.5009080779906241
 40
0.6308793147044934
 40
0.7567403014776379
 40
0.8794393010781429
 40
1.0
 40
1.0
 40
1.0
 40
1.0
 10
133.2806822592223
 20
17.74276112935581
 30
0.0
 10
133.269769364869
 20
17.68512830744136
 30
0.0
 10
133.2479594610795
 20
17.56994655451805
 30
0.0
 10
133.2040148535984
 20
17.3990965713807
 30
0.0
 10
133.1519958355893
 20
17.2303853649042
 30
0.0
 10
133.0912687274309
 20
17.06408456097731
 30
0.0
 10
133.0222877544195
 20
16.90026658103199
 30
0.0
 10
132.9452459505656
 20
16.73896240510482
 30
0.0
 10
132.8384327848211
 20
16.53866483065891
 30
0.0
 10
132.6962983307264
 20
16.30706876476958
 30
0.0
 10
132.5120111997262
 20
16.05480989474236
 30
0.0
 10
132.3159606992425
 20
15.82292066543216
 30
0.0
 10
132.1744809277666
 20
15.6850887323235
 30
0.0
 10
132.1043628595618
 20
15.61677855069344
 30
0.0
  0
LINE
  5
98
330
1F
100
AcDbEntity
  8
1
 62
     4
420
    65535
100
AcDbLine
 10
132.1043628596
 20
15.6167785507
 30
0.0
 11
131.2973281198
 21
14.865277634
 31
0.0
  0
SPLINE
  5
99
330
1F
100
AcDbEntity
  8
1
 62
     4
420
    65535
100
AcDbSpline
210
0.0
220
0.0
230
1.0
 70
     8
 71
     3
 72
    18
 73
    14
 74
     0
 42
0.000000001
 43
0.00000001
 40
0.0
 40
0.0
 40
0.0
 40
0.0
 40
0.0688155697224355
 40
0.1381820106563532
 40
0.2082986617636909
 40
0.2793585333565575
 40
0.3515470477383548
 40
0.4250410553685384
 40
0.5000081316395623
 40
0.6263425705143433
 40
0.7513379785888205
 40
0.8756638793690723
 40
1.0
 40
1.0
 40
1.0
 40
1.0
 10
131.2973281198
 20
14.86527763404215
 30
0.0
 10
131.256201049255
 20
14.82796300038152
 30
0.0
 10
131.1736176844258
 20
14.75303502802107
 30
0.0
 10
131.0441428213711
 20
14.64839323788032
 30
0.0
 10
130.9099953870596
 20
14.54910224912962
 30
0.0
 10
130.7705608434339
 20
14.45587789134439
 30
0.0
 10
130.6256362476667
 20
14.36874369588108
 30
0.0
 10
130.4748167660954
 20
14.28791395393431
 30
0.0
 10
130.282915984553
 20
14.19730480642542
 30
0.0
 10
130.0487403488425
 20
14.10475486969254
 30
0.0
 10
129.769541594559
 20
14.02160906881687
 30
0.0
 10
129.4828117443293
 20
13.9610801221586
 30
0.0
 10
129.284678229313
 20
13.94001187306663
 30
0.0
 10
129.1856074002242
 20
13.92947731557483
 30
0.0
  0
SPLINE
  5
9A
330
1F
100
AcDbEntity
  8
1
 62
     4
420
    65535
100
AcDbSpline
210
0.0
220
0.0
230
1.0
 70
     8
 71
     3
 72
    17
 73
    13
 74
     0
 42
0.000000001
 43
0.00000001
 40
0.0
 40
0.0
 40
0.0
 40
0.0
 40
0.0625899441014365
 40
0.1250948221042596
 40
0.1876167292946199
 40
0.2502576776937
 40
0.3751984025345969
 40
0.5003119891833576
 40
0.6251774730869157
 40
0.7502190508836089
 40
0.8750708295554638
 40
1.0
 40
1.0
 40
1.0
 40
1.0
 10
129.1856074002241
 20
13.92947731557479
 30
0.0
 10
129.1331252305735
 20
13.9229217940834
 30
0.0
 10
129.0282322198775
 20
13.90981966072093
 30
0.0
 10
128.8699687421181
 20
13.89844565448776
 30
0.0
 10
128.7112921812631
 20
13.89317899612171
 30
0.0
 10
128.4995826432832
 20
13.89505432469211
 30
0.0
 10
128.235005648591
 20
13.91371689505261
 30
0.0
 10
127.9202502261039
 20
13.96238958367801
 30
0.0
 10
127.609781968212
 20
14.0366602617714
 30
0.0
 10
127.3062983659975
 20
14.13679349666876
 30
0.0
 10
127.0103257319741
 20
14.25986968174944
 30
0.0
 10
126.8222750573495
 20
14.36199652594239
 30
0.0
 10
126.728220587361
 20
14.41307576945667
 30
0.0
  0
SPLINE
  5
9B
330
1F
100
AcDbEntity
  8
1
 62
     4
420
    65535
100
AcDbSpline
210
0.0
220
0.0
230
1.0
 70
     8
 71
     3
 72
    18
 73
    14
 74
     0
 42
0.000000001
 43
0.00000001
 40
0.0
 40
0.0
 40
0.0
 40
0.0
 40
0.0720777495946274
 40
0.143613857778478
 40
0.2147942935815679
 40
0.285807857721002
 40
0.3568447113293463
 40
0.428094851414584
 40
0.4997465931334143
 40
0.6249917043151191
 40
0.7494360076736072
 40
0.8741004813051176
 40
1.0
 40
1.0
 40
1.0
 40
1.0
 10
126.7282205873609
 20
14.41307576945664
 30
0.0
 10
126.6737086337828
 20
14.44293042227946
 30
0.0
 10
126.5650943666556
 20
14.502415379685
 30
0.0
 10
126.4077979438915
 20
14.60166477937628
 30
0.0
 10
126.2559433577433
 20
14.70785242287525
 30
0.0
 10
126.1099978051992
 20
14.82173282294295
 30
0.0
 10
125.9699846316715
 20
14.94311344504871
 30
0.0
 10
125.8359826254632
 20
15.07203931122605
 30
0.0
 10
125.6765263886683
 20
15.24208960471866
 30
0.0
 10
125.4996741545442
 20
15.45891603102148
 30
0.0
 10
125.3177009050776
 20
15.72950096090028
 30
0.0
 10
125.1585907350085
 20
16.01559718608479
 30
0.0
 10
125.0733002089062
 20
16.21723292482802
 30
0.0
 10
125.0304447447759
 20
16.31854773157164
 30
0.0
  0
SPLINE
  5
9C
330
1F
100
AcDbEntity
  8
1
 62
     4
420
    65535
100
AcDbSpline
210
0.0
220
0.0
230
1.0
 70
     8
 71
     3
 72
    17
 73
    13
 74
     0
 42
0.000000001
 43
0.00000001
 40
0.0
 40
0.0
 40
0.0
 40
0.0
 40
0.0624591280541227
 40
0.124848991026764
 40
0.1872722494426173
 40
0.2498313994192976
 40
0.3746618992017396
 40
0.4997383966944655
 40
0.624640780144097
 40
0.7497926437301076
 40
0.8748246770709647
 40
1.0
 40
1.0
 40
1.0
 40
1.0
 10
125.0304447447759
 20
16.31854773157166
 30
0.0
 10
125.0093946348178
 20
16.36852950381667
 30
0.0
 10
124.9673177587685
 20
16.46843762019499
 30
0.0
 10
124.9117374412385
 20
16.6213409527682
 30
0.0
 10
124.8617813168505
 20
16.77624566154739
 30
0.0
 10
124.8034917738944
 20
16.98527224412968
 30
0.0
 10
124.7459967905302
 20
17.25075546405633
 30
0.0
 10
124.7024980694245
 20
17.57344152310869
 30
0.0
 10
124.6842851646693
 20
17.89857798041942
 30
0.0
 10
124.692369138581
 20
18.22357168549371
 30
0.0
 10
124.7241601483981
 20
18.54715817813499
 30
0.0
 10
124.7668383285914
 20
18.75891219794944
 30
0.0
 10
124.7881896392298
 20
18.86484984185789
 30
0.0
  0
SPLINE
  5
9D
330
1F
100
AcDbEntity
  8
1
 62
     4
420
    65535
100
AcDbSpline
210
0.0
220
0.0
230
1.0
 70
     8
 71
     3
 72
    18
 73
    14
 74
     0
 42
0.000000001
 43
0.00000001
 40
0.0
 40
0.0
 40
0.0
 40
0.0
 40
0.0712315802030663
 40
0.1423594750135162
 40
0.213511754079854
 40
0.2848163795935637
 40
0.3564005190022647
 40
0.4283898790396787
 40
0.5009080779906323
 40
0.6308793147044828
 40
0.7567403014776181
 40
0.8794393010781326
 40
1.0
 40
1.0
 40
1.0
 40
1.0
 10
124.7881896392297
 20
18.86484984185788
 30
0.0
 10
124.7987744513316
 20
18.92238329215347
 30
0.0
 10
124.8199286681782
 20
19.03736644648542
 30
0.0
 10
124.8591478267106
 20
19.20678515588003
 30
0.0
 10
124.9044285667696
 20
19.37345543028733
 30
0.0
 10
124.9566301889209
 20
19.5371739813112
 30
0.0
 10
125.0158776213427
 20
19.69804380517213
 30
0.0
 10
125.0824135197421
 20
19.85616588627968
 30
0.0
 10
125.1755188701798
 20
20.05231155128125
 30
0.0
 10
125.3015470835187
 20
20.27902925751893
 30
0.0
 10
125.470623869134
 20
20.52668112232755
 30
0.0
 10
125.6564157711424
 20
20.75546316271366
 30
0.0
 10
125.7965716041009
 20
20.89289409298484
 30
0.0
 10
125.8660335218872
 20
20.96100553564312
 30
0.0
  0
LINE
  5
9E
330
1F
100
AcDbEntity
  8
1
 62
     4
420
    65535
100
AcDbLine
 10
125.8660335219
 20
20.9610055356
 30
0.0
 11
126.6730682616
 21
21.7125064523
 31
0.0
  0
SPLINE
  5
9F
330
1F
100
AcDbEntity
  8
1
 62
     4
420
    65535
100
AcDbSpline
210
0.0
220
0.0
230
1.0
 70
     8
 71
     3
 72
    18
 73
    14
 74
     0
 42
0.000000001
 43
0.00000001
 40
0.0
 40
0.0
 40
0.0
 40
0.0
 40
0.0688155697224287
 40
0.1381820106563468
 40
0.208298661763688
 40
0.2793585333565567
 40
0.3515470477383595
 40
0.4250410553685401
 40
0.5000081316395659
 40
0.6263425705143283
 40
0.7513379785888092
 40
0.8756638793690635
 40
1.0
 40
1.0
 40
1.0
 40
1.0
 10
126.6730682616489
 20
21.71250645229431
 30
0.0
 10
126.7144073603965
 20
21.7498853063925
 30
0.0
 10
126.7974164789247
 20
21.82494223371507
 30
0.0
 10
126.9302787650161
 20
21.9306100278822
 30
0.0
 10
127.0697102083661
 20
22.03150147057394
 30
0.0
 10
127.2163577289769
 20
22.12691054026222
 30
0.0
 10
127.3701247644655
 20
22.21672298956598
 30
0.0
 10
127.5311096614853
 20
22.30063169657469
 30
0.0
 10
127.7365502033562
 20
22.39534185197746
 30
0.0
 10
127.9871390070517
 20
22.49286311241456
 30
0.0
 10
128.2831964233019
 20
22.5811151710177
 30
0.0
 10
128.5830584085578
 20
22.64562166145068
 30
0.0
 10
128.7831930598689
 20
22.66729602730858
 30
0.0
 10
128.8832644982279
 20
22.67813365563885
 30
0.0
  0
SPLINE
  5
A0
330
1F
100
AcDbEntity
  8
1
 62
     4
420
    65535
100
AcDbSpline
210
0.0
220
0.0
230
1.0
 70
     8
 71
     3
 72
    29
 73
    25
 74
     0
 42
0.000000001
 43
0.00000001
 40
0.0
 40
0.0
 40
0.0
 40
0.0
 40
0.0250954355418461
 40
0.0501032127053648
 40
0.0750824085814905
 40
0.1000923028017433
 40
0.1251919574912214
 40
0.156434793861931
 40
0.1877408577276407
 40
0.2502338075583599
 40
0.3127029056331929
 40
0.3751527658042094
 40
0.4375891343137431
 40
0.5000185521695798
 40
0.5624479700254149
 40
0.6248843385349488
 40
0.6873341987059638
 40
0.7498032967807963
 40
0.8122962466115138
 40
0.8748162595022435
 40
0.9060662609187708
 40
0.9373938049304643
 40
0.968675828058837
 40
1.0
 40
1.0
 40
1.0
 40
1.0
 10
128.883264498228
 20
22.67813365563892
 30
0.0
 10
128.9464414508415
 20
22.68587778872651
 30
0.0
 10
129.0725746789178
 20
22.70133900463804
 30
0.0
 10
129.2628824736892
 20
22.71257913800994
 30
0.0
 10
129.4533555738058
 20
22.71496860192712
 30
0.0
 10
129.6441149995431
 20
22.70765410363057
 30
0.0
 10
129.8503153459937
 20
22.68956923401016
 30
0.0
 10
130.0713672033971
 20
22.65772832905711
 30
0.0
 10
130.3836913264165
 20
22.59280417443146
 30
0.0
 10
130.7665790202173
 20
22.47551795730111
 30
0.0
 10
131.2064524620978
 20
22.27914197617264
 30
0.0
 10
131.6205339324292
 20
22.02998142863587
 30
0.0
 10
132.0026836881589
 20
21.7317035698141
 30
0.0
 10
132.3472910133167
 20
21.38869562732214
 30
0.0
 10
132.649282048555
 20
21.00600469321406
 30
0.0
 10
132.9042140434779
 20
20.58926087019503
 30
0.0
 10
133.1083383719038
 20
20.14459935616538
 30
0.0
 10
133.2586463605579
 20
19.67855161063983
 30
0.0
 10
133.3529534801208
 20
19.19801692799843
 30
0.0
 10
133.3836352269482
 20
18.7913586295449
 30
0.0
 10
133.3793645807203
 20
18.46601199127124
 30
0.0
 10
133.3614062324616
 20
18.22282607110079
 30
0.0
 10
133.3300971013451
 20
17.98097705433502
 30
0.0
 10
133.2971612644722
 20
17.82220206875214
 30
0.0
 10
133.2806822592223
 20
17.74276112935582
 30
0.0
  0
ELLIPSE
  5
A1
330
1F
100
AcDbEntity
  8
1
 62
     4
420
    65535
100
AcDbEllipse
 10
125.1063048276
 20
17.7540027607
 30
0.0
 11
1.015933377060264
 21
-0.2431776568641801
 31
0.0
210
0.0
220
0.0
230
1.0
 40
0.952636901
 41
2.577662635247518
 42
4.081421463837501
  0
LINE
  5
A2
330
1F
100
AcDbEntity
  8
1
 62
     4
420
    65535
100
AcDbLine
 10
124.7881896392
 20
18.8648498419
 30
0.0
 11
124.3715025689
 21
18.476835919
 31
0.0
  0
LINE
  5
A3
330
1F
100
AcDbEntity
  8
1
 62
     4
420
    65535
100
AcDbLine
 10
124.3199235233
 20
17.1159900276
 30
0.0
 11
125.0304447448
 21
16.3185477316
 31
0.0
  0
ELLIPSE
  5
A4
330
1F
100
AcDbEntity
  8
1
 62
     4
420
    65535
100
AcDbEllipse
 10
124.7696587512
 20
17.6520372766
 30
0.0
 11
-0.3778521000193251
 21
2.472363085725696
 31
0.0
210
0.0
220
0.0
230
1.0
 40
0.9134798449
 41
0.611911039642926
 42
2.115669868232903
  0
ARC
  5
A5
330
1F
100
AcDbEntity
  8
1
 62
     4
420
    65535
100
AcDbCircle
 10
121.3504783787
 20
16.0585762018
 30
0.0
 40
3.869698595189084
100
AcDbArc
 50
38.6764613944
 51
62.06964526509999
  0
ARC
  5
A6
330
1F
100
AcDbEntity
  8
1
 62
     4
420
    65535
100
AcDbCircle
 10
117.7041866806
 20
23.9762380558
 30
0.0
 40
9.530528683117529
100
AcDbArc
 50
304.0036186144
 51
313.9605270374001
  0
ARC
  5
A7
330
1F
100
AcDbEntity
  8
1
 62
     4
420
    65535
100
AcDbCircle
 10
120.8230049662
 20
20.4758815016
 30
0.0
 40
9.530528683121524
100
AcDbArc
 50
304.0036186144
 51
313.9605270374001
  0
LINE
  5
A8
330
1F
100
AcDbEntity
  8
1
 62
     4
420
    65535
100
AcDbLine
 10
126.1529079734
 20
12.5750517405
 30
0.0
 11
123.0340896878
 21
16.0754082947
 31
0.0
  0
LINE
  5
A9
330
1F
100
AcDbEntity
  8
1
 62
     4
420
    65535
100
AcDbLine
 10
126.7282205874
 20
14.4130757695
 30
0.0
 11
127.4387418089
 21
13.6156334734
 31
0.0
  0
LINE
  5
AA
330
1F
100
AcDbEntity
  8
1
 62
     4
420
    65535
100
AcDbLine
 10
123.163037302
 20
19.4775230232
 30
0.0
 11
127.3642969881
 21
23.3896848541
 31
0.0
  0
SPLINE
  5
AB
330
1F
100
AcDbEntity
  8
1
 62
     4
420
    65535
100
AcDbSpline
210
0.0
220
0.0
230
1.0
 70
     8
 71
     3
 72
    38
 73
    34
 74
     0
 42
0.000000001
 43
0.00000001
 40
0.0
 40
0.0
 40
0.0
 40
0.0
 40
0.0002289472364999
 40
0.0002289472364999
 40
0.0002289472364999
 40
0.0003913682947526
 40
0.0003913682947526
 40
0.0003913682947526
 40
0.0005084210262994
 40
0.0005084210262994
 40
0.0005084210262994
 40
0.0005934284256113
 40
0.0005934284256113
 40
0.0005934284256113
 40
0.0006554063448599
 40
0.0006554063448599
 40
0.0006554063448599
 40
0.0007006866047008
 40
0.0007006866047008
 40
0.0007006866047008
 40
0.0007338037319124
 40
0.0007338037319124
 40
0.0007338037319124
 40
0.0007580389890253
 40
0.0007580389890253
 40
0.0007580389890253
 40
0.0007757799368608
 40
0.0007757799368608
 40
0.0007757799368608
 40
0.0008075384711255
 40
0.0008075384711255
 40
0.0008075384711255
 40
0.0008242981310841
 40
0.0008242981310841
 40
0.0008242981310841
 40
0.0008242981310841
 10
128.06980333676
 20
23.73981483134601
 30
0.0
 10
128.0013276087739
 20
23.7121810190594
 30
0.0
 10
127.9336408255072
 20
23.68319279444661
 30
0.0
 10
127.8668420802468
 20
23.65288462266052
 30
0.0
 10
127.8194466155422
 20
23.63138017851938
 30
0.0
 10
127.7724820317105
 20
23.60920401268359
 30
0.0
 10
127.7259826676159
 20
23.58636770164421
 30
0.0
 10
127.6924695141391
 20
23.56990905083018
 30
0.0
 10
127.6591922706124
 20
23.55310469903499
 30
0.0
 10
127.6261636224798
 20
23.53595880336971
 30
0.0
 10
127.6021763660856
 20
23.52350649246134
 30
0.0
 10
127.5783180992883
 20
23.51087293521967
 30
0.0
 10
127.5545936548974
 20
23.49805967948128
 30
0.0
 10
127.5372961333734
 20
23.48871751899583
 30
0.0
 10
127.5200689406081
 20
23.47927939732755
 30
0.0
 10
127.5029139462495
 20
23.46974590278751
 30
0.0
 10
127.4903806160031
 20
23.46278079204628
 30
0.0
 10
127.4778855112525
 20
23.45576460171079
 30
0.0
 10
127.4654293609201
 20
23.44869755811474
 30
0.0
 10
127.4563191233264
 20
23.44352883065666
 30
0.0
 10
127.447229602515
 20
23.43833283216246
 30
0.0
 10
127.4381610837797
 20
23.43310965034525
 30
0.0
 10
127.4315246852424
 20
23.42928729333377
 30
0.0
 10
127.4248994870859
 20
23.42545035147858
 30
0.0
 10
127.4182856011872
 20
23.42159885892576
 30
0.0
 10
127.4134440281305
 20
23.41877944491452
 30
0.0
 10
127.408608498585
 20
23.41595222292019
 30
0.0
 10
127.4037790564635
 20
23.4131172062736
 30
0.0
 10
127.3951337765073
 20
23.40804218684613
 30
0.0
 10
127.3865079346545
 20
23.40294214850686
 30
0.0
 10
127.3779017830351
 20
23.39781716731089
 30
0.0
 10
127.3733613773188
 20
23.39511334625974
 30
0.0
 10
127.3688264339049
 20
23.39240257557774
 30
0.0
 10
127.3642969880538
 20
23.38968485413797
 30
0.0
  0
SPLINE
  5
AC
330
1F
100
AcDbEntity
  8
1
 62
     4
420
    65535
100
AcDbSpline
210
0.0
220
0.0
230
1.0
 70
     8
 71
     3
 72
    16
 73
    12
 74
     0
 42
0.000000001
 43
0.00000001
 40
0.0
 40
0.0
 40
0.0
 40
0.0
 40
0.2499999999999842
 40
0.2499999999999842
 40
0.4999999999999685
 40
0.4999999999999685
 40
0.7499999999999527
 40
0.7499999999999527
 40
0.8749999999999764
 40
0.8749999999999764
 40
1.0
 40
1.0
 40
1.0
 40
1.0
 10
129.1181863922399
 20
23.29718411704695
 30
0.0
 10
129.0349636952946
 20
23.36564288605298
 30
0.0
 10
128.9511724256322
 20
23.42935948284848
 30
0.0
 10
128.781120635818
 20
23.54604195173236
 30
0.0
 10
128.6941075597684
 20
23.59941711992646
 30
0.0
 10
128.5220381795396
 20
23.68766636698943
 30
0.0
 10
128.4360495614754
 20
23.72378058671427
 30
0.0
 10
128.303474130304
 20
23.756313319341
 30
0.0
 10
128.2591919031701
 20
23.76345306503794
 30
0.0
 10
128.1669470648203
 20
23.76499521480649
 30
0.0
 10
128.1191768635116
 20
23.75973982974065
 30
0.0
 10
128.0698033367601
 20
23.73981483134604
 30
0.0
  0
ELLIPSE
  5
AD
330
1F
100
AcDbEntity
  8
1
 62
     4
420
    65535
100
AcDbEllipse
 10
129.6412085822
 20
23.5954371923
 30
0.0
 11
1.233268242671642
 21
-0.8960579192554086
 31
0.0
210
0.0
220
0.0
230
1.0
 40
0.3648056153
 41
4.549101637143456
 42
4.744716676294551
  0
LINE
  5
AE
330
1F
100
AcDbEntity
  8
1
 62
     4
420
    65535
100
AcDbLine
 10
129.354354195
 20
23.1168066415
 30
0.0
 11
128.8832644982
 21
22.6781336556
 31
0.0
  0
ELLIPSE
  5
AF
330
1F
100
AcDbEntity
  8
1
 62
     4
420
    65535
100
AcDbEllipse
 10
128.1333238011
 20
14.3566757178
 30
0.0
 11
-0.05568545651183853
 21
1.065504564826545
 31
0.0
210
0.0
220
0.0
230
1.0
 40
0.9131851365
 41
2.291102154291349
 42
3.794860982881337
  0
LINE
  5
B0
330
1F
100
AcDbEntity
  8
1
 62
     4
420
    65535
100
AcDbLine
 10
128.7689203299
 20
13.5414633927
 30
0.0
 11
129.1856074002
 21
13.9294773156
 31
0.0
  0
ELLIPSE
  5
B1
330
1F
100
AcDbEntity
  8
1
 62
     4
420
    65535
100
AcDbEllipse
 10
127.7966777246
 20
14.2547102337
 30
0.0
 11
1.799108218154515
 21
-1.753148150998451
 31
0.0
210
0.0
220
0.0
230
1.0
 40
0.935558296
 41
4.710387576741963
 42
6.214146405331938
  0
ARC
  5
B2
330
1F
100
AcDbEntity
  8
1
 62
     4
420
    65535
100
AcDbCircle
 10
127.1582790071
 20
11.7550507133
 30
0.0
 40
2.405293273629244
100
AcDbArc
 50
15.2971291914
 51
47.9619734493
  0
LINE
  5
B3
330
1F
100
AcDbEntity
  8
1
 62
     4
420
    65535
100
AcDbLine
 10
123.0340896878
 20
16.0754082947
 30
0.0
 11
121.6319499826
 21
15.9634068282
 31
0.0
  0
ELLIPSE
  5
B4
330
1F
100
AcDbEntity
  8
1
 62
     4
420
    65535
100
AcDbEllipse
 10
118.2937114311
 20
17.1347453163
 30
0.0
 11
3.702508742340398
 21
-2.053901567958543
 31
0.0
210
0.0
220
0.0
230
1.0
 40
0.2478289136
 41
0.6029758700755014
 42
1.338026844660926
  0
ELLIPSE
  5
B5
330
1F
100
AcDbEntity
  8
1
 62
     4
420
    65535
100
AcDbEllipse
 10
122.2476062261
 20
17.4505783347
 30
0.0
 11
2.539833442650718
 21
-0.607944142160445
 31
0.0
210
0.0
220
0.0
230
1.0
 40
0.952636901
 41
2.577662635247509
 42
3.346370489252065
  0
LINE
  5
B6
330
1F
100
AcDbEntity
  8
1
 62
     4
420
    65535
100
AcDbLine
 10
120.4106005794
 20
19.2576612304
 30
0.0
 11
123.163037302
 21
19.4775230232
 31
0.0
  0
LINE
  5
B7
330
1F
100
AcDbEntity
  8
1
 62
     4
420
    65535
100
AcDbLine
 10
123.3547647441
 20
14.7263687976
 30
0.0
 11
124.6784683253
 21
13.2407309432
 31
0.0
  0
LINE
  5
B8
330
1F
100
AcDbEntity
  8
1
 62
     4
420
    65535
100
AcDbLine
 10
122.9485317139
 20
14.4857620698
 30
0.0
 11
123.3547647441
 21
14.7263687976
 31
0.0
  0
LINE
  5
B9
330
1F
100
AcDbEntity
  8
1
 62
     4
420
    65535
100
AcDbLine
 10
121.6319499826
 20
15.9634068282
 30
0.0
 11
122.9485317139
 21
14.4857620698
 31
0.0
  0
LINE
  5
BA
330
1F
100
AcDbEntity
  8
1
 62
     4
420
    65535
100
AcDbLine
 10
125.5888170264
 20
11.5224794569
 30
0.0
 11
126.1529079734
 21
12.5750517405
 31
0.0
  0
LINE
  5
BB
330
1F
100
AcDbEntity
  8
1
 62
     4
420
    65535
100
AcDbLine
 10
124.2722352951
 20
13.0001242154
 30
0.0
 11
125.5888170264
 21
11.5224794569
 31
0.0
  0
LINE
  5
BC
330
1F
100
AcDbEntity
  8
1
 62
     4
420
    65535
100
AcDbLine
 10
124.6784683253
 20
13.2407309432
 30
0.0
 11
124.2722352951
 21
13.0001242154
 31
0.0
  0
LINE
  5
BD
330
1F
100
AcDbEntity
  8
1
 62
     4
420
    65535
100
AcDbLine
 10
133.2806822592
 20
17.7427611294
 30
0.0
 11
133.751771956
 21
18.1814341152
 31
0.0
  0
ELLIPSE
  5
BE
330
1F
100
AcDbEntity
  8
1
 62
     4
420
    65535
100
AcDbEllipse
 10
134.0386263432
 20
18.660064666
 30
0.0
 11
-0.671023188548844
 21
1.415429839901034
 31
0.0
210
0.0
220
0.0
230
1.0
 40
0.302329117
 41
1.76975865811378
 42
1.965373697264884
  0
SPLINE
  5
BF
330
1F
100
AcDbEntity
  8
1
 62
     4
420
    65535
100
AcDbSpline
210
0.0
220
0.0
230
1.0
 70
     8
 71
     3
 72
    14
 73
    10
 74
     0
 42
0.000000001
 43
0.00000001
 40
0.0
 40
0.0
 40
0.0
 40
0.0
 40
0.1249999999999994
 40
0.1249999999999994
 40
0.2499999999999989
 40
0.2499999999999989
 40
0.4999999999999993
 40
0.4999999999999993
 40
1.0
 40
1.0
 40
1.0
 40
1.0
 10
134.1433987968658
 20
16.92321067891761
 30
0.0
 10
134.1707933696165
 20
16.96733819088261
 30
0.0
 10
134.1854637110289
 20
17.00942283921773
 30
0.0
 10
134.2029697505578
 20
17.09215775593988
 30
0.0
 10
134.2053846660301
 20
17.13232650331748
 30
0.0
 10
134.2014689434258
 20
17.25237289835063
 30
0.0
 10
134.1837596213198
 20
17.33330387585689
 30
0.0
 10
134.1039793148562
 20
17.57994864003345
 30
0.0
 10
134.0134932392386
 20
17.75320032375241
 30
0.0
 10
133.9015363145658
 20
17.92866671129847
 30
0.0
  0
SPLINE
  5
C0
330
1F
100
AcDbEntity
  8
1
 62
     4
420
    65535
100
AcDbSpline
210
0.0
220
0.0
230
1.0
 70
     8
 71
     3
 72
    38
 73
    34
 74
     0
 42
0.000000001
 43
0.00000001
 40
0.0
 40
0.0
 40
0.0
 40
0.0
 40
0.0002289472365003
 40
0.0002289472365003
 40
0.0002289472365003
 40
0.0003913682947533
 40
0.0003913682947533
 40
0.0003913682947533
 40
0.0005084210263002
 40
0.0005084210263002
 40
0.0005084210263002
 40
0.0005934284256123
 40
0.0005934284256123
 40
0.0005934284256123
 40
0.0006554063448609
 40
0.0006554063448609
 40
0.0006554063448609
 40
0.0007006866047019
 40
0.0007006866047019
 40
0.0007006866047019
 40
0.0007338037319135
 40
0.0007338037319135
 40
0.0007338037319135
 40
0.0007580389890264
 40
0.0007580389890264
 40
0.0007580389890264
 40
0.000775779936862
 40
0.000775779936862
 40
0.000775779936862
 40
0.0008075384711267
 40
0.0008075384711267
 40
0.0008075384711267
 40
0.0008242981310853
 40
0.0008242981310853
 40
0.0008242981310853
 40
0.0008242981310853
 10
134.1433987968658
 20
16.92321067891761
 30
0.0
 10
134.1051694268718
 20
16.8616303433829
 30
0.0
 10
134.0655799373027
 20
16.80110756396632
 30
0.0
 10
134.0246907523401
 20
16.74172020548203
 30
0.0
 10
133.9956788013648
 20
16.6995833144076
 30
0.0
 10
133.966002757952
 20
16.65800362767822
 30
0.0
 10
133.9356831681152
 20
16.61700820197337
 30
0.0
 10
133.9138311473975
 20
16.58746186257182
 30
0.0
 10
133.8916411231207
 20
16.55821394497205
 30
0.0
 10
133.8691205547299
 20
16.52927447160263
 30
0.0
 10
133.8527648550971
 20
16.50825700322677
 30
0.0
 10
133.8362333641177
 20
16.48740035460654
 30
0.0
 10
133.8195288840008
 20
16.46670835259095
 30
0.0
 10
133.8073496270451
 20
16.45162178852469
 30
0.0
 10
133.7950778427522
 20
16.43662204224835
 30
0.0
 10
133.7827146035564
 20
16.42171059681343
 30
0.0
 10
133.7736820992886
 20
16.41081638920363
 30
0.0
 10
133.7646005553176
 20
16.39996904272058
 30
0.0
 10
133.7554703863788
 20
16.38916913632065
 30
0.0
 10
133.7487927206407
 20
16.38127025017464
 30
0.0
 10
133.7420889558204
 20
16.37339663604022
 30
0.0
 10
133.7353592532687
 20
16.36554852073621
 30
0.0
 10
133.730434414993
 20
16.35980522103712
 30
0.0
 10
133.7254956511188
 20
16.35407553624136
 30
0.0
 10
133.7205430246392
 20
16.34835955535884
 30
0.0
 10
133.7169175458677
 20
16.34417527709079
 30
0.0
 10
133.7132846247797
 20
16.33999832644557
 30
0.0
 10
133.7096442860207
 20
16.33582873837882
 30
0.0
 10
133.7031276435359
 20
16.32836467623001
 30
0.0
 10
133.6965871786383
 20
16.32092414792804
 30
0.0
 10
133.6900230322865
 20
16.31350735429939
 30
0.0
 10
133.6865599411238
 20
16.30959442623617
 30
0.0
 10
133.6830902472718
 20
16.30568808949531
 30
0.0
 10
133.6796139621575
 20
16.30178836969915
 30
0.0
  0
LINE
  5
C1
330
1F
100
AcDbEntity
  8
1
 62
     4
420
    65535
100
AcDbLine
 10
133.6796139622
 20
16.3017883697
 30
0.0
 11
129.4783542761
 21
12.3896265387
 31
0.0
  0
LINE
  5
C2
330
1F
100
AcDbEntity
  8
1
 62
     4
420
    65535
100
AcDbLine
 10
123.5208395395
 20
21.6983183122
 30
0.0
 11
122.1576802319
 21
20.4289609738
 31
0.0
  0
LINE
  5
C3
330
1F
100
AcDbEntity
  8
1
 62
     4
420
    65535
100
AcDbLine
 10
127.3642969881
 20
23.3896848541
 30
0.0
 11
123.5208395395
 21
21.6983183122
 31
0.0
  0
LINE
  5
C4
330
1F
100
AcDbEntity
  8
1
 62
     4
420
    65535
100
AcDbLine
 10
120.8352503025
 20
19.6530898785
 30
0.0
 11
120.4106005794
 21
19.2576612304
 31
0.0
  0
ELLIPSE
  5
C5
330
1F
100
AcDbEntity
  8
1
 62
     4
420
    65535
100
AcDbEllipse
 10
121.5751088448
 20
20.6189990501
 30
0.0
 11
1.14519194416252
 21
0.8937630696111257
 31
0.0
210
0.0
220
0.0
230
1.0
 40
0.3600036967
 41
3.767226400017484
 42
4.950286212236412
  0
LINE
  5
C6
330
1F
100
AcDbEntity
  8
1
 62
     4
420
    65535
100
AcDbLine
 10
129.4783542761
 20
12.3896265387
 30
0.0
 11
128.3710290704
 21
10.3233997598
 31
0.0
  0
ELLIPSE
  5
C7
330
1F
100
AcDbEntity
  8
1
 62
     4
420
    65535
100
AcDbEllipse
 10
126.7820377483
 20
12.3614305727
 30
0.0
 11
-0.1392136412795537
 21
2.663761412066373
 31
0.0
210
0.0
220
0.0
230
1.0
 40
0.9131851365000001
 41
3.026153128876809
 42
3.79486098288135
  0
ELLIPSE
  5
C8
330
1F
100
AcDbEntity
  8
1
 62
     4
420
    65535
100
AcDbEllipse
 10
125.1913572683
 20
9.3932812091
 30
0.0
 11
-1.129687361841164
 21
2.798313758614261
 31
0.0
210
0.0
220
0.0
230
1.0
 40
0.4850881595
 41
4.62704507772939
 42
5.362096052314819
  0
LINE
  5
C9
330
1F
100
AcDbEntity
  8
1
 62
     4
420
    65535
100
AcDbLine
 10
133.0665681227
 20
22.2341258682
 30
0.0
 11
129.354354195
 21
23.1168066415
 31
0.0
  0
SPLINE
  5
CA
330
1F
100
AcDbEntity
  8
1
 62
     4
420
    65535
100
AcDbSpline
210
0.0
220
0.0
230
1.0
 70
     8
 71
     3
 72
    11
 73
     7
 74
     0
 42
0.000000001
 43
0.00000001
 40
0.0
 40
0.0
 40
0.0
 40
0.0
 40
0.0000489886699245
 40
0.0000489886699245
 40
0.0000489886699245
 40
0.0001016450381113
 40
0.0001016450381113
 40
0.0001016450381113
 40
0.0001016450381113
 10
133.1532133241334
 20
22.18577656311836
 30
0.0
 10
133.1421419235734
 20
22.19765517847535
 30
0.0
 10
133.129017034558
 20
22.20776950257861
 30
0.0
 10
133.1149558664652
 20
22.2156220976035
 30
0.0
 10
133.0998184576632
 20
22.22407572963921
 30
0.0
 10
133.0833109025206
 20
22.23014481267382
 30
0.0
 10
133.0665681227501
 20
22.23412586820635
 30
0.0
  0
ELLIPSE
  5
CB
330
1F
100
AcDbEntity
  8
1
 62
     4
420
    65535
100
AcDbEllipse
 10
128.8934304777
 20
18.1725029086
 30
0.0
 11
4.25222741323404
 21
4.021321213391925
 31
0.0
210
0.0
220
0.0
230
1.0
 40
0.5098162046
 41
6.256619730886311
 42
6.279485769987558
  0
SPLINE
  5
CC
330
1F
100
AcDbEntity
  8
1
 62
     4
420
    65535
100
AcDbSpline
210
0.0
220
0.0
230
1.0
 70
     8
 71
     3
 72
     8
 73
     4
 74
     0
 42
0.000000001
 43
0.00000001
 40
0.0
 40
0.0
 40
0.0
 40
0.0
 40
1.0
 40
1.0
 40
1.0
 40
1.0
 10
133.2376381436632
 20
22.04212812608159
 30
0.0
 10
133.2331223899979
 20
22.07603747557456
 30
0.0
 10
133.2207939242417
 20
22.10877688321822
 30
0.0
 10
133.1986141218025
 20
22.13482169331717
 30
0.0
  0
LINE
  5
CD
330
1F
100
AcDbEntity
  8
1
 62
     4
420
    65535
100
AcDbLine
 10
133.751771956
 20
18.1814341152
 30
0.0
 11
133.2376381437
 21
22.0421281261
 31
0.0
  0
ARC
  5
CE
330
1F
100
AcDbEntity
  8
1
 62
     4
420
    65535
100
AcDbCircle
 10
126.3182171698
 20
22.400789839
 30
0.0
 40
2.204777093083576
100
AcDbArc
 50
37.396619394
 51
41.7974301815
  0
SPLINE
  5
CF
330
1F
100
AcDbEntity
  8
1
 62
     4
420
    65535
100
AcDbSpline
210
0.0
220
0.0
230
1.0
 70
     8
 71
     3
 72
    14
 73
    10
 74
     0
 42
0.000000001
 43
0.00000001
 40
0.0
 40
0.0
 40
0.0
 40
0.0
 40
0.25
 40
0.25
 40
0.5
 40
0.5
 40
0.75
 40
0.75
 40
1.0
 40
1.0
 40
1.0
 40
1.0
 10
127.9618914879517
 20
23.87027164096435
 30
0.0
 10
128.070532218035
 20
23.92969568294247
 30
0.0
 10
128.1830778527855
 20
23.96694244463461
 30
0.0
 10
128.4111120960891
 20
24.00114608659961
 30
0.0
 10
128.5280720188737
 20
23.99855232324725
 30
0.0
 10
128.7599083484337
 20
23.96173641929594
 30
0.0
 10
128.878080641392
 20
23.92691138429717
 30
0.0
 10
129.1080487287873
 20
23.83139896816421
 30
0.0
 10
129.2197690073073
 20
23.77123128723539
 30
0.0
 10
129.3288380464565
 20
23.69911824281415
 30
0.0
  0
ARC
  5
D0
330
1F
100
AcDbEntity
  8
1
 62
     4
420
    65535
100
AcDbCircle
 10
167.5775313492
 20
3.3970026145
 30
0.0
 40
43.30286870811629
100
AcDbArc
 50
152.0409772619
 51
152.6414076422
  0
ELLIPSE
  5
D1
330
1F
100
AcDbEntity
  8
1
 62
     4
420
    65535
100
AcDbEllipse
 10
129.9433666272
 20
24.2084334979
 30
0.0
 11
0.7442837426419544
 21
0.3853577408761631
 31
0.0
210
0.0
220
0.0
230
1.0
 40
0.5529690568
 41
3.516558185167457
 42
3.712173224318553
  0
ARC
  5
D2
330
1F
100
AcDbEntity
  8
1
 62
     4
420
    65535
100
AcDbCircle
 10
125.789528283
 20
23.9032525052
 30
0.0
 40
3.650545285241495
100
AcDbArc
 50
347.5591013932001
 51
356.2080115305
  0
LINE
  5
D3
330
1F
100
AcDbEntity
  8
1
 62
     4
420
    65535
100
AcDbLine
 10
129.4320815224
 20
23.6618259577
 30
0.0
 11
133.1442954501
 21
22.7791451844
 31
0.0
  0
ARC
  5
D4
330
1F
100
AcDbEntity
  8
1
 62
     4
420
    65535
100
AcDbCircle
 10
129.5017422108
 20
23.020571732
 30
0.0
 40
3.650545285218446
100
AcDbArc
 50
347.5591013931
 51
356.2080115306001
  0
ARC
  5
D5
330
1F
100
AcDbEntity
  8
1
 62
     4
420
    65535
100
AcDbCircle
 10
128.9987140119
 20
23.4933592663
 30
0.0
 40
1.04543711933311
100
AcDbArc
 50
33.9307011064
 51
102.2345856982
  0
ELLIPSE
  5
D6
330
1F
100
AcDbEntity
  8
1
 62
     4
420
    65535
100
AcDbEllipse
 10
132.7734033387
 20
21.5357158287
 30
0.0
 11
3.805771718840873
 21
-1.640195935115603
 31
0.0
210
0.0
220
0.0
230
1.0
 40
0.6180638878
 41
2.661480781580107
 42
2.895719828897164
  0
ELLIPSE
  5
D7
330
1F
100
AcDbEntity
  8
1
 62
     4
420
    65535
100
AcDbEllipse
 10
132.3201662712
 20
20.6162213703
 30
0.0
 11
4.471937093328847
 21
-3.103671246774496
 31
0.0
210
0.0
220
0.0
230
1.0
 40
0.653491144
 41
2.802604514662029
 42
3.088620274892979
  0
LINE
  5
D8
330
1F
100
AcDbEntity
  8
1
 62
     4
420
    65535
100
AcDbLine
 10
136.6759592648
 20
27.482433467
 30
0.0
 11
129.8661271008
 21
24.0769115807
 31
0.0
  0
LINE
  5
D9
330
1F
100
AcDbEntity
  8
1
 62
     4
420
    65535
100
AcDbLine
 10
136.6759592648
 20
27.482433467
 30
0.0
 11
137.2642604984
 21
27.342548698
 31
0.0
  0
ELLIPSE
  5
DA
330
1F
100
AcDbEntity
  8
1
 62
     4
420
    65535
100
AcDbEllipse
 10
-210.425426567
 20
-344.5726979065
 30
0.0
 11
361.6878510633508
 21
388.0223811678228
 31
0.0
210
0.0
220
0.0
230
1.0
 40
0.0049903098
 41
5.959929137340734
 42
5.998659554170836
  0
LINE
  5
DB
330
1F
100
AcDbEntity
  8
1
 62
     4
420
    65535
100
AcDbLine
 10
131.1614256584
 20
13.1230268877
 30
0.0
 11
133.6796139622
 21
16.3017883697
 31
0.0
  0
LINE
  5
DC
330
1F
100
AcDbEntity
  8
1
 62
     4
420
    65535
100
AcDbLine
 10
129.7982663508
 20
11.8536695494
 30
0.0
 11
131.1614256584
 21
13.1230268877
 31
0.0
  0
ELLIPSE
  5
DD
330
1F
100
AcDbEntity
  8
1
 62
     4
420
    65535
100
AcDbEllipse
 10
129.7299886568
 20
11.4664982038
 30
0.0
 11
1.026420514077103
 21
1.027571201130114
 31
0.0
210
0.0
220
0.0
230
1.0
 40
0.1590949247
 41
1.347110207765794
 42
2.53017001998453
  0
LINE
  5
DE
330
1F
100
AcDbEntity
  8
1
 62
     4
420
    65535
100
AcDbLine
 10
128.7956787935
 20
10.7188284079
 30
0.0
 11
128.3710290704
 21
10.3233997598
 31
0.0
  0
SPLINE
  5
DF
330
1F
100
AcDbEntity
  8
1
 62
     4
420
    65535
100
AcDbSpline
210
0.0
220
0.0
230
1.0
 70
     8
 71
     3
 72
     8
 73
     4
 74
     0
 42
0.000000001
 43
0.00000001
 40
0.0
 40
0.0
 40
0.0
 40
0.0
 40
1.0
 40
1.0
 40
1.0
 40
1.0
 10
127.9618914879531
 20
23.87027164096812
 30
0.0
 10
127.7576830905634
 20
23.71724892155285
 30
0.0
 10
127.558226697361
 20
23.5569300928068
 30
0.0
 10
127.3642969880538
 20
23.38968485413797
 30
0.0
  0
ELLIPSE
  5
E0
330
1F
100
AcDbEntity
  8
1
 62
     4
420
    65535
100
AcDbEllipse
 10
123.481323112
 20
14.8515176308
 30
0.0
 11
0.0360093776385071
 21
0.2317871621978931
 31
0.0
210
0.0
220
0.0
230
1.0
 40
0.569475919
 41
2.226897813638396
 42
2.703123709431482
  0
ELLIPSE
  5
E1
330
1F
100
AcDbEntity
  8
1
 62
     4
420
    65535
100
AcDbEllipse
 10
124.8050266931
 20
13.3658797764
 30
0.0
 11
0.2463562807084685
 21
-0.03827276826520709
 31
0.0
210
0.0
220
0.0
230
1.0
 40
0.6339234844
 41
3.797694140433311
 42
4.273920036226396
  0
ARC
  5
E2
330
1F
100
AcDbEntity
  8
1
 62
     4
420
    65535
100
AcDbCircle
 10
132.7279104793
 20
20.6639384352
 30
0.0
 40
2.976425541604963
100
AcDbArc
 50
293.2227690073
 51
301.6648759853
  0
SPLINE
  5
E3
330
1F
100
AcDbEntity
  8
1
 62
     4
420
    65535
100
AcDbSpline
210
0.0
220
0.0
230
1.0
 70
     8
 71
     3
 72
    12
 73
     8
 74
     0
 42
0.000000001
 43
0.00000001
 40
0.0
 40
0.0
 40
0.0
 40
0.0
 40
0.5000000000000036
 40
0.5000000000000036
 40
0.7500000000000018
 40
0.7500000000000018
 40
1.0
 40
1.0
 40
1.0
 40
1.0
 10
134.2903850075377
 20
18.13060419877963
 30
0.0
 10
134.4009371006391
 20
17.90603799629072
 30
0.0
 10
134.4593841889382
 20
17.67722385866439
 30
0.0
 10
134.4482340466075
 20
17.35295648243356
 30
0.0
 10
134.4278045603472
 20
17.2474453451193
 30
0.0
 10
134.3491944760261
 20
17.04511417965749
 30
0.0
 10
134.290913089322
 20
16.94824995659036
 30
0.0
 10
134.2129712196501
 20
16.85447081321837
 30
0.0
  0
ARC
  5
E4
330
1F
100
AcDbEntity
  8
1
 62
     4
420
    65535
100
AcDbCircle
 10
133.4689869175
 20
16.1710530561
 30
0.0
 40
1.010233870305382
100
AcDbArc
 50
42.5703222308
 51
48.11944194840001
  0
ARC
  5
E5
330
1F
100
AcDbEntity
  8
1
 62
     4
420
    65535
100
AcDbCircle
 10
135.2102885203
 20
6.416076177
 30
0.0
 40
15.75007457203144
100
AcDbArc
 50
95.3167850425
 51
97.1950228232
  0
LINE
  5
E6
330
1F
100
AcDbEntity
  8
1
 62
     4
420
    65535
100
AcDbLine
 10
133.7508506173
 20
22.098387551
 30
0.0
 11
134.2649844297
 21
18.2376935401
 31
0.0
  0
ARC
  5
E7
330
1F
100
AcDbEntity
  8
1
 62
     4
420
    65535
100
AcDbCircle
 10
135.7244223325
 20
2.5553821673
 30
0.0
 40
15.75007457077497
100
AcDbArc
 50
95.3167850424
 51
97.19502282330001
  0
ELLIPSE
  5
E8
330
1F
100
AcDbEntity
  8
1
 62
     4
420
    65535
100
AcDbEllipse
 10
134.7762695345
 20
18.7843010803
 30
0.0
 11
0.3663639999375619
 21
0.7975605784971371
 31
0.0
210
0.0
220
0.0
230
1.0
 40
0.4584132667
 41
2.513412603955197
 42
2.709027643106225
  0
ELLIPSE
  5
E9
330
1F
100
AcDbEntity
  8
1
 62
     4
420
    65535
100
AcDbEllipse
 10
127.7048087592
 20
18.5851695427
 30
0.0
 11
5.774496358840792
 21
2.864244986913998
 31
0.0
210
0.0
220
0.0
230
1.0
 40
0.7751537201
 41
1.553334794939825
 42
1.946451951145878
  0
LINE
  5
EA
330
1F
100
AcDbEntity
  8
1
 62
     4
420
    65535
100
AcDbLine
 10
125.5857435015
 20
23.1106210618
 30
0.0
 11
128.7771704559
 21
24.515052578
 31
0.0
  0
LINE
  5
EB
330
1F
100
AcDbEntity
  8
1
 62
     4
420
    65535
100
AcDbLine
 10
128.7771704559
 20
24.515052578
 30
0.0
 11
135.58700262
 21
27.9205744643
 31
0.0
  0
ARC
  5
EC
330
1F
100
AcDbEntity
  8
1
 62
     4
420
    65535
100
AcDbCircle
 10
135.8085461759
 20
26.8988811525
 30
0.0
 40
1.045437119332986
100
AcDbArc
 50
33.9307011064
 51
102.2345856982
  0
SPLINE
  5
ED
330
1F
100
AcDbEntity
  8
1
 62
     4
420
    65535
100
AcDbSpline
210
0.0
220
0.0
230
1.0
 70
     8
 71
     3
 72
     8
 73
     4
 74
     0
 42
0.000000001
 43
0.00000001
 40
0.0
 40
0.0
 40
0.0
 40
0.0
 40
1.0
 40
1.0
 40
1.0
 40
1.0
 10
133.1442954501162
 20
22.77914518439168
 30
0.0
 10
133.2669418422647
 20
22.7098418748987
 30
0.0
 10
133.3785360866609
 20
22.62188711609346
 30
0.0
 10
133.4737649212161
 20
22.51879182317154
 30
0.0
  0
ARC
  5
EE
330
1F
100
AcDbEntity
  8
1
 62
     4
420
    65535
100
AcDbCircle
 10
128.6087186753
 20
26.880970598
 30
0.0
 40
6.534315468254485
100
AcDbArc
 50
314.065588292
 51
318.1194329598
  0
ARC
  5
EF
330
1F
100
AcDbEntity
  8
1
 62
     4
420
    65535
100
AcDbCircle
 10
124.4167814779
 20
13.1401115116
 30
0.0
 40
0.2012213757775433
100
AcDbArc
 50
138.3507945396
 51
224.0820671902
  0
ARC
  5
F0
330
1F
100
AcDbEntity
  8
1
 62
     4
420
    65535
100
AcDbCircle
 10
128.477818116
 20
27.485514862
 30
0.0
 40
7.135533078416969
100
AcDbArc
 50
311.4212340789
 51
315.1238805692
  0
SPLINE
  5
F1
330
1F
100
AcDbEntity
  8
1
 62
     4
420
    65535
100
AcDbSpline
210
0.0
220
0.0
230
1.0
 70
     8
 71
     3
 72
     8
 73
     4
 74
     0
 42
0.000000001
 43
0.00000001
 40
0.0
 40
0.0
 40
0.0
 40
0.0
 40
1.0
 40
1.0
 40
1.0
 40
1.0
 10
133.5342993181055
 20
22.45085199676847
 30
0.0
 10
133.6258321207545
 20
22.34433635902164
 30
0.0
 10
133.6988695987407
 20
22.2251079567532
 30
0.0
 10
133.7508506173391
 20
22.0983875510049
 30
0.0
  0
ELLIPSE
  5
F2
330
1F
100
AcDbEntity
  8
1
 62
     4
420
    65535
100
AcDbEllipse
 10
128.6689997601
 20
18.1045259192
 30
0.0
 11
4.813924134751716
 21
4.404310967542841
 31
0.0
210
0.0
220
0.0
230
1.0
 40
0.6098949423
 41
6.263718601678472
 42
6.286584640779668
  0
ELLIPSE
  5
F3
330
1F
100
AcDbEntity
  8
1
 62
     4
420
    65535
100
AcDbEllipse
 10
132.6421537744
 20
21.6830217089
 30
0.0
 11
-0.8045866463363327
 21
4.070583298334959
 31
0.0
210
0.0
220
0.0
230
1.0
 40
0.5604803686
 41
3.552105311298203
 42
3.786344358615255
  0
ELLIPSE
  5
F4
330
1F
100
AcDbEntity
  8
1
 62
     4
420
    65535
100
AcDbEllipse
 10
-209.8592958768
 20
-345.2080857651
 30
0.0
 11
362.8600198549747
 21
386.7068357172911
 31
0.0
210
0.0
220
0.0
230
1.0
 40
0.0045394111
 41
0.2836550532733614
 42
0.3223854701033146
  0
LINE
  5
F5
330
1F
100
AcDbEntity
  8
1
 62
     4
420
    65535
100
AcDbLine
 10
138.0906428727
 20
25.8946856133
 30
0.0
 11
138.0091643906
 21
26.5065175533
 31
0.0
  0
LINE
  5
F6
330
1F
100
AcDbEntity
  8
1
 62
     4
420
    65535
100
AcDbLine
 10
134.656389576
 20
18.7006359801
 30
0.0
 11
138.0906428727
 21
25.8946856133
 31
0.0
  0
ARC
  5
F7
330
1F
100
AcDbEntity
  8
1
 62
     4
420
    65535
100
AcDbCircle
 10
136.1603571831
 20
25.7560875249
 30
0.0
 40
1.932734224638631
100
AcDbArc
 50
44.2032424512
 51
55.16874183819999
  0
ELLIPSE
  5
F8
330
1F
100
AcDbEntity
  8
1
 62
     4
420
    65535
100
AcDbEllipse
 10
-210.8182320255
 20
-345.3695931038
 30
0.0
 11
362.084785144927
 21
388.8206283830642
 31
0.0
210
0.0
220
0.0
230
1.0
 40
0.0073816338
 41
5.960368262236059
 42
5.998976611598315
  0
ARC
  5
F9
330
1F
100
AcDbEntity
  8
1
 62
     4
420
    65535
100
AcDbCircle
 10
136.4361843544
 20
25.6810669714
 30
0.0
 40
1.77641066688541
100
AcDbArc
 50
27.6890797308
 51
39.3058341068
  0
ELLIPSE
  5
FA
330
1F
100
AcDbEntity
  8
1
 62
     4
420
    65535
100
AcDbEllipse
 10
-210.8182320255
 20
-345.3695931038
 30
0.0
 11
363.8187685698416
 21
386.8745679916242
 31
0.0
210
0.0
220
0.0
230
1.0
 40
0.0067177048
 41
0.2829243821773608
 42
0.3215327315395568
  0
LINE
  5
FB
330
1F
100
AcDbEntity
  8
1
 62
     4
420
    65535
100
AcDbLine
 10
123.7673635631
 20
13.1226784759
 30
0.0
 11
124.2664233048
 21
13.273836834
 31
0.0
  0
LINE
  5
FC
330
1F
100
AcDbEntity
  8
1
 62
     4
420
    65535
100
AcDbLine
 10
123.7673635631
 20
13.1226784759
 30
0.0
 11
124.3065175341
 21
13.6247320846
 31
0.0
  0
SPLINE
  5
FD
330
1F
100
AcDbEntity
  8
1
 62
     4
420
    65535
100
AcDbSpline
210
0.0
220
0.0
230
1.0
 70
     8
 71
     3
 72
    10
 73
     6
 74
     0
 42
0.000000001
 43
0.00000001
 40
0.0
 40
0.0
 40
0.0
 40
0.0
 40
0.5
 40
0.5
 40
1.0
 40
1.0
 40
1.0
 40
1.0
 10
137.8960818084997
 20
27.24331902061314
 30
0.0
 10
137.8302384088681
 20
27.23563171281797
 30
0.0
 10
137.7658161472593
 20
27.22347766118621
 30
0.0
 10
137.6446252517169
 20
27.18122957598035
 30
0.0
 10
137.5880955548822
 20
27.15129601943701
 30
0.0
 10
137.5458785950322
 20
27.10360079024847
 30
0.0
  0
SPLINE
  5
FE
330
1F
100
AcDbEntity
  8
1
 62
     4
420
    65535
100
AcDbSpline
210
0.0
220
0.0
230
1.0
 70
     8
 71
     3
 72
    29
 73
    25
 74
     0
 42
0.000000001
 43
0.00000001
 40
0.0
 40
0.0
 40
0.0
 40
0.0
 40
0.0000156253751563
 40
0.0000156253751563
 40
0.0000156253751563
 40
0.0000278922373085
 40
0.0000278922373085
 40
0.0000278922373085
 40
0.0000392567339813
 40
0.0000392567339813
 40
0.0000392567339813
 40
0.0000510785579912
 40
0.0000510785579912
 40
0.0000510785579912
 40
0.0000617161729061
 40
0.0000617161729061
 40
0.0000617161729061
 40
0.0000722381387467
 40
0.0000722381387467
 40
0.0000722381387467
 40
0.0000864190862181
 40
0.0000864190862181
 40
0.0000864190862181
 40
0.000091021705367
 40
0.000091021705367
 40
0.000091021705367
 40
0.000091021705367
 10
137.9472781807241
 20
27.18585957903752
 30
0.0
 10
137.9478082058203
 20
27.19027061766222
 30
0.0
 10
137.9474561469804
 20
27.19514694545547
 30
0.0
 10
137.9463324090073
 20
27.19994771348954
 30
0.0
 10
137.9454430211177
 20
27.2037473047219
 30
0.0
 10
137.9440601685378
 20
27.20759109038113
 30
0.0
 10
137.942293064487
 20
27.21126500546123
 30
0.0
 10
137.9406527630979
 20
27.21467529021863
 30
0.0
 10
137.9386567091319
 20
27.21799572930359
 30
0.0
 10
137.9364035544343
 20
27.22108805857324
 30
0.0
 10
137.9340605727613
 20
27.22430367036114
 30
0.0
 10
137.9314037918767
 20
27.22732198596832
 30
0.0
 10
137.9285529331115
 20
27.23000774941255
 30
0.0
 10
137.9259843427674
 20
27.23242759080678
 30
0.0
 10
137.9232242761399
 20
27.23460997146235
 30
0.0
 10
137.920372820167
 20
27.23646258506843
 30
0.0
 10
137.9175531957374
 20
27.23829451746786
 30
0.0
 10
137.9146066057205
 20
27.23982750798329
 30
0.0
 10
137.9116501744076
 20
27.24097904988439
 30
0.0
 10
137.9076939246924
 20
27.24252002507917
 30
0.0
 10
137.9036241763679
 20
27.24340241449881
 30
0.0
 10
137.8997939888709
 20
27.24348802633127
 30
0.0
 10
137.8985341235941
 20
27.24351618666939
 30
0.0
 10
137.8972921571002
 20
27.24346033048299
 30
0.0
 10
137.8960818084997
 20
27.24331902061316
 30
0.0
  0
SPLINE
  5
FF
330
1F
100
AcDbEntity
  8
1
 62
     4
420
    65535
100
AcDbSpline
210
0.0
220
0.0
230
1.0
 70
     8
 71
     3
 72
    10
 73
     6
 74
     0
 42
0.000000001
 43
0.00000001
 40
0.0
 40
0.0
 40
0.0
 40
0.0
 40
0.5
 40
0.5
 40
1.0
 40
1.0
 40
1.0
 40
1.0
 10
137.8107277831647
 20
26.80635147763782
 30
0.0
 10
137.8553167580814
 20
26.8516234318864
 30
0.0
 10
137.883751258405
 20
26.91178149945947
 30
0.0
 10
137.9258122039798
 20
27.04365159400815
 30
0.0
 10
137.9386306558212
 20
27.11389210688701
 30
0.0
 10
137.9472781807241
 20
27.18585957903752
 30
0.0
  0
ARC
  5
100
330
1F
100
AcDbEntity
  8
1
 62
     4
420
    65535
100
AcDbCircle
 10
121.5870365068
 20
16.034426142
 30
0.0
 40
0.0840295378860008
100
AcDbArc
 50
289.7694085295
 51
302.3097570953
  0
ELLIPSE
  5
101
330
1F
100
AcDbEntity
  8
1
 62
     4
420
    65535
100
AcDbEllipse
 10
118.1506613615
 20
17.0015388344
 30
0.0
 11
3.776810313869405
 21
-1.812058597688964
 31
0.0
210
0.0
220
0.0
230
1.0
 40
0.2547066065
 41
0.5476335647635041
 42
1.270714825301724
  0
SPLINE
  5
102
330
1F
100
AcDbEntity
  8
1
 62
     4
420
    65535
100
AcDbSpline
210
0.0
220
0.0
230
1.0
 70
     8
 71
     3
 72
     8
 73
     4
 74
     0
 42
0.000000001
 43
0.00000001
 40
0.0
 40
0.0
 40
0.0
 40
0.0
 40
1.0
 40
1.0
 40
1.0
 40
1.0
 10
119.6430696414303
 20
17.55380780215242
 30
0.0
 10
119.6418069652182
 20
17.49157643780837
 30
0.0
 10
119.6667710289376
 20
17.43115741315136
 30
0.0
 10
119.7079972241558
 20
17.38488784262116
 30
0.0
  0
LINE
  5
103
330
1F
100
AcDbEntity
  8
1
 62
     4
420
    65535
100
AcDbLine
 10
122.9320400122
 20
14.4777044211
 30
0.0
 11
121.6154582809
 21
15.9553491795
 31
0.0
  0
ARC
  5
104
330
1F
100
AcDbEntity
  8
1
 62
     4
420
    65535
100
AcDbCircle
 10
122.9036182381
 20
14.5567813836
 30
0.0
 40
0.0840295378860778
100
AcDbArc
 50
289.7694085296
 51
302.3097570953
  0
LINE
  5
105
330
1F
100
AcDbEntity
  8
1
 62
     4
420
    65535
100
AcDbLine
 10
122.4329802704
 20
14.326546063
 30
0.0
 11
122.9320400122
 21
14.4777044211
 31
0.0
  0
LINE
  5
106
330
1F
100
AcDbEntity
  8
1
 62
     4
420
    65535
100
AcDbLine
 10
119.7079972242
 20
17.3848878426
 30
0.0
 11
122.4329802704
 21
14.326546063
 31
0.0
  0
SPLINE
  5
107
330
1F
100
AcDbEntity
  8
1
 62
     4
420
    65535
100
AcDbSpline
210
0.0
220
0.0
230
1.0
 70
     8
 71
     3
 72
     8
 73
     4
 74
     0
 42
0.000000001
 43
0.00000001
 40
0.0
 40
0.0
 40
0.0
 40
0.0
 40
1.0
 40
1.0
 40
1.0
 40
1.0
 10
134.21297121965
 20
16.85447081321866
 30
0.0
 10
134.0421769555101
 20
16.6639462679175
 30
0.0
 10
133.8641780125404
 20
16.47954500806833
 30
0.0
 10
133.6796139621575
 20
16.30178836969915
 30
0.0
  0
ARC
  5
108
330
1F
100
AcDbEntity
  8
1
 62
     4
420
    65535
100
AcDbCircle
 10
122.5789502954
 20
14.4544375035
 30
0.0
 40
0.1940707829074332
100
AcDbArc
 50
221.2231785062
 51
286.4806631847
  0
ELLIPSE
  5
109
330
1F
100
AcDbEntity
  8
1
 62
     4
420
    65535
100
AcDbEllipse
 10
128.5117608029
 20
17.679499633
 30
0.0
 11
2.99836884605179
 21
5.811314274347935
 31
0.0
210
0.0
220
0.0
230
1.0
 40
0.7540992376
 41
4.264086655668484
 42
4.457991474170149
  0
ARC
  5
10A
330
1F
100
AcDbEntity
  8
1
 62
     4
420
    65535
100
AcDbCircle
 10
124.2273218193
 20
13.0711435292
 30
0.0
 40
0.084029537886278
100
AcDbArc
 50
289.7694085296
 51
302.3097570953
  0
ARC
  5
10B
330
1F
100
AcDbEntity
  8
1
 62
     4
420
    65535
100
AcDbCircle
 10
124.406179029
 20
13.1274522594
 30
0.0
 40
0.2023860323647079
100
AcDbArc
 50
133.6728984715
 51
221.9859079922
  0
ARC
  5
10C
330
1F
100
AcDbEntity
  8
1
 62
     4
420
    65535
100
AcDbCircle
 10
125.5439035506
 20
11.5934987707
 30
0.0
 40
0.084029537884462
100
AcDbArc
 50
289.7694085294
 51
302.3097570954
  0
LINE
  5
10D
330
1F
100
AcDbEntity
  8
1
 62
     4
420
    65535
100
AcDbLine
 10
125.5723253247
 20
11.5144218082
 30
0.0
 11
124.2557435933
 21
12.9920665667
 31
0.0
  0
LINE
  5
10E
330
1F
100
AcDbEntity
  8
1
 62
     4
420
    65535
100
AcDbLine
 10
124.2557435933
 20
12.9920665667
 30
0.0
 11
123.7566838516
 21
12.8409082085
 31
0.0
  0
ARC
  5
10F
330
1F
100
AcDbEntity
  8
1
 62
     4
420
    65535
100
AcDbCircle
 10
123.9071192872
 20
12.9762939013
 30
0.0
 40
0.2023860323647584
100
AcDbArc
 50
133.6728984716
 51
221.9859079922
  0
ELLIPSE
  5
110
330
1F
100
AcDbEntity
  8
1
 62
     4
420
    65535
100
AcDbEllipse
 10
125.0483071987
 20
9.2600747272
 30
0.0
 11
-0.7682477977642322
 21
2.835164281261779
 31
0.0
210
0.0
220
0.0
230
1.0
 40
0.5180072868
 41
4.756464267361182
 42
5.479545527899433
  0
LINE
  5
111
330
1F
100
AcDbEntity
  8
1
 62
     4
420
    65535
100
AcDbLine
 10
123.7566838516
 20
12.8409082085
 30
0.0
 11
126.4816668978
 21
9.7825664289
 31
0.0
  0
LINE
  5
112
330
1F
100
AcDbEntity
  8
1
 62
     4
420
    65535
100
AcDbLine
 10
133.1168203546
 20
26.7130830465
 30
0.0
 11
125.5857435015
 21
23.1106210618
 31
0.0
  0
ELLIPSE
  5
113
330
1F
100
AcDbEntity
  8
1
 62
     4
420
    65535
100
AcDbEllipse
 10
132.791395814
 20
26.6145164119
 30
0.0
 11
1.369571070178609
 21
0.6424286823781138
 31
0.0
210
0.0
220
0.0
230
1.0
 40
0.0331978188
 41
4.936693599846887
 42
6.080873243258891
  0
LINE
  5
114
330
1F
100
AcDbEntity
  8
1
 62
     4
420
    65535
100
AcDbLine
 10
134.1373193476
 20
27.2347066631
 30
0.0
 11
135.8702942668
 21
28.0636686281
 31
0.0
  0
ELLIPSE
  5
115
330
1F
100
AcDbEntity
  8
1
 62
     4
420
    65535
100
AcDbEllipse
 10
133.8846855173
 20
27.1611145402
 30
0.0
 11
2.452735579275924
 21
1.163534961033285
 31
0.0
210
0.0
220
0.0
230
1.0
 40
0.0220096866
 41
5.468993007521537
 42
5.645256039980046
  0
SPLINE
  5
116
330
1F
100
AcDbEntity
  8
1
 62
     4
420
    65535
100
AcDbSpline
210
0.0
220
0.0
230
1.0
 70
     8
 71
     3
 72
     8
 73
     4
 74
     0
 42
0.000000001
 43
0.00000001
 40
0.0
 40
0.0
 40
0.0
 40
0.0
 40
1.0
 40
1.0
 40
1.0
 40
1.0
 10
126.4816668978196
 20
9.782566428892595
 30
0.0
 10
126.5229245181988
 20
9.736261588828228
 30
0.0
 10
126.5793743108089
 20
9.705265798831785
 30
0.0
 10
126.6401406003959
 20
9.700755476388458
 30
0.0
  0
LINE
  5
117
330
1F
100
AcDbEntity
  8
1
 62
     4
420
    65535
100
AcDbLine
 10
136.8587606779
 20
21.963746709
 30
0.0
 11
138.6995642868
 21
22.0421474289
 31
0.0
  0
LINE
  5
118
330
1F
100
AcDbEntity
  8
1
 62
     4
420
    65535
100
AcDbLine
 10
138.6995642868
 20
22.0421474289
 30
0.0
 11
136.8327086782
 21
20.5182881623
 31
0.0
  0
LINE
  5
119
330
1F
100
AcDbEntity
  8
1
 62
     4
420
    65535
100
AcDbLine
 10
132.7737733413
 20
13.4880059343
 30
0.0
 11
136.8327086782
 21
20.5182881623
 31
0.0
  0
LINE
  5
11A
330
1F
100
AcDbEntity
  8
1
 62
     4
420
    65535
100
AcDbLine
 10
121.2441882774
 20
1.9584208704
 30
0.0
 11
132.7737733413
 21
13.4880059343
 31
0.0
  0
LINE
  5
11B
330
1F
100
AcDbEntity
  8
1
 62
     4
420
    65535
100
AcDbLine
 10
119.7427086782
 20
6.9156592951
 30
0.0
 11
121.2441882774
 21
1.9584208704
 31
0.0
  0
LINE
  5
11C
330
1F
100
AcDbEntity
  8
1
 62
     4
420
    65535
100
AcDbLine
 10
119.7427086782
 20
6.9156592951
 30
0.0
 11
118.6771191714
 21
25.6724164275
 31
0.0
  0
LINE
  5
11D
330
1F
100
AcDbEntity
  8
1
 62
     4
420
    65535
100
AcDbLine
 10
123.2961750383
 20
30.2914722944
 30
0.0
 11
118.6771191714
 21
25.6724164275
 31
0.0
  0
LINE
  5
11E
330
1F
100
AcDbEntity
  8
1
 62
     4
420
    65535
100
AcDbLine
 10
123.2961750383
 20
30.2914722944
 30
0.0
 11
134.8288499391
 21
30.8958741752
 31
0.0
  0
LINE
  5
11F
330
1F
100
AcDbEntity
  8
1
 62
     4
420
    65535
100
AcDbLine
 10
134.8288499391
 20
30.8958741752
 30
0.0
 11
124.7321703001
 21
22.9014271513
 31
0.0
  0
SPLINE
  5
120
330
1F
100
AcDbEntity
  8
1
 62
     4
420
    65535
100
AcDbSpline
210
0.0
220
0.0
230
1.0
 70
     8
 71
     3
 72
     9
 73
     5
 74
     0
 42
0.000000001
 43
0.00000001
 40
0.0
 40
0.0
 40
0.0
 40
0.0
 40
0.4786298086196473
 40
1.0
 40
1.0
 40
1.0
 40
1.0
 10
120.9417728779201
 20
19.7053538297974
 30
0.0
 10
120.9228190088808
 20
19.70116666526341
 30
0.0
 10
120.8832187401597
 20
19.6924184334179
 30
0.0
 10
120.8516889797026
 20
19.66656768708553
 30
0.0
 10
120.835250302459
 20
19.6530898785229
 30
0.0
  0
LINE
  5
121
330
1F
100
AcDbEntity
  8
1
 62
     4
420
    65535
100
AcDbLine
 10
119.2837733413
 20
-0.0019940657
 30
0.0
 11
119.7427086782
 21
0.4569412711
 31
0.0
  0
LINE
  5
122
330
1F
100
AcDbEntity
  8
1
 62
     4
420
    65535
100
AcDbLine
 10
119.2837733413
 20
-0.0019940657
 30
0.0
 11
111.0027086782
 21
-0.0019940657
 31
0.0
  0
LINE
  5
123
330
1F
100
AcDbEntity
  8
1
 62
     4
420
    65535
100
AcDbLine
 10
111.0027086782
 20
-0.0019940657
 30
0.0
 11
111.0027086782
 21
24.9980059343
 31
0.0
  0
LINE
  5
124
330
1F
100
AcDbEntity
  8
1
 62
     4
420
    65535
100
AcDbLine
 10
111.0027086782
 20
24.9980059343
 30
0.0
 11
118.0027086782
 21
24.9980059343
 31
0.0
  0
LINE
  5
125
330
1F
100
AcDbEntity
  8
1
 62
     4
420
    65535
100
AcDbLine
 10
118.6771191714
 20
25.6724164275
 30
0.0
 11
118.0027086782
 21
24.9980059343
 31
0.0
  0
LINE
  5
126
330
1F
100
AcDbEntity
  8
1
 62
     4
420
    65535
100
AcDbLine
 10
119.7427086782
 20
0.4569412711
 30
0.0
 11
119.7427086782
 21
6.9156592951
 31
0.0
  0
LINE
  5
127
330
1F
100
AcDbEntity
  8
1
 62
     4
420
    65535
100
AcDbLine
 10
119.7427086782
 20
0.4569412711
 30
0.0
 11
121.2441882774
 21
1.9584208704
 31
0.0
  0
LWPOLYLINE
  5
128
330
1F
100
AcDbEntity
  8
1
 62
     4
420
    65535
100
AcDbPolyline
 90
        3
 70
   128
 43
0.0
 10
123.5007863711
 20
21.6976655686
 10
123.5062512463
 20
21.7002270386
 10
123.5208395395
 20
21.6983183122
  0
LINE
  5
129
330
1F
100
AcDbEntity
  8
1
 62
     4
420
    65535
100
AcDbLine
 10
125.5842024832
 20
23.1100238527
 30
0.0
 11
125.5857435015
 21
23.1106210618
 31
0.0
  0
LINE
  5
12A
330
1F
100
AcDbEntity
  8
1
 62
     4
420
    65535
100
AcDbLine
 10
133.1152793363
 20
26.7124858374
 30
0.0
 11
133.1168203546
 21
26.7130830465
 31
0.0
  0
LINE
  5
12B
330
1F
100
AcDbEntity
  8
1
 62
     4
420
    65535
100
AcDbLine
 10
129.7982663508
 20
11.8536695494
 30
0.0
 11
129.7950847416
 21
11.8472847972
 31
0.0
  0
LINE
  5
12C
330
1F
100
AcDbEntity
  8
1
 62
     4
420
    65535
100
AcDbLine
 10
131.1614256584
 20
13.1230268877
 30
0.0
 11
131.1582440492
 21
13.1166421355
 31
0.0
  0
LWPOLYLINE
  5
12D
330
1F
100
AcDbEntity
  8
1
 62
     4
420
    65535
100
AcDbPolyline
 90
        9
 70
   128
 43
0.0
 10
137.5816667667
 20
27.6929772047
 10
137.5736462749
 20
27.8500990765
 10
137.5590599102
 20
27.9899318548
 10
137.5380068417
 20
28.1115248508
 10
137.5106302041
 20
28.2140513835
 10
137.4771161245
 20
28.2968144001
 10
137.4376924568
 20
28.3592512151
 10
137.392627233
 20
28.4009373358
 10
137.3422268405
 20
28.4215893485
  0
SPLINE
  5
12E
330
1F
100
AcDbEntity
  8
1
 62
     4
420
    65535
100
AcDbSpline
210
0.0
220
0.0
230
1.0
 70
     8
 71
     3
 72
     8
 73
     4
 74
     0
 42
0.000000001
 43
0.00000001
 40
0.0
 40
0.0
 40
0.0
 40
0.0
 40
1.0
 40
1.0
 40
1.0
 40
1.0
 10
137.2642604984307
 20
27.34254869795291
 30
0.0
 10
137.3432925740738
 20
27.49489392215287
 30
0.0
 10
137.4568133551124
 20
27.60409234415205
 30
0.0
 10
137.5816667666925
 20
27.6929772046864
 30
0.0
  0
ELLIPSE
  5
12F
330
1F
100
AcDbEntity
  8
1
 62
     4
420
    65535
100
AcDbEllipse
 10
134.5204050946
 20
25.8034790845
 30
0.0
 11
2.816061417297192
 21
2.614073039365824
 31
0.0
210
0.0
220
0.0
230
1.0
 40
0.087021153
 41
5.499671682286126
 42
6.347147486807739
  0
SPLINE
  5
130
330
1F
100
AcDbEntity
  8
1
 62
     4
420
    65535
100
AcDbSpline
210
0.0
220
0.0
230
1.0
 70
     8
 71
     3
 72
     8
 73
     4
 74
     0
 42
0.000000001
 43
0.00000001
 40
0.0
 40
0.0
 40
0.0
 40
0.0
 40
1.0
 40
1.0
 40
1.0
 40
1.0
 10
137.3161678209194
 20
28.42787033922836
 30
0.0
 10
137.3244982366078
 20
28.42586421644876
 30
0.0
 10
137.3331528497701
 20
28.42377563067061
 30
0.0
 10
137.3422268404682
 20
28.42158934847661
 30
0.0
  0
SPLINE
  5
131
330
1F
100
AcDbEntity
  8
1
 62
     4
420
    65535
100
AcDbSpline
210
0.0
220
0.0
230
1.0
 70
     8
 71
     3
 72
    16
 73
    12
 74
     0
 42
0.000000001
 43
0.00000001
 40
0.0
 40
0.0
 40
0.0
 40
0.0
 40
0.5000000000000265
 40
0.5000000000000265
 40
0.7500000000000745
 40
0.7500000000000745
 40
0.8750000000000635
 40
0.8750000000000635
 40
0.9375000000000318
 40
0.9375000000000318
 40
1.0
 40
1.0
 40
1.0
 40
1.0
 10
136.0178140639241
 20
28.13113651658238
 30
0.0
 10
136.1648581702194
 20
28.19508832705859
 30
0.0
 10
136.3109251805488
 20
28.24976069960932
 30
0.0
 10
136.524868512055
 20
28.31588928525571
 30
0.0
 10
136.5952133679465
 20
28.33506603518551
 30
0.0
 10
136.6938633822625
 20
28.36076483040195
 30
0.0
 10
136.7264090211694
 20
28.36891976729198
 30
0.0
 10
136.7655860960741
 20
28.38079637298906
 30
0.0
 10
136.7774842656304
 20
28.38478290819694
 30
0.0
 10
136.7881118924614
 20
28.39242196785815
 30
0.0
 10
136.7824237299549
 20
28.39573266039589
 30
0.0
 10
136.7666881043763
 20
28.39639118753399
 30
0.0
  0
SPLINE
  5
132
330
1F
100
AcDbEntity
  8
1
 62
     4
420
    65535
100
AcDbSpline
210
0.0
220
0.0
230
1.0
 70
     8
 71
     3
 72
    10
 73
     6
 74
     0
 42
0.000000001
 43
0.00000001
 40
0.0
 40
0.0
 40
0.0
 40
0.0
 40
0.5
 40
0.5
 40
1.0
 40
1.0
 40
1.0
 40
1.0
 10
136.7666881043763
 20
28.39639118753399
 30
0.0
 10
136.6954207244215
 20
28.39937368756405
 30
0.0
 10
136.6231725159998
 20
28.39388287686242
 30
0.0
 10
136.4718078104896
 20
28.36347628235125
 30
0.0
 10
136.3923638553055
 20
28.33832843719371
 30
0.0
 10
136.3087993422846
 20
28.30029342079639
 30
0.0
  0
ELLIPSE
  5
133
330
1F
100
AcDbEntity
  8
1
 62
     4
420
    65535
100
AcDbEllipse
 10
133.8846855173
 20
27.1611145402
 30
0.0
 11
2.452735579275924
 21
1.163534961033285
 31
0.0
210
0.0
220
0.0
230
1.0
 40
0.0220096866
 41
6.119472607068633
 42
6.125925363803518
  0
SPLINE
  5
134
330
1F
100
AcDbEntity
  8
1
 62
     4
420
    65535
100
AcDbSpline
210
0.0
220
0.0
230
1.0
 70
     8
 71
     3
 72
    12
 73
     8
 74
     0
 42
0.000000001
 43
0.00000001
 40
0.0
 40
0.0
 40
0.0
 40
0.0
 40
0.5000000000000326
 40
0.5000000000000326
 40
0.7500000000000163
 40
0.7500000000000163
 40
1.0
 40
1.0
 40
1.0
 40
1.0
 10
137.3161678209186
 20
28.42787033922706
 30
0.0
 10
137.1673475536544
 20
28.46370909438564
 30
0.0
 10
136.998467324353
 20
28.47347102976366
 30
0.0
 10
136.7381312840181
 20
28.44212794370854
 30
0.0
 10
136.6516322484015
 20
28.4243127958295
 30
0.0
 10
136.4797237942947
 20
28.37399256811187
 30
0.0
 10
136.3928909551954
 20
28.34072636445395
 30
0.0
 10
136.3111653254191
 20
28.30183705392235
 30
0.0
  0
SPLINE
  5
135
330
1F
100
AcDbEntity
  8
1
 62
     4
420
    65535
100
AcDbSpline
210
0.0
220
0.0
230
1.0
 70
     8
 71
     3
 72
     8
 73
     4
 74
     0
 42
0.000000001
 43
0.00000001
 40
0.0
 40
0.0
 40
0.0
 40
0.0
 40
0.0001667859152187
 40
0.0001667859152187
 40
0.0001667859152187
 40
0.0001667859152187
 10
135.8702942667517
 20
28.06366862813329
 30
0.0
 10
135.9190793718785
 20
28.08700479772317
 30
0.0
 10
135.9682350297537
 20
28.1095738094685
 30
0.0
 10
136.0178140639241
 20
28.13113651658238
 30
0.0
  0
ARC
  5
136
330
1F
100
AcDbEntity
  8
1
 62
     4
420
    65535
100
AcDbCircle
 10
136.3913786156
 20
26.5259370665
 30
0.0
 40
1.666963876878415
100
AcDbArc
 50
25.4899282743
 51
44.4349663372
  0
SPLINE
  5
137
330
1F
100
AcDbEntity
  8
1
 62
     4
420
    65535
100
AcDbSpline
210
0.0
220
0.0
230
1.0
 70
     8
 71
     3
 72
     8
 73
     4
 74
     0
 42
0.000000001
 43
0.00000001
 40
0.0
 40
0.0
 40
0.0
 40
0.0
 40
1.0
 40
1.0
 40
1.0
 40
1.0
 10
138.3255872392276
 20
26.85804978558682
 30
0.0
 10
138.246197538859
 20
26.71813944522524
 30
0.0
 10
138.1473080097667
 20
26.5925198681742
 30
0.0
 10
138.0091643906227
 20
26.50651755329887
 30
0.0
  0
ARC
  5
138
330
1F
100
AcDbEntity
  8
1
 62
     4
420
    65535
100
AcDbCircle
 10
137.2157250461
 20
25.9594115355
 30
0.0
 40
1.428056298711225
100
AcDbArc
 50
38.9965566696
 51
59.1847203109
  0
SPLINE
  5
139
330
1F
100
AcDbEntity
  8
1
 62
     4
420
    65535
100
AcDbSpline
210
0.0
220
0.0
230
1.0
 70
     8
 71
     3
 72
    14
 73
    10
 74
     0
 42
0.000000001
 43
0.00000001
 40
0.0
 40
0.0
 40
0.0
 40
0.0
 40
0.0506157586082337
 40
0.1015675463097887
 40
0.1464306343788946
 40
0.2228011487015909
 40
0.3738708848147789
 40
0.8930418077567746
 40
1.0
 40
1.0
 40
1.0
 40
1.0
 10
138.7570516334736
 20
26.16253804626766
 30
0.0
 10
138.757893491789
 20
26.16615991813047
 30
0.0
 10
138.7595827973688
 20
26.17342770682454
 30
0.0
 10
138.7602855001771
 20
26.17675068599428
 30
0.0
 10
138.7595406209623
 20
26.17354496221658
 30
0.0
 10
138.7561440966092
 20
26.15825190183175
 30
0.0
 10
138.7412159276843
 20
26.09393848234843
 30
0.0
 10
138.7228436028608
 20
26.01089209728309
 30
0.0
 10
138.6981547747214
 20
25.94278817271446
 30
0.0
 10
138.6939373180302
 20
25.93115435393832
 30
0.0
  0
SPLINE
  5
13A
330
1F
100
AcDbEntity
  8
1
 62
     4
420
    65535
100
AcDbSpline
210
0.0
220
0.0
230
1.0
 70
     8
 71
     3
 72
    10
 73
     6
 74
     0
 42
0.000000001
 43
0.00000001
 40
0.0
 40
0.0
 40
0.0
 40
0.0
 40
0.5
 40
0.5
 40
1.0
 40
1.0
 40
1.0
 40
1.0
 10
137.5816667666925
 20
27.6929772046864
 30
0.0
 10
137.773822043289
 20
27.65554943544916
 30
0.0
 10
137.9551188656404
 20
27.55329354890479
 30
0.0
 10
138.2221753813113
 20
27.25339084974493
 30
0.0
 10
138.3057127620676
 20
27.05857598925456
 30
0.0
 10
138.3255872392276
 20
26.85804978558681
 30
0.0
  0
SPLINE
  5
13B
330
1F
100
AcDbEntity
  8
1
 62
     4
420
    65535
100
AcDbSpline
210
0.0
220
0.0
230
1.0
 70
     8
 71
     3
 72
    12
 73
     8
 74
     0
 42
0.000000001
 43
0.00000001
 40
0.0
 40
0.0
 40
0.0
 40
0.0
 40
0.2401700238808879
 40
0.5052847043581816
 40
0.7308931054672704
 40
0.9340079188735259
 40
1.0
 40
1.0
 40
1.0
 40
1.0
 10
136.3087993422848
 20
28.3002934207966
 30
0.0
 10
136.2798629653545
 20
28.28723122428786
 30
0.0
 10
136.2189848073473
 20
28.25975015902192
 30
0.0
 10
136.1498847690077
 20
28.23034169946199
 30
0.0
 10
136.1159319194076
 20
28.21797198590089
 30
0.0
 10
136.109770981701
 20
28.21785907732644
 30
0.0
 10
136.1205944279281
 20
28.224305223714
 30
0.0
 10
136.1232486213212
 20
28.22588598817602
 30
0.0
  0
SPLINE
  5
13C
330
1F
100
AcDbEntity
  8
1
 62
     4
420
    65535
100
AcDbSpline
210
0.0
220
0.0
230
1.0
 70
     8
 71
     3
 72
     8
 73
     4
 74
     0
 42
0.000000001
 43
0.00000001
 40
0.0
 40
0.0
 40
0.0
 40
0.0
 40
1.0
 40
1.0
 40
1.0
 40
1.0
 10
136.1381455832152
 20
28.23500194953824
 30
0.0
 10
136.142324695392
 20
28.2373354068618
 30
0.0
 10
136.146977396223
 20
28.23987945432712
 30
0.0
 10
136.1520764633865
 20
28.24262198701638
 30
0.0
  0
LINE
  5
13D
330
1F
100
AcDbEntity
  8
1
 62
     4
420
    65535
100
AcDbLine
 10
136.2045182142
 20
28.2695351051
 30
0.0
 11
136.3111653254
 21
28.3018370539
 31
0.0
  0
SPLINE
  5
13E
330
1F
100
AcDbEntity
  8
1
 62
     4
420
    65535
100
AcDbSpline
210
0.0
220
0.0
230
1.0
 70
     8
 71
     3
 72
     8
 73
     4
 74
     0
 42
0.000000001
 43
0.00000001
 40
0.0
 40
0.0
 40
0.0
 40
0.0
 40
1.0
 40
1.0
 40
1.0
 40
1.0
 10
136.1520763177477
 20
28.24262190774041
 30
0.0
 10
136.1656662847396
 20
28.24993127060358
 30
0.0
 10
136.1840686359556
 20
28.25929601260803
 30
0.0
 10
136.2045182141548
 20
28.26953510510455
 30
0.0
  0
LINE
  5
13F
330
1F
100
AcDbEntity
  8
1
 62
     4
420
    65535
100
AcDbLine
 10
1.0027086782
 20
24.9980059343
 30
0.0
 11
1.0027086782
 21
-0.0019940657
 31
0.0
  0
LINE
  5
140
330
1F
100
AcDbEntity
  8
1
 62
     4
420
    65535
100
AcDbLine
 10
111.0027086782
 20
24.9980059343
 30
0.0
 11
1.0027086782
 21
24.9980059343
 31
0.0
  0
LINE
  5
141
330
1F
100
AcDbEntity
  8
1
 62
     4
420
    65535
100
AcDbLine
 10
111.0027086782
 20
-0.0019940657
 30
0.0
 11
1.0027086782
 21
-0.0019940657
 31
0.0
  0
LINE
  5
142
330
1F
100
AcDbEntity
  8
1
 62
     4
420
    65535
100
AcDbLine
 10
0.0027086782
 20
0.9980059343
 30
0.0
 11
0.0027086782
 21
23.9980059343
 31
0.0
  0
LINE
  5
143
330
1F
100
AcDbEntity
  8
1
 62
     4
420
    65535
100
AcDbLine
 10
0.0027086782
 20
23.9980059343
 30
0.0
 11
1.0027086782
 21
24.9980059343
 31
0.0
  0
LINE
  5
144
330
1F
100
AcDbEntity
  8
1
 62
     4
420
    65535
100
AcDbLine
 10
0.0027086782
 20
0.9980059343
 30
0.0
 11
1.0027086782
 21
-0.0019940657
 31
0.0
  0
LINE
  5
145
330
1F
100
AcDbEntity
  8
1
 62
     4
420
    65535
100
AcDbLine
 10
138.6983177702
 20
22.0411299341
 30
0.0
 11
138.702022805
 21
22.0422521384
 31
0.0
  0
ARC
  5
146
330
1F
100
AcDbEntity
  8
1
 62
     4
420
    65535
100
AcDbCircle
 10
123.0908080262
 20
14.5987841484
 30
0.0
 40
0.181704538417596
100
AcDbArc
 50
218.4630799118
 51
298.3213789447
  0
LINE
  5
147
330
1F
100
AcDbEntity
  8
1
 62
     4
420
    65535
100
AcDbLine
 10
124.2664233048
 20
13.273836834
 30
0.0
 11
124.4973164387
 21
13.4105919407
 31
0.0
  0
ARC
  5
148
330
1F
100
AcDbEntity
  8
1
 62
     4
420
    65535
100
AcDbCircle
 10
134.1137438323
 20
18.0865629443
 30
0.0
 40
0.8194816022709045
100
AcDbArc
 50
344.5258552015
 51
48.5335231913
  0
ELLIPSE
  5
149
330
1F
100
AcDbEntity
  8
1
 62
     4
420
    65535
100
AcDbEllipse
 10
131.5356889874
 20
21.4966670874
 30
0.0
 11
-1.928270010194552
 21
5.126995637835172
 31
0.0
210
0.0
220
0.0
230
1.0
 40
0.6093786274
 41
3.405814154152878
 42
3.501900701662766
  0
ARC
  5
14A
330
1F
100
AcDbEntity
  8
1
 62
     4
420
    65535
100
AcDbCircle
 10
123.0780100372
 20
14.6055958617
 30
0.0
 40
0.1940707829075049
100
AcDbArc
 50
221.2231785063
 51
286.4806631847
  0
ARC
  5
14B
330
1F
100
AcDbEntity
  8
1
 62
     4
420
    65535
100
AcDbCircle
 10
137.5479127942
 20
25.2805584217
 30
0.0
 40
0.8195780289605461
100
AcDbArc
 50
344.5427316774
 51
48.531612245
  0
LWPOLYLINE
  5
14C
330
1F
100
AcDbEntity
  8
1
 62
     4
420
    65535
100
AcDbPolyline
 90
        3
 70
   128
 43
0.0
 10
122.1373976727
 20
20.4280868814
 10
122.1430919387
 20
20.4308697002
 10
122.1576802319
 20
20.4289609738
  0
ARC
  5
14D
330
1F
100
AcDbEntity
  8
1
 62
     4
420
    65535
100
AcDbCircle
 10
138.5439679948
 20
25.9196050148
 30
0.0
 40
0.9635189370997638
100
AcDbArc
 50
75.9614754628
 51
103.0998735421
  0
ELLIPSE
  5
14E
330
1F
100
AcDbEntity
  8
1
 62
     4
420
    65535
100
AcDbEllipse
 10
135.8948099647
 20
24.2609374375
 30
0.0
 11
2.885690381630298
 21
2.535934254124375
 31
0.0
210
0.0
220
0.0
230
1.0
 40
0.0821826233
 41
5.502009406248582
 42
6.228382807068819
  0
DIMENSION
  5
14F
330
1F
100
AcDbEntity
  8
2
  6
SLD-Durchgehend
 62
     7
370
    15
100
AcDbDimension
  2
_D
 10
0.0027086781999941
 20
44.0066850922
 30
0.0
 11
75.0027086782
 21
44.0066850922
 31
0.0
 70
   160
  1
<>
 71
     2
 42
150.0
  3
SLDDIMSTYLE0
100
AcDbAlignedDimension
 13
150.0027086782
 23
31.9980059343
 33
0.0
 14
0.0027086782
 24
-0.0019940657
 34
0.0
100
AcDbRotatedDimension
  0
DIMENSION
  5
15B
330
1F
100
AcDbEntity
  8
2
  6
SLD-Durchgehend
 62
     7
370
    15
100
AcDbDimension
  2
_D_1
 10
-5.997291321800001
 20
-0.0019940656999999
 30
0.0
 11
-5.9972913218
 21
12.4980059343
 31
0.0
 70
   160
  1
<>
 71
     2
 42
25.0
  3
SLDDIMSTYLE0
100
AcDbAlignedDimension
 13
1.0027086782
 23
24.9980059343
 33
0.0
 14
1.0027086782
 24
-0.0019940657
 34
0.0
 50
90.0
100
AcDbRotatedDimension
  0
DIMENSION
  5
165
330
1F
100
AcDbEntity
  8
2
  6
SLD-Durchgehend
 62
     7
370
    15
100
AcDbDimension
  2
_D_2
 10
156.0065197036
 20
-0.0019940656999999
 30
0.0
 11
156.0065197036
 21
15.9980059343
 31
0.0
 70
   160
  1
<>
 71
     2
 42
32.0
  3
SLDDIMSTYLE0
100
AcDbAlignedDimension
 13
150.0027086782
 23
31.9980059343
 33
0.0
 14
150.0027086782
 24
-0.0019940657
 34
0.0
 50
90.0
100
AcDbRotatedDimension
  0
DIMENSION
  5
16F
330
1F
100
AcDbEntity
  8
2
  6
SLD-Durchgehend
 62
     7
370
    15
100
AcDbDimension
  2
_D_3
 10
150.0027086782
 20
38.0066850922
 30
0.0
 11
130.5027086782
 21
38.0066850922
 31
0.0
 70
   160
  1
<>
 71
     2
 42
39.00000000000001
  3
SLDDIMSTYLE0
100
AcDbAlignedDimension
 13
111.0027086782
 23
-0.0019940657
 33
0.0
 14
150.0027086782
 24
31.9980059343
 34
0.0
100
AcDbRotatedDimension
  0
ENDSEC
  0
SECTION
  2
OBJECTS
  0
DICTIONARY
  5
C
330
0
100
AcDbDictionary
281
     1
  3
ACAD_DETAILVIEWSTYLE
350
195
  3
ACAD_GROUP
350
D
  3
ACAD_IMAGE_VARS
350
1B3
  3
ACAD_LAYOUT
350
1A
  3
ACAD_MATERIAL
350
43
  3
ACAD_MLEADERSTYLE
350
194
  3
ACAD_MLINESTYLE
350
17
  3
ACAD_PLOTSETTINGS
350
19
  3
ACAD_PLOTSTYLENAME
350
E
  3
ACAD_SCALELIST
350
47
  3
ACAD_SECTIONVIEWSTYLE
350
196
  3
ACAD_TABLESTYLE
350
193
  3
ACDB_RECOMPOSE_DATA
350
1C4
  3
AcDbVariableDictionary
350
191
  3
APPDATA
350
1B1
  0
DICTIONARY
  5
195
102
{ACAD_REACTORS
330
C
102
}
330
C
100
AcDbDictionary
281
     1
  0
DICTIONARY
  5
D
102
{ACAD_REACTORS
330
C
102
}
330
C
100
AcDbDictionary
281
     1
  0
RASTERVARIABLES
  5
1B3
102
{ACAD_REACTORS
330
C
102
}
330
C
100
AcDbRasterVariables
 90
        0
 70
     1
 71
     1
 72
     1
  0
DICTIONARY
  5
1A
102
{ACAD_REACTORS
330
C
102
}
330
C
100
AcDbDictionary
281
     1
  3
Layout1
350
1E
  3
Layout2
350
26
  3
Model
350
22
  0
DICTIONARY
  5
43
102
{ACAD_REACTORS
330
C
102
}
330
C
100
AcDbDictionary
281
     1
  3
ByBlock
350
45
  3
ByLayer
350
44
  3
Global
350
46
  0
DICTIONARY
  5
194
102
{ACAD_REACTORS
330
C
102
}
330
C
100
AcDbDictionary
281
     1
  0
DICTIONARY
  5
17
102
{ACAD_REACTORS
330
C
102
}
330
C
100
AcDbDictionary
281
     1
  3
Standard
350
18
  0
DICTIONARY
  5
19
102
{ACAD_REACTORS
330
C
102
}
330
C
100
AcDbDictionary
281
     1
  0
ACDBDICTIONARYWDFLT
  5
E
102
{ACAD_REACTORS
330
C
102
}
330
C
100
AcDbDictionary
281
     1
  3
Normal
350
F
100
AcDbDictionaryWithDefault
340
F
  0
DICTIONARY
  5
47
102
{ACAD_REACTORS
330
C
102
}
330
C
100
AcDbDictionary
281
     1
  3
A0
350
48
  3
A1
350
49
  3
A2
350
4A
  3
A3
350
4B
  3
A4
350
4C
  3
A5
350
4D
  3
A6
350
4E
  3
A7
350
4F
  3
A8
350
50
  3
A9
350
51
  3
B0
350
52
  3
B1
350
53
  3
B2
350
54
  3
B3
350
55
  3
B4
350
56
  3
B5
350
57
  3
B6
350
58
  3
B7
350
59
  3
B8
350
5A
  3
B9
350
5B
  3
C0
350
5C
  3
C1
350
5D
  3
C2
350
5E
  3
C3
350
5F
  3
C4
350
60
  3
C5
350
61
  3
C6
350
62
  3
C7
350
63
  3
C8
350
64
  3
C9
350
65
  3
D0
350
66
  3
D1
350
67
  3
D2
350
68
  0
DICTIONARY
  5
196
102
{ACAD_REACTORS
330
C
102
}
330
C
100
AcDbDictionary
281
     1
  0
DICTIONARY
  5
193
102
{ACAD_REACTORS
330
C
102
}
330
C
100
AcDbDictionary
281
     1
  3
Standard
350
1B0
  0
XRECORD
  5
1C4
102
{ACAD_REACTORS
330
C
102
}
330
C
100
AcDbXrecord
280
     1
 90
        1
330
1B0
  0
DICTIONARY
  5
191
102
{ACAD_REACTORS
330
C
102
}
330
C
100
AcDbDictionary
281
     1
  3
CANNOSCALE
350
192
  3
CTABLESTYLE
350
1C5
  3
MSLTSCALE
350
1C6
  3
XCLIPFRAME
350
1C7
  0
DICTIONARY
  5
1B1
102
{ACAD_REACTORS
330
C
102
}
330
C
100
AcDbDictionary
281
     1
  0
LAYOUT
  5
1E
102
{ACAD_REACTORS
330
1A
102
}
330
1A
100
AcDbPlotSettings
  1

  2
none_device
  4

  6

 40
0.0
 41
0.0
 42
0.0
 43
0.0
 44
0.0
 45
0.0
 46
0.0
 47
0.0
 48
0.0
 49
0.0
140
0.0
141
0.0
142
1.0
143
1.0
 70
   688
 72
     1
 73
     0
 74
     5
  7

 75
    16
 76
     0
 77
     2
 78
   300
147
1.0
148
0.0
149
0.0
100
AcDbLayout
  1
Layout1
 70
     1
 71
     1
 10
0.0
 20
0.0
 11
420.0
 21
297.0
 12
0.0
 22
0.0
 32
0.0
 14
1.000000000000000E+20
 24
1.000000000000000E+20
 34
1.000000000000000E+20
 15
-1.000000000000000E+20
 25
-1.000000000000000E+20
 35
-1.000000000000000E+20
146
0.0
 13
0.0
 23
0.0
 33
0.0
 16
1.0
 26
0.0
 36
0.0
 17
0.0
 27
1.0
 37
0.0
 76
     0
330
1B
  0
LAYOUT
  5
26
102
{ACAD_REACTORS
330
1A
102
}
330
1A
100
AcDbPlotSettings
  1

  2
none_device
  4

  6

 40
0.0
 41
0.0
 42
0.0
 43
0.0
 44
0.0
 45
0.0
 46
0.0
 47
0.0
 48
0.0
 49
0.0
140
0.0
141
0.0
142
1.0
143
1.0
 70
   688
 72
     1
 73
     0
 74
     5
  7

 75
    16
 76
     0
 77
     2
 78
   300
147
1.0
148
0.0
149
0.0
100
AcDbLayout
  1
Layout2
 70
     1
 71
     2
 10
0.0
 20
0.0
 11
0.0
 21
0.0
 12
0.0
 22
0.0
 32
0.0
 14
0.0
 24
0.0
 34
0.0
 15
0.0
 25
0.0
 35
0.0
146
0.0
 13
0.0
 23
0.0
 33
0.0
 16
1.0
 26
0.0
 36
0.0
 17
0.0
 27
1.0
 37
0.0
 76
     0
330
23
  0
LAYOUT
  5
22
102
{ACAD_REACTORS
330
1A
102
}
330
1A
100
AcDbPlotSettings
  1

  2
none_device
  4
Letter_(8.50_x_11.00_Inches)
  6

 40
6.35
 41
6.35
 42
6.35000508
 43
6.35000508
 44
215.9
 45
279.4
 46
0.0
 47
0.0
 48
0.0
 49
0.0
140
0.0
141
0.0
142
1.0
143
1.0
 70
  1712
 72
     1
 73
     0
 74
     0
  7

 75
     0
 76
     0
 77
     2
 78
   300
147
1.0
148
0.0
149
0.0
100
AcDbLayout
  1
Model
 70
     1
 71
     0
 10
0.0
 20
0.0
 11
297.0
 21
210.0
 12
0.0
 22
0.0
 32
0.0
 14
0.0
 24
0.0
 34
0.0
 15
297.0
 25
210.0
 35
0.0
146
0.0
 13
0.0
 23
0.0
 33
0.0
 16
1.0
 26
0.0
 36
0.0
 17
0.0
 27
1.0
 37
0.0
 76
     0
330
1F
331
29
  0
MATERIAL
  5
45
102
{ACAD_REACTORS
330
43
102
}
330
43
100
AcDbMaterial
  1
ByBlock
  0
MATERIAL
  5
44
102
{ACAD_REACTORS
330
43
102
}
330
43
100
AcDbMaterial
  1
ByLayer
  0
MATERIAL
  5
46
102
{ACAD_REACTORS
330
43
102
}
330
43
100
AcDbMaterial
  1
Global
  0
MLINESTYLE
  5
18
102
{ACAD_REACTORS
330
17
102
}
330
17
100
AcDbMlineStyle
  2
Standard
 70
     0
  3

 62
   256
 51
90.0
 52
90.0
 71
     2
 49
0.5
 62
   256
  6
BYLAYER
 49
-0.5
 62
   256
  6
BYLAYER
  0
ACDBPLACEHOLDER
  5
F
102
{ACAD_REACTORS
330
E
102
}
330
E
  0
SCALE
  5
48
102
{ACAD_REACTORS
330
47
102
}
330
47
100
AcDbScale
 70
     0
300
1:1
140
1.0
141
1.0
290
     1
  0
SCALE
  5
49
102
{ACAD_REACTORS
330
47
102
}
330
47
100
AcDbScale
 70
     0
300
1:2
140
1.0
141
2.0
290
     0
  0
SCALE
  5
4A
102
{ACAD_REACTORS
330
47
102
}
330
47
100
AcDbScale
 70
     0
300
1:4
140
1.0
141
4.0
290
     0
  0
SCALE
  5
4B
102
{ACAD_REACTORS
330
47
102
}
330
47
100
AcDbScale
 70
     0
300
1:5
140
1.0
141
5.0
290
     0
  0
SCALE
  5
4C
102
{ACAD_REACTORS
330
47
102
}
330
47
100
AcDbScale
 70
     0
300
1:8
140
1.0
141
8.0
290
     0
  0
SCALE
  5
4D
102
{ACAD_REACTORS
330
47
102
}
330
47
100
AcDbScale
 70
     0
300
1:10
140
1.0
141
10.0
290
     0
  0
SCALE
  5
4E
102
{ACAD_REACTORS
330
47
102
}
330
47
100
AcDbScale
 70
     0
300
1:16
140
1.0
141
16.0
290
     0
  0
SCALE
  5
4F
102
{ACAD_REACTORS
330
47
102
}
330
47
100
AcDbScale
 70
     0
300
1:20
140
1.0
141
20.0
290
     0
  0
SCALE
  5
50
102
{ACAD_REACTORS
330
47
102
}
330
47
100
AcDbScale
 70
     0
300
1:30
140
1.0
141
30.0
290
     0
  0
SCALE
  5
51
102
{ACAD_REACTORS
330
47
102
}
330
47
100
AcDbScale
 70
     0
300
1:40
140
1.0
141
40.0
290
     0
  0
SCALE
  5
52
102
{ACAD_REACTORS
330
47
102
}
330
47
100
AcDbScale
 70
     0
300
1:50
140
1.0
141
50.0
290
     0
  0
SCALE
  5
53
102
{ACAD_REACTORS
330
47
102
}
330
47
100
AcDbScale
 70
     0
300
1:100
140
1.0
141
100.0
290
     0
  0
SCALE
  5
54
102
{ACAD_REACTORS
330
47
102
}
330
47
100
AcDbScale
 70
     0
300
2:1
140
2.0
141
1.0
290
     0
  0
SCALE
  5
55
102
{ACAD_REACTORS
330
47
102
}
330
47
100
AcDbScale
 70
     0
300
4:1
140
4.0
141
1.0
290
     0
  0
SCALE
  5
56
102
{ACAD_REACTORS
330
47
102
}
330
47
100
AcDbScale
 70
     0
300
8:1
140
8.0
141
1.0
290
     0
  0
SCALE
  5
57
102
{ACAD_REACTORS
330
47
102
}
330
47
100
AcDbScale
 70
     0
300
10:1
140
10.0
141
1.0
290
     0
  0
SCALE
  5
58
102
{ACAD_REACTORS
330
47
102
}
330
47
100
AcDbScale
 70
     0
300
100:1
140
100.0
141
1.0
290
     0
  0
SCALE
  5
59
102
{ACAD_REACTORS
330
47
102
}
330
47
100
AcDbScale
 70
     0
300
1/128" = 1'-0"
140
0.0078125
141
12.0
290
     0
  0
SCALE
  5
5A
102
{ACAD_REACTORS
330
47
102
}
330
47
100
AcDbScale
 70
     0
300
1/64" = 1'-0"
140
0.015625
141
12.0
290
     0
  0
SCALE
  5
5B
102
{ACAD_REACTORS
330
47
102
}
330
47
100
AcDbScale
 70
     0
300
1/32" = 1'-0"
140
0.03125
141
12.0
290
     0
  0
SCALE
  5
5C
102
{ACAD_REACTORS
330
47
102
}
330
47
100
AcDbScale
 70
     0
300
1/16" = 1'-0"
140
0.0625
141
12.0
290
     0
  0
SCALE
  5
5D
102
{ACAD_REACTORS
330
47
102
}
330
47
100
AcDbScale
 70
     0
300
3/32" = 1'-0"
140
0.09375
141
12.0
290
     0
  0
SCALE
  5
5E
102
{ACAD_REACTORS
330
47
102
}
330
47
100
AcDbScale
 70
     0
300
1/8" = 1'-0"
140
0.125
141
12.0
290
     0
  0
SCALE
  5
5F
102
{ACAD_REACTORS
330
47
102
}
330
47
100
AcDbScale
 70
     0
300
3/16" = 1'-0"
140
0.1875
141
12.0
290
     0
  0
SCALE
  5
60
102
{ACAD_REACTORS
330
47
102
}
330
47
100
AcDbScale
 70
     0
300
1/4" = 1'-0"
140
0.25
141
12.0
290
     0
  0
SCALE
  5
61
102
{ACAD_REACTORS
330
47
102
}
330
47
100
AcDbScale
 70
     0
300
3/8" = 1'-0"
140
0.375
141
12.0
290
     0
  0
SCALE
  5
62
102
{ACAD_REACTORS
330
47
102
}
330
47
100
AcDbScale
 70
     0
300
1/2" = 1'-0"
140
0.5
141
12.0
290
     0
  0
SCALE
  5
63
102
{ACAD_REACTORS
330
47
102
}
330
47
100
AcDbScale
 70
     0
300
3/4" = 1'-0"
140
0.75
141
12.0
290
     0
  0
SCALE
  5
64
102
{ACAD_REACTORS
330
47
102
}
330
47
100
AcDbScale
 70
     0
300
1" = 1'-0"
140
1.0
141
12.0
290
     0
  0
SCALE
  5
65
102
{ACAD_REACTORS
330
47
102
}
330
47
100
AcDbScale
 70
     0
300
1-1/2" = 1'-0"
140
1.5
141
12.0
290
     0
  0
SCALE
  5
66
102
{ACAD_REACTORS
330
47
102
}
330
47
100
AcDbScale
 70
     0
300
3" = 1'-0"
140
3.0
141
12.0
290
     0
  0
SCALE
  5
67
102
{ACAD_REACTORS
330
47
102
}
330
47
100
AcDbScale
 70
     0
300
6" = 1'-0"
140
6.0
141
12.0
290
     0
  0
SCALE
  5
68
102
{ACAD_REACTORS
330
47
102
}
330
47
100
AcDbScale
 70
     0
300
1'-0" = 1'-0"
140
12.0
141
12.0
290
     0
  0
TABLESTYLE
  5
1B0
102
{ACAD_REACTORS
330
193
102
}
102
{ACAD_XDICTIONARY
360
1C1
102
}
330
193
100
AcDbTableStyle
  3
Standard
 70
     0
 71
     0
 40
0.06
 41
0.06
280
     0
281
     0
  7
Standard
140
4.5
170
     2
 62
     0
 63
   257
283
     0
274
    -2
284
     1
 64
     0
275
    -2
285
     1
 65
     0
276
    -2
286
     1
 66
     0
277
    -2
287
     1
 67
     0
278
    -2
288
     1
 68
     0
279
    -2
289
     1
 69
     0
  7
Standard
140
6.0
170
     5
 62
     0
 63
   257
283
     0
274
    -2
284
     1
 64
     0
275
    -2
285
     1
 65
     0
276
    -2
286
     1
 66
     0
277
    -2
287
     1
 67
     0
278
    -2
288
     1
 68
     0
279
    -2
289
     1
 69
     0
  7
Standard
140
4.5
170
     5
 62
     0
 63
   257
283
     0
274
    -2
284
     1
 64
     0
275
    -2
285
     1
 65
     0
276
    -2
286
     1
 66
     0
277
    -2
287
     1
 67
     0
278
    -2
288
     1
 68
     0
279
    -2
289
     1
 69
     0
  0
DICTIONARYVAR
  5
192
102
{ACAD_REACTORS
330
191
102
}
330
191
100
DictionaryVariables
280
     0
  1
1:1
  0
DICTIONARYVAR
  5
1C5
102
{ACAD_REACTORS
330
191
102
}
330
191
100
DictionaryVariables
280
     0
  1
Standard
  0
DICTIONARYVAR
  5
1C6
102
{ACAD_REACTORS
330
191
102
}
330
191
100
DictionaryVariables
280
     0
  1
0
  0
DICTIONARYVAR
  5
1C7
102
{ACAD_REACTORS
330
191
102
}
330
191
100
DictionaryVariables
280
     0
  1
0
  0
DICTIONARY
  5
1C1
330
1B0
100
AcDbDictionary
280
     1
281
     1
  3
ACAD_ROUNDTRIP_2008_TABLESTYLE_CELLSTYLEMAP
360
1C3
  3
ACAD_XREC_ROUNDTRIP
360
1C2
  0
CELLSTYLEMAP
  5
1C3
102
{ACAD_REACTORS
330
1C1
102
}
330
1C1
100
AcDbCellStyleMap
 90
        3
300
CELLSTYLE
  1
TABLEFORMAT_BEGIN
 90
        5
170
     1
 91
        0
 92
        0
 62
   257
 93
        1
300
CONTENTFORMAT
  1
CONTENTFORMAT_BEGIN
 90
        0
 91
        0
 92
        4
 93
        0
300

 40
0.0
140
1.0
 94
        5
 62
     0
340
11
144
6.0
309
CONTENTFORMAT_END
171
     1
301
MARGIN
  1
CELLMARGIN_BEGIN
 40
1.5
 40
1.5
 40
1.5
 40
1.5
 40
1.5
 40
1.5
309
CELLMARGIN_END
 94
        6
 95
        1
302
GRIDFORMAT
  1
GRIDFORMAT_BEGIN
 90
        0
 91
        1
 62
     0
 92
       -2
340
14
 93
        0
 40
0.045
309
GRIDFORMAT_END
 95
        2
302
GRIDFORMAT
  1
GRIDFORMAT_BEGIN
 90
        0
 91
        1
 62
     0
 92
       -2
340
14
 93
        0
 40
0.045
309
GRIDFORMAT_END
 95
        4
302
GRIDFORMAT
  1
GRIDFORMAT_BEGIN
 90
        0
 91
        1
 62
     0
 92
       -2
340
14
 93
        0
 40
0.045
309
GRIDFORMAT_END
 95
        8
302
GRIDFORMAT
  1
GRIDFORMAT_BEGIN
 90
        0
 91
        1
 62
     0
 92
       -2
340
14
 93
        0
 40
0.045
309
GRIDFORMAT_END
 95
       16
302
GRIDFORMAT
  1
GRIDFORMAT_BEGIN
 90
        0
 91
        1
 62
     0
 92
       -2
340
14
 93
        0
 40
0.045
309
GRIDFORMAT_END
 95
       32
302
GRIDFORMAT
  1
GRIDFORMAT_BEGIN
 90
        0
 91
        1
 62
     0
 92
       -2
340
14
 93
        0
 40
0.045
309
GRIDFORMAT_END
309
TABLEFORMAT_END
  1
CELLSTYLE_BEGIN
 90
        1
 91
        1
300
_TITLE
309
CELLSTYLE_END
300
CELLSTYLE
  1
TABLEFORMAT_BEGIN
 90
        5
170
     1
 91
        0
 92
        0
 62
   257
 93
        1
300
CONTENTFORMAT
  1
CONTENTFORMAT_BEGIN
 90
        0
 91
        0
 92
        4
 93
        0
300

 40
0.0
140
1.0
 94
        5
 62
     0
340
11
144
4.5
309
CONTENTFORMAT_END
171
     1
301
MARGIN
  1
CELLMARGIN_BEGIN
 40
1.5
 40
1.5
 40
1.5
 40
1.5
 40
1.5
 40
1.5
309
CELLMARGIN_END
 94
        6
 95
        1
302
GRIDFORMAT
  1
GRIDFORMAT_BEGIN
 90
        0
 91
        1
 62
     0
 92
       -2
340
14
 93
        0
 40
0.045
309
GRIDFORMAT_END
 95
        2
302
GRIDFORMAT
  1
GRIDFORMAT_BEGIN
 90
        0
 91
        1
 62
     0
 92
       -2
340
14
 93
        0
 40
0.045
309
GRIDFORMAT_END
 95
        4
302
GRIDFORMAT
  1
GRIDFORMAT_BEGIN
 90
        0
 91
        1
 62
     0
 92
       -2
340
14
 93
        0
 40
0.045
309
GRIDFORMAT_END
 95
        8
302
GRIDFORMAT
  1
GRIDFORMAT_BEGIN
 90
        0
 91
        1
 62
     0
 92
       -2
340
14
 93
        0
 40
0.045
309
GRIDFORMAT_END
 95
       16
302
GRIDFORMAT
  1
GRIDFORMAT_BEGIN
 90
        0
 91
        1
 62
     0
 92
       -2
340
14
 93
        0
 40
0.045
309
GRIDFORMAT_END
 95
       32
302
GRIDFORMAT
  1
GRIDFORMAT_BEGIN
 90
        0
 91
        1
 62
     0
 92
       -2
340
14
 93
        0
 40
0.045
309
GRIDFORMAT_END
309
TABLEFORMAT_END
  1
CELLSTYLE_BEGIN
 90
        2
 91
        1
300
_HEADER
309
CELLSTYLE_END
300
CELLSTYLE
  1
TABLEFORMAT_BEGIN
 90
        5
170
     1
 91
        0
 92
        0
 62
   257
 93
        1
300
CONTENTFORMAT
  1
CONTENTFORMAT_BEGIN
 90
        0
 91
        0
 92
        4
 93
        0
300

 40
0.0
140
1.0
 94
        2
 62
     0
340
11
144
4.5
309
CONTENTFORMAT_END
171
     1
301
MARGIN
  1
CELLMARGIN_BEGIN
 40
1.5
 40
1.5
 40
1.5
 40
1.5
 40
1.5
 40
1.5
309
CELLMARGIN_END
 94
        6
 95
        1
302
GRIDFORMAT
  1
GRIDFORMAT_BEGIN
 90
        0
 91
        1
 62
     0
 92
       -2
340
14
 93
        0
 40
0.045
309
GRIDFORMAT_END
 95
        2
302
GRIDFORMAT
  1
GRIDFORMAT_BEGIN
 90
        0
 91
        1
 62
     0
 92
       -2
340
14
 93
        0
 40
0.045
309
GRIDFORMAT_END
 95
        4
302
GRIDFORMAT
  1
GRIDFORMAT_BEGIN
 90
        0
 91
        1
 62
     0
 92
       -2
340
14
 93
        0
 40
0.045
309
GRIDFORMAT_END
 95
        8
302
GRIDFORMAT
  1
GRIDFORMAT_BEGIN
 90
        0
 91
        1
 62
     0
 92
       -2
340
14
 93
        0
 40
0.045
309
GRIDFORMAT_END
 95
       16
302
GRIDFORMAT
  1
GRIDFORMAT_BEGIN
 90
        0
 91
        1
 62
     0
 92
       -2
340
14
 93
        0
 40
0.045
309
GRIDFORMAT_END
 95
       32
302
GRIDFORMAT
  1
GRIDFORMAT_BEGIN
 90
        0
 91
        1
 62
     0
 92
       -2
340
14
 93
        0
 40
0.045
309
GRIDFORMAT_END
309
TABLEFORMAT_END
  1
CELLSTYLE_BEGIN
 90
        3
 91
        2
300
_DATA
309
CELLSTYLE_END
  0
XRECORD
  5
1C2
102
{ACAD_REACTORS
330
1C1
102
}
330
1C1
100
AcDbXrecord
280
     1
102
ACAD_ROUNDTRIP_PRE2007_TABLESTYLE
 90
        4
 91
        0
  1

 92
        4
 93
        0
  2

 94
        4
 95
        0
  3

  0
ENDSEC
  0
EOF
