  0
SECTION
  2
HEADER
  9
$ACADVER
  1
AC1018
  9
$ACADMAINTVER
 70
     0
  9
$DWGCODEPAGE
  3
ANSI_1252
  9
$LASTSAVEDBY
  1
piechottad
  9
$INSBASE
 10
0.0
 20
0.0
 30
0.0
  9
$EXTMIN
 10
0.0
 20
0.0
 30
0.0
  9
$EXTMAX
 10
297.0
 20
210.0
 30
0.0
  9
$LIMMIN
 10
0.0
 20
0.0
  9
$LIMMAX
 10
297.0
 20
210.0
  9
$ORTHOMODE
 70
     0
  9
$REGENMODE
 70
     1
  9
$FILLMODE
 70
     1
  9
$QTEXTMODE
 70
     0
  9
$MIRRTEXT
 70
     1
  9
$LTSCALE
 40
1.0
  9
$ATTMODE
 70
     1
  9
$TEXTSIZE
 40
3.5
  9
$TRACEWID
 40
1.0
  9
$TEXTSTYLE
  7
Standard
  9
$CLAYER
  8
0
  9
$CELTYPE
  6
ByLayer
  9
$CECOLOR
 62
   256
  9
$CELTSCALE
 40
1.0
  9
$DISPSILH
 70
     0
  9
$DIMSCALE
 40
1.0
  9
$DIMASZ
 40
3.302
  9
$DIMEXO
 40
1.0
  9
$DIMDLI
 40
3.75
  9
$DIMRND
 40
0.0
  9
$DIMDLE
 40
0.0
  9
$DIMEXE
 40
1.0
  9
$DIMTP
 40
0.0
  9
$DIMTM
 40
0.0
  9
$DIMTXT
 40
3.5
  9
$DIMCEN
 40
2.5
  9
$DIMTSZ
 40
0.0
  9
$DIMTOL
 70
     0
  9
$DIMLIM
 70
     0
  9
$DIMTIH
 70
     1
  9
$DIMTOH
 70
     1
  9
$DIMSE1
 70
     0
  9
$DIMSE2
 70
     0
  9
$DIMTAD
 70
     1
  9
$DIMZIN
 70
     0
  9
$DIMBLK
  1

  9
$DIMASO
 70
     1
  9
$DIMSHO
 70
     1
  9
$DIMPOST
  1

  9
$DIMAPOST
  1

  9
$DIMALT
 70
     0
  9
$DIMALTD
 70
     3
  9
$DIMALTF
 40
0.0393700787
  9
$DIMLFAC
 40
1.0
  9
$DIMTOFL
 70
     1
  9
$DIMTVP
 40
0.0
  9
$DIMTIX
 70
     0
  9
$DIMSOXD
 70
     0
  9
$DIMSAH
 70
     0
  9
$DIMBLK1
  1

  9
$DIMBLK2
  1

  9
$DIMSTYLE
  2
ISO-25
  9
$DIMCLRD
 70
     0
  9
$DIMCLRE
 70
     0
  9
$DIMCLRT
 70
     0
  9
$DIMTFAC
 40
1.0
  9
$DIMGAP
 40
1.524
  9
$DIMJUST
 70
     0
  9
$DIMSD1
 70
     0
  9
$DIMSD2
 70
     0
  9
$DIMTOLJ
 70
     0
  9
$DIMTZIN
 70
     0
  9
$DIMALTZ
 70
     0
  9
$DIMALTTZ
 70
     0
  9
$DIMUPT
 70
     0
  9
$DIMDEC
 70
     2
  9
$DIMTDEC
 70
     2
  9
$DIMALTU
 70
     2
  9
$DIMALTTD
 70
     3
  9
$DIMTXSTY
  7
Standard
  9
$DIMAUNIT
 70
     0
  9
$DIMADEC
 70
     2
  9
$DIMALTRND
 40
0.0
  9
$DIMAZIN
 70
     0
  9
$DIMDSEP
 70
    44
  9
$DIMATFIT
 70
     3
  9
$DIMFRAC
 70
     0
  9
$DIMLDRBLK
  1

  9
$DIMLUNIT
 70
     2
  9
$DIMLWD
 70
    -2
  9
$DIMLWE
 70
    -2
  9
$DIMTMOVE
 70
     0
  9
$LUNITS
 70
     2
  9
$LUPREC
 70
     2
  9
$SKETCHINC
 40
1.0
  9
$FILLETRAD
 40
10.0
  9
$AUNITS
 70
     0
  9
$AUPREC
 70
     2
  9
$MENU
  1
.
  9
$ELEVATION
 40
0.0
  9
$PELEVATION
 40
0.0
  9
$THICKNESS
 40
0.0
  9
$LIMCHECK
 70
     0
  9
$CHAMFERA
 40
0.0
  9
$CHAMFERB
 40
0.0
  9
$CHAMFERC
 40
0.0
  9
$CHAMFERD
 40
0.0
  9
$SKPOLY
 70
     0
  9
$TDCREATE
 40
2456995.4926389
  9
$TDUCREATE
 40
2456995.450972234
  9
$TDUPDATE
 40
2457031.458273715
  9
$TDUUPDATE
 40
2457031.416607049
  9
$TDINDWG
 40
0.0006106944
  9
$TDUSRTIMER
 40
2457031.415996644
  9
$USRTIMER
 70
     1
  9
$ANGBASE
 50
0.0
  9
$ANGDIR
 70
     0
  9
$PDMODE
 70
     0
  9
$PDSIZE
 40
-1.0
  9
$PLINEWID
 40
0.0
  9
$SPLFRAME
 70
     0
  9
$SPLINETYPE
 70
     6
  9
$SPLINESEGS
 70
     8
  9
$HANDSEED
  5
1C9
  9
$SURFTAB1
 70
     6
  9
$SURFTAB2
 70
     6
  9
$SURFTYPE
 70
     6
  9
$SURFU
 70
     6
  9
$SURFV
 70
     6
  9
$UCSBASE
  2

  9
$UCSNAME
  2

  9
$UCSORG
 10
0.0
 20
0.0
 30
0.0
  9
$UCSXDIR
 10
1.0
 20
0.0
 30
0.0
  9
$UCSYDIR
 10
0.0
 20
1.0
 30
0.0
  9
$UCSORTHOREF
  2

  9
$UCSORTHOVIEW
 70
     0
  9
$UCSORGTOP
 10
0.0
 20
0.0
 30
0.0
  9
$UCSORGBOTTOM
 10
0.0
 20
0.0
 30
0.0
  9
$UCSORGLEFT
 10
0.0
 20
0.0
 30
0.0
  9
$UCSORGRIGHT
 10
0.0
 20
0.0
 30
0.0
  9
$UCSORGFRONT
 10
0.0
 20
0.0
 30
0.0
  9
$UCSORGBACK
 10
0.0
 20
0.0
 30
0.0
  9
$PUCSBASE
  2

  9
$PUCSNAME
  2

  9
$PUCSORG
 10
0.0
 20
0.0
 30
0.0
  9
$PUCSXDIR
 10
1.0
 20
0.0
 30
0.0
  9
$PUCSYDIR
 10
0.0
 20
1.0
 30
0.0
  9
$PUCSORTHOREF
  2

  9
$PUCSORTHOVIEW
 70
     0
  9
$PUCSORGTOP
 10
0.0
 20
0.0
 30
0.0
  9
$PUCSORGBOTTOM
 10
0.0
 20
0.0
 30
0.0
  9
$PUCSORGLEFT
 10
0.0
 20
0.0
 30
0.0
  9
$PUCSORGRIGHT
 10
0.0
 20
0.0
 30
0.0
  9
$PUCSORGFRONT
 10
0.0
 20
0.0
 30
0.0
  9
$PUCSORGBACK
 10
0.0
 20
0.0
 30
0.0
  9
$USERI1
 70
     0
  9
$USERI2
 70
     0
  9
$USERI3
 70
     0
  9
$USERI4
 70
     0
  9
$USERI5
 70
     0
  9
$USERR1
 40
0.0
  9
$USERR2
 40
0.0
  9
$USERR3
 40
0.0
  9
$USERR4
 40
0.0
  9
$USERR5
 40
0.0
  9
$WORLDVIEW
 70
     1
  9
$SHADEDGE
 70
     3
  9
$SHADEDIF
 70
    70
  9
$TILEMODE
 70
     1
  9
$MAXACTVP
 70
    64
  9
$PINSBASE
 10
0.0
 20
0.0
 30
0.0
  9
$PLIMCHECK
 70
     0
  9
$PEXTMIN
 10
1.000000000000000E+20
 20
1.000000000000000E+20
 30
1.000000000000000E+20
  9
$PEXTMAX
 10
-1.000000000000000E+20
 20
-1.000000000000000E+20
 30
-1.000000000000000E+20
  9
$PLIMMIN
 10
0.0
 20
0.0
  9
$PLIMMAX
 10
0.0
 20
0.0
  9
$UNITMODE
 70
     0
  9
$VISRETAIN
 70
     1
  9
$PLINEGEN
 70
     0
  9
$PSLTSCALE
 70
     1
  9
$TREEDEPTH
 70
  3020
  9
$CMLSTYLE
  2
Standard
  9
$CMLJUST
 70
     0
  9
$CMLSCALE
 40
20.0
  9
$PROXYGRAPHICS
 70
     1
  9
$MEASUREMENT
 70
     1
  9
$CELWEIGHT
370
    -1
  9
$ENDCAPS
280
     0
  9
$JOINSTYLE
280
     0
  9
$LWDISPLAY
290
     1
  9
$INSUNITS
 70
     4
  9
$HYPERLINKBASE
  1

  9
$STYLESHEET
  1

  9
$XEDIT
290
     1
  9
$CEPSNTYPE
380
     0
  9
$PSTYLEMODE
290
     1
  9
$FINGERPRINTGUID
  2
{15FA39AC-CA5D-4EC9-A71F-9321C6A2E2F5}
  9
$VERSIONGUID
  2
{FAEB1C32-E019-11D5-929B-00C0DF256EC4}
  9
$EXTNAMES
290
     1
  9
$PSVPSCALE
 40
0.0
  9
$OLESTARTUP
290
     0
  9
$SORTENTS
280
   127
  9
$INDEXCTL
280
     0
  9
$HIDETEXT
280
     1
  9
$XCLIPFRAME
290
     0
  9
$HALOGAP
280
     0
  9
$OBSCOLOR
 70
   257
  9
$OBSLTYPE
280
     0
  9
$INTERSECTIONDISPLAY
280
     0
  9
$INTERSECTIONCOLOR
 70
   257
  9
$DIMASSOC
280
     2
  9
$PROJECTNAME
  1

  0
ENDSEC
  0
SECTION
  2
CLASSES
  0
CLASS
  1
ACDBDICTIONARYWDFLT
  2
AcDbDictionaryWithDefault
  3
ObjectDBX Classes
 90
        0
 91
       85
280
     0
281
     0
  0
CLASS
  1
VISUALSTYLE
  2
AcDbVisualStyle
  3
ObjectDBX Classes
 90
     4095
 91
       85
280
     0
281
     0
  0
CLASS
  1
MATERIAL
  2
AcDbMaterial
  3
ObjectDBX Classes
 90
     1153
 91
       85
280
     0
281
     0
  0
CLASS
  1
SCALE
  2
AcDbScale
  3
ObjectDBX Classes
 90
     1153
 91
       85
280
     0
281
     0
  0
CLASS
  1
SUN
  2
AcDbSun
  3
SCENEOE
 90
     1153
 91
       85
280
     0
281
     0
  0
CLASS
  1
DICTIONARYVAR
  2
AcDbDictionaryVar
  3
ObjectDBX Classes
 90
        0
 91
       37
280
     0
281
     0
  0
CLASS
  1
TABLESTYLE
  2
AcDbTableStyle
  3
ObjectDBX Classes
 90
     4095
 91
       85
280
     0
281
     0
  0
CLASS
  1
RASTERVARIABLES
  2
AcDbRasterVariables
  3
ISM
 90
        0
 91
       85
280
     0
281
     0
  0
CLASS
  1
CELLSTYLEMAP
  2
AcDbCellStyleMap
  3
ObjectDBX Classes
 90
     1152
 91
        4
280
     0
281
     0
  0
ENDSEC
  0
SECTION
  2
TABLES
  0
TABLE
  2
VPORT
  5
8
330
0
100
AcDbSymbolTable
 70
     1
  0
VPORT
  5
29
330
8
100
AcDbSymbolTableRecord
100
AcDbViewportTableRecord
  2
*Active
 70
     0
 10
0.0
 20
0.0
 11
1.0
 21
1.0
 12
95.13934426229508
 22
24.95901639344262
 13
0.0
 23
0.0
 14
10.0
 24
10.0
 15
10.0
 25
10.0
 16
0.0
 26
0.0
 36
1.0
 17
0.0
 27
0.0
 37
0.0
 40
210.0
 41
1.497950819672131
 42
50.0
 43
0.0
 44
0.0
 50
0.0
 51
0.0
 71
    16
 72
  2000
 73
     1
 74
     3
 75
     0
 76
     0
 77
     0
 78
     0
281
     0
 65
     1
110
0.0
120
0.0
130
0.0
111
1.0
121
0.0
131
0.0
112
0.0
122
1.0
132
0.0
 79
     0
146
0.0
  0
ENDTAB
  0
TABLE
  2
LTYPE
  5
5
330
0
100
AcDbSymbolTable
 70
     8
  0
LTYPE
  5
14
330
5
100
AcDbSymbolTableRecord
100
AcDbLinetypeTableRecord
  2
ByBlock
 70
     0
  3

 72
    65
 73
     0
 40
0.0
  0
LTYPE
  5
15
330
5
100
AcDbSymbolTableRecord
100
AcDbLinetypeTableRecord
  2
ByLayer
 70
     0
  3

 72
    65
 73
     0
 40
0.0
  0
LTYPE
  5
16
330
5
100
AcDbSymbolTableRecord
100
AcDbLinetypeTableRecord
  2
Continuous
 70
     0
  3
Solid line
 72
    65
 73
     0
 40
0.0
  0
LTYPE
  5
6A
330
5
100
AcDbSymbolTableRecord
100
AcDbLinetypeTableRecord
  2
SLD-Durchgehend
 70
     0
  3
SolidWorks Line Style
 72
    65
 73
     0
 40
0.0
  0
LTYPE
  5
6B
330
5
100
AcDbSymbolTableRecord
100
AcDbLinetypeTableRecord
  2
SLD-Gestrichelt
 70
     0
  3
SolidWorks Line Style
 72
    65
 73
     2
 40
1.905
 49
1.27
 74
     0
 49
-0.635
 74
     0
  0
LTYPE
  5
6C
330
5
100
AcDbSymbolTableRecord
100
AcDbLinetypeTableRecord
  2
SLD-Phantom
 70
     0
  3
SolidWorks Line Style
 72
    65
 73
     6
 40
12.7
 49
6.35
 74
     0
 49
-1.27
 74
     0
 49
1.27
 74
     0
 49
-1.27
 74
     0
 49
1.27
 74
     0
 49
-1.27
 74
     0
  0
LTYPE
  5
6D
330
5
100
AcDbSymbolTableRecord
100
AcDbLinetypeTableRecord
  2
SLD-Kette
 70
     0
  3
SolidWorks Line Style
 72
    65
 73
     4
 40
10.16
 49
6.35
 74
     0
 49
-1.27
 74
     0
 49
1.27
 74
     0
 49
-1.27
 74
     0
  0
LTYPE
  5
6E
330
5
100
AcDbSymbolTableRecord
100
AcDbLinetypeTableRecord
  2
SLD-Punktstrich
 70
     0
  3
SolidWorks Line Style
 72
    65
 73
     4
 40
19.05
 49
15.24
 74
     0
 49
-1.27
 74
     0
 49
1.27
 74
     0
 49
-1.27
 74
     0
  0
LTYPE
  5
6F
330
5
100
AcDbSymbolTableRecord
100
AcDbLinetypeTableRecord
  2
SLD-Naht
 70
     0
  3
SolidWorks Line Style
 72
    65
 73
     2
 40
0.635
 49
0.0
 74
     0
 49
-0.635
 74
     0
  0
LTYPE
  5
70
330
5
100
AcDbSymbolTableRecord
100
AcDbLinetypeTableRecord
  2
SLD-Dicke-Dünne-Kette
 70
     0
  3
SolidWorks Line Style
 72
    65
 73
     4
 40
10.16
 49
6.35
 74
     0
 49
-1.27
 74
     0
 49
1.27
 74
     0
 49
-1.27
 74
     0
  0
ENDTAB
  0
TABLE
  2
LAYER
  5
2
330
0
100
AcDbSymbolTable
 70
     4
  0
LAYER
  5
10
330
2
100
AcDbSymbolTableRecord
100
AcDbLayerTableRecord
  2
0
 70
     0
 62
     7
  6
Continuous
370
    -3
390
F
  0
LAYER
  5
71
330
2
100
AcDbSymbolTableRecord
100
AcDbLayerTableRecord
  2
1
 70
     0
 62
     4
  6
Continuous
370
    -1
390
F
  0
LAYER
  5
72
330
2
100
AcDbSymbolTableRecord
100
AcDbLayerTableRecord
  2
2
 70
     0
 62
     7
  6
SLD-Durchgehend
370
    -3
390
F
  0
LAYER
  5
1B5
330
2
100
AcDbSymbolTableRecord
100
AcDbLayerTableRecord
  2
Defpoints
 70
     0
 62
     7
  6
Continuous
290
     0
370
    -3
390
F
  0
ENDTAB
  0
TABLE
  2
STYLE
  5
3
330
0
100
AcDbSymbolTable
 70
     2
  0
STYLE
  5
11
330
3
100
AcDbSymbolTableRecord
100
AcDbTextStyleTableRecord
  2
Standard
 70
     0
 40
0.0
 41
1.0
 50
0.0
 71
     0
 42
3.5
  3
txt
  4

  0
STYLE
  5
151
330
3
100
AcDbSymbolTableRecord
100
AcDbTextStyleTableRecord
  2
SLDTEXTSTYLE0
 70
     0
 40
0.0
 41
0.75
 50
0.0
 71
     0
 42
3.5
  3
TXT
  4

  0
ENDTAB
  0
TABLE
  2
VIEW
  5
6
330
0
100
AcDbSymbolTable
 70
     0
  0
ENDTAB
  0
TABLE
  2
UCS
  5
7
330
0
100
AcDbSymbolTable
 70
     0
  0
ENDTAB
  0
TABLE
  2
APPID
  5
9
330
0
100
AcDbSymbolTable
 70
     1
  0
APPID
  5
12
330
9
100
AcDbSymbolTableRecord
100
AcDbRegAppTableRecord
  2
ACAD
 70
     0
  0
ENDTAB
  0
TABLE
  2
DIMSTYLE
  5
A
330
0
100
AcDbSymbolTable
 70
     2
100
AcDbDimStyleTable
  0
DIMSTYLE
105
27
330
A
100
AcDbSymbolTableRecord
100
AcDbDimStyleTableRecord
  2
ISO-25
 70
     0
 41
2.5
 42
0.625
 43
3.75
 44
1.25
 73
     0
 74
     0
 77
     1
 78
     8
140
2.5
141
2.5
143
0.0393700787
147
0.625
171
     3
172
     1
178
     0
271
     2
272
     2
274
     3
278
    44
283
     0
284
     8
340
11
  0
DIMSTYLE
105
152
102
{ACAD_REACTORS
330
150
330
15C
330
166
330
170
102
}
330
A
100
AcDbSymbolTableRecord
100
AcDbDimStyleTableRecord
  2
SLDDIMSTYLE0
 70
     0
 41
3.302
 44
0.0
 45
0.000000001
 73
     0
 74
     0
 77
     1
 78
    12
 79
     3
140
3.5
147
0.875
173
     1
178
     0
271
     2
272
     2
276
     2
284
    12
340
151
  0
ENDTAB
  0
TABLE
  2
BLOCK_RECORD
  5
1
330
0
100
AcDbSymbolTable
 70
     7
  0
BLOCK_RECORD
  5
1F
330
1
100
AcDbSymbolTableRecord
100
AcDbBlockTableRecord
  2
*Model_Space
340
22
  0
BLOCK_RECORD
  5
1B
330
1
100
AcDbSymbolTableRecord
100
AcDbBlockTableRecord
  2
*Paper_Space
340
1E
  0
BLOCK_RECORD
  5
23
330
1
100
AcDbSymbolTableRecord
100
AcDbBlockTableRecord
  2
*Paper_Space0
340
26
  0
BLOCK_RECORD
  5
153
330
1
100
AcDbSymbolTableRecord
100
AcDbBlockTableRecord
  2
_D
340
0
  0
BLOCK_RECORD
  5
15D
330
1
100
AcDbSymbolTableRecord
100
AcDbBlockTableRecord
  2
_D_1
340
0
  0
BLOCK_RECORD
  5
167
330
1
100
AcDbSymbolTableRecord
100
AcDbBlockTableRecord
  2
_D_2
340
0
  0
BLOCK_RECORD
  5
171
330
1
100
AcDbSymbolTableRecord
100
AcDbBlockTableRecord
  2
_D_3
340
0
  0
BLOCK_RECORD
  5
17A
330
1
100
AcDbSymbolTableRecord
100
AcDbBlockTableRecord
  2
SW_CENTERMARKSYMBOL_0
340
0
102
{BLKREFS
331
0
102
}
  0
BLOCK_RECORD
  5
186
330
1
100
AcDbSymbolTableRecord
100
AcDbBlockTableRecord
  2
SW_CENTERMARKSYMBOL_1
340
0
102
{BLKREFS
331
0
102
}
  0
ENDTAB
  0
ENDSEC
  0
SECTION
  2
BLOCKS
  0
BLOCK
  5
20
330
1F
100
AcDbEntity
  8
0
100
AcDbBlockBegin
  2
*Model_Space
 70
     0
 10
0.0
 20
0.0
 30
0.0
  3
*Model_Space
  1
*Model_Space
  0
ENDBLK
  5
21
330
1F
100
AcDbEntity
  8
0
100
AcDbBlockEnd
  0
BLOCK
  5
1C
330
1B
100
AcDbEntity
 67
     1
  8
0
100
AcDbBlockBegin
  2
*Paper_Space
 70
     0
 10
0.0
 20
0.0
 30
0.0
  3
*Paper_Space
  1
*Paper_Space
  0
ENDBLK
  5
1D
330
1B
100
AcDbEntity
 67
     1
  8
0
100
AcDbBlockEnd
  0
BLOCK
  5
24
330
23
100
AcDbEntity
  8
0
100
AcDbBlockBegin
  2
*Paper_Space0
 70
     0
 10
0.0
 20
0.0
 30
0.0
  3
*Paper_Space0
  1
*Paper_Space0
  0
ENDBLK
  5
25
330
23
100
AcDbEntity
  8
0
100
AcDbBlockEnd
  0
BLOCK
  5
154
330
153
100
AcDbEntity
  8
0
100
AcDbBlockBegin
  2
_D
 70
     0
 10
0.0
 20
0.0
 30
0.0
  3
_D
  1
_D
  0
LINE
  5
156
330
153
100
AcDbEntity
  8
2
  6
SLD-Durchgehend
 62
     0
370
    -2
100
AcDbLine
 10
125.0027086782
 20
-24.9394940657
 30
0.0
 11
125.0027086782
 21
5.9980559343
 31
0.0
  0
LINE
  5
157
330
153
100
AcDbEntity
  8
2
  6
SLD-Durchgehend
 62
     0
370
    -2
100
AcDbLine
 10
0.0027086782
 20
0.0605059343
 30
0.0
 11
0.0027086782000012
 21
5.9980559343
 31
0.0
  0
LINE
  5
158
330
153
100
AcDbEntity
  8
2
  6
SLD-Durchgehend
 62
     0
370
    -2
100
AcDbLine
 10
121.7007086782
 20
5.9980559343
 30
0.0
 11
3.304708678200001
 21
5.9980559343
 31
0.0
  0
SOLID
  5
159
330
153
100
AcDbEntity
  8
2
 62
     0
100
AcDbTrace
 10
121.7007086782
 20
5.447722600966666
 30
0.0
 11
121.7007086782
 21
6.548389267633334
 31
0.0
 12
125.0027086782
 22
5.9980559343
 32
0.0
 13
125.0027086782
 23
5.9980559343
 33
0.0
  0
SOLID
  5
15A
330
153
100
AcDbEntity
  8
2
 62
     0
100
AcDbTrace
 10
3.304708678200001
 20
6.548389267633334
 30
0.0
 11
3.304708678200001
 21
5.447722600966666
 31
0.0
 12
0.0027086782000012
 22
5.9980559343
 32
0.0
 13
0.0027086782000012
 23
5.9980559343
 33
0.0
  0
MTEXT
  5
15B
330
153
100
AcDbEntity
  8
2
 62
     0
370
    15
100
AcDbMText
 10
62.5027086782
 20
10.3730559343
 30
0.0
 40
3.5
 41
0.0
 71
     2
 72
     1
  1
\A1;125
  7
SLDTEXTSTYLE0
 73
     1
 44
1.0
  0
POINT
  5
1B6
330
153
100
AcDbEntity
  8
Defpoints
 62
     0
100
AcDbPoint
 10
125.0027086782
 20
-25.0019940657
 30
0.0
  0
POINT
  5
1B7
330
153
100
AcDbEntity
  8
Defpoints
 62
     0
100
AcDbPoint
 10
0.0027086782
 20
-0.0019940657
 30
0.0
  0
POINT
  5
1B8
330
153
100
AcDbEntity
  8
Defpoints
 62
     0
100
AcDbPoint
 10
0.0027086782
 20
5.9980559343
 30
0.0
  0
ENDBLK
  5
155
330
153
100
AcDbEntity
  8
0
100
AcDbBlockEnd
  0
BLOCK
  5
15E
330
15D
100
AcDbEntity
  8
0
100
AcDbBlockBegin
  2
_D_1
 70
     0
 10
0.0
 20
0.0
 30
0.0
  3
_D_1
  1
_D_1
  0
LINE
  5
160
330
15D
100
AcDbEntity
  8
2
  6
SLD-Durchgehend
 62
     0
370
    -2
100
AcDbLine
 10
0.9402086782000001
 20
-20.0019940657
 30
0.0
 11
-5.997291321800001
 21
-20.0019940657
 31
0.0
  0
LINE
  5
161
330
15D
100
AcDbEntity
  8
2
  6
SLD-Durchgehend
 62
     0
370
    -2
100
AcDbLine
 10
0.9402086782000001
 20
-0.0019940657
 30
0.0
 11
-5.997291321799999
 21
-0.0019940656999999
 31
0.0
  0
LINE
  5
162
330
15D
100
AcDbEntity
  8
2
  6
SLD-Durchgehend
 62
     0
370
    -2
100
AcDbLine
 10
-5.997291321800001
 20
-16.6999940657
 30
0.0
 11
-5.997291321799999
 21
-3.3039940657
 31
0.0
  0
SOLID
  5
163
330
15D
100
AcDbEntity
  8
2
 62
     0
100
AcDbTrace
 10
-6.547624655133334
 20
-16.6999940657
 30
0.0
 11
-5.446957988466667
 21
-16.6999940657
 31
0.0
 12
-5.997291321800001
 22
-20.0019940657
 32
0.0
 13
-5.997291321800001
 23
-20.0019940657
 33
0.0
  0
SOLID
  5
164
330
15D
100
AcDbEntity
  8
2
 62
     0
100
AcDbTrace
 10
-5.446957988466665
 20
-3.3039940657
 30
0.0
 11
-6.547624655133332
 21
-3.3039940657
 31
0.0
 12
-5.997291321799999
 22
-0.0019940656999999
 32
0.0
 13
-5.997291321799999
 23
-0.0019940656999999
 33
0.0
  0
MTEXT
  5
165
330
15D
100
AcDbEntity
  8
2
 62
     0
370
    15
100
AcDbMText
 10
-10.3722913218
 20
-10.0019940657
 30
0.0
 40
3.5
 41
0.0
 71
     2
 72
     1
  1
\A1;20
  7
SLDTEXTSTYLE0
 11
4.440892098500626E-17
 21
1.0
 31
0.0
 73
     1
 44
1.0
  0
POINT
  5
1B9
330
15D
100
AcDbEntity
  8
Defpoints
 62
     0
100
AcDbPoint
 10
1.0027086782
 20
-20.0019940657
 30
0.0
  0
POINT
  5
1BA
330
15D
100
AcDbEntity
  8
Defpoints
 62
     0
100
AcDbPoint
 10
1.0027086782
 20
-0.0019940657
 30
0.0
  0
POINT
  5
1BB
330
15D
100
AcDbEntity
  8
Defpoints
 62
     0
100
AcDbPoint
 10
-5.9972913218
 20
-0.0019940656999996
 30
0.0
  0
ENDBLK
  5
15F
330
15D
100
AcDbEntity
  8
0
100
AcDbBlockEnd
  0
BLOCK
  5
168
330
167
100
AcDbEntity
  8
0
100
AcDbBlockBegin
  2
_D_2
 70
     0
 10
0.0
 20
0.0
 30
0.0
  3
_D_2
  1
_D_2
  0
LINE
  5
16A
330
167
100
AcDbEntity
  8
2
  6
SLD-Durchgehend
 62
     0
370
    -2
100
AcDbLine
 10
125.0652086782
 20
-25.0019940657
 30
0.0
 11
131.0065197036
 21
-25.0019940657
 31
0.0
  0
LINE
  5
16B
330
167
100
AcDbEntity
  8
2
  6
SLD-Durchgehend
 62
     0
370
    -2
100
AcDbLine
 10
125.0652086782
 20
-0.0019940657
 30
0.0
 11
131.0065197036
 21
-0.0019940656999999
 31
0.0
  0
LINE
  5
16C
330
167
100
AcDbEntity
  8
2
  6
SLD-Durchgehend
 62
     0
370
    -2
100
AcDbLine
 10
131.0065197036
 20
-21.6999940657
 30
0.0
 11
131.0065197036
 21
-3.3039940657
 31
0.0
  0
SOLID
  5
16D
330
167
100
AcDbEntity
  8
2
 62
     0
100
AcDbTrace
 10
130.4561863702667
 20
-21.6999940657
 30
0.0
 11
131.5568530369333
 21
-21.6999940657
 31
0.0
 12
131.0065197036
 22
-25.0019940657
 32
0.0
 13
131.0065197036
 23
-25.0019940657
 33
0.0
  0
SOLID
  5
16E
330
167
100
AcDbEntity
  8
2
 62
     0
100
AcDbTrace
 10
131.5568530369333
 20
-3.3039940657
 30
0.0
 11
130.4561863702667
 21
-3.3039940657
 31
0.0
 12
131.0065197036
 22
-0.0019940656999999
 32
0.0
 13
131.0065197036
 23
-0.0019940656999999
 33
0.0
  0
MTEXT
  5
16F
330
167
100
AcDbEntity
  8
2
 62
     0
370
    15
100
AcDbMText
 10
126.6315197036
 20
-12.5019940657
 30
0.0
 40
3.5
 41
0.0
 71
     2
 72
     1
  1
\A1;25
  7
SLDTEXTSTYLE0
 11
0.0
 21
1.0
 31
0.0
 73
     1
 44
1.0
  0
POINT
  5
1BC
330
167
100
AcDbEntity
  8
Defpoints
 62
     0
100
AcDbPoint
 10
125.0027086782
 20
-25.0019940657
 30
0.0
  0
POINT
  5
1BD
330
167
100
AcDbEntity
  8
Defpoints
 62
     0
100
AcDbPoint
 10
125.0027086782
 20
-0.0019940657
 30
0.0
  0
POINT
  5
1BE
330
167
100
AcDbEntity
  8
Defpoints
 62
     0
100
AcDbPoint
 10
131.0065197036
 20
-0.0019940657000004
 30
0.0
  0
ENDBLK
  5
169
330
167
100
AcDbEntity
  8
0
100
AcDbBlockEnd
  0
BLOCK
  5
172
330
171
100
AcDbEntity
  8
0
100
AcDbBlockBegin
  2
_D_3
 70
     0
 10
0.0
 20
0.0
 30
0.0
  3
_D_3
  1
_D_3
  0
LINE
  5
174
330
171
100
AcDbEntity
  8
2
  6
SLD-Durchgehend
 62
     0
370
    -2
100
AcDbLine
 10
86.0027086782
 20
-0.0644940657
 30
0.0
 11
86.0027086782
 21
-31.0106732236
 31
0.0
  0
LINE
  5
175
330
171
100
AcDbEntity
  8
2
  6
SLD-Durchgehend
 62
     0
370
    -2
100
AcDbLine
 10
125.0027086782
 20
-25.0644940657
 30
0.0
 11
125.0027086782
 21
-31.0106732236
 31
0.0
  0
LINE
  5
176
330
171
100
AcDbEntity
  8
2
  6
SLD-Durchgehend
 62
     0
370
    -2
100
AcDbLine
 10
89.3047086782
 20
-31.0106732236
 30
0.0
 11
121.7007086782
 21
-31.0106732236
 31
0.0
  0
SOLID
  5
177
330
171
100
AcDbEntity
  8
2
 62
     0
100
AcDbTrace
 10
89.3047086782
 20
-30.46033989026667
 30
0.0
 11
89.3047086782
 21
-31.56100655693334
 31
0.0
 12
86.0027086782
 22
-31.0106732236
 32
0.0
 13
86.0027086782
 23
-31.0106732236
 33
0.0
  0
SOLID
  5
178
330
171
100
AcDbEntity
  8
2
 62
     0
100
AcDbTrace
 10
121.7007086782
 20
-31.56100655693334
 30
0.0
 11
121.7007086782
 21
-30.46033989026667
 31
0.0
 12
125.0027086782
 22
-31.0106732236
 32
0.0
 13
125.0027086782
 23
-31.0106732236
 33
0.0
  0
MTEXT
  5
179
330
171
100
AcDbEntity
  8
2
 62
     0
370
    15
100
AcDbMText
 10
105.5027086782
 20
-26.6356732236
 30
0.0
 40
3.5
 41
0.0
 71
     2
 72
     1
  1
\A1;39
  7
SLDTEXTSTYLE0
 73
     1
 44
1.0
  0
POINT
  5
1BF
330
171
100
AcDbEntity
  8
Defpoints
 62
     0
100
AcDbPoint
 10
86.0027086782
 20
-0.0019940657
 30
0.0
  0
POINT
  5
1C0
330
171
100
AcDbEntity
  8
Defpoints
 62
     0
100
AcDbPoint
 10
125.0027086782
 20
-25.0019940657
 30
0.0
  0
POINT
  5
1C1
330
171
100
AcDbEntity
  8
Defpoints
 62
     0
100
AcDbPoint
 10
125.0027086782
 20
-31.0106732236
 30
0.0
  0
ENDBLK
  5
173
330
171
100
AcDbEntity
  8
0
100
AcDbBlockEnd
  0
BLOCK
  5
17B
330
17A
100
AcDbEntity
  8
0
100
AcDbBlockBegin
  2
SW_CENTERMARKSYMBOL_0
 70
     0
 10
0.0
 20
0.0
 30
0.0
  3
SW_CENTERMARKSYMBOL_0
  1
SW_CENTERMARKSYMBOL_0
  0
LINE
  5
17D
330
17A
100
AcDbEntity
  8
0
  6
SLD-Punktstrich
 62
     0
370
    15
100
AcDbLine
 10
0.0
 20
0.0
 30
0.0
 11
0.0
 21
2.5
 31
0.0
  0
LINE
  5
17E
330
17A
100
AcDbEntity
  8
0
  6
SLD-Punktstrich
 62
     0
370
    15
100
AcDbLine
 10
0.0
 20
0.0
 30
0.0
 11
-2.5
 21
0.0
 31
0.0
  0
LINE
  5
17F
330
17A
100
AcDbEntity
  8
0
  6
SLD-Punktstrich
 62
     0
370
    15
100
AcDbLine
 10
0.0
 20
0.0
 30
0.0
 11
0.0
 21
-2.5
 31
0.0
  0
LINE
  5
180
330
17A
100
AcDbEntity
  8
0
  6
SLD-Punktstrich
 62
     0
370
    15
100
AcDbLine
 10
0.0
 20
0.0
 30
0.0
 11
2.5
 21
0.0
 31
0.0
  0
LINE
  5
181
330
17A
100
AcDbEntity
  8
0
  6
SLD-Punktstrich
 62
     0
370
    15
100
AcDbLine
 10
0.0
 20
2.5
 30
0.0
 11
0.0
 21
4.7
 31
0.0
  0
LINE
  5
182
330
17A
100
AcDbEntity
  8
0
  6
SLD-Punktstrich
 62
     0
370
    15
100
AcDbLine
 10
-2.5
 20
0.0
 30
0.0
 11
-4.7
 21
0.0
 31
0.0
  0
LINE
  5
183
330
17A
100
AcDbEntity
  8
0
  6
SLD-Punktstrich
 62
     0
370
    15
100
AcDbLine
 10
0.0
 20
-2.5
 30
0.0
 11
0.0
 21
-4.7
 31
0.0
  0
LINE
  5
184
330
17A
100
AcDbEntity
  8
0
  6
SLD-Punktstrich
 62
     0
370
    15
100
AcDbLine
 10
2.5
 20
0.0
 30
0.0
 11
4.7
 21
0.0
 31
0.0
  0
ENDBLK
  5
17C
330
17A
100
AcDbEntity
  8
0
100
AcDbBlockEnd
  0
BLOCK
  5
187
330
186
100
AcDbEntity
  8
0
100
AcDbBlockBegin
  2
SW_CENTERMARKSYMBOL_1
 70
     0
 10
0.0
 20
0.0
 30
0.0
  3
SW_CENTERMARKSYMBOL_1
  1
SW_CENTERMARKSYMBOL_1
  0
LINE
  5
189
330
186
100
AcDbEntity
  8
0
  6
SLD-Punktstrich
 62
     0
370
    15
100
AcDbLine
 10
0.0
 20
0.0
 30
0.0
 11
0.0
 21
2.5
 31
0.0
  0
LINE
  5
18A
330
186
100
AcDbEntity
  8
0
  6
SLD-Punktstrich
 62
     0
370
    15
100
AcDbLine
 10
0.0
 20
0.0
 30
0.0
 11
-2.5
 21
0.0
 31
0.0
  0
LINE
  5
18B
330
186
100
AcDbEntity
  8
0
  6
SLD-Punktstrich
 62
     0
370
    15
100
AcDbLine
 10
0.0
 20
0.0
 30
0.0
 11
0.0
 21
-2.5
 31
0.0
  0
LINE
  5
18C
330
186
100
AcDbEntity
  8
0
  6
SLD-Punktstrich
 62
     0
370
    15
100
AcDbLine
 10
0.0
 20
0.0
 30
0.0
 11
2.5
 21
0.0
 31
0.0
  0
LINE
  5
18D
330
186
100
AcDbEntity
  8
0
  6
SLD-Punktstrich
 62
     0
370
    15
100
AcDbLine
 10
0.0
 20
2.5
 30
0.0
 11
0.0
 21
4.7
 31
0.0
  0
LINE
  5
18E
330
186
100
AcDbEntity
  8
0
  6
SLD-Punktstrich
 62
     0
370
    15
100
AcDbLine
 10
-2.5
 20
0.0
 30
0.0
 11
-4.7
 21
0.0
 31
0.0
  0
LINE
  5
18F
330
186
100
AcDbEntity
  8
0
  6
SLD-Punktstrich
 62
     0
370
    15
100
AcDbLine
 10
0.0
 20
-2.5
 30
0.0
 11
0.0
 21
-4.7
 31
0.0
  0
LINE
  5
190
330
186
100
AcDbEntity
  8
0
  6
SLD-Punktstrich
 62
     0
370
    15
100
AcDbLine
 10
2.5
 20
0.0
 30
0.0
 11
4.7
 21
0.0
 31
0.0
  0
ENDBLK
  5
188
330
186
100
AcDbEntity
  8
0
100
AcDbBlockEnd
  0
ENDSEC
  0
SECTION
  2
ENTITIES
  0
LINE
  5
73
330
1F
100
AcDbEntity
  8
0
  6
SLD-Punktstrich
 62
     7
100
AcDbLine
 10
0.0027086782
 20
-0.0019940657
 30
0.0
 11
125.0027086782
 21
-0.0019940657
 31
0.0
  0
POINT
  5
74
330
1F
100
AcDbEntity
  8
1
 62
     4
420
    65535
100
AcDbPoint
 10
125.0027086782
 20
-0.0019940657
 30
0.0
  0
POINT
  5
75
330
1F
100
AcDbEntity
  8
1
 62
     4
420
    65535
100
AcDbPoint
 10
86.0027086782
 20
-0.0019940657
 30
0.0
  0
POINT
  5
76
330
1F
100
AcDbEntity
  8
1
 62
     4
420
    65535
100
AcDbPoint
 10
125.0027086782
 20
-25.0019940657
 30
0.0
  0
LINE
  5
77
330
1F
100
AcDbEntity
  8
1
 62
     4
420
    65535
100
AcDbLine
 10
109.4844316706
 20
-24.0820892377
 30
0.0
 11
110.5527218865
 21
-24.4056597074
 31
0.0
  0
LINE
  5
78
330
1F
100
AcDbEntity
  8
1
 62
     4
420
    65535
100
AcDbLine
 10
113.8893309805
 20
-15.0780509956
 30
0.0
 11
113.1073709336
 21
-14.8412060112
 31
0.0
  0
LINE
  5
79
330
1F
100
AcDbEntity
  8
1
 62
     4
420
    65535
100
AcDbLine
 10
99.0685143598
 20
-6.865494557
 30
0.0
 11
97.9194287718
 21
-8.2607600005
 31
0.0
  0
LINE
  5
7A
330
1F
100
AcDbEntity
  8
1
 62
     4
420
    65535
100
AcDbLine
 10
97.9675351054
 20
-8.2023473761
 30
0.0
 11
97.7006185295
 21
-8.0518888757
 31
0.0
  0
SPLINE
  5
7B
330
1F
100
AcDbEntity
  8
1
 62
     4
420
    65535
100
AcDbSpline
210
0.0
220
0.0
230
1.0
 70
     8
 71
     3
 72
    10
 73
     6
 74
     0
 42
0.000000001
 43
0.00000001
 40
0.0
 40
0.0
 40
0.0
 40
0.0
 40
0.3813148972678121
 40
0.9903158428043366
 40
1.0
 40
1.0
 40
1.0
 40
1.0
 10
109.5469350522006
 20
-11.01168209386479
 30
0.0
 10
109.4923397259924
 20
-10.91559577551649
 30
0.0
 10
109.3505497857763
 20
-10.66604926154898
 30
0.0
 10
109.1904824625608
 20
-10.42403394940038
 30
0.0
 10
109.0686119041911
 20
-10.29724695169583
 30
0.0
 10
109.0667042881203
 20
-10.29526237955935
 30
0.0
  0
ARC
  5
7C
330
1F
100
AcDbEntity
  8
1
 62
     4
420
    65535
100
AcDbCircle
 10
97.6024086786
 20
-8.2261152376
 30
0.0
 40
0.1999999999999996
100
AcDbArc
 50
60.5904305926
 51
73.1491584331
  0
LINE
  5
7D
330
1F
100
AcDbEntity
  8
1
 62
     4
420
    65535
100
AcDbLine
 10
113.2687355005
 20
-18.0217497147
 30
0.0
 11
109.5469350522
 21
-11.0116820939
 31
0.0
  0
LINE
  5
7E
330
1F
100
AcDbEntity
  8
1
 62
     4
420
    65535
100
AcDbLine
 10
97.6603849112
 20
-8.0347027081
 30
0.0
 11
97.1613251694
 21
-7.8835443499
 31
0.0
  0
LINE
  5
7F
330
1F
100
AcDbEntity
  8
1
 62
     4
420
    65535
100
AcDbLine
 10
109.058977233
 20
-10.2852564829
 30
0.0
 11
106.5455543742
 21
-7.31764648
 31
0.0
  0
SPLINE
  5
80
330
1F
100
AcDbEntity
  8
1
 62
     4
420
    65535
100
AcDbSpline
210
0.0
220
0.0
230
1.0
 70
     8
 71
     3
 72
    13
 73
     9
 74
     0
 42
0.000000001
 43
0.00000001
 40
0.0
 40
0.0
 40
0.0
 40
0.0
 40
0.1041637907908701
 40
0.2942225391254875
 40
0.4879870763247551
 40
0.6836909031489065
 40
0.8790963476524332
 40
1.0
 40
1.0
 40
1.0
 40
1.0
 10
95.63455781264773
 20
-13.37565929983016
 30
0.0
 10
95.66772077618192
 20
-13.38226534576888
 30
0.0
 10
95.76139335915794
 20
-13.40092487798168
 30
0.0
 10
95.95412105225446
 20
-13.46698683632782
 30
0.0
 10
96.20845479482475
 20
-13.58616851291522
 30
0.0
 10
96.47808057920267
 20
-13.74507754620131
 30
0.0
 10
96.71178133775892
 20
-13.90922142265022
 30
0.0
 10
96.84366941359376
 20
-14.01886533090499
 30
0.0
 10
96.89408133733629
 20
-14.06077480836749
 30
0.0
  0
LINE
  5
81
330
1F
100
AcDbEntity
  8
1
 62
     4
420
    65535
100
AcDbLine
 10
96.8940813373
 20
-14.0607748084
 30
0.0
 11
98.3061328276
 21
-15.2730621019
 31
0.0
  0
LINE
  5
82
330
1F
100
AcDbEntity
  8
1
 62
     4
420
    65535
100
AcDbLine
 10
100.443946604
 20
-16.5989973105
 30
0.0
 11
108.113183048
 21
-19.8909592817
 31
0.0
  0
LINE
  5
83
330
1F
100
AcDbEntity
  8
1
 62
     4
420
    65535
100
AcDbLine
 10
105.6296592412
 20
-6.3934313664
 30
0.0
 11
104.2176077509
 21
-5.1811440729
 31
0.0
  0
LINE
  5
84
330
1F
100
AcDbEntity
  8
1
 62
     4
420
    65535
100
AcDbLine
 10
112.3889683959
 20
-21.4167412281
 30
0.0
 11
112.4203604224
 21
-21.4079317745
 31
0.0
  0
SPLINE
  5
85
330
1F
100
AcDbEntity
  8
1
 62
     4
420
    65535
100
AcDbSpline
210
0.0
220
0.0
230
1.0
 70
     8
 71
     3
 72
    10
 73
     6
 74
     0
 42
0.000000001
 43
0.00000001
 40
0.0
 40
0.0
 40
0.0
 40
0.0
 40
0.0833345961782931
 40
0.5066690911804689
 40
1.0
 40
1.0
 40
1.0
 40
1.0
 10
113.6559846003047
 20
-18.85794779097202
 30
0.0
 10
113.6479894948631
 20
-18.83455778478204
 30
0.0
 10
113.5993797578062
 20
-18.69234802170082
 30
0.0
 10
113.4780728935131
 20
-18.42959447236482
 30
0.0
 10
113.3419786752889
 20
-18.16444684317525
 30
0.0
 10
113.2687355005366
 20
-18.02174971472022
 30
0.0
  0
SPLINE
  5
86
330
1F
100
AcDbEntity
  8
1
 62
     4
420
    65535
100
AcDbSpline
210
0.0
220
0.0
230
1.0
 70
     8
 71
     3
 72
     9
 73
     5
 74
     0
 42
0.000000001
 43
0.00000001
 40
0.0
 40
0.0
 40
0.0
 40
0.0
 40
0.3708411881283712
 40
1.0
 40
1.0
 40
1.0
 40
1.0
 10
113.7366991585829
 20
-19.11859750063951
 30
0.0
 10
113.7285361679955
 20
-19.0837975110739
 30
0.0
 10
113.7065240753567
 20
-18.98995683026592
 30
0.0
 10
113.6755022531232
 20
-18.90892787327784
 30
0.0
 10
113.6559846003047
 20
-18.85794779097202
 30
0.0
  0
SPLINE
  5
87
330
1F
100
AcDbEntity
  8
1
 62
     4
420
    65535
100
AcDbSpline
210
0.0
220
0.0
230
1.0
 70
     8
 71
     3
 72
    11
 73
     7
 74
     0
 42
0.000000001
 43
0.00000001
 40
0.0
 40
0.0
 40
0.0
 40
0.0
 40
0.0269909861399032
 40
0.416914423136764
 40
0.7966297846100202
 40
1.0
 40
1.0
 40
1.0
 40
1.0
 10
113.7907128903465
 20
-19.69513953810582
 30
0.0
 10
113.7915853232788
 20
-19.68956872748993
 30
0.0
 10
113.8050612989556
 20
-19.60351958196085
 30
0.0
 10
113.7945772441496
 20
-19.441051900473
 30
0.0
 10
113.7727488131339
 20
-19.25151810977847
 30
0.0
 10
113.7460212668094
 20
-19.15296954440425
 30
0.0
 10
113.7366991585829
 20
-19.11859750063951
 30
0.0
  0
LINE
  5
88
330
1F
100
AcDbEntity
  8
1
 62
     4
420
    65535
100
AcDbLine
 10
113.7831658028
 20
-19.7905572429
 30
0.0
 11
113.790102729
 21
-19.7168239677
 31
0.0
  0
SPLINE
  5
89
330
1F
100
AcDbEntity
  8
1
 62
     4
420
    65535
100
AcDbSpline
210
0.0
220
0.0
230
1.0
 70
     8
 71
     3
 72
    14
 73
    10
 74
     0
 42
0.000000001
 43
0.00000001
 40
0.0
 40
0.0
 40
0.0
 40
0.0
 40
0.1118535771012331
 40
0.2841748317519504
 40
0.4544430944213126
 40
0.6236517375816378
 40
0.792706590008807
 40
0.9541399276082743
 40
0.9999999999999999
 40
0.9999999999999999
 40
0.9999999999999999
 40
0.9999999999999999
 10
112.4203604223601
 20
-21.40793177445925
 30
0.0
 10
112.4996863529711
 20
-21.38232721968123
 30
0.0
 10
112.7012215525522
 20
-21.31727637164673
 30
0.0
 10
112.9992431766026
 20
-21.14915487462843
 30
0.0
 10
113.2919324194843
 20
-20.89923767295346
 30
0.0
 10
113.5265158421508
 20
-20.59514254466236
 30
0.0
 10
113.6906773113596
 20
-20.25520641227413
 30
0.0
 10
113.7620744116795
 20
-19.97937306514685
 30
0.0
 10
113.7793449873714
 20
-19.82476221291234
 30
0.0
 10
113.783165802763
 20
-19.79055724288303
 30
0.0
  0
LINE
  5
8A
330
1F
100
AcDbEntity
  8
1
 62
     4
420
    65535
100
AcDbLine
 10
111.08165263
 20
-21.1853378797
 30
0.0
 11
111.1826768198
 21
-21.2576500966
 31
0.0
  0
LINE
  5
8B
330
1F
100
AcDbEntity
  8
1
 62
     4
420
    65535
100
AcDbLine
 10
111.425752474
 20
-21.3608351159
 30
0.0
 11
111.5505172966
 21
-21.3986246713
 31
0.0
  0
LINE
  5
8C
330
1F
100
AcDbEntity
  8
1
 62
     4
420
    65535
100
AcDbLine
 10
113.702022805
 20
-15.0462402698
 30
0.0
 11
111.6423988122
 21
-14.9585198835
 31
0.0
  0
ARC
  5
8D
330
1F
100
AcDbEntity
  8
1
 62
     4
420
    65535
100
AcDbCircle
 10
113.6698057447
 20
-15.8029764398
 30
0.0
 40
0.7574216593122466
100
AcDbArc
 50
51.5899197558
 51
87.5621786999
  0
LINE
  5
8E
330
1F
100
AcDbEntity
  8
1
 62
     4
420
    65535
100
AcDbLine
 10
124.7098825669
 20
-23.5782954203
 30
0.0
 11
114.1403809515
 21
-15.2094728217
 31
0.0
  0
ARC
  5
8F
330
1F
100
AcDbEntity
  8
1
 62
     4
420
    65535
100
AcDbCircle
 10
124.2019574119
 20
-24.2041753593
 30
0.0
 40
0.8060481754687929
100
AcDbArc
 50
268.6047647243
 51
50.9393685425
  0
LINE
  5
90
330
1F
100
AcDbEntity
  8
1
 62
     4
420
    65535
100
AcDbLine
 10
110.740030062
 20
-24.4374704332
 30
0.0
 11
124.1823309104
 21
-25.0099845561
 31
0.0
  0
ARC
  5
91
330
1F
100
AcDbEntity
  8
1
 62
     4
420
    65535
100
AcDbCircle
 10
110.7722471224
 20
-23.6807342632
 30
0.0
 40
0.7574216593122903
100
AcDbArc
 50
231.5899197558
 51
267.5621786999
  0
LINE
  5
92
330
1F
100
AcDbEntity
  8
1
 62
     4
420
    65535
100
AcDbLine
 10
100.8025340131
 20
-16.7529182546
 30
0.0
 11
110.3016719155
 21
-24.2742378813
 31
0.0
  0
ARC
  5
93
330
1F
100
AcDbEntity
  8
1
 62
     4
420
    65535
100
AcDbCircle
 10
112.2169646975
 20
-19.7208857881
 30
0.0
 40
2.161248732462823
100
AcDbArc
 50
213.0213289771
 51
64.9786385472
  0
LINE
  5
94
330
1F
100
AcDbEntity
  8
1
 62
     4
420
    65535
100
AcDbLine
 10
109.2333816996
 20
-23.9506674116
 30
0.0
 11
110.3016719155
 21
-24.2742378813
 31
0.0
  0
LINE
  5
95
330
1F
100
AcDbEntity
  8
1
 62
     4
420
    65535
100
AcDbLine
 10
109.1224616596
 20
-23.8628420656
 30
0.0
 11
109.2333816996
 21
-23.9506674116
 31
0.0
  0
ARC
  5
96
330
1F
100
AcDbEntity
  8
1
 62
     4
420
    65535
100
AcDbCircle
 10
112.1794192633
 20
-19.7165174784
 30
0.0
 40
1.894403457812006
100
AcDbArc
 50
227.3164873111
 51
47.5842864205
  0
ARC
  5
97
330
1F
100
AcDbEntity
  8
1
 62
     4
420
    65535
100
AcDbCircle
 10
109.7044826867
 20
-23.3562380134
 30
0.0
 40
0.7584737632536547
100
AcDbArc
 50
231.6022465826
 51
253.1346537624
  0
SPLINE
  5
98
330
1F
100
AcDbEntity
  8
1
 62
     4
420
    65535
100
AcDbSpline
210
0.0
220
0.0
230
1.0
 70
     8
 71
     3
 72
    18
 73
    14
 74
     0
 42
0.000000001
 43
0.00000001
 40
0.0
 40
0.0
 40
0.0
 40
0.0
 40
0.071231580203071
 40
0.1423594750135286
 40
0.2135117540798652
 40
0.2848163795935737
 40
0.3564005190022735
 40
0.4283898790396842
 40
0.5009080779906337
 40
0.6308793147044975
 40
0.7567403014776342
 40
0.8794393010781445
 40
1.0
 40
1.0
 40
1.0
 40
1.0
 10
103.7126304155276
 20
-16.07886800321758
 30
0.0
 10
103.6551769037462
 20
-16.07556033061503
 30
0.0
 10
103.5403535100835
 20
-16.0689498000909
 30
0.0
 10
103.3674229736484
 20
-16.04866034315175
 30
0.0
 10
103.1949205891744
 20
-16.02058493470533
 30
0.0
 10
103.0230906691929
 20
-15.98397035272388
 30
0.0
 10
102.8522297668012
 20
-15.93907306359275
 30
0.0
 10
102.6825184823615
 20
-15.88593856068852
 30
0.0
 10
102.4701150375543
 20
-15.8088926316431
 30
0.0
 10
102.2219802327515
 20
-15.70102687268887
 30
0.0
 10
101.9484727038974
 20
-15.55291168839098
 30
0.0
 10
101.6945896441038
 20
-15.38852827643389
 30
0.0
 10
101.5417495401739
 20
-15.2639568411635
 30
0.0
 10
101.4660012355224
 20
-15.20221862725826
 30
0.0
  0
LINE
  5
99
330
1F
100
AcDbEntity
  8
1
 62
     4
420
    65535
100
AcDbLine
 10
101.4660012355
 20
-15.2022186273
 30
0.0
 11
100.6300207301
 21
-14.4845050373
 31
0.0
  0
SPLINE
  5
9A
330
1F
100
AcDbEntity
  8
1
 62
     4
420
    65535
100
AcDbSpline
210
0.0
220
0.0
230
1.0
 70
     8
 71
     3
 72
    18
 73
    14
 74
     0
 42
0.000000001
 43
0.00000001
 40
0.0
 40
0.0
 40
0.0
 40
0.0
 40
0.0688155697224292
 40
0.1381820106563476
 40
0.2082986617636902
 40
0.2793585333565624
 40
0.3515470477383638
 40
0.4250410553685387
 40
0.5000081316395701
 40
0.6263425705143356
 40
0.7513379785888245
 40
0.8756638793690702
 40
0.9999999999999999
 40
0.9999999999999999
 40
0.9999999999999999
 40
0.9999999999999999
 10
100.6300207300655
 20
-14.48450503725263
 30
0.0
 10
100.5884324768247
 20
-14.44772872517413
 30
0.0
 10
100.5049230548193
 20
-14.37388170526236
 30
0.0
 10
100.3872247354824
 20
-14.25549358919792
 30
0.0
 10
100.2746427819042
 20
-14.13103000872938
 30
0.0
 10
100.1677995674458
 20
-13.99976299227029
 30
0.0
 10
100.066605129231
 20
-13.86158419383977
 30
0.0
 10
99.9711258316956
 20
-13.71615789243941
 30
0.0
 10
99.86168546554455
 20
-13.52929573785818
 30
0.0
 10
99.74558708825201
 20
-13.29891856443682
 30
0.0
 10
99.63277682182411
 20
-13.02155360734768
 30
0.0
 10
99.53984243827843
 20
-12.73481434708859
 30
0.0
 10
99.49373362058998
 20
-12.53629326565739
 30
0.0
 10
99.47067826422423
 20
-12.4370286453968
 30
0.0
  0
SPLINE
  5
9B
330
1F
100
AcDbEntity
  8
1
 62
     4
420
    65535
100
AcDbSpline
210
0.0
220
0.0
230
1.0
 70
     8
 71
     3
 72
    17
 73
    13
 74
     0
 42
0.000000001
 43
0.00000001
 40
0.0
 40
0.0
 40
0.0
 40
0.0
 40
0.0625899441014442
 40
0.1250948221042673
 40
0.1876167292946231
 40
0.2502576776937032
 40
0.3751984025346044
 40
0.5003119891833628
 40
0.6251774730869114
 40
0.7502190508836046
 40
0.8750708295554575
 40
1.0
 40
1.0
 40
1.0
 40
1.0
 10
99.47067826422416
 20
-12.43702864539674
 30
0.0
 10
99.45736695250689
 20
-12.38475042353092
 30
0.0
 10
99.43076242049855
 20
-12.2802650312188
 30
0.0
 10
99.39876551827801
 20
-12.12150469991494
 30
0.0
 10
99.37263910527128
 20
-11.96151713385355
 30
0.0
 10
99.34641741973994
 20
-11.74687932107211
 30
0.0
 10
99.32947997983631
 20
-11.47648135607965
 30
0.0
 10
99.33501146693705
 20
-11.15129492663706
 30
0.0
 10
99.36594534738711
 20
-10.82705945750355
 30
0.0
 10
99.4228955827501
 20
-10.50647154331625
 30
0.0
 10
99.50309935120956
 20
-10.19045086286702
 30
0.0
 10
99.57727291480461
 20
-9.986493007679112
 30
0.0
 10
99.61437118751765
 20
-9.884482483079811
 30
0.0
  0
SPLINE
  5
9C
330
1F
100
AcDbEntity
  8
1
 62
     4
420
    65535
100
AcDbSpline
210
0.0
220
0.0
230
1.0
 70
     8
 71
     3
 72
    18
 73
    14
 74
     0
 42
0.000000001
 43
0.00000001
 40
0.0
 40
0.0
 40
0.0
 40
0.0
 40
0.0720777495946268
 40
0.1436138577784836
 40
0.2147942935815708
 40
0.2858078577210081
 40
0.35684471132935
 40
0.4280948514145907
 40
0.4997465931334198
 40
0.6249917043151236
 40
0.7494360076736064
 40
0.8741004813051123
 40
1.0
 40
1.0
 40
1.0
 40
1.0
 10
99.61437118751762
 20
-9.884482483079806
 30
0.0
 10
99.63607907139156
 20
-9.825368525709393
 30
0.0
 10
99.67933171128219
 20
-9.707584833595478
 30
0.0
 10
99.75434884967318
 20
-9.535663166069376
 30
0.0
 10
99.8367454173535
 20
-9.368418061756648
 30
0.0
 10
99.92738690366947
 20
-9.206139121411779
 30
0.0
 10
100.0261802122518
 20
-9.048769728708963
 30
0.0
 10
100.1332356774262
 20
-8.89631808317095
 30
0.0
 10
100.276973044803
 20
-8.71246164471089
 30
0.0
 10
100.464165479995
 20
-8.504352130974727
 30
0.0
 10
100.7033559237348
 20
-8.283328187087838
 30
0.0
 10
100.9608715648362
 20
-8.083112441142825
 30
0.0
 10
101.1454157837052
 20
-7.969780016157977
 30
0.0
 10
101.2381427079444
 20
-7.912834492479019
 30
0.0
  0
SPLINE
  5
9D
330
1F
100
AcDbEntity
  8
1
 62
     4
420
    65535
100
AcDbSpline
210
0.0
220
0.0
230
1.0
 70
     8
 71
     3
 72
    17
 73
    13
 74
     0
 42
0.000000001
 43
0.00000001
 40
0.0
 40
0.0
 40
0.0
 40
0.0
 40
0.0624591280541234
 40
0.1248489910267643
 40
0.187272249442617
 40
0.2498313994192974
 40
0.3746618992017357
 40
0.4997383966944664
 40
0.6246407801440976
 40
0.7497926437301073
 40
0.8748246770709616
 40
1.0
 40
1.0
 40
1.0
 40
1.0
 10
101.2381427079444
 20
-7.912834492479039
 30
0.0
 10
101.2838457216465
 20
-7.884897801019005
 30
0.0
 10
101.375201065939
 20
-7.82905539895427
 30
0.0
 10
101.5161825567569
 20
-7.752519369146638
 30
0.0
 10
101.6598506632793
 20
-7.681413641539552
 30
0.0
 10
101.8549227458527
 20
-7.594700526253388
 30
0.0
 10
102.1048729434833
 20
-7.501314305125088
 30
0.0
 10
102.4121737784836
 20
-7.414524957164395
 30
0.0
 10
102.7252010560938
 20
-7.353016944343076
 30
0.0
 10
103.0415728798671
 20
-7.31815759201759
 30
0.0
 10
103.3597194742753
 20
-7.30749175306392
 30
0.0
 10
103.5708109003511
 20
-7.322663191162376
 30
0.0
 10
103.6764170576621
 20
-7.330253254426639
 30
0.0
  0
SPLINE
  5
9E
330
1F
100
AcDbEntity
  8
1
 62
     4
420
    65535
100
AcDbSpline
210
0.0
220
0.0
230
1.0
 70
     8
 71
     3
 72
    18
 73
    14
 74
     0
 42
0.000000001
 43
0.00000001
 40
0.0
 40
0.0
 40
0.0
 40
0.0
 40
0.0712315802030611
 40
0.1423594750135145
 40
0.213511754079846
 40
0.2848163795935597
 40
0.3564005190022607
 40
0.4283898790396763
 40
0.5009080779906298
 40
0.6308793147044848
 40
0.756740301477617
 40
0.8794393010781317
 40
1.0
 40
1.0
 40
1.0
 40
1.0
 10
103.6764170576621
 20
-7.330253254426628
 30
0.0
 10
103.7335424871921
 20
-7.333461555410326
 30
0.0
 10
103.8477101939119
 20
-7.339873487343079
 30
0.0
 10
104.0159152813981
 20
-7.358731670539495
 30
0.0
 10
104.1816793879222
 20
-7.384766146916723
 30
0.0
 10
104.3449838218965
 20
-7.418798475995092
 30
0.0
 10
104.5061111836985
 20
-7.460747609041888
 30
0.0
 10
104.6653165626839
 20
-7.51070001712644
 30
0.0
 10
104.8640121921842
 20
-7.583594036727586
 30
0.0
 10
105.0960407562311
 20
-7.686581436030126
 30
0.0
 10
105.3543379397003
 20
-7.83008961510942
 30
0.0
 10
105.5979624010187
 20
-7.991365838142466
 30
0.0
 10
105.7494785664313
 20
-8.115536270575364
 30
0.0
 10
105.8245707206642
 20
-8.17707574550883
 30
0.0
  0
LINE
  5
9F
330
1F
100
AcDbEntity
  8
1
 62
     4
420
    65535
100
AcDbLine
 10
105.8245707207
 20
-8.1770757455
 30
0.0
 11
106.6605512261
 21
-8.8947893355
 31
0.0
  0
SPLINE
  5
A0
330
1F
100
AcDbEntity
  8
1
 62
     4
420
    65535
100
AcDbSpline
210
0.0
220
0.0
230
1.0
 70
     8
 71
     3
 72
    18
 73
    14
 74
     0
 42
0.000000001
 43
0.00000001
 40
0.0
 40
0.0
 40
0.0
 40
0.0
 40
0.0688155697224265
 40
0.1381820106563448
 40
0.2082986617636838
 40
0.2793585333565574
 40
0.3515470477383607
 40
0.425041055368538
 40
0.5000081316395681
 40
0.6263425705143324
 40
0.7513379785888161
 40
0.8756638793690629
 40
1.0
 40
1.0
 40
1.0
 40
1.0
 10
106.660551226121
 20
-8.894789335514357
 30
0.0
 10
106.7023515075644
 20
-8.931629868030416
 30
0.0
 10
106.7862866832688
 20
-9.00560584290432
 30
0.0
 10
106.9073724256422
 20
-9.125019962995102
 30
0.0
 10
107.0252383882591
 20
-9.251083997404727
 30
0.0
 10
107.1392945797026
 20
-9.38453572576684
 30
0.0
 10
107.2493314576389
 20
-9.525392778037826
 30
0.0
 10
107.3549761706226
 20
-9.673898044500119
 30
0.0
 10
107.4779562971022
 20
-9.864861206975254
 30
0.0
 10
107.6104678423799
 20
-10.10020970410078
 30
0.0
 10
107.7401367707744
 20
-10.38268091891741
 30
0.0
 10
107.8462032893462
 20
-10.67339772295121
 30
0.0
 10
107.8943132433295
 20
-10.87252492114834
 30
0.0
 10
107.9183692089654
 20
-10.97209261224741
 30
0.0
  0
SPLINE
  5
A1
330
1F
100
AcDbEntity
  8
1
 62
     4
420
    65535
100
AcDbSpline
210
0.0
220
0.0
230
1.0
 70
     8
 71
     3
 72
    29
 73
    25
 74
     0
 42
0.000000001
 43
0.00000001
 40
0.0
 40
0.0
 40
0.0
 40
0.0
 40
0.0250954355418452
 40
0.0501032127053625
 40
0.0750824085814891
 40
0.1000923028017418
 40
0.1251919574912224
 40
0.1564347938619284
 40
0.187740857727643
 40
0.250233807558361
 40
0.3127029056331938
 40
0.3751527658042098
 40
0.437589134313742
 40
0.5000185521695788
 40
0.5624479700254152
 40
0.6248843385349474
 40
0.6873341987059653
 40
0.7498032967807974
 40
0.8122962466115133
 40
0.8748162595022448
 40
0.906066260918771
 40
0.937393804930465
 40
0.9686758280588373
 40
1.0
 40
1.0
 40
1.0
 40
1.0
 10
107.9183692089655
 20
-10.97209261224748
 30
0.0
 10
107.934250215021
 20
-11.03504356253258
 30
0.0
 10
107.9659567547641
 20
-11.1607255753783
 30
0.0
 10
108.0020680701487
 20
-11.35195358233165
 30
0.0
 10
108.029614573187
 20
-11.54452126480913
 30
0.0
 10
108.0477844489405
 20
-11.73866419425338
 30
0.0
 10
108.0575503301638
 20
-11.94987004407757
 30
0.0
 10
108.0559375295096
 20
-12.17793739698435
 30
0.0
 10
108.0343172325916
 20
-12.50281426945093
 30
0.0
 10
107.9712427158423
 20
-12.90608332241413
 30
0.0
 10
107.8389850118967
 20
-13.37753496456586
 30
0.0
 10
107.6521008223814
 20
-13.82985950697086
 30
0.0
 10
107.4133348167413
 20
-14.25635375712778
 30
0.0
 10
107.1262002344858
 20
-14.65075488532201
 30
0.0
 10
106.7949216068271
 20
-15.00725631463145
 30
0.0
 10
106.4243726787695
 20
-15.32061334567084
 30
0.0
 10
106.0200091638212
 20
-15.58621728948259
 30
0.0
 10
105.5877692263093
 20
-15.80015629142997
 30
0.0
 10
105.1340570535965
 20
-15.95930435310704
 30
0.0
 10
104.7435907488881
 20
-16.04423667047303
 30
0.0
 10
104.4273815958541
 20
-16.08300436705008
 30
0.0
 10
104.1890698541177
 20
-16.09702885068569
 30
0.0
 10
103.9502868229618
 20
-16.09735647919911
 30
0.0
 10
103.7918847653859
 20
-16.08503359395258
 30
0.0
 10
103.7126304155276
 20
-16.07886800321758
 30
0.0
  0
ELLIPSE
  5
A2
330
1F
100
AcDbEntity
  8
1
 62
     4
420
    65535
100
AcDbEllipse
 10
99.7457601667
 20
-11.3148421652
 30
0.0
 11
1.00359005272729
 21
0.2936885319404006
 31
0.0
210
0.0
220
0.0
230
1.0
 40
0.9507289644
 41
2.191665345950554
 42
3.695424174540557
  0
LINE
  5
A3
330
1F
100
AcDbEntity
  8
1
 62
     4
420
    65535
100
AcDbLine
 10
99.6143711875
 20
-9.8844824831
 30
0.0
 11
98.9348208634
 21
-10.7096195262
 31
0.0
  0
LINE
  5
A4
330
1F
100
AcDbEntity
  8
1
 62
     4
420
    65535
100
AcDbLine
 10
99.0390459559
 20
-12.0664597487
 30
0.0
 11
99.4706782642
 21
-12.4370286454
 31
0.0
  0
ELLIPSE
  5
A5
330
1F
100
AcDbEntity
  8
1
 62
     4
420
    65535
100
AcDbEllipse
 10
99.4091140902
 20
-11.212876681
 30
0.0
 11
0.3370576729573428
 21
2.478515836383773
 31
0.0
210
0.0
220
0.0
230
1.0
 40
0.913986629
 41
1.050004570895277
 42
2.553763399485253
  0
ARC
  5
A6
330
1F
100
AcDbEntity
  8
1
 62
     4
420
    65535
100
AcDbCircle
 10
92.0019825887
 20
-18.5313574691
 30
0.0
 40
10.45197737228484
100
AcDbArc
 50
48.4476568282
 51
57.5390440955
  0
ARC
  5
A7
330
1F
100
AcDbEntity
  8
1
 62
     4
420
    65535
100
AcDbCircle
 10
96.0201383484
 20
-9.8481867453
 30
0.0
 40
3.746269912863435
100
AcDbArc
 50
299.6317089617
 51
323.6918044803
  0
LINE
  5
A8
330
1F
100
AcDbEntity
  8
1
 62
     4
420
    65535
100
AcDbLine
 10
97.6118175957
 20
-9.7124243032
 30
0.0
 11
100.5946897644
 21
-6.0905022263
 31
0.0
  0
ARC
  5
A9
330
1F
100
AcDbEntity
  8
1
 62
     4
420
    65535
100
AcDbCircle
 10
94.9848547573
 20
-14.9094353922
 30
0.0
 40
10.45197737228341
100
AcDbArc
 50
48.4476568282
 51
57.5390440955
  0
LINE
  5
AA
330
1F
100
AcDbEntity
  8
1
 62
     4
420
    65535
100
AcDbLine
 10
101.9176930321
 20
-7.0876974493
 30
0.0
 11
101.2381427079
 21
-7.9128344925
 31
0.0
  0
LINE
  5
AB
330
1F
100
AcDbEntity
  8
1
 62
     4
420
    65535
100
AcDbLine
 10
103.7126304155
 20
-16.0788680032
 30
0.0
 11
104.2006165993
 21
-16.4978183418
 31
0.0
  0
ELLIPSE
  5
AC
330
1F
100
AcDbEntity
  8
1
 62
     4
420
    65535
100
AcDbEllipse
 10
104.5098339623
 20
-16.9503454143
 30
0.0
 11
1.20138232852949
 21
0.9404960125875198
 31
0.0
210
0.0
220
0.0
230
1.0
 40
0.3585714122
 41
1.547548929504733
 42
1.74316396865582
  0
SPLINE
  5
AD
330
1F
100
AcDbEntity
  8
1
 62
     4
420
    65535
100
AcDbSpline
210
0.0
220
0.0
230
1.0
 70
     8
 71
     3
 72
    14
 73
    10
 74
     0
 42
0.000000001
 43
0.00000001
 40
0.0
 40
0.0
 40
0.0
 40
0.0
 40
0.1250000000000025
 40
0.1250000000000025
 40
0.2500000000000051
 40
0.2500000000000051
 40
0.5000000000000119
 40
0.5000000000000119
 40
1.0
 40
1.0
 40
1.0
 40
1.0
 10
102.9421859318757
 20
-17.16564628744499
 30
0.0
 10
102.9919458792257
 20
-17.18366752103075
 30
0.0
 10
103.0394615212211
 20
-17.1874130592085
 30
0.0
 10
103.1317041035992
 20
-17.18291076091922
 30
0.0
 10
103.1759413275094
 20
-17.17426186736263
 30
0.0
 10
103.306198197012
 20
-17.13769353524838
 30
0.0
 10
103.391387748139
 20
-17.098514446294
 30
0.0
 10
103.6434895417466
 20
-16.95776545343286
 30
0.0
 10
103.8107753371219
 20
-16.83012952211913
 30
0.0
 10
103.971540763193
 20
-16.68725715002694
 30
0.0
  0
SPLINE
  5
AE
330
1F
100
AcDbEntity
  8
1
 62
     4
420
    65535
100
AcDbSpline
210
0.0
220
0.0
230
1.0
 70
     8
 71
     3
 72
    38
 73
    34
 74
     0
 42
0.000000001
 43
0.00000001
 40
0.0
 40
0.0
 40
0.0
 40
0.0
 40
0.0002289472365003
 40
0.0002289472365003
 40
0.0002289472365003
 40
0.0003913682947533
 40
0.0003913682947533
 40
0.0003913682947533
 40
0.0005084210263002
 40
0.0005084210263002
 40
0.0005084210263002
 40
0.0005934284256123
 40
0.0005934284256123
 40
0.0005934284256123
 40
0.0006554063448609
 40
0.0006554063448609
 40
0.0006554063448609
 40
0.0007006866047019
 40
0.0007006866047019
 40
0.0007006866047019
 40
0.0007338037319135
 40
0.0007338037319135
 40
0.0007338037319135
 40
0.0007580389890264
 40
0.0007580389890264
 40
0.0007580389890264
 40
0.000775779936862
 40
0.000775779936862
 40
0.000775779936862
 40
0.0008075384711267
 40
0.0008075384711267
 40
0.0008075384711267
 40
0.0008242981310853
 40
0.0008242981310853
 40
0.0008242981310853
 40
0.0008242981310853
 10
102.9421859318757
 20
-17.16564628744499
 30
0.0
 10
102.8727454826513
 20
-17.14049749564724
 30
0.0
 10
102.8040436052247
 20
-17.11395653479221
 30
0.0
 10
102.7361803772494
 20
-17.08605498365615
 30
0.0
 10
102.6880296340923
 20
-17.06625810009315
 30
0.0
 10
102.6402846549473
 20
-17.04576961682869
 30
0.0
 10
102.5929801062745
 20
-17.02460010826492
 30
0.0
 10
102.5588866378863
 20
-17.00934276005507
 30
0.0
 10
102.5250161044392
 20
-16.99372907078712
 30
0.0
 10
102.4913813080447
 20
-16.97776282659154
 30
0.0
 10
102.4669538327923
 20
-16.96616724473081
 30
0.0
 10
102.4426485261716
 20
-16.95438468491244
 30
0.0
 10
102.4184702641382
 20
-16.9424165533777
 30
0.0
 10
102.400841863614
 20
-16.9336905739864
 30
0.0
 10
102.3832801734167
 20
-16.92486554012229
 30
0.0
 10
102.3657870795067
 20
-16.91594198523743
 30
0.0
 10
102.353006735869
 20
-16.90942249254591
 30
0.0
 10
102.340262688911
 20
-16.90285025096301
 30
0.0
 10
102.3275556738055
 20
-16.89622546541046
 30
0.0
 10
102.3182619575586
 20
-16.89138019871244
 30
0.0
 10
102.3089879272394
 20
-16.88650676086947
 30
0.0
 10
102.2997338705569
 20
-16.88160523120711
 30
0.0
 10
102.2929616941934
 20
-16.87801826124752
 30
0.0
 10
102.2862001664781
 20
-16.87441622157771
 30
0.0
 10
102.2794494002258
 20
-16.87079914305252
 30
0.0
 10
102.2745076264336
 20
-16.86815132750207
 30
0.0
 10
102.2695716006181
 20
-16.86549544303118
 30
0.0
 10
102.2646413670575
 20
-16.86283150167828
 30
0.0
 10
102.2558156583507
 20
-16.8580627275211
 30
0.0
 10
102.2470084404219
 20
-16.85326809658109
 30
0.0
 10
102.2382199674826
 20
-16.8484476774885
 30
0.0
 10
102.2335833732724
 20
-16.84590453632963
 30
0.0
 10
102.2289519780459
 20
-16.84335421083476
 30
0.0
 10
102.2243258168398
 20
-16.84079669906737
 30
0.0
  0
LINE
  5
AF
330
1F
100
AcDbEntity
  8
1
 62
     4
420
    65535
100
AcDbLine
 10
102.2243258168
 20
-16.8407966991
 30
0.0
 11
97.8723803269
 21
-13.1045248594
 31
0.0
  0
ELLIPSE
  5
B0
330
1F
100
AcDbEntity
  8
1
 62
     4
420
    65535
100
AcDbEllipse
 10
102.6408344619
 20
-7.7995277598
 30
0.0
 11
0.02497757895601183
 21
1.06608006591452
 31
0.0
210
0.0
220
0.0
230
1.0
 40
0.9141891549
 41
5.640718278401594
 42
7.144477106991575
  0
LINE
  5
B1
330
1F
100
AcDbEntity
  8
1
 62
     4
420
    65535
100
AcDbLine
 10
103.6764170577
 20
-7.3302532544
 30
0.0
 11
103.2447847493
 21
-6.9596843577
 31
0.0
  0
ELLIPSE
  5
B2
330
1F
100
AcDbEntity
  8
1
 62
     4
420
    65535
100
AcDbEllipse
 10
102.3041883855
 20
-7.6975622756
 30
0.0
 11
1.771043566373535
 21
1.780582661981261
 31
0.0
210
0.0
220
0.0
230
1.0
 40
0.9342088307
 41
0.0933750019272827
 42
1.597133830517256
  0
ARC
  5
B3
330
1F
100
AcDbEntity
  8
1
 62
     4
420
    65535
100
AcDbCircle
 10
101.5469013966
 20
-5.224464741
 30
0.0
 40
2.427713944759753
100
AcDbArc
 50
314.3769117793
 51
347.0027141329
  0
LINE
  5
B4
330
1F
100
AcDbEntity
  8
1
 62
     4
420
    65535
100
AcDbLine
 10
96.2117011137
 20
-9.6357138479
 30
0.0
 11
97.6118175957
 21
-9.7124243032
 31
0.0
  0
LINE
  5
B5
330
1F
100
AcDbEntity
  8
1
 62
     4
420
    65535
100
AcDbLine
 10
97.8723803269
 20
-13.1045248594
 30
0.0
 11
95.1239152441
 21
-12.9539402398
 31
0.0
  0
ELLIPSE
  5
B6
330
1F
100
AcDbEntity
  8
1
 62
     4
420
    65535
100
AcDbEllipse
 10
96.8907007711
 20
-11.074896281
 30
0.0
 11
2.508975131818246
 21
0.7342213298509891
 31
0.0
210
0.0
220
0.0
230
1.0
 40
0.9507289644
 41
2.926716320535997
 42
3.695424174540554
  0
ELLIPSE
  5
B7
330
1F
100
AcDbEntity
  8
1
 62
     4
420
    65535
100
AcDbEllipse
 10
92.9425112647
 20
-10.8585804113
 30
0.0
 11
3.60019188826972
 21
2.139275221244038
 31
0.0
210
0.0
220
0.0
230
1.0
 40
0.2583055026
 41
4.939217124106654
 42
5.674268098692107
  0
LINE
  5
B8
330
1F
100
AcDbEntity
  8
1
 62
     4
420
    65535
100
AcDbLine
 10
103.9124190575
 20
-5.7704694972
 30
0.0
 11
108.2643645474
 21
-9.5067413369
 31
0.0
  0
SPLINE
  5
B9
330
1F
100
AcDbEntity
  8
1
 62
     4
420
    65535
100
AcDbSpline
210
0.0
220
0.0
230
1.0
 70
     8
 71
     3
 72
    38
 73
    34
 74
     0
 42
0.000000001
 43
0.00000001
 40
0.0
 40
0.0
 40
0.0
 40
0.0
 40
0.0002289472364999
 40
0.0002289472364999
 40
0.0002289472364999
 40
0.0003913682947526
 40
0.0003913682947526
 40
0.0003913682947526
 40
0.0005084210262994
 40
0.0005084210262994
 40
0.0005084210262994
 40
0.0005934284256113
 40
0.0005934284256113
 40
0.0005934284256113
 40
0.0006554063448599
 40
0.0006554063448599
 40
0.0006554063448599
 40
0.0007006866047008
 40
0.0007006866047008
 40
0.0007006866047008
 40
0.0007338037319124
 40
0.0007338037319124
 40
0.0007338037319124
 40
0.0007580389890253
 40
0.0007580389890253
 40
0.0007580389890253
 40
0.0007757799368608
 40
0.0007757799368608
 40
0.0007757799368608
 40
0.0008075384711255
 40
0.0008075384711255
 40
0.0008075384711255
 40
0.0008242981310841
 40
0.0008242981310841
 40
0.0008242981310841
 40
0.0008242981310841
 10
108.7510395433714
 20
-10.11230509582685
 30
0.0
 10
108.7105270441583
 20
-10.05203083607131
 30
0.0
 10
108.6686977279753
 20
-9.99286014208494
 30
0.0
 10
108.6256146889172
 20
-9.934869499552383
 30
0.0
 10
108.5950461408242
 20
-9.89372361514035
 30
0.0
 10
108.5638361122056
 20
-9.853157737014747
 30
0.0
 10
108.5320060778873
 20
-9.813198457384843
 30
0.0
 10
108.5090654453421
 20
-9.78439889211902
 30
0.0
 10
108.4857988505347
 20
-9.755909478619907
 30
0.0
 10
108.462214097374
 20
-9.727740072034877
 30
0.0
 10
108.4450855270859
 20
-9.707281869340246
 30
0.0
 10
108.4277876295774
 20
-9.686990634550346
 30
0.0
 10
108.4103233387154
 20
-9.666870132067807
 30
0.0
 10
108.3975901028128
 20
-9.652200249012516
 30
0.0
 10
108.3847678198728
 20
-9.637620438273734
 30
0.0
 10
108.3718576133918
 20
-9.623132159117825
 30
0.0
 10
108.3624254982891
 20
-9.612547114111823
 30
0.0
 10
108.3529462184683
 20
-9.602010662364673
 30
0.0
 10
108.3434202086103
 20
-9.591523373667103
 30
0.0
 10
108.3364530308861
 20
-9.583853131321042
 30
0.0
 10
108.329460763881
 20
-9.576209085669845
 30
0.0
 10
108.3224435767635
 20
-9.568591459975874
 30
0.0
 10
108.3173083554906
 20
-9.5630168340101
 30
0.0
 10
108.3121597521024
 20
-9.557456317443348
 30
0.0
 10
108.3069978326609
 20
-9.551909997899722
 30
0.0
 10
108.3032191448409
 20
-9.547849917082313
 30
0.0
 10
108.2994333070035
 20
-9.54379742860194
 30
0.0
 10
108.2956403449993
 20
-9.53975256687285
 30
0.0
 10
108.2888504886216
 20
-9.53251177981038
 30
0.0
 10
108.2820377481875
 20
-9.525295374935139
 30
0.0
 10
108.2752022715832
 20
-9.518103549982214
 30
0.0
 10
108.2715960328809
 20
-9.51430931016741
 30
0.0
 10
108.2679834540714
 20
-9.510521897239814
 30
0.0
 10
108.2643645473967
 20
-9.50674133694132
 30
0.0
  0
SPLINE
  5
BA
330
1F
100
AcDbEntity
  8
1
 62
     4
420
    65535
100
AcDbSpline
210
0.0
220
0.0
230
1.0
 70
     8
 71
     3
 72
    16
 73
    12
 74
     0
 42
0.000000001
 43
0.00000001
 40
0.0
 40
0.0
 40
0.0
 40
0.0
 40
0.25
 40
0.25
 40
0.5
 40
0.5
 40
0.75
 40
0.75
 40
0.875
 40
0.875
 40
1.0
 40
1.0
 40
1.0
 40
1.0
 10
108.5463893275844
 20
-11.13229398814415
 30
0.0
 10
108.59909889532
 20
-11.04208402899015
 30
0.0
 10
108.6457454623737
 20
-10.95354534110948
 30
0.0
 10
108.7256564988531
 20
-10.77845540534454
 30
0.0
 10
108.7591215818579
 20
-10.69120085392759
 30
0.0
 10
108.8063411115758
 20
-10.52348222962079
 30
0.0
 10
108.8210568255944
 20
-10.44204798997662
 30
0.0
 10
108.8206687286969
 20
-10.32028331383637
 30
0.0
 10
108.8168212759837
 20
-10.28022503597474
 30
0.0
 10
108.7964654267709
 20
-10.19785381534624
 30
0.0
 10
108.7802505502861
 20
-10.15576506133568
 30
0.0
 10
108.7510395433715
 20
-10.11230509582687
 30
0.0
  0
ELLIPSE
  5
BB
330
1F
100
AcDbEntity
  8
1
 62
     4
420
    65535
100
AcDbEllipse
 10
108.7155727557
 20
-11.8435700233
 30
0.0
 11
0.6200019795370224
 21
1.436026106238351
 31
0.0
210
0.0
220
0.0
230
1.0
 40
0.3015072594
 41
1.186817562778481
 42
1.38243260192957
  0
LINE
  5
BC
330
1F
100
AcDbEntity
  8
1
 62
     4
420
    65535
100
AcDbLine
 10
108.4063553928
 20
-11.3910429509
 30
0.0
 11
107.918369209
 21
-10.9720926122
 31
0.0
  0
LINE
  5
BD
330
1F
100
AcDbEntity
  8
1
 62
     4
420
    65535
100
AcDbLine
 10
99.1498433053
 20
-6.8022909957
 30
0.0
 11
97.8838386169
 21
-8.3395242632
 31
0.0
  0
LINE
  5
BE
330
1F
100
AcDbEntity
  8
1
 62
     4
420
    65535
100
AcDbLine
 10
98.7368990748
 20
-6.5695180049
 30
0.0
 11
99.1498433053
 21
-6.8022909957
 31
0.0
  0
LINE
  5
BF
330
1F
100
AcDbEntity
  8
1
 62
     4
420
    65535
100
AcDbLine
 10
99.9960923476
 20
-5.0405554293
 30
0.0
 11
98.7368990748
 21
-6.5695180049
 31
0.0
  0
LINE
  5
C0
330
1F
100
AcDbEntity
  8
1
 62
     4
420
    65535
100
AcDbLine
 10
100.5946897644
 20
-6.0905022263
 30
0.0
 11
99.9960923476
 21
-5.0405554293
 31
0.0
  0
LINE
  5
C1
330
1F
100
AcDbEntity
  8
1
 62
     4
420
    65535
100
AcDbLine
 10
97.4708943864
 20
-8.1067512724
 30
0.0
 11
96.2117011137
 21
-9.6357138479
 31
0.0
  0
LINE
  5
C2
330
1F
100
AcDbEntity
  8
1
 62
     4
420
    65535
100
AcDbLine
 10
97.8838386169
 20
-8.3395242632
 30
0.0
 11
97.4708943864
 21
-8.1067512724
 31
0.0
  0
LINE
  5
C3
330
1F
100
AcDbEntity
  8
1
 62
     4
420
    65535
100
AcDbLine
 10
98.3257430526
 20
-15.273318851
 30
0.0
 11
102.2243258168
 21
-16.8407966991
 31
0.0
  0
LINE
  5
C4
330
1F
100
AcDbEntity
  8
1
 62
     4
420
    65535
100
AcDbLine
 10
96.9136915623
 20
-14.0610315575
 30
0.0
 11
98.3257430526
 21
-15.273318851
 31
0.0
  0
ELLIPSE
  5
C5
330
1F
100
AcDbEntity
  8
1
 62
     4
420
    65535
100
AcDbEllipse
 10
96.3423289447
 20
-14.2610927219
 30
0.0
 11
1.179738565173238
 21
-0.8477748669353088
 31
0.0
210
0.0
220
0.0
230
1.0
 40
0.3515324902
 41
1.329440484807882
 42
2.512500297026804
  0
LINE
  5
C6
330
1F
100
AcDbEntity
  8
1
 62
     4
420
    65535
100
AcDbLine
 10
95.5637958002
 20
-13.3315904973
 30
0.0
 11
95.1239152441
 21
-12.9539402398
 31
0.0
  0
ELLIPSE
  5
C7
330
1F
100
AcDbEntity
  8
1
 62
     4
420
    65535
100
AcDbEllipse
 10
99.5394957355
 20
-2.8482593703
 30
0.0
 11
0.9965010806803605
 21
2.90412110339923
 31
0.0
210
0.0
220
0.0
230
1.0
 40
0.4780961381
 41
4.034555664574812
 42
4.769606639160214
  0
ELLIPSE
  5
C8
330
1F
100
AcDbEntity
  8
1
 62
     4
420
    65535
100
AcDbEllipse
 10
101.2274810353
 20
-5.809005122
 30
0.0
 11
0.06244394738999404
 21
2.665200164786305
 31
0.0
210
0.0
220
0.0
230
1.0
 40
0.9141891549
 41
5.640718278401595
 42
6.409426132406123
  0
LINE
  5
C9
330
1F
100
AcDbEntity
  8
1
 62
     4
420
    65535
100
AcDbLine
 10
102.7373567538
 20
-3.7093966169
 30
0.0
 11
103.9124190575
 21
-5.7704694972
 31
0.0
  0
LINE
  5
CA
330
1F
100
AcDbEntity
  8
1
 62
     4
420
    65535
100
AcDbLine
 10
108.041685154
 20
-15.267158973
 30
0.0
 11
108.4063553928
 21
-11.3910429509
 31
0.0
  0
SPLINE
  5
CB
330
1F
100
AcDbEntity
  8
1
 62
     4
420
    65535
100
AcDbSpline
210
0.0
220
0.0
230
1.0
 70
     8
 71
     3
 72
    11
 73
     7
 74
     0
 42
0.000000001
 43
0.00000001
 40
0.0
 40
0.0
 40
0.0
 40
0.0
 40
0.0000489886699245
 40
0.0000489886699245
 40
0.0000489886699245
 40
0.0001016450381113
 40
0.0001016450381113
 40
0.0001016450381113
 40
0.0001016450381113
 10
108.0062540389358
 20
-15.36130485778149
 30
0.0
 10
108.0163119714027
 20
-15.34851998058133
 30
0.0
 10
108.0243862447645
 20
-15.3338893028974
 30
0.0
 10
108.0301422319838
 20
-15.31861006210326
 30
0.0
 10
108.036338782016
 20
-15.3021613494103
 30
0.0
 10
108.0400404229244
 20
-15.28464098190431
 30
0.0
 10
108.0416851539706
 20
-15.26715897300422
 30
0.0
  0
ELLIPSE
  5
CC
330
1F
100
AcDbEntity
  8
1
 62
     4
420
    65535
100
AcDbEllipse
 10
103.548460848
 20
-11.5791613887
 30
0.0
 11
4.409048619397693
 21
-3.841010865230384
 31
0.0
210
0.0
220
0.0
230
1.0
 40
0.5107016765
 41
0.0027217870058831
 42
0.0255878261071246
  0
SPLINE
  5
CD
330
1F
100
AcDbEntity
  8
1
 62
     4
420
    65535
100
AcDbSpline
210
0.0
220
0.0
230
1.0
 70
     8
 71
     3
 72
     8
 73
     4
 74
     0
 42
0.000000001
 43
0.00000001
 40
0.0
 40
0.0
 40
0.0
 40
0.0
 40
1.0
 40
1.0
 40
1.0
 40
1.0
 10
107.8780719012715
 20
-15.46582469466517
 30
0.0
 10
107.9103718237018
 20
-15.45676046083602
 30
0.0
 10
107.9405018971451
 20
-15.43993957880057
 30
0.0
 10
107.9628322158628
 20
-15.41402936313129
 30
0.0
  0
LINE
  5
CE
330
1F
100
AcDbEntity
  8
1
 62
     4
420
    65535
100
AcDbLine
 10
104.2006165993
 20
-16.4978183418
 30
0.0
 11
107.8780719013
 21
-15.4658246947
 31
0.0
  0
ARC
  5
CF
330
1F
100
AcDbEntity
  8
1
 62
     4
420
    65535
100
AcDbCircle
 10
130.078548631
 20
-1.8322862801
 30
0.0
 40
30.03741033043402
100
AcDbArc
 50
209.6400144693
 51
210.5025911186
  0
SPLINE
  5
D0
330
1F
100
AcDbEntity
  8
1
 62
     4
420
    65535
100
AcDbSpline
210
0.0
220
0.0
230
1.0
 70
     8
 71
     3
 72
    12
 73
     8
 74
     0
 42
0.000000001
 43
0.00000001
 40
0.0
 40
0.0
 40
0.0
 40
0.0
 40
0.5
 40
0.5
 40
0.75
 40
0.75
 40
1.0
 40
1.0
 40
1.0
 40
1.0
 10
104.1981294519229
 20
-17.07859476679125
 30
0.0
 10
103.9860145108401
 20
-17.23066591418634
 30
0.0
 10
103.7555580515194
 20
-17.33907825159408
 30
0.0
 10
103.4090254428521
 20
-17.40629048107501
 30
0.0
 10
103.292744451799
 20
-17.41266327649296
 30
0.0
 10
103.0637006393287
 20
-17.38592786362032
 30
0.0
 10
102.9509081403901
 20
-17.35269245501564
 30
0.0
 10
102.8402352807762
 20
-17.29711899119797
 30
0.0
  0
ARC
  5
D1
330
1F
100
AcDbEntity
  8
1
 62
     4
420
    65535
100
AcDbCircle
 10
101.3507216189
 20
-16.0368087787
 30
0.0
 40
1.951161905296463
100
AcDbArc
 50
319.7647065218
 51
324.6516377728
  0
ARC
  5
D2
330
1F
100
AcDbEntity
  8
1
 62
     4
420
    65535
100
AcDbCircle
 10
100.6261828166
 20
-17.4344691664
 30
0.0
 40
3.695117269353815
100
AcDbArc
 50
6.1710438969
 51
14.6837370193
  0
ELLIPSE
  5
D3
330
1F
100
AcDbEntity
  8
1
 62
     4
420
    65535
100
AcDbEllipse
 10
104.8335365052
 20
-17.5577595081
 30
0.0
 11
0.7613574006549584
 21
-0.3481887690802701
 31
0.0
210
0.0
220
0.0
230
1.0
 40
0.5507188803
 41
2.56486417640237
 42
2.760479215553475
  0
ARC
  5
D4
330
1F
100
AcDbEntity
  8
1
 62
     4
420
    65535
100
AcDbCircle
 10
104.3036381185
 20
-16.4024755193
 30
0.0
 40
3.695117269417521
100
AcDbArc
 50
6.171043897
 51
14.6837370192
  0
LINE
  5
D5
330
1F
100
AcDbEntity
  8
1
 62
     4
420
    65535
100
AcDbLine
 10
107.9773437266
 20
-16.005261799
 30
0.0
 11
104.2998884247
 21
-17.0372554462
 31
0.0
  0
ARC
  5
D6
330
1F
100
AcDbEntity
  8
1
 62
     4
420
    65535
100
AcDbCircle
 10
103.8749105029
 20
-16.889498045
 30
0.0
 40
1.029653699518867
100
AcDbArc
 50
259.2179959313
 51
328.297719478
  0
ELLIPSE
  5
D7
330
1F
100
AcDbEntity
  8
1
 62
     4
420
    65535
100
AcDbEllipse
 10
107.0702625873
 20
-13.8766671362
 30
0.0
 11
4.366950317376975
 21
3.253622271477955
 31
0.0
210
0.0
220
0.0
230
1.0
 40
0.6495201031
 41
3.202579971385944
 42
3.488595731618084
  0
ELLIPSE
  5
D8
330
1F
100
AcDbEntity
  8
1
 62
     4
420
    65535
100
AcDbEllipse
 10
107.5558164017
 20
-14.7877882768
 30
0.0
 11
3.746191572070559
 21
1.774799430653395
 31
0.0
210
0.0
220
0.0
230
1.0
 40
0.6138357347
 41
3.392859454405065
 42
3.627098501722116
  0
ELLIPSE
  5
D9
330
1F
100
AcDbEntity
  8
1
 62
     4
420
    65535
100
AcDbEllipse
 10
-250.6215769082
 20
333.8053672805
 30
0.0
 11
377.5624455609598
 21
-369.545290498099
 31
0.0
210
0.0
220
0.0
230
1.0
 40
0.0049991716
 41
0.2844829283856727
 42
0.3232133452157229
  0
LINE
  5
DA
330
1F
100
AcDbEntity
  8
1
 62
     4
420
    65535
100
AcDbLine
 10
111.7011710394
 20
-20.5205530617
 30
0.0
 11
112.2839638237
 21
-20.3570056079
 31
0.0
  0
LINE
  5
DB
330
1F
100
AcDbEntity
  8
1
 62
     4
420
    65535
100
AcDbLine
 10
104.7509297732
 20
-17.4305867428
 30
0.0
 11
111.7011710394
 21
-20.5205530617
 31
0.0
  0
LINE
  5
DC
330
1F
100
AcDbEntity
  8
1
 62
     4
420
    65535
100
AcDbLine
 10
105.6332837939
 20
-6.4002121131
 30
0.0
 11
104.2212323036
 21
-5.1879248196
 31
0.0
  0
LINE
  5
DD
330
1F
100
AcDbEntity
  8
1
 62
     4
420
    65535
100
AcDbLine
 10
108.2643645474
 20
-9.5067413369
 30
0.0
 11
105.6332837939
 21
-6.4002121131
 31
0.0
  0
LINE
  5
DE
330
1F
100
AcDbEntity
  8
1
 62
     4
420
    65535
100
AcDbLine
 10
103.1772373099
 20
-4.0870468744
 30
0.0
 11
102.7373567538
 21
-3.7093966169
 31
0.0
  0
ELLIPSE
  5
DF
330
1F
100
AcDbEntity
  8
1
 62
     4
420
    65535
100
AcDbEllipse
 10
104.1417458401
 20
-4.7907303858
 30
0.0
 11
1.064451771172088
 21
-0.9882600200842272
 31
0.0
210
0.0
220
0.0
230
1.0
 40
0.1675096995
 41
3.757466613523429
 42
4.940526425742288
  0
SPLINE
  5
E0
330
1F
100
AcDbEntity
  8
1
 62
     4
420
    65535
100
AcDbSpline
210
0.0
220
0.0
230
1.0
 70
     8
 71
     3
 72
     8
 73
     4
 74
     0
 42
0.000000001
 43
0.00000001
 40
0.0
 40
0.0
 40
0.0
 40
0.0
 40
1.0
 40
1.0
 40
1.0
 40
1.0
 10
102.8402352807764
 20
-17.29711899119796
 30
0.0
 10
102.6301913364164
 20
-17.15240915262462
 30
0.0
 10
102.4246265347231
 20
-17.00018450481514
 30
0.0
 10
102.2243258168398
 20
-16.84079669906737
 30
0.0
  0
ELLIPSE
  5
E1
330
1F
100
AcDbEntity
  8
1
 62
     4
420
    65535
100
AcDbEllipse
 10
99.2813575974
 20
-6.9216549609
 30
0.0
 11
0.2446696565781963
 21
0.04560507803556037
 31
0.0
210
0.0
220
0.0
230
1.0
 40
0.6299991276
 41
2.017050022211252
 42
2.497033014060221
  0
ELLIPSE
  5
E2
330
1F
100
AcDbEntity
  8
1
 62
     4
420
    65535
100
AcDbEllipse
 10
98.015352909
 20
-8.4588882284
 30
0.0
 11
-0.04313502012064419
 21
0.231417881824088
 31
0.0
210
0.0
220
0.0
230
1.0
 40
0.5708327555
 41
0.4462536954163402
 42
0.926236687265264
  0
ARC
  5
E3
330
1F
100
AcDbEntity
  8
1
 62
     4
420
    65535
100
AcDbCircle
 10
108.157930024
 20
-9.5054729147
 30
0.0
 40
0.8485423960991166
100
AcDbArc
 50
314.3447878917
 51
321.1575059277
  0
SPLINE
  5
E4
330
1F
100
AcDbEntity
  8
1
 62
     4
420
    65535
100
AcDbSpline
210
0.0
220
0.0
230
1.0
 70
     8
 71
     3
 72
    14
 73
    10
 74
     0
 42
0.000000001
 43
0.00000001
 40
0.0
 40
0.0
 40
0.0
 40
0.0
 40
0.25
 40
0.25
 40
0.5
 40
0.5
 40
0.75
 40
0.75
 40
1.0
 40
1.0
 40
1.0
 40
1.0
 10
108.8188368050112
 20
-10.03766312962207
 30
0.0
 10
108.9002503869111
 20
-10.12886841929603
 30
0.0
 10
108.9624845717372
 20
-10.22484188424821
 30
0.0
 10
109.0481889552395
 20
-10.42518193162718
 30
0.0
 10
109.0723996372237
 20
-10.5308509424599
 30
0.0
 10
109.0875952970345
 20
-10.74691171659174
 30
0.0
 10
109.0787423231057
 20
-10.86035859914301
 30
0.0
 10
109.0319063225789
 20
-11.08794940418557
 30
0.0
 10
108.994474471587
 20
-11.20188151293923
 30
0.0
 10
108.9434076273958
 20
-11.31668918967298
 30
0.0
  0
ARC
  5
E5
330
1F
100
AcDbEntity
  8
1
 62
     4
420
    65535
100
AcDbCircle
 10
107.4392447059
 20
-14.0356734214
 30
0.0
 40
3.10731095103932
100
AcDbArc
 50
61.0482951079
 51
69.1266685634
  0
ARC
  5
E6
330
1F
100
AcDbEntity
  8
1
 62
     4
420
    65535
100
AcDbCircle
 10
109.4984101376
 20
1.357865629
 30
0.0
 40
12.79559508359338
100
AcDbArc
 50
265.1040700098001
 51
267.4186748357
  0
LINE
  5
E7
330
1F
100
AcDbEntity
  8
1
 62
     4
420
    65535
100
AcDbLine
 10
108.9221300098
 20
-11.4247457927
 30
0.0
 11
108.557459771
 21
-15.3008618148
 31
0.0
  0
ARC
  5
E8
330
1F
100
AcDbEntity
  8
1
 62
     4
420
    65535
100
AcDbCircle
 10
109.1337398988
 20
-2.5182503933
 30
0.0
 40
12.79559508340313
100
AcDbArc
 50
265.1040700098001
 51
267.4186748357
  0
ELLIPSE
  5
E9
330
1F
100
AcDbEntity
  8
1
 62
     4
420
    65535
100
AcDbEllipse
 10
109.4557780904
 20
-11.9452498546
 30
0.0
 11
-0.3977283462585036
 21
0.7781082315540805
 31
0.0
210
0.0
220
0.0
230
1.0
 40
0.4631132720999999
 41
0.4339110754240999
 42
0.6295261145752147
  0
LINE
  5
EA
330
1F
100
AcDbEntity
  8
1
 62
     4
420
    65535
100
AcDbLine
 10
103.6822903224
 20
-17.9009742963
 30
0.0
 11
100.4450898891
 21
-16.5994141458
 31
0.0
  0
ELLIPSE
  5
EB
330
1F
100
AcDbEntity
  8
1
 62
     4
420
    65535
100
AcDbEllipse
 10
102.388708677
 20
-11.9943851653
 30
0.0
 11
5.894004960570755
 21
-2.603952141462711
 31
0.0
210
0.0
220
0.0
230
1.0
 40
0.7756729551999999
 41
4.332171461498328
 42
4.725288617704379
  0
ARC
  5
EC
330
1F
100
AcDbEntity
  8
1
 62
     4
420
    65535
100
AcDbCircle
 10
98.8857706679
 20
-6.7034271237
 30
0.0
 40
0.2002358692878927
100
AcDbArc
 50
138.0288060378
 51
224.0328860823
  0
ARC
  5
ED
330
1F
100
AcDbEntity
  8
1
 62
     4
420
    65535
100
AcDbCircle
 10
103.267651517
 20
-20.6708477817
 30
0.0
 40
7.048323324108528
100
AcDbArc
 50
44.480343458
 51
48.2300418459
  0
SPLINE
  5
EE
330
1F
100
AcDbEntity
  8
1
 62
     4
420
    65535
100
AcDbSpline
210
0.0
220
0.0
230
1.0
 70
     8
 71
     3
 72
     8
 73
     4
 74
     0
 42
0.000000001
 43
0.00000001
 40
0.0
 40
0.0
 40
0.0
 40
0.0
 40
1.0
 40
1.0
 40
1.0
 40
1.0
 10
108.296565851082
 20
-15.73233765198828
 30
0.0
 10
108.2052956393732
 20
-15.83920124293336
 30
0.0
 10
108.0972692571759
 20
-15.93132201871694
 30
0.0
 10
107.9773437266104
 20
-16.00526179899762
 30
0.0
  0
LINE
  5
EF
330
1F
100
AcDbEntity
  8
1
 62
     4
420
    65535
100
AcDbLine
 10
110.6325315886
 20
-20.9909406152
 30
0.0
 11
103.6822903224
 21
-17.9009742963
 31
0.0
  0
ARC
  5
F0
330
1F
100
AcDbEntity
  8
1
 62
     4
420
    65535
100
AcDbCircle
 10
110.8251517691
 20
-19.9794643639
 30
0.0
 40
1.029653699518809
100
AcDbArc
 50
259.2179959313
 51
328.297719478
  0
SPLINE
  5
F1
330
1F
100
AcDbEntity
  8
1
 62
     4
420
    65535
100
AcDbSpline
210
0.0
220
0.0
230
1.0
 70
     8
 71
     3
 72
     8
 73
     4
 74
     0
 42
0.000000001
 43
0.00000001
 40
0.0
 40
0.0
 40
0.0
 40
0.0
 40
1.0
 40
1.0
 40
1.0
 40
1.0
 10
108.5574597710258
 20
-15.3008618148261
 30
0.0
 10
108.5103354357165
 20
-15.42972562531555
 30
0.0
 10
108.4418142112605
 20
-15.55201302227672
 30
0.0
 10
108.3544616151811
 20
-15.66203831152444
 30
0.0
  0
ARC
  5
F2
330
1F
100
AcDbEntity
  8
1
 62
     4
420
    65535
100
AcDbCircle
 10
103.0947102718
 20
-21.4001452041
 30
0.0
 40
7.784012776543365
100
AcDbArc
 50
47.49052946
 51
50.8776574625
  0
ELLIPSE
  5
F3
330
1F
100
AcDbEntity
  8
1
 62
     4
420
    65535
100
AcDbEllipse
 10
103.3240301303
 20
-11.5111843992
 30
0.0
 11
4.982118863976241
 21
-4.209881957652725
 31
0.0
210
0.0
220
0.0
230
1.0
 40
0.6105964857
 41
6.279470603550992
 42
6.302336642652204
  0
ELLIPSE
  5
F4
330
1F
100
AcDbEntity
  8
1
 62
     4
420
    65535
100
AcDbEllipse
 10
107.4302878724
 20
-14.940210012
 30
0.0
 11
0.6671394950564891
 21
4.096517015901082
 31
0.0
210
0.0
220
0.0
230
1.0
 40
0.5610027366
 41
5.646952663908059
 42
5.88119171122511
  0
LINE
  5
F5
330
1F
100
AcDbEntity
  8
1
 62
     4
420
    65535
100
AcDbLine
 10
113.0541900277
 20
-18.8776635689
 30
0.0
 11
109.3323895794
 21
-11.8675959481
 31
0.0
  0
LINE
  5
F6
330
1F
100
AcDbEntity
  8
1
 62
     4
420
    65535
100
AcDbLine
 10
113.0541900277
 20
-18.8776635689
 30
0.0
 11
112.9963981129
 21
-19.491939546
 31
0.0
  0
ELLIPSE
  5
F7
330
1F
100
AcDbEntity
  8
1
 62
     4
420
    65535
100
AcDbEllipse
 10
-250.080123279
 20
334.4628218218
 30
0.0
 11
378.6834728672467
 21
-368.1841116415313
 31
0.0
210
0.0
220
0.0
230
1.0
 40
0.0045828029
 41
5.960780039314349
 42
5.999510456144526
  0
LINE
  5
F8
330
1F
100
AcDbEntity
  8
1
 62
     4
420
    65535
100
AcDbLine
 10
98.7418128981
 20
-6.8426052968
 30
0.0
 11
98.2427531564
 21
-6.6914469387
 31
0.0
  0
LINE
  5
F9
330
1F
100
AcDbEntity
  8
1
 62
     4
420
    65535
100
AcDbLine
 10
98.8104574166
 20
-7.1788375656
 30
0.0
 11
98.2427531564
 21
-6.6914469387
 31
0.0
  0
ARC
  5
FA
330
1F
100
AcDbEntity
  8
1
 62
     4
420
    65535
100
AcDbCircle
 10
111.1278085771
 20
-18.822538802
 30
0.0
 40
1.921271280420454
100
AcDbArc
 50
306.9964648845001
 51
318.0243717545
  0
ELLIPSE
  5
FB
330
1F
100
AcDbEntity
  8
1
 62
     4
420
    65535
100
AcDbEllipse
 10
-251.0423902141
 20
334.5950056024
 30
0.0
 11
377.9875378316702
 21
-370.3360001210013
 31
0.0
210
0.0
220
0.0
230
1.0
 40
0.0073947206
 41
0.2841455786971364
 42
0.3227539280593451
  0
ARC
  5
FC
330
1F
100
AcDbEntity
  8
1
 62
     4
420
    65535
100
AcDbCircle
 10
111.3898910812
 20
-18.72753611
 30
0.0
 40
1.779094560615558
100
AcDbArc
 50
322.9306817582
 51
334.5540983779
  0
ELLIPSE
  5
FD
330
1F
100
AcDbEntity
  8
1
 62
     4
420
    65535
100
AcDbEllipse
 10
-251.0423902141
 20
334.5950056024
 30
0.0
 11
379.6458345299919
 21
-368.322473062126
 31
0.0
210
0.0
220
0.0
230
1.0
 40
0.0067816748
 41
5.961623303765653
 42
6.000231653127911
  0
SPLINE
  5
FE
330
1F
100
AcDbEntity
  8
1
 62
     4
420
    65535
100
AcDbSpline
210
0.0
220
0.0
230
1.0
 70
     8
 71
     3
 72
    10
 73
     6
 74
     0
 42
0.000000001
 43
0.00000001
 40
0.0
 40
0.0
 40
0.0
 40
0.0
 40
0.5
 40
0.5
 40
1.0
 40
1.0
 40
1.0
 40
1.0
 10
112.9612616702752
 20
-20.17122509900429
 30
0.0
 10
112.9497491720999
 20
-20.10011933015357
 30
0.0
 10
112.9341403749108
 20
-20.03098711859238
 30
0.0
 10
112.8870669260029
 20
-19.90222446659434
 30
0.0
 10
112.855771537175
 20
-19.84283583132599
 30
0.0
 10
112.8094427840362
 20
-19.7999401470661
 30
0.0
  0
SPLINE
  5
FF
330
1F
100
AcDbEntity
  8
1
 62
     4
420
    65535
100
AcDbSpline
210
0.0
220
0.0
230
1.0
 70
     8
 71
     3
 72
    29
 73
    25
 74
     0
 42
0.000000001
 43
0.00000001
 40
0.0
 40
0.0
 40
0.0
 40
0.0
 40
0.0000156253751563
 40
0.0000156253751563
 40
0.0000156253751563
 40
0.0000278922373085
 40
0.0000278922373085
 40
0.0000278922373085
 40
0.0000392567339813
 40
0.0000392567339813
 40
0.0000392567339813
 40
0.0000510785579912
 40
0.0000510785579912
 40
0.0000510785579912
 40
0.0000617161729061
 40
0.0000617161729061
 40
0.0000617161729061
 40
0.0000722381387467
 40
0.0000722381387467
 40
0.0000722381387467
 40
0.0000864190862181
 40
0.0000864190862181
 40
0.0000864190862181
 40
0.000091021705367
 40
0.000091021705367
 40
0.000091021705367
 40
0.000091021705367
 10
112.912296895844
 20
-20.23068007644613
 30
0.0
 10
112.9163602531968
 20
-20.23096678640875
 30
0.0
 10
112.9207897869286
 20
-20.23026173722933
 30
0.0
 10
112.925097974443
 20
-20.22872201862026
 30
0.0
 10
112.9285077104251
 20
-20.22750340083124
 30
0.0
 10
112.9319243178469
 20
-20.22574495352464
 30
0.0
 10
112.9351592862839
 20
-20.22358013354309
 30
0.0
 10
112.9381621220356
 20
-20.22157065525505
 30
0.0
 10
112.9410583888429
 20
-20.21918046841419
 30
0.0
 10
112.9437283623931
 20
-20.21652621132708
 30
0.0
 10
112.9465047803204
 20
-20.21376613643429
 30
0.0
 10
112.9490791335266
 20
-20.21067834180374
 30
0.0
 10
112.9513360995982
 20
-20.2074019293625
 30
0.0
 10
112.953369599584
 20
-20.20444992014258
 30
0.0
 10
112.9551728040865
 20
-20.20130576240675
 30
0.0
 10
112.9566684392929
 20
-20.19808417651928
 30
0.0
 10
112.9581473783351
 20
-20.19489855403145
 30
0.0
 10
112.9593444560455
 20
-20.19159479375955
 30
0.0
 10
112.9601926484533
 20
-20.18830533846028
 30
0.0
 10
112.9613276861445
 20
-20.18390344130338
 30
0.0
 10
112.961853744789
 20
-20.17942131444476
 30
0.0
 10
112.9616697287669
 20
-20.17525088454978
 30
0.0
 10
112.9616092002949
 20
-20.17387910318975
 30
0.0
 10
112.9614732956794
 20
-20.17253218169283
 30
0.0
 10
112.9612616702752
 20
-20.1712250990043
 30
0.0
  0
SPLINE
  5
100
330
1F
100
AcDbEntity
  8
1
 62
     4
420
    65535
100
AcDbSpline
210
0.0
220
0.0
230
1.0
 70
     8
 71
     3
 72
    10
 73
     6
 74
     0
 42
0.000000001
 43
0.00000001
 40
0.0
 40
0.0
 40
0.0
 40
0.0
 40
0.5
 40
0.5
 40
1.0
 40
1.0
 40
1.0
 40
1.0
 10
112.5561381026344
 20
-20.1075127703157
 30
0.0
 10
112.600416117073
 20
-20.15314769728209
 30
0.0
 10
112.6573871073587
 20
-20.17999617070508
 30
0.0
 10
112.7808833323986
 20
-20.21680986160742
 30
0.0
 10
112.8460019521783
 20
-20.22600231390404
 30
0.0
 10
112.912296895844
 20
-20.23068007644613
 30
0.0
  0
ARC
  5
101
330
1F
100
AcDbEntity
  8
1
 62
     4
420
    65535
100
AcDbCircle
 10
96.1640486783
 20
-9.7152284957
 30
0.0
 40
0.0927002363215627
100
AcDbArc
 50
59.0661104926
 51
70.4725029436
  0
SPLINE
  5
102
330
1F
100
AcDbEntity
  8
1
 62
     4
420
    65535
100
AcDbSpline
210
0.0
220
0.0
230
1.0
 70
     8
 71
     3
 72
     8
 73
     4
 74
     0
 42
0.000000001
 43
0.00000001
 40
0.0
 40
0.0
 40
0.0
 40
0.0
 40
1.0
 40
1.0
 40
1.0
 40
1.0
 10
94.34896430995947
 20
-11.11229569775016
 30
0.0
 10
94.30948343620956
 20
-11.16023494561659
 30
0.0
 10
94.28690811644066
 20
-11.22143791906482
 30
0.0
 10
94.2905832453221
 20
-11.28361133141739
 30
0.0
  0
ELLIPSE
  5
103
330
1F
100
AcDbEntity
  8
1
 62
     4
420
    65535
100
AcDbEllipse
 10
92.7943304447
 20
-10.7313628655
 30
0.0
 11
3.684254856438614
 21
1.897160442448943
 31
0.0
210
0.0
220
0.0
230
1.0
 40
0.2649740927
 41
5.008126401586881
 42
5.731207662125152
  0
LINE
  5
104
330
1F
100
AcDbEntity
  8
1
 62
     4
420
    65535
100
AcDbLine
 10
96.1950345859
 20
-9.6278602673
 30
0.0
 11
97.4542278586
 21
-8.0988976917
 31
0.0
  0
ARC
  5
105
330
1F
100
AcDbEntity
  8
1
 62
     4
420
    65535
100
AcDbCircle
 10
97.423241951
 20
-8.1862659202
 30
0.0
 40
0.0927002363203292
100
AcDbArc
 50
59.0661104926
 51
70.4725029437
  0
LINE
  5
106
330
1F
100
AcDbEntity
  8
1
 62
     4
420
    65535
100
AcDbLine
 10
96.9551681168
 20
-7.9477393336
 30
0.0
 11
94.34896431
 21
-11.1122956978
 31
0.0
  0
LINE
  5
107
330
1F
100
AcDbEntity
  8
1
 62
     4
420
    65535
100
AcDbLine
 10
97.4542278586
 20
-8.0988976917
 30
0.0
 11
96.9551681168
 21
-7.9477393336
 31
0.0
  0
SPLINE
  5
108
330
1F
100
AcDbEntity
  8
1
 62
     4
420
    65535
100
AcDbSpline
210
0.0
220
0.0
230
1.0
 70
     8
 71
     3
 72
     8
 73
     4
 74
     0
 42
0.000000001
 43
0.00000001
 40
0.0
 40
0.0
 40
0.0
 40
0.0
 40
1.0
 40
1.0
 40
1.0
 40
1.0
 10
108.8188368050141
 20
-10.03766312962414
 30
0.0
 10
108.640750505819
 20
-9.854149046682073
 30
0.0
 10
108.4557078459047
 20
-9.677005597716338
 30
0.0
 10
108.2643645473967
 20
-9.50674133694132
 30
0.0
  0
ARC
  5
109
330
1F
100
AcDbEntity
  8
1
 62
     4
420
    65535
100
AcDbCircle
 10
97.1063223001
 20
-8.0700329668
 30
0.0
 40
0.1944307584963205
100
AcDbArc
 50
73.56712691559999
 51
141.0248733364
  0
ELLIPSE
  5
10A
330
1F
100
AcDbEntity
  8
1
 62
     4
420
    65535
100
AcDbEllipse
 10
103.1604865019
 20
-11.057261821
 30
0.0
 11
-3.224234254128902
 21
5.679644533865734
 31
0.0
210
0.0
220
0.0
230
1.0
 40
0.7559032999
 41
4.956891788691307
 42
5.160423332738207
  0
ARC
  5
10B
330
1F
100
AcDbEntity
  8
1
 62
     4
420
    65535
100
AcDbCircle
 10
98.6892466395
 20
-6.6490326527
 30
0.0
 40
0.0927002363191737
100
AcDbArc
 50
59.0661104925
 51
70.4725029437
  0
ARC
  5
10C
330
1F
100
AcDbEntity
  8
1
 62
     4
420
    65535
100
AcDbCircle
 10
98.8754122293
 20
-6.6910436433
 30
0.0
 40
0.202038897497372
100
AcDbArc
 50
140.1807436714
 51
228.6043056168
  0
LINE
  5
10D
330
1F
100
AcDbEntity
  8
1
 62
     4
420
    65535
100
AcDbLine
 10
98.720232547
 20
-6.5616644242
 30
0.0
 11
99.9794258198
 21
-5.0327018487
 31
0.0
  0
ARC
  5
10E
330
1F
100
AcDbEntity
  8
1
 62
     4
420
    65535
100
AcDbCircle
 10
99.9484399122
 20
-5.1200700771
 30
0.0
 40
0.0927002363197707
100
AcDbArc
 50
59.0661104926
 51
70.4725029437
  0
ARC
  5
10F
330
1F
100
AcDbEntity
  8
1
 62
     4
420
    65535
100
AcDbCircle
 10
98.3763524875
 20
-6.5398852851
 30
0.0
 40
0.202038897497362
100
AcDbArc
 50
140.1807436714
 51
228.6043056168
  0
LINE
  5
110
330
1F
100
AcDbEntity
  8
1
 62
     4
420
    65535
100
AcDbLine
 10
98.2211728052
 20
-6.4105060661
 30
0.0
 11
98.720232547
 21
-6.5616644242
 31
0.0
  0
LINE
  5
111
330
1F
100
AcDbEntity
  8
1
 62
     4
420
    65535
100
AcDbLine
 10
100.8273766121
 20
-3.245949702
 30
0.0
 11
98.2211728052
 21
-6.4105060661
 31
0.0
  0
ELLIPSE
  5
112
330
1F
100
AcDbEntity
  8
1
 62
     4
420
    65535
100
AcDbEllipse
 10
99.3913149156
 20
-2.7210418244
 30
0.0
 11
0.6371715901504872
 21
2.92814899802193
 31
0.0
210
0.0
220
0.0
230
1.0
 40
0.5067221464
 41
3.91998855467393
 42
4.643069815212154
  0
SPLINE
  5
113
330
1F
100
AcDbEntity
  8
1
 62
     4
420
    65535
100
AcDbSpline
210
0.0
220
0.0
230
1.0
 70
     8
 71
     3
 72
     8
 73
     4
 74
     0
 42
0.000000001
 43
0.00000001
 40
0.0
 40
0.0
 40
0.0
 40
0.0
 40
1.0
 40
1.0
 40
1.0
 40
1.0
 10
100.9826589979577
 20
-3.157826672277456
 30
0.0
 10
100.9221580478927
 20
-3.164785809793726
 30
0.0
 10
100.8667852592363
 20
-3.198098154514714
 30
0.0
 10
100.8273766120966
 20
-3.245949701957105
 30
0.0
  0
ELLIPSE
  5
114
330
1F
100
AcDbEntity
  8
1
 62
     4
420
    65535
100
AcDbEllipse
 10
107.7889017925
 20
-19.7928094824
 30
0.0
 11
1.393385240447017
 21
-0.5889091175499458
 31
0.0
210
0.0
220
0.0
230
1.0
 40
0.024346848
 41
0.2011925109660358
 42
1.345372154378183
  0
LINE
  5
115
330
1F
100
AcDbEntity
  8
1
 62
     4
420
    65535
100
AcDbLine
 10
100.4450898891
 20
-16.5994141458
 30
0.0
 11
108.1143263331
 21
-19.8913761171
 31
0.0
  0
ELLIPSE
  5
116
330
1F
100
AcDbEntity
  8
1
 62
     4
420
    65535
100
AcDbEllipse
 10
108.9047185281
 20
-20.2887803341
 30
0.0
 11
2.496729485223426
 21
-1.064663752688844
 31
0.0
210
0.0
220
0.0
230
1.0
 40
0.0161464952
 41
0.6371429773468759
 42
0.8134060098051116
  0
LINE
  5
117
330
1F
100
AcDbEntity
  8
1
 62
     4
420
    65535
100
AcDbLine
 10
110.9218131049
 20
-21.1205731398
 30
0.0
 11
109.1570463038
 21
-20.3630602844
 31
0.0
  0
LINE
  5
118
330
1F
100
AcDbEntity
  8
1
 62
     4
420
    65535
100
AcDbLine
 10
93.6018111499
 20
-20.0019940657
 30
0.0
 11
86.0027086782
 21
-20.0019940657
 31
0.0
  0
LINE
  5
119
330
1F
100
AcDbEntity
  8
1
 62
     4
420
    65535
100
AcDbLine
 10
86.0027086782
 20
-20.0019940657
 30
0.0
 11
86.0027086782
 21
-0.0019940657
 31
0.0
  0
LINE
  5
11A
330
1F
100
AcDbEntity
  8
1
 62
     4
420
    65535
100
AcDbLine
 10
86.0027086782
 20
-0.0019940657
 30
0.0
 11
94.2627086782
 21
-0.0019940657
 31
0.0
  0
LINE
  5
11B
330
1F
100
AcDbEntity
  8
1
 62
     4
420
    65535
100
AcDbLine
 10
94.2627086782
 20
-0.0019940657
 30
0.0
 11
94.2627086782
 21
-8.368720326
 31
0.0
  0
LINE
  5
11C
330
1F
100
AcDbEntity
  8
1
 62
     4
420
    65535
100
AcDbLine
 10
94.2627086782
 20
-8.368720326
 30
0.0
 11
93.6018111499
 21
-20.0019940657
 31
0.0
  0
LINE
  5
11D
330
1F
100
AcDbEntity
  8
1
 62
     4
420
    65535
100
AcDbLine
 10
109.8288499391
 20
-23.8998623066
 30
0.0
 11
100.8025340131
 21
-16.7529182546
 31
0.0
  0
LINE
  5
11E
330
1F
100
AcDbEntity
  8
1
 62
     4
420
    65535
100
AcDbLine
 10
109.8288499391
 20
-23.8998623066
 30
0.0
 11
98.2961750383
 21
-23.2954604259
 31
0.0
  0
LINE
  5
11F
330
1F
100
AcDbEntity
  8
1
 62
     4
420
    65535
100
AcDbLine
 10
98.2961750383
 20
-23.2954604259
 30
0.0
 11
95.0027086782
 21
-20.0019940657
 31
0.0
  0
LINE
  5
120
330
1F
100
AcDbEntity
  8
1
 62
     4
420
    65535
100
AcDbLine
 10
93.6018111499
 20
-20.0019940657
 30
0.0
 11
95.0027086782
 21
-20.0019940657
 31
0.0
  0
LINE
  5
121
330
1F
100
AcDbEntity
  8
1
 62
     4
420
    65535
100
AcDbLine
 10
96.796875429
 20
-0.0019940657
 30
0.0
 11
94.2627086782
 21
-8.368720326
 31
0.0
  0
LINE
  5
122
330
1F
100
AcDbEntity
  8
1
 62
     4
420
    65535
100
AcDbLine
 10
103.9845051212
 20
-0.0019940657
 30
0.0
 11
104.0845051212
 21
-0.1019940657
 31
0.0
  0
LINE
  5
123
330
1F
100
AcDbEntity
  8
1
 62
     4
420
    65535
100
AcDbLine
 10
104.0845051212
 20
-0.1019940657
 30
0.0
 11
112.162048329
 21
-14.092709302
 31
0.0
  0
LINE
  5
124
330
1F
100
AcDbEntity
  8
1
 62
     4
420
    65535
100
AcDbLine
 10
113.3472373686
 20
-15.0311297857
 30
0.0
 11
112.162048329
 21
-14.092709302
 31
0.0
  0
LINE
  5
125
330
1F
100
AcDbEntity
  8
1
 62
     4
420
    65535
100
AcDbLine
 10
111.6423988122
 20
-14.9585198835
 30
0.0
 11
113.3472373686
 21
-15.0311297857
 31
0.0
  0
SPLINE
  5
126
330
1F
100
AcDbEntity
  8
1
 62
     4
420
    65535
100
AcDbSpline
210
0.0
220
0.0
230
1.0
 70
     8
 71
     3
 72
     8
 73
     4
 74
     0
 42
0.000000001
 43
0.00000001
 40
0.0
 40
0.0
 40
0.0
 40
0.0
 40
1.0
 40
1.0
 40
1.0
 40
1.0
 10
95.5637958002197
 20
-13.33159049726324
 30
0.0
 10
95.58407345412301
 20
-13.34899945319563
 30
0.0
 10
95.60679482361445
 20
-13.36212470267316
 30
0.0
 10
95.63168012558573
 20
-13.37145669094756
 30
0.0
  0
LINE
  5
127
330
1F
100
AcDbEntity
  8
1
 62
     4
420
    65535
100
AcDbLine
 10
103.9845051212
 20
-0.0019940657
 30
0.0
 11
96.796875429
 21
-0.0019940657
 31
0.0
  0
LINE
  5
128
330
1F
100
AcDbEntity
  8
1
 62
     4
420
    65535
100
AcDbLine
 10
94.2627086782
 20
-0.0019940657
 30
0.0
 11
96.796875429
 21
-0.0019940657
 31
0.0
  0
LWPOLYLINE
  5
129
330
1F
100
AcDbEntity
  8
1
 62
     4
420
    65535
100
AcDbPolyline
 90
        3
 70
   128
 43
0.0
 10
98.3257430526
 20
-15.273318851
 10
98.3113482744
 20
-15.275400622
 10
98.3061328276
 20
-15.2730621019
  0
LINE
  5
12A
330
1F
100
AcDbEntity
  8
1
 62
     4
420
    65535
100
AcDbLine
 10
100.4450898891
 20
-16.5994141458
 30
0.0
 11
100.443946604
 21
-16.5989973105
 31
0.0
  0
LINE
  5
12B
330
1F
100
AcDbEntity
  8
1
 62
     4
420
    65535
100
AcDbLine
 10
104.2176077509
 20
-5.1811440729
 30
0.0
 11
104.2212323036
 21
-5.1879248196
 31
0.0
  0
LINE
  5
12C
330
1F
100
AcDbEntity
  8
1
 62
     4
420
    65535
100
AcDbLine
 10
108.1143263331
 20
-19.8913761171
 30
0.0
 11
108.113183048
 21
-19.8909592817
 31
0.0
  0
LINE
  5
12D
330
1F
100
AcDbEntity
  8
1
 62
     4
420
    65535
100
AcDbLine
 10
105.6296592412
 20
-6.3934313664
 30
0.0
 11
105.6332837939
 21
-6.4002121131
 31
0.0
  0
SPLINE
  5
12E
330
1F
100
AcDbEntity
  8
1
 62
     4
420
    65535
100
AcDbSpline
210
0.0
220
0.0
230
1.0
 70
     8
 71
     3
 72
     8
 73
     4
 74
     0
 42
0.000000001
 43
0.00000001
 40
0.0
 40
0.0
 40
0.0
 40
0.0
 40
1.0
 40
1.0
 40
1.0
 40
1.0
 10
112.6159049271645
 20
-20.69042395263119
 30
0.0
 10
112.4872776661198
 20
-20.60798680414574
 30
0.0
 10
112.3692097580089
 20
-20.50475344286327
 30
0.0
 10
112.2839638236829
 20
-20.35700560794985
 30
0.0
  0
LINE
  5
12F
330
1F
100
AcDbEntity
  8
1
 62
     4
420
    65535
100
AcDbLine
 10
112.4203604224
 20
-21.4079317745
 30
0.0
 11
112.4095634186
 21
-21.4104602466
 31
0.0
  0
ELLIPSE
  5
130
330
1F
100
AcDbEntity
  8
1
 62
     4
420
    65535
100
AcDbEllipse
 10
109.4878041645
 20
-18.9072716399
 30
0.0
 11
2.915973703057503
 21
-2.50058881047018
 31
0.0
210
0.0
220
0.0
230
1.0
 40
0.0800082184
 41
6.215888561543063
 42
7.063364366064704
  0
ELLIPSE
  5
131
330
1F
100
AcDbEntity
  8
1
 62
     4
420
    65535
100
AcDbEllipse
 10
108.9047185281
 20
-20.2887803341
 30
0.0
 11
2.496729485223426
 21
-1.064663752688844
 31
0.0
210
0.0
220
0.0
230
1.0
 40
0.0161464952
 41
0.1564736535236254
 42
0.1629264104455934
  0
SPLINE
  5
132
330
1F
100
AcDbEntity
  8
1
 62
     4
420
    65535
100
AcDbSpline
210
0.0
220
0.0
230
1.0
 70
     8
 71
     3
 72
    10
 73
     6
 74
     0
 42
0.000000001
 43
0.00000001
 40
0.0
 40
0.0
 40
0.0
 40
0.0
 40
0.5
 40
0.5
 40
1.0
 40
1.0
 40
1.0
 40
1.0
 10
111.3711718172519
 20
-21.33280545716497
 30
0.0
 10
111.4564246303891
 20
-21.36799824512104
 30
0.0
 10
111.5344632680241
 20
-21.3899510985247
 30
0.0
 10
111.6876772656587
 20
-21.41587807469165
 30
0.0
 10
111.7606254089788
 20
-21.41915756806165
 30
0.0
 10
111.8316329607109
 20
-21.41399650932407
 30
0.0
  0
SPLINE
  5
133
330
1F
100
AcDbEntity
  8
1
 62
     4
420
    65535
100
AcDbSpline
210
0.0
220
0.0
230
1.0
 70
     8
 71
     3
 72
    16
 73
    12
 74
     0
 42
0.000000001
 43
0.00000001
 40
0.0
 40
0.0
 40
0.0
 40
0.0
 40
0.0624999999999997
 40
0.0624999999999997
 40
0.1249999999999994
 40
0.1249999999999994
 40
0.2499999999999799
 40
0.2499999999999799
 40
0.499999999999975
 40
0.499999999999975
 40
1.0
 40
1.0
 40
1.0
 40
1.0
 10
111.8316329607109
 20
-21.41399650932407
 30
0.0
 10
111.8472681391945
 20
-21.41286009393503
 30
0.0
 10
111.8527502403787
 20
-21.40950635278654
 30
0.0
 10
111.8418377947683
 20
-21.40269591548972
 30
0.0
 10
111.8297712325565
 20
-21.39931323622333
 30
0.0
 10
111.790061896934
 20
-21.38937005936977
 30
0.0
 10
111.7577744378399
 20
-21.38283306827568
 30
0.0
 10
111.6584048883352
 20
-21.36166001324216
 30
0.0
 10
111.5864160608869
 20
-21.34535819202787
 30
0.0
 10
111.3696508826555
 20
-21.28839487820741
 30
0.0
 10
111.2213657999238
 20
-21.23984292011134
 30
0.0
 10
111.0719193361896
 20
-21.1819632664503
 30
0.0
  0
SPLINE
  5
134
330
1F
100
AcDbEntity
  8
1
 62
     4
420
    65535
100
AcDbSpline
210
0.0
220
0.0
230
1.0
 70
     8
 71
     3
 72
     8
 73
     4
 74
     0
 42
0.000000001
 43
0.00000001
 40
0.0
 40
0.0
 40
0.0
 40
0.0
 40
0.0001667859152705
 40
0.0001667859152705
 40
0.0001667859152705
 40
0.0001667859152705
 10
111.0719193361896
 20
-21.1819632664503
 30
0.0
 10
111.0215140754987
 20
-21.16244163336115
 30
0.0
 10
110.9714931856503
 20
-21.14189794020215
 30
0.0
 10
110.9218131048892
 20
-21.12057313977535
 30
0.0
  0
SPLINE
  5
135
330
1F
100
AcDbEntity
  8
1
 62
     4
420
    65535
100
AcDbSpline
210
0.0
220
0.0
230
1.0
 70
     8
 71
     3
 72
    14
 73
    10
 74
     0
 42
0.000000001
 43
0.00000001
 40
0.0
 40
0.0
 40
0.0
 40
0.0
 40
0.25
 40
0.25
 40
0.5
 40
0.5
 40
0.75
 40
0.75
 40
1.0
 40
1.0
 40
1.0
 40
1.0
 10
112.3837236108153
 20
-21.41788879660881
 30
0.0
 10
112.3099779301806
 20
-21.43912754415751
 30
0.0
 10
112.2308868344433
 20
-21.45400752269167
 30
0.0
 10
112.0661887095616
 20
-21.46972773884001
 30
0.0
 10
111.9795643698178
 20
-21.47049656400294
 30
0.0
 10
111.8057089812389
 20
-21.4568537114589
 30
0.0
 10
111.7186728579969
 20
-21.44265625045558
 30
0.0
 10
111.5449198065507
 20
-21.39943429115381
 30
0.0
 10
111.4569589619617
 20
-21.36977853020457
 30
0.0
 10
111.3736242686541
 20
-21.33415476158595
 30
0.0
  0
ARC
  5
136
330
1F
100
AcDbEntity
  8
1
 62
     4
420
    65535
100
AcDbCircle
 10
111.394815652
 20
-19.5777884265
 30
0.0
 40
1.651973617202909
100
AcDbArc
 50
317.6607569547
 51
336.7203558607
  0
SPLINE
  5
137
330
1F
100
AcDbEntity
  8
1
 62
     4
420
    65535
100
AcDbSpline
210
0.0
220
0.0
230
1.0
 70
     8
 71
     3
 72
     8
 73
     4
 74
     0
 42
0.000000001
 43
0.00000001
 40
0.0
 40
0.0
 40
0.0
 40
0.0
 40
1.0
 40
1.0
 40
1.0
 40
1.0
 10
112.9963981128615
 20
-19.49193954599258
 30
0.0
 10
113.1381789786299
 20
-19.57104041760179
 30
0.0
 10
113.2422533961852
 20
-19.69126523192321
 30
0.0
 10
113.3273986629487
 20
-19.82649994803024
 30
0.0
  0
ARC
  5
138
330
1F
100
AcDbEntity
  8
1
 62
     4
420
    65535
100
AcDbCircle
 10
112.1774284409
 20
-18.9719038318
 30
0.0
 40
1.432747721523492
100
AcDbArc
 50
303.1671862879
 51
323.3822505959
  0
SPLINE
  5
139
330
1F
100
AcDbEntity
  8
1
 62
     4
420
    65535
100
AcDbSpline
210
0.0
220
0.0
230
1.0
 70
     8
 71
     3
 72
    15
 73
    11
 74
     0
 42
0.000000001
 43
0.00000001
 40
0.0
 40
0.0
 40
0.0
 40
0.0
 40
0.5015299710230505
 40
0.6323526530562471
 40
0.7811086062028669
 40
0.8412167831322505
 40
0.9019189225506641
 40
0.9452019209391646
 40
0.9884147468092984
 40
1.0
 40
1.0
 40
1.0
 40
1.0
 10
113.6524314764891
 20
-18.85931670413077
 30
0.0
 10
113.6748809263681
 20
-18.91653874546532
 30
0.0
 10
113.703186252093
 20
-18.98868699530448
 30
0.0
 10
113.7248407761489
 20
-19.06609076101645
 30
0.0
 10
113.7332140451712
 20
-19.09638773097046
 30
0.0
 10
113.7376798706918
 20
-19.11275726357083
 30
0.0
 10
113.7390010770428
 20
-19.11726880193917
 30
0.0
 10
113.7382496507359
 20
-19.11395809487628
 30
0.0
 10
113.7366683133145
 20
-19.10785568408239
 30
0.0
 10
113.7354880878819
 20
-19.10348654636531
 30
0.0
 10
113.7352385679957
 20
-19.10256283576186
 30
0.0
  0
SPLINE
  5
13A
330
1F
100
AcDbEntity
  8
1
 62
     4
420
    65535
100
AcDbSpline
210
0.0
220
0.0
230
1.0
 70
     8
 71
     3
 72
    10
 73
     6
 74
     0
 42
0.000000001
 43
0.00000001
 40
0.0
 40
0.0
 40
0.0
 40
0.0
 40
0.5
 40
0.5
 40
1.0
 40
1.0
 40
1.0
 40
1.0
 10
113.3273986629487
 20
-19.82649994803024
 30
0.0
 10
113.3153100475287
 20
-20.0274785546215
 30
0.0
 10
113.2390886206254
 20
-20.22581423979224
 30
0.0
 10
112.9835037005913
 20
-20.53597164727198
 30
0.0
 10
112.8065901485753
 20
-20.64517157199884
 30
0.0
 10
112.6159049271645
 20
-20.69042395263119
 30
0.0
  0
LINE
  5
13B
330
1F
100
AcDbEntity
  8
1
 62
     4
420
    65535
100
AcDbLine
 10
111.0792390582
 20
-21.1954919224
 30
0.0
 11
111.2133820971
 21
-21.277531237
 31
0.0
  0
SPLINE
  5
13C
330
1F
100
AcDbEntity
  8
1
 62
     4
420
    65535
100
AcDbSpline
210
0.0
220
0.0
230
1.0
 70
     8
 71
     3
 72
    10
 73
     6
 74
     0
 42
0.000000001
 43
0.00000001
 40
0.0
 40
0.0
 40
0.0
 40
0.0
 40
0.5
 40
0.5
 40
1.0
 40
1.0
 40
1.0
 40
1.0
 10
111.2133820930196
 20
-21.27753124454276
 30
0.0
 10
111.1718177355771
 20
-21.25795168149511
 30
0.0
 10
111.1619235337425
 20
-21.25118206304852
 30
0.0
 10
111.225494711277
 20
-21.27362629499045
 30
0.0
 10
111.2950013652338
 20
-21.30136191332866
 30
0.0
 10
111.3711718172469
 20
-21.33280545715608
 30
0.0
  0
LINE
  5
13D
330
1F
100
AcDbEntity
  8
1
 62
     4
420
    65535
100
AcDbLine
 10
111.3736242687
 20
-21.3341547616
 30
0.0
 11
111.2669771573
 21
-21.3018528127
 31
0.0
  0
SPLINE
  5
13E
330
1F
100
AcDbEntity
  8
1
 62
     4
420
    65535
100
AcDbSpline
210
0.0
220
0.0
230
1.0
 70
     8
 71
     3
 72
     8
 73
     4
 74
     0
 42
0.000000001
 43
0.00000001
 40
0.0
 40
0.0
 40
0.0
 40
0.0
 40
1.0
 40
1.0
 40
1.0
 40
1.0
 10
111.2669771573146
 20
-21.30185281274409
 30
0.0
 10
111.246312129837
 20
-21.29265659020489
 30
0.0
 10
111.2271304250557
 20
-21.28400762180837
 30
0.0
 10
111.2133821729284
 20
-21.27753128540462
 30
0.0
  0
LINE
  5
13F
330
1F
100
AcDbEntity
  8
1
 62
     4
420
    65535
100
AcDbLine
 10
1.0027086782
 20
-0.0019940657
 30
0.0
 11
1.0027086782
 21
-20.0019940657
 31
0.0
  0
LINE
  5
140
330
1F
100
AcDbEntity
  8
1
 62
     4
420
    65535
100
AcDbLine
 10
86.0027086782
 20
-20.0019940657
 30
0.0
 11
1.0027086782
 21
-20.0019940657
 31
0.0
  0
LINE
  5
141
330
1F
100
AcDbEntity
  8
1
 62
     4
420
    65535
100
AcDbLine
 10
86.0027086782
 20
-0.0019940657
 30
0.0
 11
1.0027086782
 21
-0.0019940657
 31
0.0
  0
LINE
  5
142
330
1F
100
AcDbEntity
  8
1
 62
     4
420
    65535
100
AcDbLine
 10
1.0027086782
 20
-20.0019940657
 30
0.0
 11
0.0027086782
 21
-19.0019940657
 31
0.0
  0
LINE
  5
143
330
1F
100
AcDbEntity
  8
1
 62
     4
420
    65535
100
AcDbLine
 10
0.0027086782
 20
-19.0019940657
 30
0.0
 11
0.0027086782
 21
-1.0019940657
 31
0.0
  0
LINE
  5
144
330
1F
100
AcDbEntity
  8
1
 62
     4
420
    65535
100
AcDbLine
 10
1.0027086782
 20
-0.0019940657
 30
0.0
 11
0.0027086782
 21
-1.0019940657
 31
0.0
  0
LINE
  5
145
330
1F
100
AcDbEntity
  8
1
 62
     4
420
    65535
100
AcDbLine
 10
113.1583469622
 20
-14.881568306
 30
0.0
 11
113.702022805
 21
-15.0462402698
 31
0.0
  0
ARC
  5
146
330
1F
100
AcDbEntity
  8
1
 62
     4
420
    65535
100
AcDbCircle
 10
97.6189903659
 20
-8.2184797077
 30
0.0
 40
0.1855145881055833
100
AcDbArc
 50
63.8955187498
 51
142.967907442
  0
LINE
  5
147
330
1F
100
AcDbEntity
  8
1
 62
     4
420
    65535
100
AcDbLine
 10
98.9778081075
 20
-6.9756336978
 30
0.0
 11
98.7418128981
 21
-6.8426052968
 31
0.0
  0
ARC
  5
148
330
1F
100
AcDbEntity
  8
1
 62
     4
420
    65535
100
AcDbCircle
 10
108.8195787232
 20
-11.2842010514
 30
0.0
 40
0.776739711654145
100
AcDbArc
 50
311.3158445045
 51
20.5355678068
  0
ELLIPSE
  5
149
330
1F
100
AcDbEntity
  8
1
 62
     4
420
    65535
100
AcDbEllipse
 10
106.3199798704
 20
-14.7876902651
 30
0.0
 11
1.761066868997119
 21
5.186409061893706
 31
0.0
210
0.0
220
0.0
230
1.0
 40
0.6091082861
 41
5.93055282787064
 42
6.028999261993256
  0
ARC
  5
14A
330
1F
100
AcDbEntity
  8
1
 62
     4
420
    65535
100
AcDbCircle
 10
97.6053820419
 20
-8.2211913249
 30
0.0
 40
0.1944307584962303
100
AcDbArc
 50
73.5671269155
 51
141.0248733364
  0
ARC
  5
14B
330
1F
100
AcDbEntity
  8
1
 62
     4
420
    65535
100
AcDbCircle
 10
112.5414038714
 20
-18.294281154
 30
0.0
 40
0.7767140298450977
100
AcDbArc
 50
311.3150838931001
 51
20.5409933531
  0
LWPOLYLINE
  5
14C
330
1F
100
AcDbEntity
  8
1
 62
     4
420
    65535
100
AcDbPolyline
 90
        3
 70
   128
 43
0.0
 10
96.9136915623
 20
-14.0610315575
 10
96.8992967841
 20
-14.0631133285
 10
96.8938068716
 20
-14.0605295659
  0
LWPOLYLINE
  5
14D
330
1F
100
AcDbEntity
  8
1
 62
     4
420
    65535
100
AcDbPolyline
 90
        9
 70
   128
 43
0.0
 10
112.6159049272
 20
-20.6904239526
 10
112.6144761955
 20
-20.8458378894
 10
112.605849465
 20
-20.9841265175
 10
112.5900833867
 20
-21.1043496465
 10
112.5672851502
 20
-21.2056899086
 10
112.5376097552
 20
-21.2874583162
 10
112.5012589574
 20
-21.3490989459
 10
112.4584798971
 20
-21.3901927182
 10
112.4203604224
 20
-21.4079317745
  0
ELLIPSE
  5
14E
330
1F
100
AcDbEntity
  8
1
 62
     4
420
    65535
100
AcDbEllipse
 10
110.8023001242
 20
-17.3111583413
 30
0.0
 11
2.98245046032649
 21
-2.419876850294816
 31
0.0
210
0.0
220
0.0
230
1.0
 40
0.0750745383
 41
0.0514607464226692
 42
0.7780367972047528
  0
ARC
  5
14F
330
1F
100
AcDbEntity
  8
1
 62
     4
420
    65535
100
AcDbCircle
 10
113.4935087002
 20
-19.025216761
 30
0.0
 40
0.8183197970349618
100
AcDbArc
 50
258.2881891329
 51
290.7300650533
  0
DIMENSION
  5
150
330
1F
100
AcDbEntity
  8
2
  6
SLD-Durchgehend
 62
     7
370
    15
100
AcDbDimension
  2
_D
 10
0.0027086782000012
 20
5.9980559343
 30
0.0
 11
62.5027086782
 21
5.9980559343
 31
0.0
 70
   160
  1
<>
 71
     2
 42
125.0
  3
SLDDIMSTYLE0
100
AcDbAlignedDimension
 13
125.0027086782
 23
-25.0019940657
 33
0.0
 14
0.0027086782
 24
-0.0019940657
 34
0.0
100
AcDbRotatedDimension
  0
DIMENSION
  5
15C
330
1F
100
AcDbEntity
  8
2
  6
SLD-Durchgehend
 62
     7
370
    15
100
AcDbDimension
  2
_D_1
 10
-5.997291321799999
 20
-0.0019940656999999
 30
0.0
 11
-5.9972913218
 21
-10.0019940657
 31
0.0
 70
   160
  1
<>
 71
     2
 42
20.0
  3
SLDDIMSTYLE0
100
AcDbAlignedDimension
 13
1.0027086782
 23
-20.0019940657
 33
0.0
 14
1.0027086782
 24
-0.0019940657
 34
0.0
 50
90.0
100
AcDbRotatedDimension
  0
DIMENSION
  5
166
330
1F
100
AcDbEntity
  8
2
  6
SLD-Durchgehend
 62
     7
370
    15
100
AcDbDimension
  2
_D_2
 10
131.0065197036
 20
-0.0019940656999999
 30
0.0
 11
131.0065197036
 21
-12.5019940657
 31
0.0
 70
   160
  1
<>
 71
     2
 42
25.0
  3
SLDDIMSTYLE0
100
AcDbAlignedDimension
 13
125.0027086782
 23
-25.0019940657
 33
0.0
 14
125.0027086782
 24
-0.0019940657
 34
0.0
 50
90.0
100
AcDbRotatedDimension
  0
DIMENSION
  5
170
330
1F
100
AcDbEntity
  8
2
  6
SLD-Durchgehend
 62
     7
370
    15
100
AcDbDimension
  2
_D_3
 10
125.0027086782
 20
-31.0106732236
 30
0.0
 11
105.5027086782
 21
-31.0106732236
 31
0.0
 70
   160
  1
<>
 71
     2
 42
39.0
  3
SLDDIMSTYLE0
100
AcDbAlignedDimension
 13
86.0027086782
 23
-0.0019940657
 33
0.0
 14
125.0027086782
 24
-25.0019940657
 34
0.0
100
AcDbRotatedDimension
  0
ENDSEC
  0
SECTION
  2
OBJECTS
  0
DICTIONARY
  5
C
330
0
100
AcDbDictionary
281
     1
  3
ACAD_DETAILVIEWSTYLE
350
196
  3
ACAD_GROUP
350
D
  3
ACAD_IMAGE_VARS
350
1B4
  3
ACAD_LAYOUT
350
1A
  3
ACAD_MATERIAL
350
43
  3
ACAD_MLEADERSTYLE
350
195
  3
ACAD_MLINESTYLE
350
17
  3
ACAD_PLOTSETTINGS
350
19
  3
ACAD_PLOTSTYLENAME
350
E
  3
ACAD_SCALELIST
350
47
  3
ACAD_SECTIONVIEWSTYLE
350
197
  3
ACAD_TABLESTYLE
350
194
  3
ACDB_RECOMPOSE_DATA
350
1C5
  3
AcDbVariableDictionary
350
192
  3
APPDATA
350
1B2
  0
DICTIONARY
  5
196
102
{ACAD_REACTORS
330
C
102
}
330
C
100
AcDbDictionary
281
     1
  0
DICTIONARY
  5
D
102
{ACAD_REACTORS
330
C
102
}
330
C
100
AcDbDictionary
281
     1
  0
RASTERVARIABLES
  5
1B4
102
{ACAD_REACTORS
330
C
102
}
330
C
100
AcDbRasterVariables
 90
        0
 70
     1
 71
     1
 72
     1
  0
DICTIONARY
  5
1A
102
{ACAD_REACTORS
330
C
102
}
330
C
100
AcDbDictionary
281
     1
  3
Layout1
350
1E
  3
Layout2
350
26
  3
Model
350
22
  0
DICTIONARY
  5
43
102
{ACAD_REACTORS
330
C
102
}
330
C
100
AcDbDictionary
281
     1
  3
ByBlock
350
45
  3
ByLayer
350
44
  3
Global
350
46
  0
DICTIONARY
  5
195
102
{ACAD_REACTORS
330
C
102
}
330
C
100
AcDbDictionary
281
     1
  0
DICTIONARY
  5
17
102
{ACAD_REACTORS
330
C
102
}
330
C
100
AcDbDictionary
281
     1
  3
Standard
350
18
  0
DICTIONARY
  5
19
102
{ACAD_REACTORS
330
C
102
}
330
C
100
AcDbDictionary
281
     1
  0
ACDBDICTIONARYWDFLT
  5
E
102
{ACAD_REACTORS
330
C
102
}
330
C
100
AcDbDictionary
281
     1
  3
Normal
350
F
100
AcDbDictionaryWithDefault
340
F
  0
DICTIONARY
  5
47
102
{ACAD_REACTORS
330
C
102
}
330
C
100
AcDbDictionary
281
     1
  3
A0
350
48
  3
A1
350
49
  3
A2
350
4A
  3
A3
350
4B
  3
A4
350
4C
  3
A5
350
4D
  3
A6
350
4E
  3
A7
350
4F
  3
A8
350
50
  3
A9
350
51
  3
B0
350
52
  3
B1
350
53
  3
B2
350
54
  3
B3
350
55
  3
B4
350
56
  3
B5
350
57
  3
B6
350
58
  3
B7
350
59
  3
B8
350
5A
  3
B9
350
5B
  3
C0
350
5C
  3
C1
350
5D
  3
C2
350
5E
  3
C3
350
5F
  3
C4
350
60
  3
C5
350
61
  3
C6
350
62
  3
C7
350
63
  3
C8
350
64
  3
C9
350
65
  3
D0
350
66
  3
D1
350
67
  3
D2
350
68
  0
DICTIONARY
  5
197
102
{ACAD_REACTORS
330
C
102
}
330
C
100
AcDbDictionary
281
     1
  0
DICTIONARY
  5
194
102
{ACAD_REACTORS
330
C
102
}
330
C
100
AcDbDictionary
281
     1
  3
Standard
350
1B1
  0
XRECORD
  5
1C5
102
{ACAD_REACTORS
330
C
102
}
330
C
100
AcDbXrecord
280
     1
 90
        1
330
1B1
  0
DICTIONARY
  5
192
102
{ACAD_REACTORS
330
C
102
}
330
C
100
AcDbDictionary
281
     1
  3
CANNOSCALE
350
193
  3
CTABLESTYLE
350
1C6
  3
MSLTSCALE
350
1C7
  3
XCLIPFRAME
350
1C8
  0
DICTIONARY
  5
1B2
102
{ACAD_REACTORS
330
C
102
}
330
C
100
AcDbDictionary
281
     1
  0
LAYOUT
  5
1E
102
{ACAD_REACTORS
330
1A
102
}
330
1A
100
AcDbPlotSettings
  1

  2
none_device
  4

  6

 40
0.0
 41
0.0
 42
0.0
 43
0.0
 44
0.0
 45
0.0
 46
0.0
 47
0.0
 48
0.0
 49
0.0
140
0.0
141
0.0
142
1.0
143
1.0
 70
   688
 72
     1
 73
     0
 74
     5
  7

 75
    16
 76
     0
 77
     2
 78
   300
147
1.0
148
0.0
149
0.0
100
AcDbLayout
  1
Layout1
 70
     1
 71
     1
 10
0.0
 20
0.0
 11
420.0
 21
297.0
 12
0.0
 22
0.0
 32
0.0
 14
1.000000000000000E+20
 24
1.000000000000000E+20
 34
1.000000000000000E+20
 15
-1.000000000000000E+20
 25
-1.000000000000000E+20
 35
-1.000000000000000E+20
146
0.0
 13
0.0
 23
0.0
 33
0.0
 16
1.0
 26
0.0
 36
0.0
 17
0.0
 27
1.0
 37
0.0
 76
     0
330
1B
  0
LAYOUT
  5
26
102
{ACAD_REACTORS
330
1A
102
}
330
1A
100
AcDbPlotSettings
  1

  2
none_device
  4

  6

 40
0.0
 41
0.0
 42
0.0
 43
0.0
 44
0.0
 45
0.0
 46
0.0
 47
0.0
 48
0.0
 49
0.0
140
0.0
141
0.0
142
1.0
143
1.0
 70
   688
 72
     1
 73
     0
 74
     5
  7

 75
    16
 76
     0
 77
     2
 78
   300
147
1.0
148
0.0
149
0.0
100
AcDbLayout
  1
Layout2
 70
     1
 71
     2
 10
0.0
 20
0.0
 11
0.0
 21
0.0
 12
0.0
 22
0.0
 32
0.0
 14
0.0
 24
0.0
 34
0.0
 15
0.0
 25
0.0
 35
0.0
146
0.0
 13
0.0
 23
0.0
 33
0.0
 16
1.0
 26
0.0
 36
0.0
 17
0.0
 27
1.0
 37
0.0
 76
     0
330
23
  0
LAYOUT
  5
22
102
{ACAD_REACTORS
330
1A
102
}
330
1A
100
AcDbPlotSettings
  1

  2
none_device
  4
Letter_(8.50_x_11.00_Inches)
  6

 40
6.35
 41
6.35
 42
6.35000508
 43
6.35000508
 44
215.9
 45
279.4
 46
0.0
 47
0.0
 48
0.0
 49
0.0
140
0.0
141
0.0
142
1.0
143
1.0
 70
  1712
 72
     1
 73
     0
 74
     0
  7

 75
     0
 76
     0
 77
     2
 78
   300
147
1.0
148
0.0
149
0.0
100
AcDbLayout
  1
Model
 70
     1
 71
     0
 10
0.0
 20
0.0
 11
297.0
 21
210.0
 12
0.0
 22
0.0
 32
0.0
 14
0.0
 24
0.0
 34
0.0
 15
297.0
 25
210.0
 35
0.0
146
0.0
 13
0.0
 23
0.0
 33
0.0
 16
1.0
 26
0.0
 36
0.0
 17
0.0
 27
1.0
 37
0.0
 76
     0
330
1F
331
29
  0
MATERIAL
  5
45
102
{ACAD_REACTORS
330
43
102
}
330
43
100
AcDbMaterial
  1
ByBlock
  0
MATERIAL
  5
44
102
{ACAD_REACTORS
330
43
102
}
330
43
100
AcDbMaterial
  1
ByLayer
  0
MATERIAL
  5
46
102
{ACAD_REACTORS
330
43
102
}
330
43
100
AcDbMaterial
  1
Global
  0
MLINESTYLE
  5
18
102
{ACAD_REACTORS
330
17
102
}
330
17
100
AcDbMlineStyle
  2
Standard
 70
     0
  3

 62
   256
 51
90.0
 52
90.0
 71
     2
 49
0.5
 62
   256
  6
BYLAYER
 49
-0.5
 62
   256
  6
BYLAYER
  0
ACDBPLACEHOLDER
  5
F
102
{ACAD_REACTORS
330
E
102
}
330
E
  0
SCALE
  5
48
102
{ACAD_REACTORS
330
47
102
}
330
47
100
AcDbScale
 70
     0
300
1:1
140
1.0
141
1.0
290
     1
  0
SCALE
  5
49
102
{ACAD_REACTORS
330
47
102
}
330
47
100
AcDbScale
 70
     0
300
1:2
140
1.0
141
2.0
290
     0
  0
SCALE
  5
4A
102
{ACAD_REACTORS
330
47
102
}
330
47
100
AcDbScale
 70
     0
300
1:4
140
1.0
141
4.0
290
     0
  0
SCALE
  5
4B
102
{ACAD_REACTORS
330
47
102
}
330
47
100
AcDbScale
 70
     0
300
1:5
140
1.0
141
5.0
290
     0
  0
SCALE
  5
4C
102
{ACAD_REACTORS
330
47
102
}
330
47
100
AcDbScale
 70
     0
300
1:8
140
1.0
141
8.0
290
     0
  0
SCALE
  5
4D
102
{ACAD_REACTORS
330
47
102
}
330
47
100
AcDbScale
 70
     0
300
1:10
140
1.0
141
10.0
290
     0
  0
SCALE
  5
4E
102
{ACAD_REACTORS
330
47
102
}
330
47
100
AcDbScale
 70
     0
300
1:16
140
1.0
141
16.0
290
     0
  0
SCALE
  5
4F
102
{ACAD_REACTORS
330
47
102
}
330
47
100
AcDbScale
 70
     0
300
1:20
140
1.0
141
20.0
290
     0
  0
SCALE
  5
50
102
{ACAD_REACTORS
330
47
102
}
330
47
100
AcDbScale
 70
     0
300
1:30
140
1.0
141
30.0
290
     0
  0
SCALE
  5
51
102
{ACAD_REACTORS
330
47
102
}
330
47
100
AcDbScale
 70
     0
300
1:40
140
1.0
141
40.0
290
     0
  0
SCALE
  5
52
102
{ACAD_REACTORS
330
47
102
}
330
47
100
AcDbScale
 70
     0
300
1:50
140
1.0
141
50.0
290
     0
  0
SCALE
  5
53
102
{ACAD_REACTORS
330
47
102
}
330
47
100
AcDbScale
 70
     0
300
1:100
140
1.0
141
100.0
290
     0
  0
SCALE
  5
54
102
{ACAD_REACTORS
330
47
102
}
330
47
100
AcDbScale
 70
     0
300
2:1
140
2.0
141
1.0
290
     0
  0
SCALE
  5
55
102
{ACAD_REACTORS
330
47
102
}
330
47
100
AcDbScale
 70
     0
300
4:1
140
4.0
141
1.0
290
     0
  0
SCALE
  5
56
102
{ACAD_REACTORS
330
47
102
}
330
47
100
AcDbScale
 70
     0
300
8:1
140
8.0
141
1.0
290
     0
  0
SCALE
  5
57
102
{ACAD_REACTORS
330
47
102
}
330
47
100
AcDbScale
 70
     0
300
10:1
140
10.0
141
1.0
290
     0
  0
SCALE
  5
58
102
{ACAD_REACTORS
330
47
102
}
330
47
100
AcDbScale
 70
     0
300
100:1
140
100.0
141
1.0
290
     0
  0
SCALE
  5
59
102
{ACAD_REACTORS
330
47
102
}
330
47
100
AcDbScale
 70
     0
300
1/128" = 1'-0"
140
0.0078125
141
12.0
290
     0
  0
SCALE
  5
5A
102
{ACAD_REACTORS
330
47
102
}
330
47
100
AcDbScale
 70
     0
300
1/64" = 1'-0"
140
0.015625
141
12.0
290
     0
  0
SCALE
  5
5B
102
{ACAD_REACTORS
330
47
102
}
330
47
100
AcDbScale
 70
     0
300
1/32" = 1'-0"
140
0.03125
141
12.0
290
     0
  0
SCALE
  5
5C
102
{ACAD_REACTORS
330
47
102
}
330
47
100
AcDbScale
 70
     0
300
1/16" = 1'-0"
140
0.0625
141
12.0
290
     0
  0
SCALE
  5
5D
102
{ACAD_REACTORS
330
47
102
}
330
47
100
AcDbScale
 70
     0
300
3/32" = 1'-0"
140
0.09375
141
12.0
290
     0
  0
SCALE
  5
5E
102
{ACAD_REACTORS
330
47
102
}
330
47
100
AcDbScale
 70
     0
300
1/8" = 1'-0"
140
0.125
141
12.0
290
     0
  0
SCALE
  5
5F
102
{ACAD_REACTORS
330
47
102
}
330
47
100
AcDbScale
 70
     0
300
3/16" = 1'-0"
140
0.1875
141
12.0
290
     0
  0
SCALE
  5
60
102
{ACAD_REACTORS
330
47
102
}
330
47
100
AcDbScale
 70
     0
300
1/4" = 1'-0"
140
0.25
141
12.0
290
     0
  0
SCALE
  5
61
102
{ACAD_REACTORS
330
47
102
}
330
47
100
AcDbScale
 70
     0
300
3/8" = 1'-0"
140
0.375
141
12.0
290
     0
  0
SCALE
  5
62
102
{ACAD_REACTORS
330
47
102
}
330
47
100
AcDbScale
 70
     0
300
1/2" = 1'-0"
140
0.5
141
12.0
290
     0
  0
SCALE
  5
63
102
{ACAD_REACTORS
330
47
102
}
330
47
100
AcDbScale
 70
     0
300
3/4" = 1'-0"
140
0.75
141
12.0
290
     0
  0
SCALE
  5
64
102
{ACAD_REACTORS
330
47
102
}
330
47
100
AcDbScale
 70
     0
300
1" = 1'-0"
140
1.0
141
12.0
290
     0
  0
SCALE
  5
65
102
{ACAD_REACTORS
330
47
102
}
330
47
100
AcDbScale
 70
     0
300
1-1/2" = 1'-0"
140
1.5
141
12.0
290
     0
  0
SCALE
  5
66
102
{ACAD_REACTORS
330
47
102
}
330
47
100
AcDbScale
 70
     0
300
3" = 1'-0"
140
3.0
141
12.0
290
     0
  0
SCALE
  5
67
102
{ACAD_REACTORS
330
47
102
}
330
47
100
AcDbScale
 70
     0
300
6" = 1'-0"
140
6.0
141
12.0
290
     0
  0
SCALE
  5
68
102
{ACAD_REACTORS
330
47
102
}
330
47
100
AcDbScale
 70
     0
300
1'-0" = 1'-0"
140
12.0
141
12.0
290
     0
  0
TABLESTYLE
  5
1B1
102
{ACAD_REACTORS
330
194
102
}
102
{ACAD_XDICTIONARY
360
1C2
102
}
330
194
100
AcDbTableStyle
  3
Standard
 70
     0
 71
     0
 40
0.06
 41
0.06
280
     0
281
     0
  7
Standard
140
4.5
170
     2
 62
     0
 63
   257
283
     0
274
    -2
284
     1
 64
     0
275
    -2
285
     1
 65
     0
276
    -2
286
     1
 66
     0
277
    -2
287
     1
 67
     0
278
    -2
288
     1
 68
     0
279
    -2
289
     1
 69
     0
  7
Standard
140
6.0
170
     5
 62
     0
 63
   257
283
     0
274
    -2
284
     1
 64
     0
275
    -2
285
     1
 65
     0
276
    -2
286
     1
 66
     0
277
    -2
287
     1
 67
     0
278
    -2
288
     1
 68
     0
279
    -2
289
     1
 69
     0
  7
Standard
140
4.5
170
     5
 62
     0
 63
   257
283
     0
274
    -2
284
     1
 64
     0
275
    -2
285
     1
 65
     0
276
    -2
286
     1
 66
     0
277
    -2
287
     1
 67
     0
278
    -2
288
     1
 68
     0
279
    -2
289
     1
 69
     0
  0
DICTIONARYVAR
  5
193
102
{ACAD_REACTORS
330
192
102
}
330
192
100
DictionaryVariables
280
     0
  1
1:1
  0
DICTIONARYVAR
  5
1C6
102
{ACAD_REACTORS
330
192
102
}
330
192
100
DictionaryVariables
280
     0
  1
Standard
  0
DICTIONARYVAR
  5
1C7
102
{ACAD_REACTORS
330
192
102
}
330
192
100
DictionaryVariables
280
     0
  1
0
  0
DICTIONARYVAR
  5
1C8
102
{ACAD_REACTORS
330
192
102
}
330
192
100
DictionaryVariables
280
     0
  1
0
  0
DICTIONARY
  5
1C2
330
1B1
100
AcDbDictionary
280
     1
281
     1
  3
ACAD_ROUNDTRIP_2008_TABLESTYLE_CELLSTYLEMAP
360
1C4
  3
ACAD_XREC_ROUNDTRIP
360
1C3
  0
CELLSTYLEMAP
  5
1C4
102
{ACAD_REACTORS
330
1C2
102
}
330
1C2
100
AcDbCellStyleMap
 90
        3
300
CELLSTYLE
  1
TABLEFORMAT_BEGIN
 90
        5
170
     1
 91
        0
 92
        0
 62
   257
 93
        1
300
CONTENTFORMAT
  1
CONTENTFORMAT_BEGIN
 90
        0
 91
        0
 92
        4
 93
        0
300

 40
0.0
140
1.0
 94
        5
 62
     0
340
11
144
6.0
309
CONTENTFORMAT_END
171
     1
301
MARGIN
  1
CELLMARGIN_BEGIN
 40
1.5
 40
1.5
 40
1.5
 40
1.5
 40
1.5
 40
1.5
309
CELLMARGIN_END
 94
        6
 95
        1
302
GRIDFORMAT
  1
GRIDFORMAT_BEGIN
 90
        0
 91
        1
 62
     0
 92
       -2
340
14
 93
        0
 40
0.045
309
GRIDFORMAT_END
 95
        2
302
GRIDFORMAT
  1
GRIDFORMAT_BEGIN
 90
        0
 91
        1
 62
     0
 92
       -2
340
14
 93
        0
 40
0.045
309
GRIDFORMAT_END
 95
        4
302
GRIDFORMAT
  1
GRIDFORMAT_BEGIN
 90
        0
 91
        1
 62
     0
 92
       -2
340
14
 93
        0
 40
0.045
309
GRIDFORMAT_END
 95
        8
302
GRIDFORMAT
  1
GRIDFORMAT_BEGIN
 90
        0
 91
        1
 62
     0
 92
       -2
340
14
 93
        0
 40
0.045
309
GRIDFORMAT_END
 95
       16
302
GRIDFORMAT
  1
GRIDFORMAT_BEGIN
 90
        0
 91
        1
 62
     0
 92
       -2
340
14
 93
        0
 40
0.045
309
GRIDFORMAT_END
 95
       32
302
GRIDFORMAT
  1
GRIDFORMAT_BEGIN
 90
        0
 91
        1
 62
     0
 92
       -2
340
14
 93
        0
 40
0.045
309
GRIDFORMAT_END
309
TABLEFORMAT_END
  1
CELLSTYLE_BEGIN
 90
        1
 91
        1
300
_TITLE
309
CELLSTYLE_END
300
CELLSTYLE
  1
TABLEFORMAT_BEGIN
 90
        5
170
     1
 91
        0
 92
        0
 62
   257
 93
        1
300
CONTENTFORMAT
  1
CONTENTFORMAT_BEGIN
 90
        0
 91
        0
 92
        4
 93
        0
300

 40
0.0
140
1.0
 94
        5
 62
     0
340
11
144
4.5
309
CONTENTFORMAT_END
171
     1
301
MARGIN
  1
CELLMARGIN_BEGIN
 40
1.5
 40
1.5
 40
1.5
 40
1.5
 40
1.5
 40
1.5
309
CELLMARGIN_END
 94
        6
 95
        1
302
GRIDFORMAT
  1
GRIDFORMAT_BEGIN
 90
        0
 91
        1
 62
     0
 92
       -2
340
14
 93
        0
 40
0.045
309
GRIDFORMAT_END
 95
        2
302
GRIDFORMAT
  1
GRIDFORMAT_BEGIN
 90
        0
 91
        1
 62
     0
 92
       -2
340
14
 93
        0
 40
0.045
309
GRIDFORMAT_END
 95
        4
302
GRIDFORMAT
  1
GRIDFORMAT_BEGIN
 90
        0
 91
        1
 62
     0
 92
       -2
340
14
 93
        0
 40
0.045
309
GRIDFORMAT_END
 95
        8
302
GRIDFORMAT
  1
GRIDFORMAT_BEGIN
 90
        0
 91
        1
 62
     0
 92
       -2
340
14
 93
        0
 40
0.045
309
GRIDFORMAT_END
 95
       16
302
GRIDFORMAT
  1
GRIDFORMAT_BEGIN
 90
        0
 91
        1
 62
     0
 92
       -2
340
14
 93
        0
 40
0.045
309
GRIDFORMAT_END
 95
       32
302
GRIDFORMAT
  1
GRIDFORMAT_BEGIN
 90
        0
 91
        1
 62
     0
 92
       -2
340
14
 93
        0
 40
0.045
309
GRIDFORMAT_END
309
TABLEFORMAT_END
  1
CELLSTYLE_BEGIN
 90
        2
 91
        1
300
_HEADER
309
CELLSTYLE_END
300
CELLSTYLE
  1
TABLEFORMAT_BEGIN
 90
        5
170
     1
 91
        0
 92
        0
 62
   257
 93
        1
300
CONTENTFORMAT
  1
CONTENTFORMAT_BEGIN
 90
        0
 91
        0
 92
        4
 93
        0
300

 40
0.0
140
1.0
 94
        2
 62
     0
340
11
144
4.5
309
CONTENTFORMAT_END
171
     1
301
MARGIN
  1
CELLMARGIN_BEGIN
 40
1.5
 40
1.5
 40
1.5
 40
1.5
 40
1.5
 40
1.5
309
CELLMARGIN_END
 94
        6
 95
        1
302
GRIDFORMAT
  1
GRIDFORMAT_BEGIN
 90
        0
 91
        1
 62
     0
 92
       -2
340
14
 93
        0
 40
0.045
309
GRIDFORMAT_END
 95
        2
302
GRIDFORMAT
  1
GRIDFORMAT_BEGIN
 90
        0
 91
        1
 62
     0
 92
       -2
340
14
 93
        0
 40
0.045
309
GRIDFORMAT_END
 95
        4
302
GRIDFORMAT
  1
GRIDFORMAT_BEGIN
 90
        0
 91
        1
 62
     0
 92
       -2
340
14
 93
        0
 40
0.045
309
GRIDFORMAT_END
 95
        8
302
GRIDFORMAT
  1
GRIDFORMAT_BEGIN
 90
        0
 91
        1
 62
     0
 92
       -2
340
14
 93
        0
 40
0.045
309
GRIDFORMAT_END
 95
       16
302
GRIDFORMAT
  1
GRIDFORMAT_BEGIN
 90
        0
 91
        1
 62
     0
 92
       -2
340
14
 93
        0
 40
0.045
309
GRIDFORMAT_END
 95
       32
302
GRIDFORMAT
  1
GRIDFORMAT_BEGIN
 90
        0
 91
        1
 62
     0
 92
       -2
340
14
 93
        0
 40
0.045
309
GRIDFORMAT_END
309
TABLEFORMAT_END
  1
CELLSTYLE_BEGIN
 90
        3
 91
        2
300
_DATA
309
CELLSTYLE_END
  0
XRECORD
  5
1C3
102
{ACAD_REACTORS
330
1C2
102
}
330
1C2
100
AcDbXrecord
280
     1
102
ACAD_ROUNDTRIP_PRE2007_TABLESTYLE
 90
        4
 91
        0
  1

 92
        4
 93
        0
  2

 94
        4
 95
        0
  3

  0
ENDSEC
  0
EOF
