999
DXF file: 70504025.dxf
999
Pro/ENGINEER 2018400 by Parametric Technology Corporation
  0
SECTION
  2
HEADER
  9
$ACADVER
  1
AC1027
  9
$DWGCODEPAGE
  3
ANSI_1252
  9
$EXTMAX
 10
420.0
 20
297.0
 30
0.0
  9
$EXTMIN
 10
0.0
 20
0.0
 30
0.0
  9
$LIMMIN
 10
0.0
 20
0.0
  9
$LIMMAX
 10
420.0
 20
297.0
  9
$VIEWCTR
 10
210.0
 20
148.5
  9
$VIEWSIZE
 40
297.0
  9
$CLAYER
  8
0
  9
$LTSCALE
 40
23.1
  9
$CELTYPE
  6
BYLAYER
  9
$DIMSCALE
 40
1.0
  9
$DIMASZ
 40
3.5
  9
$DIMEXO
 40
0.0
  9
$DIMDLI
 40
15.96
  9
$DIMEXE
 40
1.5
  9
$DIMCEN
 40
3.78
  9
$DIMLFAC
 40
1.0
  9
$DIMBLK
  1
_FILLED
  9
$DIMALT
 70
0
  9
$DIMALTF
 40
0.0393700787
  9
$DIMTXT
 40
3.5
  9
$DIMTOL
 70
1
  9
$DIMLIM
 70
0
  9
$DIMTFAC
 40
1.0
  9
$DIMTP
 40
0.05
  9
$DIMTM
 40
0.05
  9
$DIMGAP
 40
0.625
  9
$DIMDSEP
 70
46
  9
$AUNITS
 70
0
  9
$PDMODE
 70
3
  9
$PDSIZE
 40
0.3125
  9
$HANDSEED
  5
285
  9
$TILEMODE
 70
1
  9
$MEASUREMENT
 70
1
  9
$INSUNITS
 70
4
  0
ENDSEC
  0
SECTION
  2
CLASSES
  0
CLASS
  1
ACDBDICTIONARYWDFLT
  2
AcDbDictionaryWithDefault
  3
AutoCAD 2000
 90
0
 91
1
280
0
281
0
  0
CLASS
  1
ACDBPLACEHOLDER
  2
AcDbPlaceHolder
  3
AutoCAD 2000
 90
0
 91
1
280
0
281
0
  0
CLASS
  1
LAYOUT
  2
AcDbLayout
  3
AutoCAD 2000
 90
0
 91
0
280
0
281
0
  0
ENDSEC
  0
SECTION
  2
TABLES
  0
TABLE
  2
VPORT
  5
8
100
AcDbSymbolTable
 70
2
  0
VPORT
  5
1F4
100
AcDbSymbolTableRecord
100
AcDbViewportTableRecord
  2
*ACTIVE
 70
0
 10
0.0
 20
0.0
 11
1.0
 21
1.0
 12
210.0
 22
148.5
 13
0.0
 23
0.0
 14
1.0
 24
1.0
 15
0.0
 25
0.0
 16
0.0
 26
0.0
 36
1.0
 17
0.0
 27
0.0
 37
0.0
 40
297.0
 41
1.4141414141
 42
50.0
 43
0.0
 44
0.0
 50
0.0
 51
0.0
 71
0
 72
100
 73
1
 74
1
 75
0
 76
0
 77
0
 78
0
  0
ENDTAB
  0
TABLE
  2
LTYPE
  5
5
100
AcDbSymbolTable
 70
6
  0
LTYPE
  5
14
100
AcDbSymbolTableRecord
100
AcDbLinetypeTableRecord
  2
BYBLOCK
 70
0
  3

 72
65
 73
0
 40
0.0
  0
LTYPE
  5
15
100
AcDbSymbolTableRecord
100
AcDbLinetypeTableRecord
  2
BYLAYER
 70
0
  3

 72
65
 73
0
 40
0.0
  0
LTYPE
  5
16
100
AcDbSymbolTableRecord
100
AcDbLinetypeTableRecord
  2
CONTINUOUS
 70
64
  3
Solid line
 72
65
 73
0
 40
0.0
  0
LTYPE
  5
1F5
100
AcDbSymbolTableRecord
100
AcDbLinetypeTableRecord
  2
CENTER
 70
64
  3
____ _ ____ _ ____ _ ____ _ ____ _ ____ _ ____
 72
65
 73
4
 40
0.6
 49
0.375
 74
0
 49
-0.075
 74
0
 49
0.075
 74
0
 49
-0.075
 74
0
  0
LTYPE
  5
1F6
100
AcDbSymbolTableRecord
100
AcDbLinetypeTableRecord
  2
HIDDEN
 70
64
  3
- - - - - - - - - - - - - - - - - - - -
 72
65
 73
2
 40
0.2
 49
0.1
 74
0
 49
-0.1
 74
0
  0
LTYPE
  5
1F7
100
AcDbSymbolTableRecord
100
AcDbLinetypeTableRecord
  2
PHANTOM
 70
64
  3
_____ _ _ _____ _ _ _____ _ _ _____
 72
65
 73
6
 40
0.8
 49
0.45
 74
0
 49
-0.05
 74
0
 49
0.1
 74
0
 49
-0.05
 74
0
 49
0.1
 74
0
 49
-0.05
 74
0
  0
LTYPE
  5
1F8
100
AcDbSymbolTableRecord
100
AcDbLinetypeTableRecord
  2
DOT
 70
64
  3
. . . . . . . . . . . . . . . . . . . .
 72
65
 73
2
 40
0.2
 49
0.1
 74
0
 49
-0.1
 74
0
  0
LTYPE
  5
1F9
100
AcDbSymbolTableRecord
100
AcDbLinetypeTableRecord
  2
DASHED
 70
64
  3
- - - - - - - - - - - - - - - - - - - -
 72
65
 73
2
 40
0.2
 49
0.1
 74
0
 49
-0.1
 74
0
  0
ENDTAB
  0
TABLE
  2
LAYER
  5
2
100
AcDbSymbolTable
 70
36
  0
LAYER
  5
10
100
AcDbSymbolTableRecord
100
AcDbLayerTableRecord
  2
0
 70
0
 62
7
  6
CONTINUOUS
370
-3
390
F
  0
LAYER
  5
1FA
100
AcDbSymbolTableRecord
100
AcDbLayerTableRecord
  2
DEFAULT_1
 70
0
 62
7
  6
CENTER
370
-3
390
F
  0
LAYER
  5
1FB
100
AcDbSymbolTableRecord
100
AcDbLayerTableRecord
  2
DEFAULT_2
 70
0
 62
1
  6
HIDDEN
370
-3
390
F
  0
LAYER
  5
1FC
100
AcDbSymbolTableRecord
100
AcDbLayerTableRecord
  2
DEFAULT_3
 70
0
 62
7
  6
PHANTOM
370
-3
390
F
  0
LAYER
  5
1FD
100
AcDbSymbolTableRecord
100
AcDbLayerTableRecord
  2
BG_STARTBEZUEGE
 70
0
 62
7
  6
CONTINUOUS
370
-3
390
F
  0
LAYER
  5
1FE
100
AcDbSymbolTableRecord
100
AcDbLayerTableRecord
  2
HILFEN
 70
0
 62
7
  6
CONTINUOUS
370
-3
390
F
  0
LAYER
  5
1FF
100
AcDbSymbolTableRecord
100
AcDbLayerTableRecord
  2
PLATZIERUNG
 70
0
 62
7
  6
CONTINUOUS
370
-3
390
F
  0
LAYER
  5
200
100
AcDbSymbolTableRecord
100
AcDbLayerTableRecord
  2
T_STARTBEZUEGE
 70
0
 62
7
  6
CONTINUOUS
370
-3
390
F
  0
LAYER
  5
201
100
AcDbSymbolTableRecord
100
AcDbLayerTableRecord
  2
_03_2D_ZEICHNUNG_BEMASSUNGEN
 70
0
 62
7
  6
CONTINUOUS
370
-3
390
F
  0
LAYER
  5
202
100
AcDbSymbolTableRecord
100
AcDbLayerTableRecord
  2
_04_NOTIZEN
 70
0
 62
7
  6
CONTINUOUS
370
-3
390
F
  0
LAYER
  5
203
100
AcDbSymbolTableRecord
100
AcDbLayerTableRecord
  2
_05_2D_ELEMENTE
 70
0
 62
7
  6
CONTINUOUS
370
-3
390
F
  0
LAYER
  5
204
100
AcDbSymbolTableRecord
100
AcDbLayerTableRecord
  2
_07_EINRASTLINIEN
 70
0
 62
7
  6
CONTINUOUS
370
-3
390
F
  0
LAYER
  5
205
100
AcDbSymbolTableRecord
100
AcDbLayerTableRecord
  2
_21_KURVEN
 70
0
 62
7
  6
CONTINUOUS
370
-3
390
F
  0
LAYER
  5
206
100
AcDbSymbolTableRecord
100
AcDbLayerTableRecord
  2
_24_IMPORT
 70
0
 62
7
  6
CONTINUOUS
370
-3
390
F
  0
LAYER
  5
207
100
AcDbSymbolTableRecord
100
AcDbLayerTableRecord
  2
_26_BEZUGSACHSEN
 70
0
 62
7
  6
CONTINUOUS
370
-3
390
F
  0
LAYER
  5
208
100
AcDbSymbolTableRecord
100
AcDbLayerTableRecord
  2
_27_BEZUGSEBENEN
 70
0
 62
7
  6
CONTINUOUS
370
-3
390
F
  0
LAYER
  5
209
100
AcDbSymbolTableRecord
100
AcDbLayerTableRecord
  2
_28_BEZUGSPUNKTE
 70
0
 62
7
  6
CONTINUOUS
370
-3
390
F
  0
LAYER
  5
20A
100
AcDbSymbolTableRecord
100
AcDbLayerTableRecord
  2
_29_KOORDINATENSYSTEME
 70
0
 62
7
  6
CONTINUOUS
370
-3
390
F
  0
LAYER
  5
20B
100
AcDbSymbolTableRecord
100
AcDbLayerTableRecord
  2
_30_VOLUMEN
 70
0
 62
7
  6
CONTINUOUS
370
-3
390
F
  0
ENDTAB
  0
TABLE
  2
STYLE
  5
3
100
AcDbSymbolTable
 70
1
  0
STYLE
  5
11
100
AcDbSymbolTableRecord
100
AcDbTextStyleTableRecord
  2
STANDARD
 70
0
 40
0.0
 41
0.7
 50
0.0
 71
0
 42
0.2
  3
SIMPLEX.SHX
  4

  0
STYLE
  5
20C
100
AcDbSymbolTableRecord
100
AcDbTextStyleTableRecord
  2
TEXTSTYLE_1
 70
0
 40
0.0
 41
0.8
 50
0.0
 71
0
 42
0.2
  3
gdt
  4

  0
ENDTAB
  0
TABLE
  2
VIEW
  5
6
100
AcDbSymbolTable
 70
0
  0
ENDTAB
  0
TABLE
  2
UCS
  5
7
100
AcDbSymbolTable
 70
0
  0
ENDTAB
  0
TABLE
  2
APPID
  5
9
100
AcDbSymbolTable
 70
1
  0
APPID
  5
20D
100
AcDbSymbolTableRecord
100
AcDbRegAppTableRecord
  2
ACAD
 70
0
  0
ENDTAB
  0
TABLE
  2
BLOCK_RECORD
  5
1
100
AcDbSymbolTable
 70
0
  0
BLOCK_RECORD
  5
20E
100
AcDbSymbolTableRecord
100
AcDbBlockTableRecord
  2
*Model_Space
  0
BLOCK_RECORD
  5
20F
100
AcDbSymbolTableRecord
100
AcDbBlockTableRecord
  2
*Paper_Space
  0
BLOCK_RECORD
  5
210
100
AcDbSymbolTableRecord
100
AcDbBlockTableRecord
  2
_FILLED
  0
BLOCK_RECORD
  5
211
100
AcDbSymbolTableRecord
100
AcDbBlockTableRecord
  2
*D0
  0
BLOCK_RECORD
  5
212
100
AcDbSymbolTableRecord
100
AcDbBlockTableRecord
  2
*D1
  0
BLOCK_RECORD
  5
213
100
AcDbSymbolTableRecord
100
AcDbBlockTableRecord
  2
*D2
  0
ENDTAB
  0
TABLE
  2
DIMSTYLE
  5
A
100
AcDbSymbolTable
 70
1
100
AcDbDimStyleTable
 71
0
  0
DIMSTYLE
105
214
100
AcDbSymbolTableRecord
100
AcDbDimStyleTableRecord
  2
STANDARD
 70
0
  3

  4

 40
1.0
 41
3.5
 42
0.0
 43
0.38
 44
1.5
 45
0.0
 46
0.0
 47
0.05
 48
0.05
140
3.5
141
0.09
142
0.0
143
25.4
144
1.0
145
0.0
146
1.0
147
0.625
 71
1.0
 72
0.0
 73
0
 74
0
 75
0
 76
0
 77
1
 78
8
 79
2
170
0
171
1
172
0
173
0
174
0
175
0
176
0
177
0
178
2
270
2
179
2
271
2
272
2
273
2
274
2
275
0
280
0
281
0
282
0
283
1
284
8
285
0
286
0
287
3
288
0
340
11
278
46
341
210
342
210
343
210
344
210
  0
DIMSTYLE
105
215
100
AcDbSymbolTableRecord
100
AcDbDimStyleTableRecord
  2
DIMSTYLE_1
 70
0
  3

  4

 40
1.0
 41
3.5
 42
0.0
 43
0.38
 44
1.5
 45
0.0
 46
0.0
 47
0.2
 48
0.2
140
3.5
141
0.09
142
0.0
143
25.4
144
1.0
145
0.0
146
1.0
147
0.875
 71
0.0
 72
0.0
 73
0
 74
0
 75
0
 76
0
 77
1
 78
8
 79
2
170
0
171
1
172
0
173
0
174
0
175
0
176
0
177
0
178
2
270
2
179
2
271
2
272
2
273
2
274
2
275
0
280
0
281
0
282
0
283
1
284
8
285
0
286
0
287
3
288
0
340
11
278
46
341
210
342
210
343
210
344
210
  0
DIMSTYLE
105
216
100
AcDbSymbolTableRecord
100
AcDbDimStyleTableRecord
  2
DIMSTYLE_2
 70
0
  3

  4

 40
1.0
 41
3.5
 42
0.0
 43
0.38
 44
1.5
 45
0.0
 46
0.0
 47
0.5
 48
0.5
140
3.5
141
0.09
142
0.0
143
25.4
144
1.0
145
0.0
146
1.0
147
0.875
 71
0.0
 72
0.0
 73
0
 74
0
 75
0
 76
0
 77
1
 78
8
 79
2
170
0
171
1
172
0
173
0
174
0
175
0
176
0
177
0
178
2
270
2
179
2
271
2
272
2
273
2
274
2
275
0
280
0
281
0
282
0
283
1
284
8
285
0
286
0
287
3
288
0
340
11
278
46
341
210
342
210
343
210
344
210
  0
DIMSTYLE
105
217
100
AcDbSymbolTableRecord
100
AcDbDimStyleTableRecord
  2
DIMSTYLE_3
 70
0
  3

  4

 40
1.0
 41
3.5
 42
0.0
 43
0.38
 44
1.5
 45
0.0
 46
0.0
 47
0.3
 48
0.3
140
3.5
141
0.09
142
0.0
143
25.4
144
1.0
145
0.0
146
1.0
147
0.875
 71
0.0
 72
0.0
 73
0
 74
0
 75
0
 76
0
 77
1
 78
8
 79
2
170
0
171
1
172
0
173
0
174
0
175
0
176
0
177
0
178
2
270
2
179
2
271
2
272
2
273
2
274
2
275
0
280
0
281
0
282
0
283
1
284
8
285
0
286
0
287
3
288
0
340
11
278
46
341
210
342
210
343
210
344
210
  0
ENDTAB
  0
ENDSEC
  0
SECTION
  2
BLOCKS
  0
BLOCK
  5
20
100
AcDbEntity
  8
0
100
AcDbBlockBegin
  2
*Model_Space
 70
0
 10
0.0
 20
0.0
 30
0.0
  3
*Model_Space
  1

  0
ENDBLK
  5
21
100
AcDbEntity
  8
0
100
AcDbBlockEnd
  0
BLOCK
  5
1C
100
AcDbEntity
  8
0
100
AcDbBlockBegin
  2
*Paper_Space
 70
0
 10
0.0
 20
0.0
 30
0.0
  3
*Paper_Space
  1

  0
ENDBLK
  5
1D
100
AcDbEntity
  8
0
100
AcDbBlockEnd
  0
BLOCK
  5
218
100
AcDbEntity
  8
0
100
AcDbBlockBegin
  2
_FILLED
 70
64
 10
0.0
 20
0.0
  3
_FILLED
  1

  0
SOLID
  5
219
100
AcDbEntity
  8
0
  6
BYBLOCK
 62
0
100
AcDbTrace
 10
0.0
 20
0.0
 11
-1.0
 21
0.125
 12
-1.0
 22
-0.125
 13
-1.0
 23
-0.125
  0
ENDBLK
  5
21A
100
AcDbEntity
  8
0
  6
BYBLOCK
 62
0
100
AcDbBlockEnd
  0
BLOCK
  5
21B
100
AcDbEntity
  8
_03_2D_ZEICHNUNG_BEMASSUNGEN
100
AcDbBlockBegin
 62
7
  6
CONTINUOUS
  2
*D0
 70
65
 10
0.0
 20
0.0
  3
*D0
  1

  0
TEXT
  5
21C
100
AcDbEntity
  8
_03_2D_ZEICHNUNG_BEMASSUNGEN
100
AcDbText
 62
2
  6
CONTINUOUS
 10
-9.875
 20
9.875
  7
STANDARD
 40
3.5
  1
25
 50
90.0
 41
0.75
 72
1
 11
-9.875
 21
12.5
100
AcDbText
  0
LINE
  5
21D
100
AcDbEntity
  8
_03_2D_ZEICHNUNG_BEMASSUNGEN
100
AcDbLine
 62
7
  6
CONTINUOUS
 10
0.0
 20
25.0
 11
-10.5
 21
25.0
  0
LINE
  5
21E
100
AcDbEntity
  8
_03_2D_ZEICHNUNG_BEMASSUNGEN
100
AcDbLine
 62
7
  6
CONTINUOUS
 10
-0.0
 20
-0.0
 11
-10.5
 21
0.0
  0
LINE
  5
21F
100
AcDbEntity
  8
_03_2D_ZEICHNUNG_BEMASSUNGEN
100
AcDbLine
 62
7
  6
CONTINUOUS
 10
-9.0
 20
25.0
 11
-9.0
 21
31.0
  0
LINE
  5
220
100
AcDbEntity
  8
_03_2D_ZEICHNUNG_BEMASSUNGEN
100
AcDbLine
 62
7
  6
CONTINUOUS
 10
-9.0
 20
31.0
 11
-9.0
 21
12.5
  0
LINE
  5
221
100
AcDbEntity
  8
_03_2D_ZEICHNUNG_BEMASSUNGEN
100
AcDbLine
 62
7
  6
CONTINUOUS
 10
-9.0
 20
0.0
 11
-9.0
 21
-6.0
  0
LINE
  5
222
100
AcDbEntity
  8
_03_2D_ZEICHNUNG_BEMASSUNGEN
100
AcDbLine
 62
7
  6
CONTINUOUS
 10
-9.0
 20
-6.0
 11
-9.0
 21
12.5
  0
INSERT
  5
223
100
AcDbEntity
  8
_03_2D_ZEICHNUNG_BEMASSUNGEN
100
AcDbBlockReference
 62
7
  6
CONTINUOUS
  2
_FILLED
 10
-9.0
 20
25.0
 41
3.5
 42
3.5
 43
3.5
 50
270.0
  0
INSERT
  5
224
100
AcDbEntity
  8
_03_2D_ZEICHNUNG_BEMASSUNGEN
100
AcDbBlockReference
 62
7
  6
CONTINUOUS
  2
_FILLED
 10
-9.0
 20
0.0
 41
3.5
 42
3.5
 43
3.5
 50
90.0
  0
ENDBLK
  5
225
100
AcDbEntity
  8
0
  6
BYBLOCK
 62
0
100
AcDbBlockEnd
  0
BLOCK
  5
226
100
AcDbEntity
  8
_03_2D_ZEICHNUNG_BEMASSUNGEN
100
AcDbBlockBegin
 62
7
  6
CONTINUOUS
  2
*D1
 70
65
 10
0.0
 20
0.0
  3
*D1
  1

  0
TEXT
  5
227
100
AcDbEntity
  8
_03_2D_ZEICHNUNG_BEMASSUNGEN
100
AcDbText
 62
2
  6
CONTINUOUS
 10
69.285
 20
41.902573853
  7
STANDARD
 40
3.5
  1
153.07
 41
0.6904761905
 72
1
 11
76.535
 21
41.902573853
100
AcDbText
  0
LINE
  5
228
100
AcDbEntity
  8
_03_2D_ZEICHNUNG_BEMASSUNGEN
100
AcDbLine
 62
7
  6
CONTINUOUS
 10
153.07
 20
0.0
 11
153.07
 21
42.527573853
  0
LINE
  5
229
100
AcDbEntity
  8
_03_2D_ZEICHNUNG_BEMASSUNGEN
100
AcDbLine
 62
7
  6
CONTINUOUS
 10
0.0
 20
0.0
 11
0.0
 21
42.527573853
  0
LINE
  5
22A
100
AcDbEntity
  8
_03_2D_ZEICHNUNG_BEMASSUNGEN
100
AcDbLine
 62
7
  6
CONTINUOUS
 10
153.07
 20
41.027573853
 11
76.535
 21
41.027573853
  0
LINE
  5
22B
100
AcDbEntity
  8
_03_2D_ZEICHNUNG_BEMASSUNGEN
100
AcDbLine
 62
7
  6
CONTINUOUS
 10
0.0
 20
41.027573853
 11
76.535
 21
41.027573853
  0
INSERT
  5
22C
100
AcDbEntity
  8
_03_2D_ZEICHNUNG_BEMASSUNGEN
100
AcDbBlockReference
 62
7
  6
CONTINUOUS
  2
_FILLED
 10
153.07
 20
41.027573853
 41
3.5
 42
3.5
 43
3.5
  0
INSERT
  5
22D
100
AcDbEntity
  8
_03_2D_ZEICHNUNG_BEMASSUNGEN
100
AcDbBlockReference
 62
7
  6
CONTINUOUS
  2
_FILLED
 10
0.0
 20
41.027573853
 41
3.5
 42
3.5
 43
3.5
 50
180.0
  0
ENDBLK
  5
22E
100
AcDbEntity
  8
0
  6
BYBLOCK
 62
0
100
AcDbBlockEnd
  0
BLOCK
  5
22F
100
AcDbEntity
  8
_03_2D_ZEICHNUNG_BEMASSUNGEN
100
AcDbBlockBegin
 62
7
  6
CONTINUOUS
  2
*D2
 70
65
 10
0.0
 20
0.0
  3
*D2
  1

  0
TEXT
  5
230
100
AcDbEntity
  8
_03_2D_ZEICHNUNG_BEMASSUNGEN
100
AcDbText
 62
2
  6
CONTINUOUS
 10
173.1462422091
 20
13.375
  7
STANDARD
 40
3.5
  1
32
 50
90.0
 41
0.75
 72
1
 11
173.1462422091
 21
16.0
100
AcDbText
  0
LINE
  5
231
100
AcDbEntity
  8
_03_2D_ZEICHNUNG_BEMASSUNGEN
100
AcDbLine
 62
7
  6
CONTINUOUS
 10
150.0
 20
32.0
 11
175.5212422091
 21
32.0
  0
LINE
  5
232
100
AcDbEntity
  8
_03_2D_ZEICHNUNG_BEMASSUNGEN
100
AcDbLine
 62
7
  6
CONTINUOUS
 10
0.0
 20
0.0
 11
175.5212422091
 21
0.0
  0
LINE
  5
233
100
AcDbEntity
  8
_03_2D_ZEICHNUNG_BEMASSUNGEN
100
AcDbLine
 62
7
  6
CONTINUOUS
 10
174.0212422091
 20
32.0
 11
174.0212422091
 21
16.0
  0
LINE
  5
234
100
AcDbEntity
  8
_03_2D_ZEICHNUNG_BEMASSUNGEN
100
AcDbLine
 62
7
  6
CONTINUOUS
 10
174.0212422091
 20
0.0
 11
174.0212422091
 21
16.0
  0
INSERT
  5
235
100
AcDbEntity
  8
_03_2D_ZEICHNUNG_BEMASSUNGEN
100
AcDbBlockReference
 62
7
  6
CONTINUOUS
  2
_FILLED
 10
174.0212422091
 20
32.0
 41
3.5
 42
3.5
 43
3.5
 50
90.0
  0
INSERT
  5
236
100
AcDbEntity
  8
_03_2D_ZEICHNUNG_BEMASSUNGEN
100
AcDbBlockReference
 62
7
  6
CONTINUOUS
  2
_FILLED
 10
174.0212422091
 20
0.0
 41
3.5
 42
3.5
 43
3.5
 50
270.0
  0
ENDBLK
  5
237
100
AcDbEntity
  8
0
  6
BYBLOCK
 62
0
100
AcDbBlockEnd
  0
ENDSEC
  0
SECTION
  2
ENTITIES
  0
DIMENSION
  5
238
100
AcDbEntity
  8
_03_2D_ZEICHNUNG_BEMASSUNGEN
100
AcDbDimension
 62
7
  6
CONTINUOUS
  2
*D0
 10
-9.0
 20
0.0
 11
-9.0
 21
11.9999997234
 70
160
 71
2
 72
2
 41
0.9
 42
25.0
  3
DIMSTYLE_1
100
AcDbAlignedDimension
 13
0.0
 23
25.0
 14
-0.0
 24
-0.0
 50
270.0
100
AcDbRotatedDimension
  0
DIMENSION
  5
239
100
AcDbEntity
  8
_03_2D_ZEICHNUNG_BEMASSUNGEN
100
AcDbDimension
 62
7
  6
CONTINUOUS
  2
*D1
 10
0.0
 20
41.027573853
 11
76.0349995422
 21
41.027573853
 70
160
 71
2
 72
2
 41
0.9
 42
153.07
  3
DIMSTYLE_2
100
AcDbAlignedDimension
 13
153.07
 23
0.0
 14
0.0
 24
0.0
 50
180.0
100
AcDbRotatedDimension
  0
DIMENSION
  5
23A
100
AcDbEntity
  8
_03_2D_ZEICHNUNG_BEMASSUNGEN
100
AcDbDimension
 62
7
  6
CONTINUOUS
  2
*D2
 10
174.0212422091
 20
0.0
 11
174.0212422091
 21
15.5000013822
 70
160
 71
2
 72
2
 41
0.9
 42
32.0
  3
DIMSTYLE_3
100
AcDbAlignedDimension
 13
150.0
 23
32.0
 14
0.0
 24
0.0
 50
270.0
100
AcDbRotatedDimension
  0
LINE
  5
23B
100
AcDbEntity
  8
_30_VOLUMEN
100
AcDbLine
 62
4
  6
CONTINUOUS
 10
-0.0
 20
0.5
 11
0.0
 21
24.5
  0
LINE
  5
23C
100
AcDbEntity
  8
_30_VOLUMEN
100
AcDbLine
 62
4
  6
CONTINUOUS
 10
0.5
 20
-0.0
 11
0.5
 21
25.0
  0
LINE
  5
23D
100
AcDbEntity
  8
_30_VOLUMEN
100
AcDbLine
 62
4
  6
CONTINUOUS
 10
0.5
 20
25.0
 11
0.0
 21
24.5
  0
LINE
  5
23E
100
AcDbEntity
  8
_30_VOLUMEN
100
AcDbLine
 62
4
  6
CONTINUOUS
 10
0.5
 20
-0.0
 11
-0.0
 21
0.5
  0
LINE
  5
23F
100
AcDbEntity
  8
_30_VOLUMEN
100
AcDbLine
 62
4
  6
CONTINUOUS
 10
0.5
 20
-0.0
 11
121.67
 21
0.0
  0
LINE
  5
240
100
AcDbEntity
  8
0
100
AcDbLine
 62
4
  6
CONTINUOUS
 10
121.67
 20
0.0
 11
140.5782975183
 21
0.0
  0
LINE
  5
241
100
AcDbEntity
  8
_26_BEZUGSACHSEN
100
AcDbLine
 62
4
  6
CONTINUOUS
 10
152.2485931174
 20
19.5823639398
 11
140.6034802727
 21
18.5635485804
  0
LINE
  5
242
100
AcDbEntity
  8
_30_VOLUMEN
100
AcDbLine
 62
4
  6
CONTINUOUS
 10
152.3614913059
 20
19.5070825297
 11
141.181035029
 21
18.6749490871
  0
LINE
  5
243
100
AcDbEntity
  8
_21_KURVEN
100
AcDbLine
 62
7
  6
CONTINUOUS
 10
152.3614913059
 20
19.5070825297
 11
141.181035029
 21
18.6749490871
  0
LINE
  5
244
100
AcDbEntity
  8
_26_BEZUGSACHSEN
100
AcDbLine
 62
4
  6
CONTINUOUS
 10
137.4207651903
 20
29.8535329492
 11
123.4735422264
 21
28.6333090522
  0
LINE
  5
245
100
AcDbEntity
  8
_21_KURVEN
100
AcDbLine
 62
7
  6
CONTINUOUS
 10
138.1414611086
 20
31.0840399037
 11
149.3219173855
 21
31.9161733463
  0
LINE
  5
246
100
AcDbEntity
  8
_30_VOLUMEN
100
AcDbLine
 62
4
  6
CONTINUOUS
 10
138.1414611086
 20
31.0840399037
 11
149.3219173855
 21
31.9161733463
  0
LINE
  5
247
100
AcDbEntity
  8
_30_VOLUMEN
100
AcDbLine
 62
4
  6
CONTINUOUS
 10
0.5
 20
25.0
 11
121.67
 21
25.0
  0
LINE
  5
248
100
AcDbEntity
  8
0
100
AcDbLine
 62
4
  6
CONTINUOUS
 10
121.67
 20
25.0
 11
122.5
 21
25.0
  0
LINE
  5
249
100
AcDbEntity
  8
_30_VOLUMEN
100
AcDbLine
 62
4
  6
CONTINUOUS
 10
137.5553116346
 20
30.7521237758
 11
137.1147349993
 21
30.1229151323
  0
LINE
  5
24A
100
AcDbEntity
  8
_28_BEZUGSPUNKTE
100
AcDbLine
 62
1
  6
CONTINUOUS
 10
150.15625
 20
32.15625
 11
149.84375
 21
31.84375
  0
LINE
  5
24B
100
AcDbEntity
  8
0
100
AcDbLine
 62
4
  6
CONTINUOUS
 10
130.6599453019
 20
0.0
 11
123.3044900738
 21
5.1503451977
  0
LINE
  5
24C
100
AcDbEntity
  8
0
100
AcDbLine
 62
4
  6
CONTINUOUS
 10
122.5
 20
25.0
 11
122.596895729
 21
25.3616197838
  0
LINE
  5
24D
100
AcDbEntity
  8
_30_VOLUMEN
100
AcDbLine
 62
4
  6
CONTINUOUS
 10
122.596895729
 20
25.3616197838
 11
123.4735422264
 21
28.6333090522
  0
LINE
  5
24E
100
AcDbEntity
  8
_30_VOLUMEN
100
AcDbLine
 62
7
  6
CONTINUOUS
 10
137.4411440416
 20
30.0977804369
 11
137.2602893222
 21
29.8394931299
  0
LINE
  5
24F
100
AcDbEntity
  8
0
100
AcDbLine
 62
4
  6
CONTINUOUS
 10
122.596895729
 20
25.3616197838
 11
123.3044900738
 21
5.1503451977
  0
LINE
  5
250
100
AcDbEntity
  8
0
100
AcDbLine
 62
4
  6
CONTINUOUS
 10
121.67
 20
25.0
 11
121.67
 21
0.0
  0
LINE
  5
251
100
AcDbEntity
  8
0
100
AcDbLine
 62
4
  6
CONTINUOUS
 10
123.3044900738
 20
5.1503451977
 11
123.3044900738
 21
0.0
  0
LINE
  5
252
100
AcDbEntity
  8
_30_VOLUMEN
100
AcDbLine
 62
7
  6
CONTINUOUS
 10
141.181035029
 20
18.6749490871
 11
141.1356312407
 21
18.6101057574
  0
LINE
  5
253
100
AcDbEntity
  8
_30_VOLUMEN
100
AcDbLine
 62
7
  6
CONTINUOUS
 10
152.3614913059
 20
19.5070825297
 11
152.2944279275
 21
19.4113060996
  0
LINE
  5
254
100
AcDbEntity
  8
_30_VOLUMEN
100
AcDbLine
 62
4
  6
CONTINUOUS
 10
152.94764078
 20
19.8389986577
 11
152.5070641447
 21
19.2097900142
  0
LINE
  5
255
100
AcDbEntity
  8
_30_VOLUMEN
100
AcDbLine
 62
4
  6
CONTINUOUS
 10
152.8135819186
 20
17.4737970281
 11
140.5782975183
 21
0.0
  0
LINE
  5
256
100
AcDbEntity
  8
_26_BEZUGSACHSEN
100
AcDbLine
 62
4
  6
CONTINUOUS
 10
140.6034802727
 20
18.5635485804
 11
137.4207651903
 21
29.8535329492
  0
LINE
  5
257
100
AcDbEntity
  8
_30_VOLUMEN
100
AcDbLine
 62
4
  6
CONTINUOUS
 10
140.3423736391
 20
19.2702441744
 11
137.4411440416
 21
30.0977804369
  0
LINE
  5
258
100
AcDbEntity
  8
_21_KURVEN
100
AcDbLine
 62
7
  6
CONTINUOUS
 10
140.3423736391
 20
19.2702441744
 11
137.4411440416
 21
30.0977804369
  0
LINE
  5
259
100
AcDbEntity
  8
_28_BEZUGSPUNKTE
100
AcDbLine
 62
1
  6
CONTINUOUS
 10
150.15625
 20
31.84375
 11
149.84375
 21
32.15625
  0
LINE
  5
25A
100
AcDbEntity
  8
_26_BEZUGSACHSEN
100
AcDbLine
 62
4
  6
CONTINUOUS
 10
152.2485931174
 20
19.5823639398
 11
152.8135819186
 21
17.4737970281
  0
LINE
  5
25B
100
AcDbEntity
  8
_30_VOLUMEN
100
AcDbLine
 62
4
  6
CONTINUOUS
 10
150.1605787754
 20
31.3208782591
 11
153.0618083729
 21
20.4933419965
  0
LINE
  5
25C
100
AcDbEntity
  8
_21_KURVEN
100
AcDbLine
 62
7
  6
CONTINUOUS
 10
150.1605787754
 20
31.3208782591
 11
153.0618083729
 21
20.4933419965
  0
ARC
  5
25D
100
AcDbEntity
  8
_30_VOLUMEN
100
AcDbCircle
 62
7
  6
CONTINUOUS
 10
145.0440067888
 20
25.0887248695
 40
2.5287619423
100
AcDbArc
 50
104.1988136713
 51
144.9296955355
  0
ARC
  5
25E
100
AcDbEntity
  8
_30_VOLUMEN
100
AcDbCircle
 62
4
  6
CONTINUOUS
 10
144.761979951
 20
24.6998062062
 40
2.5207469402
100
AcDbArc
 50
134.1767297875
 51
138.2952857029
  0
ARC
  5
25F
100
AcDbEntity
  8
_30_VOLUMEN
100
AcDbCircle
 62
4
  6
CONTINUOUS
 10
144.8650734929
 20
24.6266373793
 40
2.5129703654
100
AcDbArc
 50
330.4999980722
 51
335.9148988659
  0
ARC
  5
260
100
AcDbEntity
  8
_30_VOLUMEN
100
AcDbCircle
 62
4
  6
CONTINUOUS
 10
151.8660549854
 20
19.6593136112
 40
0.7829201261
100
AcDbArc
 50
311.5653105729
 51
324.9589868002
  0
ARC
  5
261
100
AcDbEntity
  8
_30_VOLUMEN
100
AcDbCircle
 62
4
  6
CONTINUOUS
 10
137.7551033619
 20
29.6748989981
 40
0.7815304307
100
AcDbArc
 50
145.0224972725
 51
169.6244741297
  0
SPLINE
  5
262
100
AcDbEntity
  8
_30_VOLUMEN
100
AcDbSpline
 62
4
  6
CONTINUOUS
 70
0
 71
3
 72
9
 73
5
 74
0
 42
0.0000001
 43
0.0000001
 44
0.0000000001
 40
0.0
 40
0.0
 40
0.0
 40
0.0
 40
0.5010987576
 40
1.0
 40
1.0
 40
1.0
 40
1.0
 10
138.1414611086
 20
31.0840399037
 30
0.0
 10
138.0264457081
 20
31.0754795946
 30
0.0
 10
137.7977281957
 20
31.0071159779
 30
0.0
 10
137.6211677664
 20
30.8461896037
 30
0.0
 10
137.5553117837
 20
30.7521236738
 30
0.0
  0
SPLINE
  5
263
100
AcDbEntity
  8
_30_VOLUMEN
100
AcDbSpline
 62
4
  6
CONTINUOUS
 70
0
 71
3
 72
11
 73
7
 74
0
 42
0.0000001
 43
0.0000001
 44
0.0000000001
 40
0.0
 40
0.0
 40
0.0
 40
0.0
 40
0.2494161439
 40
0.499974297
 40
0.7505470561
 40
1.0
 40
1.0
 40
1.0
 40
1.0
 10
150.1605787754
 20
31.3208782591
 30
0.0
 10
150.1367106792
 20
31.4099552068
 30
0.0
 10
150.0565763052
 20
31.5813422895
 30
0.0
 10
149.8576772701
 20
31.7825082225
 30
0.0
 10
149.6021401219
 20
31.9039020827
 30
0.0
 10
149.4138958309
 20
31.9230190723
 30
0.0
 10
149.3219173855
 20
31.9161733463
 30
0.0
  0
SPLINE
  5
264
100
AcDbEntity
  8
_30_VOLUMEN
100
AcDbSpline
 62
4
  6
CONTINUOUS
 70
0
 71
3
 72
15
 73
11
 74
0
 42
0.0000001
 43
0.0000001
 44
0.0000000001
 40
0.0
 40
0.0
 40
0.0
 40
0.0
 40
0.1247477001
 40
0.2501496045
 40
0.3756292865
 40
0.501187189
 40
0.6265093303
 40
0.7514230349
 40
0.8758930826
 40
1.0
 40
1.0
 40
1.0
 40
1.0
 10
144.1468044572
 20
27.1447892828
 30
0.0
 10
144.3788747286
 20
27.2037447603
 30
0.0
 10
144.863661292
 20
27.2558314853
 30
0.0
 10
145.5829312896
 20
27.1314095801
 30
0.0
 10
146.2419731849
 20
26.812822199
 30
0.0
 10
146.7886375737
 20
26.3265080344
 30
0.0
 10
147.1802454872
 20
25.7096123283
 30
0.0
 10
147.3861366876
 20
25.0105711613
 30
0.0
 10
147.3903401005
 20
24.284456308
 30
0.0
 10
147.2564960302
 20
23.81857674
 30
0.0
 10
147.1592654783
 20
23.6011115669
 30
0.0
  0
SPLINE
  5
265
100
AcDbEntity
  8
_30_VOLUMEN
100
AcDbSpline
 62
4
  6
CONTINUOUS
 70
0
 71
3
 72
9
 73
5
 74
0
 42
0.0000001
 43
0.0000001
 44
0.0000000001
 40
0.0
 40
0.0
 40
0.0
 40
0.0
 40
0.4966853917
 40
1.0
 40
1.0
 40
1.0
 40
1.0
 10
147.2012315104
 20
23.5820076338
 30
0.0
 10
147.0352115629
 20
23.3449065767
 30
0.0
 10
146.611767753
 20
22.9242357488
 30
0.0
 10
146.0675005321
 20
22.6796395705
 30
0.0
 10
145.7832202595
 20
22.6074205866
 30
0.0
  0
SPLINE
  5
266
100
AcDbEntity
  8
_30_VOLUMEN
100
AcDbSpline
 62
4
  6
CONTINUOUS
 70
0
 71
3
 72
9
 73
5
 74
0
 42
0.0000001
 43
0.0000001
 44
0.0000000001
 40
0.0
 40
0.0
 40
0.0
 40
0.0
 40
0.4989470634
 40
1.0
 40
1.0
 40
1.0
 40
1.0
 10
152.9476406309
 20
19.8389987596
 30
0.0
 10
153.0125388567
 20
19.9316966696
 30
0.0
 10
153.1026564569
 20
20.1488795603
 30
0.0
 10
153.0912193718
 20
20.3835786545
 30
0.0
 10
153.0618083729
 20
20.4933419965
 30
0.0
  0
SPLINE
  5
267
100
AcDbEntity
  8
_30_VOLUMEN
100
AcDbSpline
 62
4
  6
CONTINUOUS
 70
0
 71
3
 72
9
 73
5
 74
0
 42
0.0000001
 43
0.0000001
 44
0.0000000001
 40
0.0
 40
0.0
 40
0.0
 40
0.0
 40
0.4999454315
 40
1.0
 40
1.0
 40
1.0
 40
1.0
 10
143.0053372554
 20
26.5076700219
 30
0.0
 10
143.1629115343
 20
26.6607719832
 30
0.0
 10
143.5204139316
 20
26.9259862603
 30
0.0
 10
143.933817781
 20
27.0906818304
 30
0.0
 10
144.1468044572
 20
27.1447892828
 30
0.0
  0
SPLINE
  5
268
100
AcDbEntity
  8
_30_VOLUMEN
100
AcDbSpline
 62
4
  6
CONTINUOUS
 70
0
 71
3
 72
15
 73
11
 74
0
 42
0.0000001
 43
0.0000001
 44
0.0000000001
 40
0.0
 40
0.0
 40
0.0
 40
0.0
 40
0.1247702476
 40
0.2515306936
 40
0.3792586864
 40
0.5068027214
 40
0.6329799454
 40
0.7570623128
 40
0.8792212165
 40
1.0
 40
1.0
 40
1.0
 40
1.0
 10
145.7832202595
 20
22.6074205866
 30
0.0
 10
145.5327714541
 20
22.543796199
 30
0.0
 10
145.0047368902
 20
22.4934574201
 30
0.0
 10
144.2249134942
 20
22.6577852532
 30
0.0
 10
143.5232167136
 20
23.0488192747
 30
0.0
 10
142.9690197585
 20
23.6284905205
 30
0.0
 10
142.6153088416
 20
24.3398053338
 30
0.0
 10
142.4913306059
 20
25.1133807889
 30
0.0
 10
142.6051259256
 20
25.8766228853
 30
0.0
 10
142.8309339298
 20
26.3367613206
 30
0.0
 10
142.9744069618
 20
26.5416620454
 30
0.0
  0
SPLINE
  5
269
100
AcDbEntity
  8
_30_VOLUMEN
100
AcDbSpline
 62
4
  6
CONTINUOUS
 70
0
 71
3
 72
9
 73
5
 74
0
 42
0.0000001
 43
0.0000001
 44
0.0000000001
 40
0.0
 40
0.0
 40
0.0
 40
0.0
 40
0.7481837888
 40
1.0
 40
1.0
 40
1.0
 40
1.0
 10
140.3423736391
 20
19.2702441744
 30
0.0
 10
140.3622766853
 20
19.1959649947
 30
0.0
 10
140.4040714877
 20
19.0999395927
 30
0.0
 10
140.4619068297
 20
19.0149150391
 30
0.0
 10
140.4774661434
 20
18.9942319931
 30
0.0
  0
SPLINE
  5
26A
100
AcDbEntity
  8
_30_VOLUMEN
100
AcDbSpline
 62
4
  6
CONTINUOUS
 70
0
 71
3
 72
9
 73
5
 74
0
 42
0.0000001
 43
0.0000001
 44
0.0000000001
 40
0.0
 40
0.0
 40
0.0
 40
0.0
 40
0.5006003715
 40
1.0
 40
1.0
 40
1.0
 40
1.0
 10
140.4774661434
 20
18.9942319931
 30
0.0
 10
140.5574458616
 20
18.8879146953
 30
0.0
 10
140.7744266722
 20
18.7133332803
 30
0.0
 10
141.0486784194
 20
18.6650981152
 30
0.0
 10
141.181035029
 20
18.6749490871
 30
0.0
  0
SPLINE
  5
26B
100
AcDbEntity
  8
_30_VOLUMEN
100
AcDbSpline
 62
4
  6
CONTINUOUS
 70
0
 71
3
 72
15
 73
11
 74
0
 42
0.0000001
 43
0.0000001
 44
0.0000000001
 40
0.0
 40
0.0
 40
0.0
 40
0.0
 40
0.1251901271
 40
0.2508906145
 40
0.3766919851
 40
0.5021265182
 40
0.6269388249
 40
0.7512371245
 40
0.87543332
 40
1.0
 40
1.0
 40
1.0
 40
1.0
 10
145.9898335112
 20
22.3871363933
 30
0.0
 10
145.6156276665
 20
22.2920725831
 30
0.0
 10
144.8194492797
 20
22.2503075188
 30
0.0
 10
143.6969341587
 20
22.6454203022
 30
0.0
 10
142.8041925754
 20
23.4354428762
 30
0.0
 10
142.2782369073
 20
24.5022802246
 30
0.0
 10
142.1994099346
 20
25.6850163105
 30
0.0
 10
142.5824545684
 20
26.8034958358
 30
0.0
 10
143.3673326077
 20
27.6848532144
 30
0.0
 10
144.0815394098
 20
28.0247961664
 30
0.0
 10
144.4538817086
 20
28.1193865586
 30
0.0
  0
SPLINE
  5
26C
100
AcDbEntity
  8
_30_VOLUMEN
100
AcDbSpline
 62
4
  6
CONTINUOUS
 70
0
 71
3
 72
15
 73
11
 74
0
 42
0.0000001
 43
0.0000001
 44
0.0000000001
 40
0.0
 40
0.0
 40
0.0
 40
0.0
 40
0.1252056169
 40
0.250888832
 40
0.3766939519
 40
0.5021265069
 40
0.6269369442
 40
0.7512389165
 40
0.8754178902
 40
1.0
 40
1.0
 40
1.0
 40
1.0
 10
144.4689765371
 20
28.2158897427
 30
0.0
 10
144.850299159
 20
28.3127615096
 30
0.0
 10
145.6615383108
 20
28.3553951931
 30
0.0
 10
146.8051614094
 20
27.9525563559
 30
0.0
 10
147.7148089729
 20
27.1477459791
 30
0.0
 10
148.2506041446
 20
26.0607030858
 30
0.0
 10
148.3310298688
 20
24.8556262402
 30
0.0
 10
147.9406455251
 20
23.7161169108
 30
0.0
 10
147.1411555597
 20
22.8179259683
 30
0.0
 10
146.413399564
 20
22.4716220492
 30
0.0
 10
146.0339758774
 20
22.3752326907
 30
0.0
  0
SPLINE
  5
26D
100
AcDbEntity
  8
_30_VOLUMEN
100
AcDbSpline
 62
4
  6
CONTINUOUS
 70
0
 71
3
 72
15
 73
11
 74
0
 42
0.0000001
 43
0.0000001
 44
0.0000000001
 40
0.0
 40
0.0
 40
0.0
 40
0.0
 40
0.12456668
 40
0.2487628755
 40
0.3730611751
 40
0.4978734818
 40
0.6233080149
 40
0.7491093855
 40
0.8748098729
 40
1.0
 40
1.0
 40
1.0
 40
1.0
 10
145.9898335112
 20
22.3871363933
 30
0.0
 10
146.3621758101
 20
22.4817267856
 30
0.0
 10
147.0763826121
 20
22.8216697375
 30
0.0
 10
147.8612606515
 20
23.7030271162
 30
0.0
 10
148.2443052852
 20
24.8215066414
 30
0.0
 10
148.1654783126
 20
26.0042427273
 30
0.0
 10
147.6395226445
 20
27.0710800758
 30
0.0
 10
146.7467810612
 20
27.8611026498
 30
0.0
 10
145.6242659402
 20
28.2562154331
 30
0.0
 10
144.8280875534
 20
28.2144503688
 30
0.0
 10
144.4538817086
 20
28.1193865586
 30
0.0
  0
SPLINE
  5
26E
100
AcDbEntity
  8
_30_VOLUMEN
100
AcDbSpline
 62
4
  6
CONTINUOUS
 70
0
 71
3
 72
15
 73
11
 74
0
 42
0.0000001
 43
0.0000001
 44
0.0000000001
 40
0.0
 40
0.0
 40
0.0
 40
0.0
 40
0.1252056169
 40
0.250888832
 40
0.3766939519
 40
0.5021265069
 40
0.6269369442
 40
0.7512389165
 40
0.8754178902
 40
1.0
 40
1.0
 40
1.0
 40
1.0
 10
146.0339758774
 20
22.3752326907
 30
0.0
 10
145.6526532555
 20
22.2783609239
 30
0.0
 10
144.8414141037
 20
22.2357272403
 30
0.0
 10
143.6977910051
 20
22.6385660775
 30
0.0
 10
142.7881434416
 20
23.4433764543
 30
0.0
 10
142.2523482699
 20
24.5304193476
 30
0.0
 10
142.1719225457
 20
25.7354961932
 30
0.0
 10
142.5623068895
 20
26.8750055226
 30
0.0
 10
143.3617968548
 20
27.7731964651
 30
0.0
 10
144.0895528505
 20
28.1195003842
 30
0.0
 10
144.4689765371
 20
28.2158897427
 30
0.0
  0
SPLINE
  5
26F
100
AcDbEntity
  8
_30_VOLUMEN
100
AcDbSpline
 62
4
  6
CONTINUOUS
 70
0
 71
3
 72
9
 73
5
 74
0
 42
0.0000001
 43
0.0000001
 44
0.0000000001
 40
0.0
 40
0.0
 40
0.0
 40
0.0
 40
0.4989470634
 40
1.0
 40
1.0
 40
1.0
 40
1.0
 10
137.5553117837
 20
30.7521236738
 30
0.0
 10
137.4904135578
 20
30.6594257638
 30
0.0
 10
137.4002959576
 20
30.4422428731
 30
0.0
 10
137.4117330427
 20
30.2075437789
 30
0.0
 10
137.4411440416
 20
30.0977804369
 30
0.0
  0
SPLINE
  5
270
100
AcDbEntity
  8
_30_VOLUMEN
100
AcDbSpline
 62
7
  6
CONTINUOUS
 70
0
 71
3
 72
16
 73
12
 74
0
 42
0.0000001
 43
0.0000001
 44
0.0000000001
 40
0.0
 40
0.0
 40
0.0
 40
0.0
 40
0.1239449247
 40
0.186231775
 40
0.2486135446
 40
0.3733701506
 40
0.4985916714
 40
0.6241467234
 40
0.7496944002
 40
0.8752443435
 40
1.0
 40
1.0
 40
1.0
 40
1.0
 10
147.2011985335
 20
23.582030725
 30
0.0
 10
147.3488921719
 20
23.7929534568
 30
0.0
 10
147.5228684732
 20
24.1475743871
 30
0.0
 10
147.6380324024
 20
24.6525279193
 30
0.0
 10
147.6764008367
 20
25.1711227701
 30
0.0
 10
147.5723587015
 20
25.8228378976
 30
0.0
 10
147.2197408983
 20
26.531797195
 30
0.0
 10
146.6717120308
 20
27.105885489
 30
0.0
 10
145.9774720675
 20
27.4923904301
 30
0.0
 10
145.2019807705
 20
27.6541272579
 30
0.0
 10
144.6749207419
 20
27.6040859128
 30
0.0
 10
144.4237241213
 20
27.5402715491
 30
0.0
  0
SPLINE
  5
271
100
AcDbEntity
  8
_30_VOLUMEN
100
AcDbSpline
 62
4
  6
CONTINUOUS
 70
0
 71
3
 72
9
 73
5
 74
0
 42
0.0000001
 43
0.0000001
 44
0.0000000001
 40
0.0
 40
0.0
 40
0.0
 40
0.0
 40
0.5010987576
 40
1.0
 40
1.0
 40
1.0
 40
1.0
 10
152.3614913059
 20
19.5070825297
 30
0.0
 10
152.4765067065
 20
19.5156428388
 30
0.0
 10
152.7052242188
 20
19.5840064555
 30
0.0
 10
152.8817846482
 20
19.7449328297
 30
0.0
 10
152.9476406309
 20
19.8389987596
 30
0.0
  0
SPLINE
  5
272
100
AcDbEntity
  8
_21_KURVEN
100
AcDbSpline
 62
7
  6
CONTINUOUS
 70
0
 71
3
 72
9
 73
5
 74
0
 42
0.0000001
 43
0.0000001
 44
0.0000000001
 40
0.0
 40
0.0
 40
0.0
 40
0.0
 40
0.5
 40
1.0
 40
1.0
 40
1.0
 40
1.0
 10
138.1414611086
 20
31.0840399037
 30
0.0
 10
138.0862738873
 20
31.0779936219
 30
0.0
 10
137.9688643457
 20
31.0604750396
 30
0.0
 10
137.8666776907
 20
31.0126966084
 30
0.0
 10
137.8135188663
 20
30.9855214681
 30
0.0
  0
SPLINE
  5
273
100
AcDbEntity
  8
_21_KURVEN
100
AcDbSpline
 62
7
  6
CONTINUOUS
 70
0
 71
3
 72
9
 73
5
 74
0
 42
0.0000001
 43
0.0000001
 44
0.0000000001
 40
0.0
 40
0.0
 40
0.0
 40
0.0
 40
0.5
 40
1.0
 40
1.0
 40
1.0
 40
1.0
 10
137.8135188743
 20
30.9855214726
 30
0.0
 10
137.8039164247
 20
30.9800537741
 30
0.0
 10
137.7859378303
 20
30.9697408512
 30
0.0
 10
137.7640129258
 20
30.9553357049
 30
0.0
 10
137.7539500398
 20
30.948564612
 30
0.0
  0
SPLINE
  5
274
100
AcDbEntity
  8
_21_KURVEN
100
AcDbSpline
 62
7
  6
CONTINUOUS
 70
0
 71
3
 72
9
 73
5
 74
0
 42
0.0000001
 43
0.0000001
 44
0.0000000001
 40
0.0
 40
0.0
 40
0.0
 40
0.0
 40
0.5
 40
1.0
 40
1.0
 40
1.0
 40
1.0
 10
137.7539500417
 20
30.9485646133
 30
0.0
 10
137.7182299771
 20
30.9226164076
 30
0.0
 10
137.6435949048
 20
30.8650627819
 30
0.0
 10
137.5848036861
 20
30.7915322514
 30
0.0
 10
137.5556288416
 20
30.7525764525
 30
0.0
  0
SPLINE
  5
275
100
AcDbEntity
  8
_21_KURVEN
100
AcDbSpline
 62
7
  6
CONTINUOUS
 70
0
 71
3
 72
9
 73
5
 74
0
 42
0.0000001
 43
0.0000001
 44
0.0000000001
 40
0.0
 40
0.0
 40
0.0
 40
0.0
 40
0.5
 40
1.0
 40
1.0
 40
1.0
 40
1.0
 10
137.5556288448
 20
30.752576457
 30
0.0
 10
137.5357398119
 20
30.7227804665
 30
0.0
 10
137.4972443781
 20
30.6621105088
 30
0.0
 10
137.4704449056
 20
30.5953933157
 30
0.0
 10
137.4575482425
 20
30.5609444828
 30
0.0
  0
SPLINE
  5
276
100
AcDbEntity
  8
_21_KURVEN
100
AcDbSpline
 62
7
  6
CONTINUOUS
 70
0
 71
3
 72
10
 73
6
 74
0
 42
0.0000001
 43
0.0000001
 44
0.0000000001
 40
0.0
 40
0.0
 40
0.0
 40
0.0
 40
0.5
 40
0.75
 40
1.0
 40
1.0
 40
1.0
 40
1.0
 10
137.4575482452
 20
30.5609444907
 30
0.0
 10
137.4358121719
 20
30.4868277725
 30
0.0
 10
137.4090147527
 20
30.3749407546
 30
0.0
 10
137.4170311403
 20
30.2141525488
 30
0.0
 10
137.4327088537
 20
30.1371120724
 30
0.0
 10
137.4411440368
 20
30.0977804547
 30
0.0
  0
SPLINE
  5
277
100
AcDbEntity
  8
_21_KURVEN
100
AcDbSpline
 62
7
  6
CONTINUOUS
 70
0
 71
3
 72
9
 73
5
 74
0
 42
0.0000001
 43
0.0000001
 44
0.0000000001
 40
0.0
 40
0.0
 40
0.0
 40
0.0
 40
0.5
 40
1.0
 40
1.0
 40
1.0
 40
1.0
 10
150.1605787754
 20
31.3208782591
 30
0.0
 10
150.1425128436
 20
31.3792612736
 30
0.0
 10
150.1014910741
 20
31.4955088999
 30
0.0
 10
150.0274081843
 20
31.5945319786
 30
0.0
 10
149.9868361922
 20
31.6443983306
 30
0.0
  0
SPLINE
  5
278
100
AcDbEntity
  8
_21_KURVEN
100
AcDbSpline
 62
7
  6
CONTINUOUS
 70
0
 71
3
 72
9
 73
5
 74
0
 42
0.0000001
 43
0.0000001
 44
0.0000000001
 40
0.0
 40
0.0
 40
0.0
 40
0.0
 40
0.5
 40
1.0
 40
1.0
 40
1.0
 40
1.0
 10
149.9868361906
 20
31.6443983323
 30
0.0
 10
149.9445132697
 20
31.688865183
 30
0.0
 10
149.8570021713
 20
31.7745232158
 30
0.0
 10
149.7428810594
 20
31.8324574009
 30
0.0
 10
149.6860751273
 20
31.8583009915
 30
0.0
  0
SPLINE
  5
279
100
AcDbEntity
  8
_21_KURVEN
100
AcDbSpline
 62
7
  6
CONTINUOUS
 70
0
 71
3
 72
10
 73
6
 74
0
 42
0.0000001
 43
0.0000001
 44
0.0000000001
 40
0.0
 40
0.0
 40
0.0
 40
0.0
 40
0.5
 40
0.75
 40
1.0
 40
1.0
 40
1.0
 40
1.0
 10
149.6860751291
 20
31.8583009908
 30
0.0
 10
149.6284388043
 20
31.879368877
 30
0.0
 10
149.5423646043
 20
31.9072923164
 30
0.0
 10
149.4145303198
 20
31.9189445611
 30
0.0
 10
149.3532743018
 20
31.9172709964
 30
0.0
 10
149.3219173937
 20
31.9161733469
 30
0.0
  0
SPLINE
  5
27A
100
AcDbEntity
  8
_21_KURVEN
100
AcDbSpline
 62
7
  6
CONTINUOUS
 70
0
 71
3
 72
9
 73
5
 74
0
 42
0.0000001
 43
0.0000001
 44
0.0000000001
 40
0.0
 40
0.0
 40
0.0
 40
0.0
 40
0.5
 40
1.0
 40
1.0
 40
1.0
 40
1.0
 10
152.3614913059
 20
19.5070825297
 30
0.0
 10
152.4303911137
 20
19.5152393075
 30
0.0
 10
152.568657296
 20
19.5379420072
 30
0.0
 10
152.6903819909
 20
19.6061330719
 30
0.0
 10
152.7490023823
 20
19.6425578266
 30
0.0
  0
SPLINE
  5
27B
100
AcDbEntity
  8
_21_KURVEN
100
AcDbSpline
 62
7
  6
CONTINUOUS
 70
0
 71
3
 72
9
 73
5
 74
0
 42
0.0000001
 43
0.0000001
 44
0.0000000001
 40
0.0
 40
0.0
 40
0.0
 40
0.0
 40
0.5
 40
1.0
 40
1.0
 40
1.0
 40
1.0
 10
152.7490023728
 20
19.6425578201
 30
0.0
 10
152.7847224374
 20
19.6685060259
 30
0.0
 10
152.8593575097
 20
19.7260596515
 30
0.0
 10
152.9181487284
 20
19.799590182
 30
0.0
 10
152.9476407792
 20
19.8389986566
 30
0.0
  0
SPLINE
  5
27C
100
AcDbEntity
  8
_21_KURVEN
100
AcDbSpline
 62
7
  6
CONTINUOUS
 70
0
 71
3
 72
9
 73
5
 74
0
 42
0.0000001
 43
0.0000001
 44
0.0000000001
 40
0.0
 40
0.0
 40
0.0
 40
0.0
 40
0.5
 40
1.0
 40
1.0
 40
1.0
 40
1.0
 10
152.94764078
 20
19.8389986577
 30
0.0
 10
152.9675086785
 20
19.8688087627
 30
0.0
 10
153.0059610968
 20
19.9295060645
 30
0.0
 10
153.032713405
 20
19.9962425002
 30
0.0
 10
153.0454041666
 20
20.0301779348
 30
0.0
  0
SPLINE
  5
27D
100
AcDbEntity
  8
_21_KURVEN
100
AcDbSpline
 62
7
  6
CONTINUOUS
 70
0
 71
3
 72
8
 73
4
 74
0
 42
0.0000001
 43
0.0000001
 44
0.0000000001
 40
0.0
 40
0.0
 40
0.0
 40
0.0
 40
1.0
 40
1.0
 40
1.0
 40
1.0
 10
153.0454041693
 20
20.0301779428
 30
0.0
 10
153.0576386104
 20
20.066811764
 30
0.0
 10
153.0685760363
 20
20.1078945826
 30
0.0
 10
153.076552328
 20
20.1491950468
 30
0.0
  0
SPLINE
  5
27E
100
AcDbEntity
  8
_21_KURVEN
100
AcDbSpline
 62
7
  6
CONTINUOUS
 70
0
 71
3
 72
9
 73
5
 74
0
 42
0.0000001
 43
0.0000001
 44
0.0000000001
 40
0.0
 40
0.0
 40
0.0
 40
0.0
 40
0.5
 40
1.0
 40
1.0
 40
1.0
 40
1.0
 10
153.0765523287
 20
20.1491950505
 30
0.0
 10
153.0843817959
 20
20.2038918805
 30
0.0
 10
153.0967789779
 20
20.3201613366
 30
0.0
 10
153.0750226386
 20
20.4354839763
 30
0.0
 10
153.0618083706
 20
20.4933420053
 30
0.0
  0
SPLINE
  5
27F
100
AcDbEntity
  8
_21_KURVEN
100
AcDbSpline
 62
1
  6
CENTER
 70
0
 71
3
 72
163
 73
159
 74
0
 42
0.0000001
 43
0.0000001
 44
0.0000000001
 40
0.0
 40
0.0
 40
0.0
 40
0.0
 40
0.015625
 40
0.03125
 40
0.0390625
 40
0.046875
 40
0.0546875
 40
0.05859375
 40
0.060546875
 40
0.0625
 40
0.064453125
 40
0.06640625
 40
0.0703125
 40
0.078125
 40
0.09375
 40
0.109375
 40
0.1171875
 40
0.12109375
 40
0.123046875
 40
0.125
 40
0.126953125
 40
0.12890625
 40
0.1328125
 40
0.140625
 40
0.15625
 40
0.171875
 40
0.1796875
 40
0.18359375
 40
0.185546875
 40
0.1875
 40
0.189453125
 40
0.19140625
 40
0.1953125
 40
0.203125
 40
0.21875
 40
0.234375
 40
0.2421875
 40
0.24609375
 40
0.248046875
 40
0.25
 40
0.251953125
 40
0.25390625
 40
0.2578125
 40
0.265625
 40
0.28125
 40
0.296875
 40
0.3046875
 40
0.30859375
 40
0.310546875
 40
0.3125
 40
0.314453125
 40
0.31640625
 40
0.3203125
 40
0.328125
 40
0.34375
 40
0.359375
 40
0.3671875
 40
0.37109375
 40
0.373046875
 40
0.375
 40
0.376953125
 40
0.37890625
 40
0.3828125
 40
0.390625
 40
0.40625
 40
0.421875
 40
0.4296875
 40
0.43359375
 40
0.435546875
 40
0.4375
 40
0.439453125
 40
0.44140625
 40
0.4453125
 40
0.453125
 40
0.46875
 40
0.484375
 40
0.4921875
 40
0.49609375
 40
0.498046875
 40
0.5
 40
0.501953125
 40
0.50390625
 40
0.5078125
 40
0.515625
 40
0.53125
 40
0.546875
 40
0.5546875
 40
0.55859375
 40
0.560546875
 40
0.5625
 40
0.564453125
 40
0.56640625
 40
0.5703125
 40
0.578125
 40
0.59375
 40
0.609375
 40
0.6171875
 40
0.62109375
 40
0.623046875
 40
0.625
 40
0.626953125
 40
0.62890625
 40
0.6328125
 40
0.640625
 40
0.65625
 40
0.671875
 40
0.6796875
 40
0.68359375
 40
0.685546875
 40
0.6875
 40
0.689453125
 40
0.69140625
 40
0.6953125
 40
0.703125
 40
0.71875
 40
0.734375
 40
0.7421875
 40
0.74609375
 40
0.748046875
 40
0.75
 40
0.751953125
 40
0.75390625
 40
0.7578125
 40
0.765625
 40
0.78125
 40
0.796875
 40
0.8046875
 40
0.80859375
 40
0.810546875
 40
0.8125
 40
0.814453125
 40
0.81640625
 40
0.8203125
 40
0.828125
 40
0.84375
 40
0.859375
 40
0.8671875
 40
0.87109375
 40
0.873046875
 40
0.875
 40
0.876953125
 40
0.87890625
 40
0.8828125
 40
0.890625
 40
0.90625
 40
0.921875
 40
0.9296875
 40
0.93359375
 40
0.935546875
 40
0.9375
 40
0.939453125
 40
0.94140625
 40
0.9453125
 40
0.953125
 40
0.9609375
 40
0.96875
 40
0.984375
 40
1.0
 40
1.0
 40
1.0
 40
1.0
 10
146.8859738736
 20
19.1955328812
 30
0.0
 10
146.9822421941
 20
19.2303292027
 30
0.0
 10
147.1747769188
 20
19.2999257493
 30
0.0
 10
147.4154549069
 20
19.3869019142
 30
0.0
 10
147.6079771747
 20
19.4565238346
 30
0.0
 10
147.7524234941
 20
19.5086290206
 30
0.0
 10
147.8726217495
 20
19.5524037782
 30
0.0
 10
147.9571013553
 20
19.5823518668
 30
0.0
 10
148.0048432442
 20
19.6005490582
 30
0.0
 10
148.0421487962
 20
19.6111433128
 30
0.0
 10
148.0737238926
 20
19.6334101242
 30
0.0
 10
148.117822736
 20
19.659027991
 30
0.0
 10
148.1940658
 20
19.7057530674
 30
0.0
 10
148.3472176185
 20
19.7978513862
 30
0.0
 10
148.5656137941
 20
19.9301857923
 30
0.0
 10
148.7843105341
 20
20.0620336036
 30
0.0
 10
148.9370415625
 20
20.154813155
 30
0.0
 10
149.013863213
 20
20.2006015366
 30
0.0
 10
149.0570303066
 20
20.227727847
 30
0.0
 10
149.0914682793
 20
20.2453598439
 30
0.0
 10
149.1180211384
 20
20.2733620238
 30
0.0
 10
149.1561751743
 20
20.3070812944
 30
0.0
 10
149.221665285
 20
20.3677725545
 30
0.0
 10
149.3535602572
 20
20.4879537259
 30
0.0
 10
149.5414520805
 20
20.6603238937
 30
0.0
 10
149.7297197833
 20
20.8322512247
 30
0.0
 10
149.8610885242
 20
20.9530523677
 30
0.0
 10
149.9273022029
 20
21.0128911668
 30
0.0
 10
149.9642910125
 20
21.0479832316
 30
0.0
 10
149.9944241234
 20
21.0717673909
 30
0.0
 10
150.0154150083
 20
21.1052418746
 30
0.0
 10
150.0465915516
 20
21.1464946952
 30
0.0
 10
150.0996669784
 20
21.2202591521
 30
0.0
 10
150.2068794601
 20
21.3666678941
 30
0.0
 10
150.3594177586
 20
21.5764417358
 30
0.0
 10
150.5124234668
 20
21.7858752541
 30
0.0
 10
150.6189815749
 20
21.9327604489
 30
0.0
 10
150.6729567653
 20
22.0058697832
 30
0.0
 10
150.7026843387
 20
22.0481776064
 30
0.0
 10
150.7281273003
 20
22.0784105094
 30
0.0
 10
150.7415388319
 20
22.1143697398
 30
0.0
 10
150.7636172684
 20
22.1603181267
 30
0.0
 10
150.8003023963
 20
22.2416568211
 30
0.0
 10
150.8750672135
 20
22.4036715828
 30
0.0
 10
150.9810757751
 20
22.6354922331
 30
0.0
 10
151.0876213097
 20
22.8670910675
 30
0.0
 10
151.1616343647
 20
23.0294163715
 30
0.0
 10
151.1993531656
 20
23.1103280703
 30
0.0
 10
151.2197669858
 20
23.1569640866
 30
0.0
 10
151.2382931853
 20
23.1908105201
 30
0.0
 10
151.2445259375
 20
23.2289788885
 30
0.0
 10
151.257124058
 20
23.2783626312
 30
0.0
 10
151.2771761
 20
23.3654852674
 30
0.0
 10
151.3187053423
 20
23.5392314322
 30
0.0
 10
151.3772152966
 20
23.7877120966
 30
0.0
 10
151.4362808027
 20
24.0360560121
 30
0.0
 10
151.4770322726
 20
24.2099936253
 30
0.0
 10
151.4981537517
 20
24.2968530199
 30
0.0
 10
151.5090296618
 20
24.3466606843
 30
0.0
 10
151.5205540443
 20
24.3835265192
 30
0.0
 10
151.5192053802
 20
24.4222651453
 30
0.0
 10
151.5218971006
 20
24.473263452
 30
0.0
 10
151.5245189131
 20
24.5628142655
 30
0.0
 10
151.5312547345
 20
24.7416998435
 30
0.0
 10
151.5400225005
 20
24.9973666508
 30
0.0
 10
151.5493673315
 20
25.2529810538
 30
0.0
 10
151.5552952619
 20
25.4319399977
 30
0.0
 10
151.5590279245
 20
25.5213899331
 30
0.0
 10
151.5599307435
 20
25.5725506928
 30
0.0
 10
151.564078623
 20
25.6107901688
 30
0.0
 10
151.5549585069
 20
25.6495307646
 30
0.0
 10
151.5474260368
 20
25.7010101381
 30
0.0
 10
151.5320915102
 20
25.7911800416
 30
0.0
 10
151.5029595589
 20
25.9714653101
 30
0.0
 10
151.4604684916
 20
26.2290203099
 30
0.0
 10
151.4185455871
 20
26.4866607273
 30
0.0
 10
151.3886182078
 20
26.6668264113
 30
0.0
 10
151.3743773947
 20
26.7571607435
 30
0.0
 10
151.3650836196
 20
26.8083753227
 30
0.0
 10
151.361375255
 20
26.8479295204
 30
0.0
 10
151.3451971076
 20
26.8831131842
 30
0.0
 10
151.3279755236
 20
26.9315491235
 30
0.0
 10
151.2958145602
 20
27.0156028159
 30
0.0
 10
151.2329372151
 20
27.1842175836
 30
0.0
 10
151.1422914005
 20
27.424799406
 30
0.0
 10
151.0521781449
 20
27.6656004533
 30
0.0
 10
150.9885552173
 20
27.8339083061
 30
0.0
 10
150.9574194298
 20
27.9183840064
 30
0.0
 10
150.9385469131
 20
27.9661403485
 30
0.0
 10
150.9274413896
 20
28.0034121296
 30
0.0
 10
150.904680729
 20
28.0351235556
 30
0.0
 10
150.8783983206
 20
28.0793448433
 30
0.0
 10
150.8305131251
 20
28.1558297833
 30
0.0
 10
150.7360925253
 20
28.3094456452
 30
0.0
 10
150.60044192
 20
28.5285159658
 30
0.0
 10
150.4652764199
 20
28.7478794875
 30
0.0
 10
150.370176673
 20
28.9010848678
 30
0.0
 10
150.3232253047
 20
28.97813422
 30
0.0
 10
150.2954390706
 20
29.0214465841
 30
0.0
 10
150.277299036
 20
29.0559507509
 30
0.0
 10
150.2488388778
 20
29.0827332615
 30
0.0
 10
150.2144915093
 20
29.1211364878
 30
0.0
 10
150.1527092015
 20
29.1870892028
 30
0.0
 10
150.0303401192
 20
29.3198904418
 30
0.0
 10
149.8548477895
 20
29.5090877403
 30
0.0
 10
149.6797956734
 20
29.6986537649
 30
0.0
 10
149.5568102921
 20
29.8309387874
 30
0.0
 10
149.4958753955
 20
29.8976013001
 30
0.0
 10
149.4601633648
 20
29.9348614756
 30
0.0
 10
149.4358962413
 20
29.9651561019
 30
0.0
 10
149.4020075645
 20
29.9864690941
 30
0.0
 10
149.3601784999
 20
30.0180191017
 30
0.0
 10
149.2854167776
 20
30.0717741452
 30
0.0
 10
149.1370054953
 20
30.180327275
 30
0.0
 10
148.924375753
 20
30.3347912072
 30
0.0
 10
148.7120821048
 20
30.4897162614
 30
0.0
 10
148.5632002909
 20
30.5976238203
 30
0.0
 10
148.4890855496
 20
30.6522665238
 30
0.0
 10
148.4462145934
 20
30.682387053
 30
0.0
 10
148.4155272122
 20
30.7080922329
 30
0.0
 10
148.3792363252
 20
30.721890217
 30
0.0
 10
148.332802891
 20
30.7444405924
 30
0.0
 10
148.2506352924
 20
30.7819717697
 30
0.0
 10
148.086948481
 20
30.8584142993
 30
0.0
 10
147.8527473791
 20
30.966827725
 30
0.0
 10
147.6187624563
 20
31.0757729976
 30
0.0
 10
147.4547729942
 20
31.1514709417
 30
0.0
 10
147.3730215403
 20
31.190025924
 30
0.0
 10
147.325917951
 20
31.2109275744
 30
0.0
 10
147.2916861696
 20
31.2297913993
 30
0.0
 10
147.2532649825
 20
31.2364697596
 30
0.0
 10
147.2034979237
 20
31.2496243616
 30
0.0
 10
147.1157259887
 20
31.2706677649
 30
0.0
 10
146.9406658535
 20
31.3141672354
 30
0.0
 10
146.6903169735
 20
31.3754987895
 30
0.0
 10
146.4400985841
 20
31.4373817415
 30
0.0
 10
146.2648557622
 20
31.4801092549
 30
0.0
 10
146.1773350213
 20
31.5022140992
 30
0.0
 10
146.1271634421
 20
31.5136593676
 30
0.0
 10
146.0899851767
 20
31.5255897933
 30
0.0
 10
146.0510850991
 20
31.5247273569
 30
0.0
 10
145.9998188644
 20
31.5280394137
 30
0.0
 10
145.9098236742
 20
31.5317598242
 30
0.0
 10
145.7300318371
 20
31.5406835596
 30
0.0
 10
145.4730804381
 20
31.5525821374
 30
0.0
 10
145.2161745311
 20
31.5650545786
 30
0.0
 10
145.0363190053
 20
31.5731749053
 30
0.0
 10
144.9464113871
 20
31.5780000028
 30
0.0
 10
144.8950041274
 20
31.5795330831
 30
0.0
 10
144.8565373605
 20
31.5841366954
 30
0.0
 10
144.8177316211
 20
31.5755371587
 30
0.0
 10
144.7661088726
 20
31.5686765161
 30
0.0
 10
144.6757139738
 20
31.554524647
 30
0.0
 10
144.5466072052
 20
31.5354295137
 30
0.0
 10
144.3916667548
 20
31.512035164
 30
0.0
 10
144.1850837954
 20
31.4810104882
 30
0.0
 10
143.9268536081
 20
31.4421716895
 30
0.0
 10
143.7202699118
 20
31.4111183127
 30
0.0
 10
143.616978007
 20
31.3955894166
 30
0.0
  0
SPLINE
  5
280
100
AcDbEntity
  8
_21_KURVEN
100
AcDbSpline
 62
1
  6
CENTER
 70
0
 71
3
 72
163
 73
159
 74
0
 42
0.0000001
 43
0.0000001
 44
0.0000000001
 40
0.0
 40
0.0
 40
0.0
 40
0.0
 40
0.015625
 40
0.03125
 40
0.0390625
 40
0.046875
 40
0.0546875
 40
0.05859375
 40
0.060546875
 40
0.0625
 40
0.064453125
 40
0.06640625
 40
0.0703125
 40
0.078125
 40
0.09375
 40
0.109375
 40
0.1171875
 40
0.12109375
 40
0.123046875
 40
0.125
 40
0.126953125
 40
0.12890625
 40
0.1328125
 40
0.140625
 40
0.15625
 40
0.171875
 40
0.1796875
 40
0.18359375
 40
0.185546875
 40
0.1875
 40
0.189453125
 40
0.19140625
 40
0.1953125
 40
0.203125
 40
0.21875
 40
0.234375
 40
0.2421875
 40
0.24609375
 40
0.248046875
 40
0.25
 40
0.251953125
 40
0.25390625
 40
0.2578125
 40
0.265625
 40
0.28125
 40
0.296875
 40
0.3046875
 40
0.30859375
 40
0.310546875
 40
0.3125
 40
0.314453125
 40
0.31640625
 40
0.3203125
 40
0.328125
 40
0.34375
 40
0.359375
 40
0.3671875
 40
0.37109375
 40
0.373046875
 40
0.375
 40
0.376953125
 40
0.37890625
 40
0.3828125
 40
0.390625
 40
0.40625
 40
0.421875
 40
0.4296875
 40
0.43359375
 40
0.435546875
 40
0.4375
 40
0.439453125
 40
0.44140625
 40
0.4453125
 40
0.453125
 40
0.46875
 40
0.484375
 40
0.4921875
 40
0.49609375
 40
0.498046875
 40
0.5
 40
0.501953125
 40
0.50390625
 40
0.5078125
 40
0.515625
 40
0.53125
 40
0.546875
 40
0.5546875
 40
0.55859375
 40
0.560546875
 40
0.5625
 40
0.564453125
 40
0.56640625
 40
0.5703125
 40
0.578125
 40
0.59375
 40
0.609375
 40
0.6171875
 40
0.62109375
 40
0.623046875
 40
0.625
 40
0.626953125
 40
0.62890625
 40
0.6328125
 40
0.640625
 40
0.65625
 40
0.671875
 40
0.6796875
 40
0.68359375
 40
0.685546875
 40
0.6875
 40
0.689453125
 40
0.69140625
 40
0.6953125
 40
0.703125
 40
0.71875
 40
0.734375
 40
0.7421875
 40
0.74609375
 40
0.748046875
 40
0.75
 40
0.751953125
 40
0.75390625
 40
0.7578125
 40
0.765625
 40
0.78125
 40
0.796875
 40
0.8046875
 40
0.80859375
 40
0.810546875
 40
0.8125
 40
0.814453125
 40
0.81640625
 40
0.8203125
 40
0.828125
 40
0.84375
 40
0.859375
 40
0.8671875
 40
0.87109375
 40
0.873046875
 40
0.875
 40
0.876953125
 40
0.87890625
 40
0.8828125
 40
0.890625
 40
0.90625
 40
0.921875
 40
0.9296875
 40
0.93359375
 40
0.935546875
 40
0.9375
 40
0.939453125
 40
0.94140625
 40
0.9453125
 40
0.953125
 40
0.9609375
 40
0.96875
 40
0.984375
 40
1.0
 40
1.0
 40
1.0
 40
1.0
 10
143.6169785409
 20
31.3955895522
 30
0.0
 10
143.5207102204
 20
31.3607932308
 30
0.0
 10
143.3281754957
 20
31.2911966841
 30
0.0
 10
143.0874975077
 20
31.2042205192
 30
0.0
 10
142.8949752398
 20
31.1345985988
 30
0.0
 10
142.7505289204
 20
31.0824934128
 30
0.0
 10
142.630330665
 20
31.0387186552
 30
0.0
 10
142.5458510593
 20
31.0087705666
 30
0.0
 10
142.4981091703
 20
30.9905733753
 30
0.0
 10
142.4608036183
 20
30.9799791207
 30
0.0
 10
142.4292285219
 20
30.9577123092
 30
0.0
 10
142.3851296785
 20
30.9320944424
 30
0.0
 10
142.3088866145
 20
30.8853693661
 30
0.0
 10
142.155734796
 20
30.7932710472
 30
0.0
 10
141.9373386204
 20
30.6609366412
 30
0.0
 10
141.7186418804
 20
30.5290888298
 30
0.0
 10
141.5659108521
 20
30.4363092784
 30
0.0
 10
141.4890892015
 20
30.3905208968
 30
0.0
 10
141.4459221079
 20
30.3633945864
 30
0.0
 10
141.4114841352
 20
30.3457625895
 30
0.0
 10
141.3849312761
 20
30.3177604096
 30
0.0
 10
141.3467772402
 20
30.284041139
 30
0.0
 10
141.2812871295
 20
30.2233498789
 30
0.0
 10
141.1493921573
 20
30.1031687075
 30
0.0
 10
140.961500334
 20
29.9307985397
 30
0.0
 10
140.7732326312
 20
29.7588712088
 30
0.0
 10
140.6418638903
 20
29.6380700658
 30
0.0
 10
140.5756502116
 20
29.5782312666
 30
0.0
 10
140.5386614021
 20
29.5431392018
 30
0.0
 10
140.5085282911
 20
29.5193550426
 30
0.0
 10
140.4875374062
 20
29.4858805588
 30
0.0
 10
140.4563608629
 20
29.4446277382
 30
0.0
 10
140.4032854361
 20
29.3708632813
 30
0.0
 10
140.2960729545
 20
29.2244545393
 30
0.0
 10
140.1435346559
 20
29.0146806976
 30
0.0
 10
139.9905289477
 20
28.8052471793
 30
0.0
 10
139.8839708396
 20
28.6583619845
 30
0.0
 10
139.8299956492
 20
28.5852526503
 30
0.0
 10
139.8002680758
 20
28.542944827
 30
0.0
 10
139.7748251142
 20
28.512711924
 30
0.0
 10
139.7614135826
 20
28.4767526936
 30
0.0
 10
139.7393351461
 20
28.4308043067
 30
0.0
 10
139.7026500182
 20
28.3494656123
 30
0.0
 10
139.627885201
 20
28.1874508506
 30
0.0
 10
139.5218766394
 20
27.9556302003
 30
0.0
 10
139.4153311048
 20
27.7240313659
 30
0.0
 10
139.3413180499
 20
27.5617060619
 30
0.0
 10
139.3035992489
 20
27.4807943632
 30
0.0
 10
139.2831854287
 20
27.4341583469
 30
0.0
 10
139.2646592292
 20
27.4003119133
 30
0.0
 10
139.258426477
 20
27.3621435449
 30
0.0
 10
139.2458283565
 20
27.3127598022
 30
0.0
 10
139.2257763145
 20
27.225637166
 30
0.0
 10
139.1842470722
 20
27.0518910012
 30
0.0
 10
139.1257371179
 20
26.8034103368
 30
0.0
 10
139.0666716118
 20
26.5550664214
 30
0.0
 10
139.0259201419
 20
26.3811288081
 30
0.0
 10
139.0047986628
 20
26.2942694136
 30
0.0
 10
138.9939227527
 20
26.2444617492
 30
0.0
 10
138.9823983702
 20
26.2075959142
 30
0.0
 10
138.9837470343
 20
26.1688572881
 30
0.0
 10
138.9810553139
 20
26.1178589814
 30
0.0
 10
138.9784335014
 20
26.0283081679
 30
0.0
 10
138.97169768
 20
25.8494225899
 30
0.0
 10
138.962929914
 20
25.5937557827
 30
0.0
 10
138.953585083
 20
25.3381413796
 30
0.0
 10
138.9476571526
 20
25.1591824357
 30
0.0
 10
138.9439244901
 20
25.0697325003
 30
0.0
 10
138.943021671
 20
25.0185717406
 30
0.0
 10
138.9388737915
 20
24.9803322646
 30
0.0
 10
138.9479939076
 20
24.9415916688
 30
0.0
 10
138.9555263777
 20
24.8901122953
 30
0.0
 10
138.9708609043
 20
24.7999423918
 30
0.0
 10
138.9999928556
 20
24.6196571233
 30
0.0
 10
139.042483923
 20
24.3621021235
 30
0.0
 10
139.0844068274
 20
24.1044617061
 30
0.0
 10
139.1143342068
 20
23.9242960221
 30
0.0
 10
139.1285750198
 20
23.8339616899
 30
0.0
 10
139.1378687949
 20
23.7827471108
 30
0.0
 10
139.1415771595
 20
23.743192913
 30
0.0
 10
139.1577553069
 20
23.7080092492
 30
0.0
 10
139.1749768909
 20
23.6595733099
 30
0.0
 10
139.2071378544
 20
23.5755196175
 30
0.0
 10
139.2700151995
 20
23.4069048498
 30
0.0
 10
139.360661014
 20
23.1663230275
 30
0.0
 10
139.4507742696
 20
22.9255219802
 30
0.0
 10
139.5143971972
 20
22.7572141274
 30
0.0
 10
139.5455329847
 20
22.672738427
 30
0.0
 10
139.5644055015
 20
22.624982085
 30
0.0
 10
139.5755110249
 20
22.5877103038
 30
0.0
 10
139.5982716855
 20
22.5559988778
 30
0.0
 10
139.6245540939
 20
22.5117775902
 30
0.0
 10
139.6724392894
 20
22.4352926501
 30
0.0
 10
139.7668598893
 20
22.2816767882
 30
0.0
 10
139.9025104945
 20
22.0626064677
 30
0.0
 10
140.0376759946
 20
21.8432429459
 30
0.0
 10
140.1327757416
 20
21.6900375657
 30
0.0
 10
140.1797271098
 20
21.6129882134
 30
0.0
 10
140.2075133439
 20
21.5696758493
 30
0.0
 10
140.2256533785
 20
21.5351716825
 30
0.0
 10
140.2541135367
 20
21.5083891719
 30
0.0
 10
140.2884609052
 20
21.4699859456
 30
0.0
 10
140.350243213
 20
21.4040332306
 30
0.0
 10
140.4726122953
 20
21.2712319916
 30
0.0
 10
140.648104625
 20
21.0820346931
 30
0.0
 10
140.8231567411
 20
20.8924686686
 30
0.0
 10
140.9461421224
 20
20.760183646
 30
0.0
 10
141.007077019
 20
20.6935211334
 30
0.0
 10
141.0427890497
 20
20.6562609578
 30
0.0
 10
141.0670561732
 20
20.6259663315
 30
0.0
 10
141.10094485
 20
20.6046533393
 30
0.0
 10
141.1427739146
 20
20.5731033317
 30
0.0
 10
141.2175356369
 20
20.5193482882
 30
0.0
 10
141.3659469193
 20
20.4107951584
 30
0.0
 10
141.5785766615
 20
20.2563312263
 30
0.0
 10
141.7908703097
 20
20.101406172
 30
0.0
 10
141.9397521236
 20
19.9934986131
 30
0.0
 10
142.013866865
 20
19.9388559096
 30
0.0
 10
142.0567378211
 20
19.9087353805
 30
0.0
 10
142.0874252023
 20
19.8830302005
 30
0.0
 10
142.1237160893
 20
19.8692322164
 30
0.0
 10
142.1701495235
 20
19.846681841
 30
0.0
 10
142.2523171221
 20
19.8091506638
 30
0.0
 10
142.4160039335
 20
19.7327081341
 30
0.0
 10
142.6502050354
 20
19.6242947084
 30
0.0
 10
142.8841899582
 20
19.5153494358
 30
0.0
 10
143.0481794203
 20
19.4396514918
 30
0.0
 10
143.1299308742
 20
19.4010965094
 30
0.0
 10
143.1770344635
 20
19.3801948591
 30
0.0
 10
143.2112662449
 20
19.3613310341
 30
0.0
 10
143.249687432
 20
19.3546526738
 30
0.0
 10
143.2994544908
 20
19.3414980718
 30
0.0
 10
143.3872264258
 20
19.3204546685
 30
0.0
 10
143.562286561
 20
19.2769551981
 30
0.0
 10
143.812635441
 20
19.215623644
 30
0.0
 10
144.0628538305
 20
19.1537406919
 30
0.0
 10
144.2380966523
 20
19.1110131785
 30
0.0
 10
144.3256173932
 20
19.0889083342
 30
0.0
 10
144.3757889724
 20
19.0774630658
 30
0.0
 10
144.4129672379
 20
19.0655326401
 30
0.0
 10
144.4518673154
 20
19.0663950765
 30
0.0
 10
144.5031335501
 20
19.0630830197
 30
0.0
 10
144.5931287403
 20
19.0593626092
 30
0.0
 10
144.7729205774
 20
19.0504388738
 30
0.0
 10
145.0298719764
 20
19.038540296
 30
0.0
 10
145.2867778834
 20
19.0260678548
 30
0.0
 10
145.4666334092
 20
19.0179475281
 30
0.0
 10
145.5565410274
 20
19.0131224306
 30
0.0
 10
145.6079482871
 20
19.0115893503
 30
0.0
 10
145.646415054
 20
19.006985738
 30
0.0
 10
145.6852207934
 20
19.0155852747
 30
0.0
 10
145.7368435419
 20
19.0224459173
 30
0.0
 10
145.8272384407
 20
19.0365977865
 30
0.0
 10
145.9563452093
 20
19.0556929197
 30
0.0
 10
146.1112856597
 20
19.0790872694
 30
0.0
 10
146.3178686192
 20
19.1101119452
 30
0.0
 10
146.5760988064
 20
19.1489507439
 30
0.0
 10
146.7826825027
 20
19.1800041207
 30
0.0
 10
146.8859744075
 20
19.1955330168
 30
0.0
  0
SPLINE
  5
281
100
AcDbEntity
  8
_21_KURVEN
100
AcDbSpline
 62
7
  6
CONTINUOUS
 70
0
 71
3
 72
9
 73
5
 74
0
 42
0.0000001
 43
0.0000001
 44
0.0000000001
 40
0.0
 40
0.0
 40
0.0
 40
0.0
 40
0.5
 40
1.0
 40
1.0
 40
1.0
 40
1.0
 10
140.3423736391
 20
19.2702441744
 30
0.0
 10
140.3577125712
 20
19.2197419582
 30
0.0
 10
140.3912088305
 20
19.1203377796
 30
0.0
 10
140.4528959606
 20
19.0283811165
 30
0.0
 10
140.4846984167
 20
18.9846116873
 30
0.0
  0
SPLINE
  5
282
100
AcDbEntity
  8
_21_KURVEN
100
AcDbSpline
 62
7
  6
CONTINUOUS
 70
0
 71
3
 72
21
 73
17
 74
0
 42
0.0000001
 43
0.0000001
 44
0.0000000001
 40
0.0
 40
0.0
 40
0.0
 40
0.0
 40
0.125
 40
0.1875
 40
0.25
 40
0.3125
 40
0.375
 40
0.4375
 40
0.5
 40
0.5625
 40
0.625
 40
0.6875
 40
0.75
 40
0.8125
 40
0.875
 40
1.0
 40
1.0
 40
1.0
 40
1.0
 10
140.4846984227
 20
18.9846116797
 30
0.0
 10
140.5068562442
 20
18.9604884828
 30
0.0
 10
140.5395981109
 20
18.9237750048
 30
0.0
 10
140.5852333956
 20
18.8769384313
 30
0.0
 10
140.6253582074
 20
18.8481582046
 30
0.0
 10
140.6625939039
 20
18.8161998586
 30
0.0
 10
140.705487713
 20
18.7906067861
 30
0.0
 10
140.7500000956
 20
18.7675492324
 30
0.0
 10
140.7930610266
 20
18.7403935767
 30
0.0
 10
140.8403091903
 20
18.7270948103
 30
0.0
 10
140.8862367071
 20
18.709615358
 30
0.0
 10
140.9332595787
 20
18.6950017598
 30
0.0
 10
140.9832189715
 20
18.6883506809
 30
0.0
 10
141.032331511
 20
18.6774741705
 30
0.0
 10
141.0984160865
 20
18.6748910985
 30
0.0
 10
141.1479886733
 20
18.6752292913
 30
0.0
 10
141.18103503
 20
18.6749490872
 30
0.0
  0
ENDSEC
  0
SECTION
  2
OBJECTS
  0
DICTIONARY
  5
C
100
AcDbDictionary
280
0
281
1
  3
ACAD_GROUP
350
D
  3
ACAD_MLINESTYLE
350
17
  3
ACAD_LAYOUT
350
1A
  3
ACAD_PLOTSETTINGS
350
19
  3
ACAD_PLOTSTYLENAME
350
E
  0
DICTIONARY
  5
D
102
{ACAD_REACTORS
330
C
102
}
100
AcDbDictionary
280
0
281
1
  0
ACDBDICTIONARYWDFLT
  5
E
102
{ACAD_REACTORS
330
C
102
}
100
AcDbDictionary
281
1
  3
Normal
350
F
100
AcDbDictionaryWithDefault
340
F
  0
DICTIONARY
  5
17
102
{ACAD_REACTORS
330
C
102
}
100
AcDbDictionary
280
0
281
1
  3
Standard
350
18
  0
DICTIONARY
  5
19
102
{ACAD_REACTORS
330
C
102
}
100
AcDbDictionary
281
1
  0
DICTIONARY
  5
1A
102
{ACAD_REACTORS
330
C
102
}
100
AcDbDictionary
281
1
  3
Model
350
283
  3
Layout1
350
284
  0
ACDBPLACEHOLDER
  5
F
102
{ACAD_REACTORS
330
E
102
}
  0
MLINESTYLE
  5
18
102
{ACAD_REACTORS
330
17
102
}
100
AcDbMlineStyle
  2
STANDARD
 70
0
  3

 62
256
 51
90.0
 52
90.0
 71
2
 49
0.5
 62
256
  6
BYLAYER
 49
-0.5
 62
256
  6
BYLAYER
  0
LAYOUT
  5
283
102
{ACAD_REACTORS
330
1A
102
}
100
AcDbPlotSettings
  1

  2
none_device
  4
ISO_A3_(420.00_x_297.00_MM)
  6

 40
0.0
 41
0.0
 42
0.0
 43
0.0
 44
420.0
 45
297.0
 46
0.0
 47
0.0
 48
0.0
 49
0.0
140
0.0
141
0.0
142
1.0
143
1.0
 70
1024
 72
1
 73
0
 74
0
  7

 75
0
147
1.0
148
0.0
149
0.0
100
AcDbLayout
  1
Model
 70
0
 71
0
 10
0.0
 20
0.0
 11
420.0
 21
297.0
 12
0.0
 22
0.0
 32
0.0
 14
0.0
 24
0.0
 34
0.0
 15
0.0
 25
0.0
 35
0.0
146
0.0
 13
0.0
 23
0.0
 33
0.0
 16
1.0
 26
0.0
 36
0.0
 17
0.0
 27
1.0
 37
0.0
 76
0
330
20E
345
0
346
0
  0
LAYOUT
  5
284
102
{ACAD_REACTORS
330
1A
102
}
100
AcDbPlotSettings
  1

  2
none_device
  4
ISO_A3_(420.00_x_297.00_MM)
  6

 40
0.0
 41
0.0
 42
0.0
 43
0.0
 44
420.0
 45
297.0
 46
0.0
 47
0.0
 48
0.0
 49
0.0
140
0.0
141
0.0
142
1.0
143
1.0
 70
0
 72
1
 73
0
 74
0
  7

 75
0
147
1.0
148
0.0
149
0.0
100
AcDbLayout
  1
Layout1
 70
0
 71
1
 10
0.0
 20
0.0
 11
420.0
 21
297.0
 12
0.0
 22
0.0
 32
0.0
 14
0.0
 24
0.0
 34
0.0
 15
0.0
 25
0.0
 35
0.0
146
0.0
 13
0.0
 23
0.0
 33
0.0
 16
1.0
 26
0.0
 36
0.0
 17
0.0
 27
1.0
 37
0.0
 76
0
330
20F
345
0
346
0
  0
ENDSEC
  0
EOF
