999
DXF file: 70504825.dxf
999
Pro/ENGINEER 2017380 by Parametric Technology Corporation
  0
SECTION
  2
HEADER
  9
$ACADVER
  1
AC1027
  9
$DWGCODEPAGE
  3
ANSI_1252
  9
$EXTMAX
 10
420.0
 20
297.0
 30
0.0
  9
$EXTMIN
 10
0.0
 20
0.0
 30
0.0
  9
$LIMMIN
 10
0.0
 20
0.0
  9
$LIMMAX
 10
420.0
 20
297.0
  9
$VIEWCTR
 10
210.0
 20
148.5
  9
$VIEWSIZE
 40
297.0
  9
$CLAYER
  8
0
  9
$LTSCALE
 40
23.1
  9
$CELTYPE
  6
BYLAYER
  9
$DIMSCALE
 40
1.0
  9
$DIMASZ
 40
3.5
  9
$DIMEXO
 40
0.0
  9
$DIMDLI
 40
15.96
  9
$DIMEXE
 40
1.5
  9
$DIMCEN
 40
3.78
  9
$DIMLFAC
 40
1.0
  9
$DIMBLK
  1
_FILLED
  9
$DIMALT
 70
0
  9
$DIMALTF
 40
25.4
  9
$DIMTXT
 40
3.5
  9
$DIMTOL
 70
1
  9
$DIMLIM
 70
0
  9
$DIMTFAC
 40
1.0
  9
$DIMTP
 40
0.05
  9
$DIMTM
 40
0.05
  9
$DIMGAP
 40
0.625
  9
$DIMDSEP
 70
46
  9
$AUNITS
 70
0
  9
$PDMODE
 70
3
  9
$PDSIZE
 40
0.3125
  9
$HANDSEED
  5
29B
  9
$TILEMODE
 70
1
  9
$MEASUREMENT
 70
1
  9
$INSUNITS
 70
4
  0
ENDSEC
  0
SECTION
  2
CLASSES
  0
CLASS
  1
ACDBDICTIONARYWDFLT
  2
AcDbDictionaryWithDefault
  3
AutoCAD 2000
 90
0
 91
1
280
0
281
0
  0
CLASS
  1
ACDBPLACEHOLDER
  2
AcDbPlaceHolder
  3
AutoCAD 2000
 90
0
 91
1
280
0
281
0
  0
CLASS
  1
LAYOUT
  2
AcDbLayout
  3
AutoCAD 2000
 90
0
 91
0
280
0
281
0
  0
ENDSEC
  0
SECTION
  2
TABLES
  0
TABLE
  2
VPORT
  5
8
100
AcDbSymbolTable
 70
2
  0
VPORT
  5
1F4
100
AcDbSymbolTableRecord
100
AcDbViewportTableRecord
  2
*ACTIVE
 70
0
 10
0.0
 20
0.0
 11
1.0
 21
1.0
 12
210.0
 22
148.5
 13
0.0
 23
0.0
 14
1.0
 24
1.0
 15
0.0
 25
0.0
 16
0.0
 26
0.0
 36
1.0
 17
0.0
 27
0.0
 37
0.0
 40
297.0
 41
1.4141414141
 42
50.0
 43
0.0
 44
0.0
 50
0.0
 51
0.0
 71
0
 72
100
 73
1
 74
1
 75
0
 76
0
 77
0
 78
0
  0
ENDTAB
  0
TABLE
  2
LTYPE
  5
5
100
AcDbSymbolTable
 70
6
  0
LTYPE
  5
14
100
AcDbSymbolTableRecord
100
AcDbLinetypeTableRecord
  2
BYBLOCK
 70
0
  3

 72
65
 73
0
 40
0.0
  0
LTYPE
  5
15
100
AcDbSymbolTableRecord
100
AcDbLinetypeTableRecord
  2
BYLAYER
 70
0
  3

 72
65
 73
0
 40
0.0
  0
LTYPE
  5
16
100
AcDbSymbolTableRecord
100
AcDbLinetypeTableRecord
  2
CONTINUOUS
 70
64
  3
Solid line
 72
65
 73
0
 40
0.0
  0
LTYPE
  5
1F5
100
AcDbSymbolTableRecord
100
AcDbLinetypeTableRecord
  2
CENTER
 70
64
  3
____ _ ____ _ ____ _ ____ _ ____ _ ____ _ ____
 72
65
 73
4
 40
0.6
 49
0.375
 74
0
 49
-0.075
 74
0
 49
0.075
 74
0
 49
-0.075
 74
0
  0
LTYPE
  5
1F6
100
AcDbSymbolTableRecord
100
AcDbLinetypeTableRecord
  2
HIDDEN
 70
64
  3
- - - - - - - - - - - - - - - - - - - -
 72
65
 73
2
 40
0.2
 49
0.1
 74
0
 49
-0.1
 74
0
  0
LTYPE
  5
1F7
100
AcDbSymbolTableRecord
100
AcDbLinetypeTableRecord
  2
PHANTOM
 70
64
  3
_____ _ _ _____ _ _ _____ _ _ _____
 72
65
 73
6
 40
0.8
 49
0.45
 74
0
 49
-0.05
 74
0
 49
0.1
 74
0
 49
-0.05
 74
0
 49
0.1
 74
0
 49
-0.05
 74
0
  0
LTYPE
  5
1F8
100
AcDbSymbolTableRecord
100
AcDbLinetypeTableRecord
  2
DOT
 70
64
  3
. . . . . . . . . . . . . . . . . . . .
 72
65
 73
2
 40
0.2
 49
0.1
 74
0
 49
-0.1
 74
0
  0
LTYPE
  5
1F9
100
AcDbSymbolTableRecord
100
AcDbLinetypeTableRecord
  2
DASHED
 70
64
  3
- - - - - - - - - - - - - - - - - - - -
 72
65
 73
2
 40
0.2
 49
0.1
 74
0
 49
-0.1
 74
0
  0
ENDTAB
  0
TABLE
  2
LAYER
  5
2
100
AcDbSymbolTable
 70
36
  0
LAYER
  5
10
100
AcDbSymbolTableRecord
100
AcDbLayerTableRecord
  2
0
 70
0
 62
7
  6
CONTINUOUS
370
-3
390
F
  0
LAYER
  5
1FA
100
AcDbSymbolTableRecord
100
AcDbLayerTableRecord
  2
DEFAULT_1
 70
0
 62
7
  6
CENTER
370
-3
390
F
  0
LAYER
  5
1FB
100
AcDbSymbolTableRecord
100
AcDbLayerTableRecord
  2
DEFAULT_2
 70
0
 62
1
  6
HIDDEN
370
-3
390
F
  0
LAYER
  5
1FC
100
AcDbSymbolTableRecord
100
AcDbLayerTableRecord
  2
DEFAULT_3
 70
0
 62
7
  6
PHANTOM
370
-3
390
F
  0
LAYER
  5
1FD
100
AcDbSymbolTableRecord
100
AcDbLayerTableRecord
  2
BG_STARTBEZUEGE
 70
0
 62
7
  6
CONTINUOUS
370
-3
390
F
  0
LAYER
  5
1FE
100
AcDbSymbolTableRecord
100
AcDbLayerTableRecord
  2
HILFEN
 70
0
 62
7
  6
CONTINUOUS
370
-3
390
F
  0
LAYER
  5
1FF
100
AcDbSymbolTableRecord
100
AcDbLayerTableRecord
  2
PLATZIERUNG
 70
0
 62
7
  6
CONTINUOUS
370
-3
390
F
  0
LAYER
  5
200
100
AcDbSymbolTableRecord
100
AcDbLayerTableRecord
  2
T_STARTBEZUEGE
 70
0
 62
7
  6
CONTINUOUS
370
-3
390
F
  0
LAYER
  5
201
100
AcDbSymbolTableRecord
100
AcDbLayerTableRecord
  2
_03_2D_ZEICHNUNG_BEMASSUNGEN
 70
0
 62
7
  6
CONTINUOUS
370
-3
390
F
  0
LAYER
  5
202
100
AcDbSymbolTableRecord
100
AcDbLayerTableRecord
  2
_04_NOTIZEN
 70
0
 62
7
  6
CONTINUOUS
370
-3
390
F
  0
LAYER
  5
203
100
AcDbSymbolTableRecord
100
AcDbLayerTableRecord
  2
_05_2D_ELEMENTE
 70
0
 62
7
  6
CONTINUOUS
370
-3
390
F
  0
LAYER
  5
204
100
AcDbSymbolTableRecord
100
AcDbLayerTableRecord
  2
_07_EINRASTLINIEN
 70
0
 62
7
  6
CONTINUOUS
370
-3
390
F
  0
LAYER
  5
205
100
AcDbSymbolTableRecord
100
AcDbLayerTableRecord
  2
_21_KURVEN
 70
0
 62
7
  6
CONTINUOUS
370
-3
390
F
  0
LAYER
  5
206
100
AcDbSymbolTableRecord
100
AcDbLayerTableRecord
  2
_24_IMPORT
 70
0
 62
7
  6
CONTINUOUS
370
-3
390
F
  0
LAYER
  5
207
100
AcDbSymbolTableRecord
100
AcDbLayerTableRecord
  2
_26_BEZUGSACHSEN
 70
0
 62
7
  6
CONTINUOUS
370
-3
390
F
  0
LAYER
  5
208
100
AcDbSymbolTableRecord
100
AcDbLayerTableRecord
  2
_27_BEZUGSEBENEN
 70
0
 62
7
  6
CONTINUOUS
370
-3
390
F
  0
LAYER
  5
209
100
AcDbSymbolTableRecord
100
AcDbLayerTableRecord
  2
_28_BEZUGSPUNKTE
 70
0
 62
7
  6
CONTINUOUS
370
-3
390
F
  0
LAYER
  5
20A
100
AcDbSymbolTableRecord
100
AcDbLayerTableRecord
  2
_29_KOORDINATENSYSTEME
 70
0
 62
7
  6
CONTINUOUS
370
-3
390
F
  0
LAYER
  5
20B
100
AcDbSymbolTableRecord
100
AcDbLayerTableRecord
  2
_30_VOLUMEN
 70
0
 62
7
  6
CONTINUOUS
370
-3
390
F
  0
ENDTAB
  0
TABLE
  2
STYLE
  5
3
100
AcDbSymbolTable
 70
1
  0
STYLE
  5
11
100
AcDbSymbolTableRecord
100
AcDbTextStyleTableRecord
  2
STANDARD
 70
0
 40
0.0
 41
0.7
 50
0.0
 71
0
 42
0.2
  3
SIMPLEX.SHX
  4

  0
STYLE
  5
20C
100
AcDbSymbolTableRecord
100
AcDbTextStyleTableRecord
  2
TEXTSTYLE_1
 70
0
 40
0.0
 41
0.8
 50
0.0
 71
0
 42
0.2
  3
gdt
  4

  0
ENDTAB
  0
TABLE
  2
VIEW
  5
6
100
AcDbSymbolTable
 70
0
  0
ENDTAB
  0
TABLE
  2
UCS
  5
7
100
AcDbSymbolTable
 70
0
  0
ENDTAB
  0
TABLE
  2
APPID
  5
9
100
AcDbSymbolTable
 70
1
  0
APPID
  5
20D
100
AcDbSymbolTableRecord
100
AcDbRegAppTableRecord
  2
ACAD
 70
0
  0
ENDTAB
  0
TABLE
  2
BLOCK_RECORD
  5
1
100
AcDbSymbolTable
 70
0
  0
BLOCK_RECORD
  5
20E
100
AcDbSymbolTableRecord
100
AcDbBlockTableRecord
  2
*Model_Space
  0
BLOCK_RECORD
  5
20F
100
AcDbSymbolTableRecord
100
AcDbBlockTableRecord
  2
*Paper_Space
  0
BLOCK_RECORD
  5
210
100
AcDbSymbolTableRecord
100
AcDbBlockTableRecord
  2
_FILLED
  0
BLOCK_RECORD
  5
211
100
AcDbSymbolTableRecord
100
AcDbBlockTableRecord
  2
*D0
  0
BLOCK_RECORD
  5
212
100
AcDbSymbolTableRecord
100
AcDbBlockTableRecord
  2
*D1
  0
BLOCK_RECORD
  5
213
100
AcDbSymbolTableRecord
100
AcDbBlockTableRecord
  2
*D2
  0
ENDTAB
  0
TABLE
  2
DIMSTYLE
  5
A
100
AcDbSymbolTable
 70
1
100
AcDbDimStyleTable
 71
0
  0
DIMSTYLE
105
214
100
AcDbSymbolTableRecord
100
AcDbDimStyleTableRecord
  2
STANDARD
 70
0
  3

  4

 40
1.0
 41
3.5
 42
0.0
 43
0.38
 44
1.5
 45
0.0
 46
0.0
 47
0.05
 48
0.05
140
3.5
141
0.09
142
0.0
143
25.4
144
1.0
145
0.0
146
1.0
147
0.625
 71
1.0
 72
0.0
 73
0
 74
0
 75
0
 76
0
 77
1
 78
8
 79
2
170
0
171
1
172
0
173
0
174
0
175
0
176
0
177
0
178
2
270
2
179
2
271
2
272
2
273
2
274
2
275
0
280
0
281
0
282
0
283
1
284
8
285
0
286
0
287
3
288
0
340
11
278
46
341
210
342
210
343
210
344
210
  0
DIMSTYLE
105
215
100
AcDbSymbolTableRecord
100
AcDbDimStyleTableRecord
  2
DIMSTYLE_1
 70
0
  3

  4

 40
1.0
 41
3.5
 42
0.0
 43
0.38
 44
1.5
 45
0.0
 46
0.0
 47
0.2
 48
0.2
140
3.5
141
0.09
142
0.0
143
25.4
144
1.0
145
0.0
146
1.0
147
0.875
 71
0.0
 72
0.0
 73
0
 74
0
 75
0
 76
0
 77
1
 78
8
 79
2
170
0
171
1
172
0
173
0
174
0
175
0
176
0
177
0
178
2
270
2
179
2
271
2
272
2
273
2
274
2
275
0
280
0
281
0
282
0
283
1
284
8
285
0
286
0
287
3
288
0
340
11
278
46
341
210
342
210
343
210
344
210
  0
DIMSTYLE
105
216
100
AcDbSymbolTableRecord
100
AcDbDimStyleTableRecord
  2
DIMSTYLE_2
 70
0
  3

  4

 40
1.0
 41
3.5
 42
0.0
 43
0.38
 44
1.5
 45
0.0
 46
0.0
 47
0.5
 48
0.5
140
3.5
141
0.09
142
0.0
143
25.4
144
1.0
145
0.0
146
1.0
147
0.875
 71
0.0
 72
0.0
 73
0
 74
0
 75
0
 76
0
 77
1
 78
8
 79
2
170
0
171
1
172
0
173
0
174
0
175
0
176
0
177
0
178
2
270
2
179
2
271
2
272
2
273
2
274
2
275
0
280
0
281
0
282
0
283
1
284
8
285
0
286
0
287
3
288
0
340
11
278
46
341
210
342
210
343
210
344
210
  0
DIMSTYLE
105
217
100
AcDbSymbolTableRecord
100
AcDbDimStyleTableRecord
  2
DIMSTYLE_3
 70
0
  3

  4

 40
1.0
 41
3.5
 42
0.0
 43
0.38
 44
1.5
 45
0.0
 46
0.0
 47
0.3
 48
0.3
140
3.5
141
0.09
142
0.0
143
25.4
144
1.0
145
0.0
146
1.0
147
0.875
 71
0.0
 72
0.0
 73
0
 74
0
 75
0
 76
0
 77
1
 78
8
 79
2
170
0
171
1
172
0
173
0
174
0
175
0
176
0
177
0
178
2
270
2
179
2
271
2
272
2
273
2
274
2
275
0
280
0
281
0
282
0
283
1
284
8
285
0
286
0
287
3
288
0
340
11
278
46
341
210
342
210
343
210
344
210
  0
ENDTAB
  0
ENDSEC
  0
SECTION
  2
BLOCKS
  0
BLOCK
  5
20
100
AcDbEntity
  8
0
100
AcDbBlockBegin
  2
*Model_Space
 70
0
 10
0.0
 20
0.0
 30
0.0
  3
*Model_Space
  1

  0
ENDBLK
  5
21
100
AcDbEntity
  8
0
100
AcDbBlockEnd
  0
BLOCK
  5
1C
100
AcDbEntity
  8
0
100
AcDbBlockBegin
  2
*Paper_Space
 70
0
 10
0.0
 20
0.0
 30
0.0
  3
*Paper_Space
  1

  0
ENDBLK
  5
1D
100
AcDbEntity
  8
0
100
AcDbBlockEnd
  0
BLOCK
  5
218
100
AcDbEntity
  8
0
100
AcDbBlockBegin
  2
_FILLED
 70
64
 10
0.0
 20
0.0
  3
_FILLED
  1

  0
SOLID
  5
219
100
AcDbEntity
  8
0
  6
BYBLOCK
 62
0
100
AcDbTrace
 10
0.0
 20
0.0
 11
-1.0
 21
0.125
 12
-1.0
 22
-0.125
 13
-1.0
 23
-0.125
  0
ENDBLK
  5
21A
100
AcDbEntity
  8
0
  6
BYBLOCK
 62
0
100
AcDbBlockEnd
  0
BLOCK
  5
21B
100
AcDbEntity
  8
_03_2D_ZEICHNUNG_BEMASSUNGEN
100
AcDbBlockBegin
 62
7
  6
CONTINUOUS
  2
*D0
 70
65
 10
0.0
 20
0.0
  3
*D0
  1

  0
TEXT
  5
21C
100
AcDbEntity
  8
_03_2D_ZEICHNUNG_BEMASSUNGEN
100
AcDbText
 62
2
  6
CONTINUOUS
 10
-9.875
 20
9.875
  7
STANDARD
 40
3.5
  1
25
 50
90.0
 41
0.75
 72
1
 11
-9.875
 21
12.5
100
AcDbText
  0
LINE
  5
21D
100
AcDbEntity
  8
_03_2D_ZEICHNUNG_BEMASSUNGEN
100
AcDbLine
 62
7
  6
CONTINUOUS
 10
0.0
 20
25.0
 11
-10.5
 21
25.0
  0
LINE
  5
21E
100
AcDbEntity
  8
_03_2D_ZEICHNUNG_BEMASSUNGEN
100
AcDbLine
 62
7
  6
CONTINUOUS
 10
-0.0
 20
-0.0
 11
-10.5
 21
0.0
  0
LINE
  5
21F
100
AcDbEntity
  8
_03_2D_ZEICHNUNG_BEMASSUNGEN
100
AcDbLine
 62
7
  6
CONTINUOUS
 10
-9.0
 20
25.0
 11
-9.0
 21
31.0
  0
LINE
  5
220
100
AcDbEntity
  8
_03_2D_ZEICHNUNG_BEMASSUNGEN
100
AcDbLine
 62
7
  6
CONTINUOUS
 10
-9.0
 20
31.0
 11
-9.0
 21
12.5
  0
LINE
  5
221
100
AcDbEntity
  8
_03_2D_ZEICHNUNG_BEMASSUNGEN
100
AcDbLine
 62
7
  6
CONTINUOUS
 10
-9.0
 20
0.0
 11
-9.0
 21
-6.0
  0
LINE
  5
222
100
AcDbEntity
  8
_03_2D_ZEICHNUNG_BEMASSUNGEN
100
AcDbLine
 62
7
  6
CONTINUOUS
 10
-9.0
 20
-6.0
 11
-9.0
 21
12.5
  0
INSERT
  5
223
100
AcDbEntity
  8
_03_2D_ZEICHNUNG_BEMASSUNGEN
100
AcDbBlockReference
 62
7
  6
CONTINUOUS
  2
_FILLED
 10
-9.0
 20
25.0
 41
3.5
 42
3.5
 43
3.5
 50
270.0
  0
INSERT
  5
224
100
AcDbEntity
  8
_03_2D_ZEICHNUNG_BEMASSUNGEN
100
AcDbBlockReference
 62
7
  6
CONTINUOUS
  2
_FILLED
 10
-9.0
 20
0.0
 41
3.5
 42
3.5
 43
3.5
 50
90.0
  0
ENDBLK
  5
225
100
AcDbEntity
  8
0
  6
BYBLOCK
 62
0
100
AcDbBlockEnd
  0
BLOCK
  5
226
100
AcDbEntity
  8
_03_2D_ZEICHNUNG_BEMASSUNGEN
100
AcDbBlockBegin
 62
7
  6
CONTINUOUS
  2
*D1
 70
65
 10
0.0
 20
0.0
  3
*D1
  1

  0
TEXT
  5
227
100
AcDbEntity
  8
_03_2D_ZEICHNUNG_BEMASSUNGEN
100
AcDbText
 62
2
  6
CONTINUOUS
 10
70.45
 20
41.902573853
  7
STANDARD
 40
3.5
  1
152.9
 41
0.6857142857
 72
1
 11
76.45
 21
41.902573853
100
AcDbText
  0
LINE
  5
228
100
AcDbEntity
  8
_03_2D_ZEICHNUNG_BEMASSUNGEN
100
AcDbLine
 62
7
  6
CONTINUOUS
 10
152.9
 20
0.0
 11
152.9
 21
42.527573853
  0
LINE
  5
229
100
AcDbEntity
  8
_03_2D_ZEICHNUNG_BEMASSUNGEN
100
AcDbLine
 62
7
  6
CONTINUOUS
 10
0.0
 20
0.0
 11
0.0
 21
42.527573853
  0
LINE
  5
22A
100
AcDbEntity
  8
_03_2D_ZEICHNUNG_BEMASSUNGEN
100
AcDbLine
 62
7
  6
CONTINUOUS
 10
152.9
 20
41.027573853
 11
76.45
 21
41.027573853
  0
LINE
  5
22B
100
AcDbEntity
  8
_03_2D_ZEICHNUNG_BEMASSUNGEN
100
AcDbLine
 62
7
  6
CONTINUOUS
 10
0.0
 20
41.027573853
 11
76.45
 21
41.027573853
  0
INSERT
  5
22C
100
AcDbEntity
  8
_03_2D_ZEICHNUNG_BEMASSUNGEN
100
AcDbBlockReference
 62
7
  6
CONTINUOUS
  2
_FILLED
 10
152.9
 20
41.027573853
 41
3.5
 42
3.5
 43
3.5
  0
INSERT
  5
22D
100
AcDbEntity
  8
_03_2D_ZEICHNUNG_BEMASSUNGEN
100
AcDbBlockReference
 62
7
  6
CONTINUOUS
  2
_FILLED
 10
0.0
 20
41.027573853
 41
3.5
 42
3.5
 43
3.5
 50
180.0
  0
ENDBLK
  5
22E
100
AcDbEntity
  8
0
  6
BYBLOCK
 62
0
100
AcDbBlockEnd
  0
BLOCK
  5
22F
100
AcDbEntity
  8
_03_2D_ZEICHNUNG_BEMASSUNGEN
100
AcDbBlockBegin
 62
7
  6
CONTINUOUS
  2
*D2
 70
65
 10
0.0
 20
0.0
  3
*D2
  1

  0
TEXT
  5
230
100
AcDbEntity
  8
_03_2D_ZEICHNUNG_BEMASSUNGEN
100
AcDbText
 62
2
  6
CONTINUOUS
 10
169.6494940227
 20
13.375
  7
STANDARD
 40
3.5
  1
32
 50
90.0
 41
0.75
 72
1
 11
169.6494940227
 21
16.0
100
AcDbText
  0
LINE
  5
231
100
AcDbEntity
  8
_03_2D_ZEICHNUNG_BEMASSUNGEN
100
AcDbLine
 62
7
  6
CONTINUOUS
 10
150.0
 20
32.0
 11
172.0244940227
 21
32.0
  0
LINE
  5
232
100
AcDbEntity
  8
_03_2D_ZEICHNUNG_BEMASSUNGEN
100
AcDbLine
 62
7
  6
CONTINUOUS
 10
0.0
 20
0.0
 11
172.0244940227
 21
0.0
  0
LINE
  5
233
100
AcDbEntity
  8
_03_2D_ZEICHNUNG_BEMASSUNGEN
100
AcDbLine
 62
7
  6
CONTINUOUS
 10
170.5244940227
 20
32.0
 11
170.5244940227
 21
16.0
  0
LINE
  5
234
100
AcDbEntity
  8
_03_2D_ZEICHNUNG_BEMASSUNGEN
100
AcDbLine
 62
7
  6
CONTINUOUS
 10
170.5244940227
 20
0.0
 11
170.5244940227
 21
16.0
  0
INSERT
  5
235
100
AcDbEntity
  8
_03_2D_ZEICHNUNG_BEMASSUNGEN
100
AcDbBlockReference
 62
7
  6
CONTINUOUS
  2
_FILLED
 10
170.5244940227
 20
32.0
 41
3.5
 42
3.5
 43
3.5
 50
90.0
  0
INSERT
  5
236
100
AcDbEntity
  8
_03_2D_ZEICHNUNG_BEMASSUNGEN
100
AcDbBlockReference
 62
7
  6
CONTINUOUS
  2
_FILLED
 10
170.5244940227
 20
0.0
 41
3.5
 42
3.5
 43
3.5
 50
270.0
  0
ENDBLK
  5
237
100
AcDbEntity
  8
0
  6
BYBLOCK
 62
0
100
AcDbBlockEnd
  0
ENDSEC
  0
SECTION
  2
ENTITIES
  0
DIMENSION
  5
238
100
AcDbEntity
  8
_03_2D_ZEICHNUNG_BEMASSUNGEN
100
AcDbDimension
 62
7
  6
CONTINUOUS
  2
*D0
 10
-9.0
 20
0.0
 11
-9.0
 21
11.9999997234
 70
160
 71
2
 42
25.0
  3
DIMSTYLE_1
100
AcDbAlignedDimension
 13
0.0
 23
25.0
 14
-0.0
 24
-0.0
 50
270.0
100
AcDbRotatedDimension
  0
DIMENSION
  5
239
100
AcDbEntity
  8
_03_2D_ZEICHNUNG_BEMASSUNGEN
100
AcDbDimension
 62
7
  6
CONTINUOUS
  2
*D1
 10
0.0
 20
41.027573853
 11
75.9500010681
 21
41.027573853
 70
160
 71
2
 42
152.9
  3
DIMSTYLE_2
100
AcDbAlignedDimension
 13
152.9
 23
0.0
 14
0.0
 24
0.0
 50
180.0
100
AcDbRotatedDimension
  0
DIMENSION
  5
23A
100
AcDbEntity
  8
_03_2D_ZEICHNUNG_BEMASSUNGEN
100
AcDbDimension
 62
7
  6
CONTINUOUS
  2
*D2
 10
170.5244940227
 20
0.0
 11
170.5244940227
 21
15.5000009114
 70
160
 71
2
 42
32.0
  3
DIMSTYLE_3
100
AcDbAlignedDimension
 13
150.0
 23
32.0
 14
0.0
 24
0.0
 50
270.0
100
AcDbRotatedDimension
  0
LINE
  5
23B
100
AcDbEntity
  8
_30_VOLUMEN
100
AcDbLine
 62
4
  6
CONTINUOUS
 10
-0.0
 20
0.5
 11
0.0
 21
24.5
  0
LINE
  5
23C
100
AcDbEntity
  8
_30_VOLUMEN
100
AcDbLine
 62
4
  6
CONTINUOUS
 10
0.5
 20
-0.0
 11
0.5
 21
25.0
  0
LINE
  5
23D
100
AcDbEntity
  8
_30_VOLUMEN
100
AcDbLine
 62
4
  6
CONTINUOUS
 10
0.5
 20
25.0
 11
0.0
 21
24.5
  0
LINE
  5
23E
100
AcDbEntity
  8
_30_VOLUMEN
100
AcDbLine
 62
4
  6
CONTINUOUS
 10
0.5
 20
-0.0
 11
-0.0
 21
0.5
  0
LINE
  5
23F
100
AcDbEntity
  8
_30_VOLUMEN
100
AcDbLine
 62
4
  6
CONTINUOUS
 10
0.5
 20
-0.0
 11
124.0
 21
0.0
  0
LINE
  5
240
100
AcDbEntity
  8
0
100
AcDbLine
 62
4
  6
CONTINUOUS
 10
124.0
 20
0.0
 11
138.4
 21
0.0
  0
LINE
  5
241
100
AcDbEntity
  8
_30_VOLUMEN
100
AcDbLine
 62
4
  6
CONTINUOUS
 10
152.8508754951
 20
19.6350568201
 11
145.8412495716
 21
19.0217940162
  0
LINE
  5
242
100
AcDbEntity
  8
_30_VOLUMEN
100
AcDbLine
 62
4
  6
CONTINUOUS
 10
152.3614913059
 20
19.5070825297
 11
145.8412493346
 21
19.0217972011
  0
LINE
  5
243
100
AcDbEntity
  8
_21_KURVEN
100
AcDbLine
 62
7
  6
CONTINUOUS
 10
152.3614913059
 20
19.5070825297
 11
145.8412493346
 21
19.0217972012
  0
LINE
  5
244
100
AcDbEntity
  8
_30_VOLUMEN
100
AcDbLine
 62
4
  6
CONTINUOUS
 10
126.4432720715
 20
12.0176988269
 11
129.8243684708
 21
13.273709915
  0
LINE
  5
245
100
AcDbEntity
  8
_26_BEZUGSACHSEN
100
AcDbLine
 62
4
  6
CONTINUOUS
 10
137.2563332118
 20
30.4368193632
 11
133.070616612
 21
30.070616612
  0
LINE
  5
246
100
AcDbEntity
  8
_21_KURVEN
100
AcDbLine
 62
7
  6
CONTINUOUS
 10
138.1414611086
 20
31.0840399037
 11
149.3219173855
 21
31.9161733463
  0
LINE
  5
247
100
AcDbEntity
  8
_30_VOLUMEN
100
AcDbLine
 62
4
  6
CONTINUOUS
 10
138.1414611086
 20
31.0840399037
 11
149.3219173855
 21
31.9161733463
  0
LINE
  5
248
100
AcDbEntity
  8
_30_VOLUMEN
100
AcDbLine
 62
4
  6
CONTINUOUS
 10
0.5
 20
25.0
 11
124.0
 21
25.0
  0
LINE
  5
249
100
AcDbEntity
  8
0
100
AcDbLine
 62
4
  6
CONTINUOUS
 10
124.0
 20
25.0
 11
128.0
 21
25.0
  0
LINE
  5
24A
100
AcDbEntity
  8
_30_VOLUMEN
100
AcDbLine
 62
4
  6
CONTINUOUS
 10
131.8727662115
 20
18.4510654699
 11
133.8164291391
 21
18.0038724823
  0
LINE
  5
24B
100
AcDbEntity
  8
_30_VOLUMEN
100
AcDbLine
 62
4
  6
CONTINUOUS
 10
128.0
 20
25.0
 11
133.070616612
 21
30.070616612
  0
LINE
  5
24C
100
AcDbEntity
  8
_30_VOLUMEN
100
AcDbLine
 62
4
  6
CONTINUOUS
 10
143.8181775195
 20
27.2166424957
 11
131.8727662115
 21
18.4510654699
  0
LINE
  5
24D
100
AcDbEntity
  8
_30_VOLUMEN
100
AcDbLine
 62
4
  6
CONTINUOUS
 10
139.9157121447
 20
22.4795438183
 11
133.8164291391
 21
18.0038724823
  0
LINE
  5
24E
100
AcDbEntity
  8
_30_VOLUMEN
100
AcDbLine
 62
4
  6
CONTINUOUS
 10
126.4432720715
 20
12.0176988269
 11
138.930653981
 21
3.1598684153
  0
LINE
  5
24F
100
AcDbEntity
  8
_30_VOLUMEN
100
AcDbLine
 62
4
  6
CONTINUOUS
 10
126.4432720715
 20
12.0176988269
 11
131.8727662115
 21
18.4510654699
  0
LINE
  5
250
100
AcDbEntity
  8
_30_VOLUMEN
100
AcDbLine
 62
4
  6
CONTINUOUS
 10
144.4133060101
 20
27.0227425749
 11
139.9157121447
 21
22.4795438183
  0
LINE
  5
251
100
AcDbEntity
  8
_28_BEZUGSPUNKTE
100
AcDbLine
 62
1
  6
CONTINUOUS
 10
150.15625
 20
32.15625
 11
149.84375
 21
31.84375
  0
LINE
  5
252
100
AcDbEntity
  8
_30_VOLUMEN
100
AcDbLine
 62
4
  6
CONTINUOUS
 10
141.4478325094
 20
3.0478325094
 11
139.6200471646
 21
4.3276615861
  0
LINE
  5
253
100
AcDbEntity
  8
_30_VOLUMEN
100
AcDbLine
 62
4
  6
CONTINUOUS
 10
138.9877855894
 20
6.7737089207
 11
129.8243684708
 21
13.273709915
  0
LINE
  5
254
100
AcDbEntity
  8
_30_VOLUMEN
100
AcDbLine
 62
4
  6
CONTINUOUS
 10
137.5553116346
 20
30.7521237758
 11
137.2787797241
 21
30.3571952791
  0
LINE
  5
255
100
AcDbEntity
  8
_30_VOLUMEN
100
AcDbLine
 62
7
  6
CONTINUOUS
 10
137.4411440416
 20
30.0977804369
 11
137.3775239991
 21
30.0069216001
  0
LINE
  5
256
100
AcDbEntity
  8
_30_VOLUMEN
100
AcDbLine
 62
4
  6
CONTINUOUS
 10
133.8164291391
 20
18.0038724823
 11
129.8243684708
 21
13.273709915
  0
LINE
  5
257
100
AcDbEntity
  8
_30_VOLUMEN
100
AcDbLine
 62
7
  6
CONTINUOUS
 10
143.8181775195
 20
27.2166424957
 11
144.4133060101
 21
27.0227425749
  0
LINE
  5
258
100
AcDbEntity
  8
0
100
AcDbLine
 62
4
  6
CONTINUOUS
 10
124.0
 20
25.0
 11
124.0
 21
0.0
  0
LINE
  5
259
100
AcDbEntity
  8
_30_VOLUMEN
100
AcDbLine
 62
4
  6
CONTINUOUS
 10
139.9157121447
 20
22.4795438183
 11
144.3443459943
 21
19.3381257149
  0
LINE
  5
25A
100
AcDbEntity
  8
_21_KURVEN
100
AcDbLine
 62
7
  6
CONTINUOUS
 10
139.9157121447
 20
22.4795438183
 11
144.3443459943
 21
19.3381257149
  0
LINE
  5
25B
100
AcDbEntity
  8
_30_VOLUMEN
100
AcDbLine
 62
4
  6
CONTINUOUS
 10
128.68
 20
10.4310926983
 11
128.68
 21
0.0
  0
LINE
  5
25C
100
AcDbEntity
  8
0
100
AcDbLine
 62
4
  6
CONTINUOUS
 10
152.9
 20
14.5
 11
138.4
 21
0.0
  0
LINE
  5
25D
100
AcDbEntity
  8
_30_VOLUMEN
100
AcDbLine
 62
4
  6
CONTINUOUS
 10
127.0865824946
 20
25.0
 11
128.3933982591
 21
14.3283886335
  0
LINE
  5
25E
100
AcDbEntity
  8
_30_VOLUMEN
100
AcDbLine
 62
4
  6
CONTINUOUS
 10
147.1549804108
 20
25.0779564651
 11
144.3443459943
 21
19.3381257149
  0
LINE
  5
25F
100
AcDbEntity
  8
_30_VOLUMEN
100
AcDbLine
 62
4
  6
CONTINUOUS
 10
142.1342694159
 20
12.1036750592
 11
138.9877855894
 21
6.7737089207
  0
LINE
  5
260
100
AcDbEntity
  8
_30_VOLUMEN
100
AcDbLine
 62
4
  6
CONTINUOUS
 10
138.930653981
 20
3.1598684153
 11
143.2101018445
 21
10.4090117325
  0
LINE
  5
261
100
AcDbEntity
  8
_30_VOLUMEN
100
AcDbLine
 62
4
  6
CONTINUOUS
 10
152.94764078
 20
19.8389986577
 11
152.8018349322
 21
19.6307663268
  0
LINE
  5
262
100
AcDbEntity
  8
_30_VOLUMEN
100
AcDbLine
 62
4
  6
CONTINUOUS
 10
143.2101018445
 20
10.4090117325
 11
142.1342694159
 21
12.1036750592
  0
LINE
  5
263
100
AcDbEntity
  8
_30_VOLUMEN
100
AcDbLine
 62
4
  6
CONTINUOUS
 10
138.930653981
 20
3.1598684153
 11
138.9877855894
 21
6.7737089207
  0
LINE
  5
264
100
AcDbEntity
  8
_30_VOLUMEN
100
AcDbLine
 62
4
  6
CONTINUOUS
 10
142.1342694159
 20
12.1036750592
 11
144.3443459943
 21
19.3381257149
  0
LINE
  5
265
100
AcDbEntity
  8
_30_VOLUMEN
100
AcDbLine
 62
4
  6
CONTINUOUS
 10
143.2101018445
 20
10.4090117325
 11
147.5385243371
 21
24.5776424698
  0
LINE
  5
266
100
AcDbEntity
  8
_30_VOLUMEN
100
AcDbLine
 62
7
  6
CONTINUOUS
 10
147.5385243371
 20
24.5776424698
 11
147.1549804108
 21
25.0779564651
  0
LINE
  5
267
100
AcDbEntity
  8
_30_VOLUMEN
100
AcDbLine
 62
4
  6
CONTINUOUS
 10
139.1332591227
 20
23.77883596
 11
137.2563332118
 21
30.4368193632
  0
LINE
  5
268
100
AcDbEntity
  8
_30_VOLUMEN
100
AcDbLine
 62
4
  6
CONTINUOUS
 10
139.1342303782
 20
23.7790962071
 11
137.4411440416
 21
30.0977804369
  0
LINE
  5
269
100
AcDbEntity
  8
_21_KURVEN
100
AcDbLine
 62
7
  6
CONTINUOUS
 10
139.1342303782
 20
23.7790962071
 11
137.4411440416
 21
30.0977804369
  0
LINE
  5
26A
100
AcDbEntity
  8
_28_BEZUGSPUNKTE
100
AcDbLine
 62
1
  6
CONTINUOUS
 10
150.15625
 20
31.84375
 11
149.84375
 21
32.15625
  0
LINE
  5
26B
100
AcDbEntity
  8
_30_VOLUMEN
100
AcDbLine
 62
4
  6
CONTINUOUS
 10
152.9
 20
14.5
 11
152.9
 21
19.4517216721
  0
LINE
  5
26C
100
AcDbEntity
  8
_26_BEZUGSACHSEN
100
AcDbLine
 62
4
  6
CONTINUOUS
 10
152.8508754951
 20
19.6350568201
 11
152.9
 21
19.4517216721
  0
LINE
  5
26D
100
AcDbEntity
  8
_30_VOLUMEN
100
AcDbLine
 62
4
  6
CONTINUOUS
 10
150.1605787754
 20
31.3208782591
 11
153.0618083729
 21
20.4933419965
  0
LINE
  5
26E
100
AcDbEntity
  8
_21_KURVEN
100
AcDbLine
 62
7
  6
CONTINUOUS
 10
150.1605787754
 20
31.3208782591
 11
153.0618083729
 21
20.4933419965
  0
ARC
  5
26F
100
AcDbEntity
  8
_30_VOLUMEN
100
AcDbCircle
 62
7
  6
CONTINUOUS
 10
145.0652489778
 20
25.046152849
 40
2.5756963811
100
AcDbArc
 50
117.186238888
 51
119.9735996034
  0
ARC
  5
270
100
AcDbEntity
  8
_30_VOLUMEN
100
AcDbCircle
 62
7
  6
CONTINUOUS
 10
145.1004912288
 20
25.033979324
 40
2.5562927504
100
AcDbArc
 50
349.1903758489
 51
349.5814148515
  0
ARC
  5
271
100
AcDbEntity
  8
_30_VOLUMEN
100
AcDbCircle
 62
7
  6
CONTINUOUS
 10
145.0559586396
 20
25.0656534911
 40
2.5541055224
100
AcDbArc
 50
104.3317867852
 51
117.2007201358
  0
ARC
  5
272
100
AcDbEntity
  8
_30_VOLUMEN
100
AcDbCircle
 62
7
  6
CONTINUOUS
 10
145.1097944713
 20
25.031978302
 40
2.5467810466
100
AcDbArc
 50
349.5878412018
 51
4.7801292621
  0
ARC
  5
273
100
AcDbEntity
  8
_30_VOLUMEN
100
AcDbCircle
 62
7
  6
CONTINUOUS
 10
145.1440110461
 20
25.022515195
 40
2.5113970157
100
AcDbArc
 50
328.3619514252
 51
349.2610711407
  0
ARC
  5
274
100
AcDbEntity
  8
_30_VOLUMEN
100
AcDbCircle
 62
7
  6
CONTINUOUS
 10
145.0338231578
 20
25.1386365494
 40
2.4779167674
100
AcDbArc
 50
103.5036069473
 51
104.253618226
  0
ARC
  5
275
100
AcDbEntity
  8
_30_VOLUMEN
100
AcDbCircle
 62
4
  6
CONTINUOUS
 10
152.3068650163
 20
20.2883145819
 40
0.7826097984
100
AcDbArc
 50
305.1831593977
 51
324.9616241024
  0
ARC
  5
276
100
AcDbEntity
  8
_30_VOLUMEN
100
AcDbCircle
 62
4
  6
CONTINUOUS
 10
152.3100040386
 20
20.2836923777
 40
0.7770339238
100
AcDbArc
 50
301.4367279595
 51
305.1783851741
  0
ARC
  5
277
100
AcDbEntity
  8
_30_VOLUMEN
100
AcDbCircle
 62
4
  6
CONTINUOUS
 10
152.3129679826
 20
20.2788977376
 40
0.7713971929
100
AcDbArc
 50
299.2919736658
 51
301.4346326667
  0
SPLINE
  5
278
100
AcDbEntity
  8
_30_VOLUMEN
100
AcDbSpline
 62
4
  6
CONTINUOUS
 70
0
 71
3
 72
9
 73
5
 74
0
 42
0.0000001
 43
0.0000001
 44
0.0000000001
 40
0.0
 40
0.0
 40
0.0
 40
0.0
 40
0.5010987576
 40
1.0
 40
1.0
 40
1.0
 40
1.0
 10
138.1414611086
 20
31.0840399037
 30
0.0
 10
138.0264457081
 20
31.0754795946
 30
0.0
 10
137.7977281957
 20
31.0071159779
 30
0.0
 10
137.6211677664
 20
30.8461896037
 30
0.0
 10
137.5553117837
 20
30.7521236738
 30
0.0
  0
SPLINE
  5
279
100
AcDbEntity
  8
_30_VOLUMEN
100
AcDbSpline
 62
4
  6
CONTINUOUS
 70
0
 71
3
 72
11
 73
7
 74
0
 42
0.0000001
 43
0.0000001
 44
0.0000000001
 40
0.0
 40
0.0
 40
0.0
 40
0.0
 40
0.2494161439
 40
0.499974297
 40
0.7505470561
 40
1.0
 40
1.0
 40
1.0
 40
1.0
 10
150.1605787754
 20
31.3208782591
 30
0.0
 10
150.1367106792
 20
31.4099552068
 30
0.0
 10
150.0565763052
 20
31.5813422895
 30
0.0
 10
149.8576772701
 20
31.7825082225
 30
0.0
 10
149.6021401219
 20
31.9039020827
 30
0.0
 10
149.4138958309
 20
31.9230190723
 30
0.0
 10
149.3219173855
 20
31.9161733463
 30
0.0
  0
SPLINE
  5
27A
100
AcDbEntity
  8
_30_VOLUMEN
100
AcDbSpline
 62
4
  6
CONTINUOUS
 70
0
 71
3
 72
9
 73
5
 74
0
 42
0.0000001
 43
0.0000001
 44
0.0000000001
 40
0.0
 40
0.0
 40
0.0
 40
0.0
 40
0.4989470634
 40
1.0
 40
1.0
 40
1.0
 40
1.0
 10
152.9476406309
 20
19.8389987596
 30
0.0
 10
153.0125388567
 20
19.9316966696
 30
0.0
 10
153.1026564569
 20
20.1488795603
 30
0.0
 10
153.0912193718
 20
20.3835786545
 30
0.0
 10
153.0618083729
 20
20.4933419965
 30
0.0
  0
SPLINE
  5
27B
100
AcDbEntity
  8
_30_VOLUMEN
100
AcDbSpline
 62
4
  6
CONTINUOUS
 70
0
 71
3
 72
12
 73
8
 74
0
 42
0.0000001
 43
0.0000001
 44
0.0000000001
 40
0.0
 40
0.0
 40
0.0
 40
0.0
 40
0.2495870307
 40
0.3745341214
 40
0.4995643894
 40
0.7497839764
 40
1.0
 40
1.0
 40
1.0
 40
1.0
 10
142.3873028574
 20
26.1725905483
 30
0.0
 10
142.4615522796
 20
26.4072887603
 30
0.0
 10
142.6184296322
 20
26.7475159297
 30
0.0
 10
142.9072953676
 20
27.1478512895
 30
0.0
 10
143.2447473821
 20
27.5094384088
 30
0.0
 10
143.7499102573
 20
27.8753942187
 30
0.0
 10
144.2146958493
 20
28.0586234266
 30
0.0
 10
144.4538817086
 20
28.1193865586
 30
0.0
  0
SPLINE
  5
27C
100
AcDbEntity
  8
_30_VOLUMEN
100
AcDbSpline
 62
4
  6
CONTINUOUS
 70
0
 71
3
 72
15
 73
11
 74
0
 42
0.0000001
 43
0.0000001
 44
0.0000000001
 40
0.0
 40
0.0
 40
0.0
 40
0.0
 40
0.1251025844
 40
0.2506884386
 40
0.3764596557
 40
0.5020352586
 40
0.6271230733
 40
0.7516566909
 40
0.8758293015
 40
1.0
 40
1.0
 40
1.0
 40
1.0
 10
144.4689765371
 20
28.2158897427
 30
0.0
 10
144.807546684
 20
28.3019006071
 30
0.0
 10
145.5222986169
 20
28.3552329188
 30
0.0
 10
146.5540977941
 20
28.0670424382
 30
0.0
 10
147.4308049212
 20
27.4474053814
 30
0.0
 10
148.0464237518
 20
26.5696792273
 30
0.0
 10
148.327429463
 20
25.5383516856
 30
0.0
 10
148.2386077684
 20
24.4764834375
 30
0.0
 10
147.7909307539
 20
23.5133350113
 30
0.0
 10
147.2865348762
 20
23.0128327064
 30
0.0
 10
147.0014737416
 20
22.8154585117
 30
0.0
  0
SPLINE
  5
27D
100
AcDbEntity
  8
_30_VOLUMEN
100
AcDbSpline
 62
4
  6
CONTINUOUS
 70
0
 71
3
 72
19
 73
15
 74
0
 42
0.0000001
 43
0.0000001
 44
0.0000000001
 40
0.0
 40
0.0
 40
0.0
 40
0.0
 40
0.1239341928
 40
0.2478759143
 40
0.3102079964
 40
0.3726721862
 40
0.4352694104
 40
0.4980088281
 40
0.5608687055
 40
0.6238163315
 40
0.7493248846
 40
0.8122551654
 40
0.8751700423
 40
1.0
 40
1.0
 40
1.0
 40
1.0
 10
147.0200137459
 20
22.8771465019
 30
0.0
 10
147.2898239572
 20
23.0777430176
 30
0.0
 10
147.7629069734
 20
23.5778923745
 30
0.0
 10
148.1024482467
 20
24.3672913589
 30
0.0
 10
148.2019080478
 20
25.0376289953
 30
0.0
 10
148.1883908498
 20
25.5484260476
 30
0.0
 10
148.0878992309
 20
26.0504459043
 30
0.0
 10
147.9020387016
 20
26.5286029834
 30
0.0
 10
147.6377247258
 20
26.9695627908
 30
0.0
 10
147.1909723576
 20
27.4879419356
 30
0.0
 10
146.6176567905
 20
27.8851763578
 30
0.0
 10
145.9743914105
 20
28.1197189436
 30
0.0
 10
145.3030238084
 20
28.2421740132
 30
0.0
 10
144.7820953737
 20
28.202766447
 30
0.0
 10
144.4538817086
 20
28.1193865586
 30
0.0
  0
SPLINE
  5
27E
100
AcDbEntity
  8
_30_VOLUMEN
100
AcDbSpline
 62
4
  6
CONTINUOUS
 70
0
 71
3
 72
11
 73
7
 74
0
 42
0.0000001
 43
0.0000001
 44
0.0000000001
 40
0.0
 40
0.0
 40
0.0
 40
0.0
 40
0.2497968471
 40
0.4993667491
 40
0.749515757
 40
1.0
 40
1.0
 40
1.0
 40
1.0
 10
142.3320231596
 20
26.1274352194
 30
0.0
 10
142.4012284914
 20
26.3779945648
 30
0.0
 10
142.6067738388
 20
26.8629784181
 30
0.0
 10
143.0934260874
 20
27.4837446663
 30
0.0
 10
143.7259135795
 20
27.9561807506
 30
0.0
 10
144.2163447604
 20
28.1517107898
 30
0.0
 10
144.4689765371
 20
28.2158897427
 30
0.0
  0
SPLINE
  5
27F
100
AcDbEntity
  8
_30_VOLUMEN
100
AcDbSpline
 62
4
  6
CONTINUOUS
 70
0
 71
3
 72
9
 73
5
 74
0
 42
0.0000001
 43
0.0000001
 44
0.0000000001
 40
0.0
 40
0.0
 40
0.0
 40
0.0
 40
0.4989470634
 40
1.0
 40
1.0
 40
1.0
 40
1.0
 10
137.5553117837
 20
30.7521236738
 30
0.0
 10
137.4904135578
 20
30.6594257638
 30
0.0
 10
137.4002959576
 20
30.4422428731
 30
0.0
 10
137.4117330427
 20
30.2075437789
 30
0.0
 10
137.4411440416
 20
30.0977804369
 30
0.0
  0
SPLINE
  5
280
100
AcDbEntity
  8
_30_VOLUMEN
100
AcDbSpline
 62
7
  6
CONTINUOUS
 70
0
 71
3
 72
9
 73
5
 74
0
 42
0.0000001
 43
0.0000001
 44
0.0000000001
 40
0.0
 40
0.0
 40
0.0
 40
0.0
 40
0.4992679598
 40
1.0
 40
1.0
 40
1.0
 40
1.0
 10
143.091407201
 20
26.6957511873
 30
0.0
 10
143.1868747659
 20
26.8119940689
 30
0.0
 10
143.3994158635
 20
27.0281700445
 30
0.0
 10
143.647744633
 20
27.2019919378
 30
0.0
 10
143.7784287345
 20
27.2773645174
 30
0.0
  0
SPLINE
  5
281
100
AcDbEntity
  8
_30_VOLUMEN
100
AcDbSpline
 62
4
  6
CONTINUOUS
 70
0
 71
3
 72
8
 73
4
 74
0
 42
0.0000001
 43
0.0000001
 44
0.0000000001
 40
0.0
 40
0.0
 40
0.0
 40
0.0
 40
1.0
 40
1.0
 40
1.0
 40
1.0
 10
152.3614913059
 20
19.5070825297
 30
0.0
 10
152.4756696011
 20
19.5155805351
 30
0.0
 10
152.5905262579
 20
19.5501176118
 30
0.0
 10
152.6903819909
 20
19.6061330719
 30
0.0
  0
SPLINE
  5
282
100
AcDbEntity
  8
_21_KURVEN
100
AcDbSpline
 62
7
  6
CONTINUOUS
 70
0
 71
3
 72
9
 73
5
 74
0
 42
0.0000001
 43
0.0000001
 44
0.0000000001
 40
0.0
 40
0.0
 40
0.0
 40
0.0
 40
0.5
 40
1.0
 40
1.0
 40
1.0
 40
1.0
 10
138.1414611086
 20
31.0840399037
 30
0.0
 10
138.0862738873
 20
31.0779936219
 30
0.0
 10
137.9688643457
 20
31.0604750396
 30
0.0
 10
137.8666776907
 20
31.0126966084
 30
0.0
 10
137.8135188663
 20
30.9855214681
 30
0.0
  0
SPLINE
  5
283
100
AcDbEntity
  8
_21_KURVEN
100
AcDbSpline
 62
7
  6
CONTINUOUS
 70
0
 71
3
 72
9
 73
5
 74
0
 42
0.0000001
 43
0.0000001
 44
0.0000000001
 40
0.0
 40
0.0
 40
0.0
 40
0.0
 40
0.5
 40
1.0
 40
1.0
 40
1.0
 40
1.0
 10
137.8135188743
 20
30.9855214726
 30
0.0
 10
137.8039164247
 20
30.9800537741
 30
0.0
 10
137.7859378303
 20
30.9697408512
 30
0.0
 10
137.7640129258
 20
30.9553357049
 30
0.0
 10
137.7539500398
 20
30.948564612
 30
0.0
  0
SPLINE
  5
284
100
AcDbEntity
  8
_21_KURVEN
100
AcDbSpline
 62
7
  6
CONTINUOUS
 70
0
 71
3
 72
9
 73
5
 74
0
 42
0.0000001
 43
0.0000001
 44
0.0000000001
 40
0.0
 40
0.0
 40
0.0
 40
0.0
 40
0.5
 40
1.0
 40
1.0
 40
1.0
 40
1.0
 10
137.7539500417
 20
30.9485646133
 30
0.0
 10
137.7182299771
 20
30.9226164076
 30
0.0
 10
137.6435949048
 20
30.8650627819
 30
0.0
 10
137.5848036861
 20
30.7915322514
 30
0.0
 10
137.5556288416
 20
30.7525764525
 30
0.0
  0
SPLINE
  5
285
100
AcDbEntity
  8
_21_KURVEN
100
AcDbSpline
 62
7
  6
CONTINUOUS
 70
0
 71
3
 72
9
 73
5
 74
0
 42
0.0000001
 43
0.0000001
 44
0.0000000001
 40
0.0
 40
0.0
 40
0.0
 40
0.0
 40
0.5
 40
1.0
 40
1.0
 40
1.0
 40
1.0
 10
137.5556288448
 20
30.752576457
 30
0.0
 10
137.5357398119
 20
30.7227804665
 30
0.0
 10
137.4972443781
 20
30.6621105088
 30
0.0
 10
137.4704449056
 20
30.5953933157
 30
0.0
 10
137.4575482425
 20
30.5609444828
 30
0.0
  0
SPLINE
  5
286
100
AcDbEntity
  8
_21_KURVEN
100
AcDbSpline
 62
7
  6
CONTINUOUS
 70
0
 71
3
 72
10
 73
6
 74
0
 42
0.0000001
 43
0.0000001
 44
0.0000000001
 40
0.0
 40
0.0
 40
0.0
 40
0.0
 40
0.5
 40
0.75
 40
1.0
 40
1.0
 40
1.0
 40
1.0
 10
137.4575482452
 20
30.5609444907
 30
0.0
 10
137.4358121719
 20
30.4868277725
 30
0.0
 10
137.4090147527
 20
30.3749407546
 30
0.0
 10
137.4170311403
 20
30.2141525488
 30
0.0
 10
137.4327088537
 20
30.1371120724
 30
0.0
 10
137.4411440368
 20
30.0977804547
 30
0.0
  0
SPLINE
  5
287
100
AcDbEntity
  8
_21_KURVEN
100
AcDbSpline
 62
7
  6
CONTINUOUS
 70
0
 71
3
 72
9
 73
5
 74
0
 42
0.0000001
 43
0.0000001
 44
0.0000000001
 40
0.0
 40
0.0
 40
0.0
 40
0.0
 40
0.5
 40
1.0
 40
1.0
 40
1.0
 40
1.0
 10
150.1605787754
 20
31.3208782591
 30
0.0
 10
150.1425128436
 20
31.3792612736
 30
0.0
 10
150.1014910741
 20
31.4955088999
 30
0.0
 10
150.0274081843
 20
31.5945319786
 30
0.0
 10
149.9868361922
 20
31.6443983306
 30
0.0
  0
SPLINE
  5
288
100
AcDbEntity
  8
_21_KURVEN
100
AcDbSpline
 62
7
  6
CONTINUOUS
 70
0
 71
3
 72
9
 73
5
 74
0
 42
0.0000001
 43
0.0000001
 44
0.0000000001
 40
0.0
 40
0.0
 40
0.0
 40
0.0
 40
0.5
 40
1.0
 40
1.0
 40
1.0
 40
1.0
 10
149.9868361906
 20
31.6443983323
 30
0.0
 10
149.9445132697
 20
31.688865183
 30
0.0
 10
149.8570021713
 20
31.7745232158
 30
0.0
 10
149.7428810594
 20
31.8324574009
 30
0.0
 10
149.6860751273
 20
31.8583009915
 30
0.0
  0
SPLINE
  5
289
100
AcDbEntity
  8
_21_KURVEN
100
AcDbSpline
 62
7
  6
CONTINUOUS
 70
0
 71
3
 72
10
 73
6
 74
0
 42
0.0000001
 43
0.0000001
 44
0.0000000001
 40
0.0
 40
0.0
 40
0.0
 40
0.0
 40
0.5
 40
0.75
 40
1.0
 40
1.0
 40
1.0
 40
1.0
 10
149.6860751291
 20
31.8583009908
 30
0.0
 10
149.6284388043
 20
31.879368877
 30
0.0
 10
149.5423646043
 20
31.9072923164
 30
0.0
 10
149.4145303198
 20
31.9189445611
 30
0.0
 10
149.3532743018
 20
31.9172709964
 30
0.0
 10
149.3219173937
 20
31.9161733469
 30
0.0
  0
SPLINE
  5
28A
100
AcDbEntity
  8
_21_KURVEN
100
AcDbSpline
 62
7
  6
CONTINUOUS
 70
0
 71
3
 72
10
 73
6
 74
0
 42
0.0000001
 43
0.0000001
 44
0.0000000001
 40
0.0
 40
0.0
 40
0.0
 40
0.0
 40
0.25
 40
0.5
 40
1.0
 40
1.0
 40
1.0
 40
1.0
 10
152.3614913059
 20
19.5070825297
 30
0.0
 10
152.3863369788
 20
19.5097170198
 30
0.0
 10
152.4349783529
 20
19.5151560258
 30
0.0
 10
152.5387844737
 20
19.5370740001
 30
0.0
 10
152.6058862501
 20
19.5650907595
 30
0.0
 10
152.6537260503
 20
19.5867890657
 30
0.0
  0
SPLINE
  5
28B
100
AcDbEntity
  8
_21_KURVEN
100
AcDbSpline
 62
7
  6
CONTINUOUS
 70
0
 71
3
 72
8
 73
4
 74
0
 42
0.0000001
 43
0.0000001
 44
0.0000000001
 40
0.0
 40
0.0
 40
0.0
 40
0.0
 40
1.0
 40
1.0
 40
1.0
 40
1.0
 10
152.6537260497
 20
19.5867890654
 30
0.0
 10
152.673477998
 20
19.5967289209
 30
0.0
 10
152.6944660765
 20
19.6081224874
 30
0.0
 10
152.7197753524
 20
19.6235025969
 30
0.0
  0
SPLINE
  5
28C
100
AcDbEntity
  8
_21_KURVEN
100
AcDbSpline
 62
7
  6
CONTINUOUS
 70
0
 71
3
 72
8
 73
4
 74
0
 42
0.0000001
 43
0.0000001
 44
0.0000000001
 40
0.0
 40
0.0
 40
0.0
 40
0.0
 40
1.0
 40
1.0
 40
1.0
 40
1.0
 10
152.7197753544
 20
19.6235025981
 30
0.0
 10
152.7291395607
 20
19.629360689
 30
0.0
 10
152.7369435996
 20
19.6343894176
 30
0.0
 10
152.7490023716
 20
19.6425578193
 30
0.0
  0
LINE
  5
28D
100
AcDbEntity
  8
_21_KURVEN
100
AcDbLine
 62
7
  6
CONTINUOUS
 10
152.7490023728
 20
19.6425578201
 11
152.7593275126
 21
19.6497446298
  0
SPLINE
  5
28E
100
AcDbEntity
  8
_21_KURVEN
100
AcDbSpline
 62
7
  6
CONTINUOUS
 70
0
 71
3
 72
9
 73
5
 74
0
 42
0.0000001
 43
0.0000001
 44
0.0000000001
 40
0.0
 40
0.0
 40
0.0
 40
0.0
 40
0.5
 40
1.0
 40
1.0
 40
1.0
 40
1.0
 10
152.7593275122
 20
19.6497446295
 30
0.0
 10
152.7749543454
 20
19.661101326
 30
0.0
 10
152.8081643802
 20
19.6858706665
 30
0.0
 10
152.8385504932
 20
19.7139902549
 30
0.0
 10
152.8553965462
 20
19.7300538776
 30
0.0
  0
SPLINE
  5
28F
100
AcDbEntity
  8
_21_KURVEN
100
AcDbSpline
 62
7
  6
CONTINUOUS
 70
0
 71
3
 72
8
 73
4
 74
0
 42
0.0000001
 43
0.0000001
 44
0.0000000001
 40
0.0
 40
0.0
 40
0.0
 40
0.0
 40
1.0
 40
1.0
 40
1.0
 40
1.0
 10
152.8553965463
 20
19.7300538777
 30
0.0
 10
152.8864216295
 20
19.7614084751
 30
0.0
 10
152.9189976675
 20
19.7994269535
 30
0.0
 10
152.9476407815
 20
19.8389986599
 30
0.0
  0
SPLINE
  5
290
100
AcDbEntity
  8
_21_KURVEN
100
AcDbSpline
 62
7
  6
CONTINUOUS
 70
0
 71
3
 72
9
 73
5
 74
0
 42
0.0000001
 43
0.0000001
 44
0.0000000001
 40
0.0
 40
0.0
 40
0.0
 40
0.0
 40
0.5
 40
1.0
 40
1.0
 40
1.0
 40
1.0
 10
152.94764078
 20
19.8389986577
 30
0.0
 10
152.9675086785
 20
19.8688087627
 30
0.0
 10
153.0059610968
 20
19.9295060645
 30
0.0
 10
153.032713405
 20
19.9962425002
 30
0.0
 10
153.0454041666
 20
20.0301779348
 30
0.0
  0
SPLINE
  5
291
100
AcDbEntity
  8
_21_KURVEN
100
AcDbSpline
 62
7
  6
CONTINUOUS
 70
0
 71
3
 72
8
 73
4
 74
0
 42
0.0000001
 43
0.0000001
 44
0.0000000001
 40
0.0
 40
0.0
 40
0.0
 40
0.0
 40
1.0
 40
1.0
 40
1.0
 40
1.0
 10
153.0454041693
 20
20.0301779428
 30
0.0
 10
153.0576386104
 20
20.066811764
 30
0.0
 10
153.0685760363
 20
20.1078945826
 30
0.0
 10
153.076552328
 20
20.1491950468
 30
0.0
  0
SPLINE
  5
292
100
AcDbEntity
  8
_21_KURVEN
100
AcDbSpline
 62
7
  6
CONTINUOUS
 70
0
 71
3
 72
9
 73
5
 74
0
 42
0.0000001
 43
0.0000001
 44
0.0000000001
 40
0.0
 40
0.0
 40
0.0
 40
0.0
 40
0.5
 40
1.0
 40
1.0
 40
1.0
 40
1.0
 10
153.0765523287
 20
20.1491950505
 30
0.0
 10
153.0843817959
 20
20.2038918805
 30
0.0
 10
153.0967789779
 20
20.3201613366
 30
0.0
 10
153.0750226386
 20
20.4354839763
 30
0.0
 10
153.0618083706
 20
20.4933420053
 30
0.0
  0
SPLINE
  5
293
100
AcDbEntity
  8
_21_KURVEN
100
AcDbSpline
 62
1
  6
CENTER
 70
0
 71
3
 72
163
 73
159
 74
0
 42
0.0000001
 43
0.0000001
 44
0.0000000001
 40
0.0
 40
0.0
 40
0.0
 40
0.0
 40
0.015625
 40
0.03125
 40
0.0390625
 40
0.046875
 40
0.0546875
 40
0.05859375
 40
0.060546875
 40
0.0625
 40
0.064453125
 40
0.06640625
 40
0.0703125
 40
0.078125
 40
0.09375
 40
0.109375
 40
0.1171875
 40
0.12109375
 40
0.123046875
 40
0.125
 40
0.126953125
 40
0.12890625
 40
0.1328125
 40
0.140625
 40
0.15625
 40
0.171875
 40
0.1796875
 40
0.18359375
 40
0.185546875
 40
0.1875
 40
0.189453125
 40
0.19140625
 40
0.1953125
 40
0.203125
 40
0.21875
 40
0.234375
 40
0.2421875
 40
0.24609375
 40
0.248046875
 40
0.25
 40
0.251953125
 40
0.25390625
 40
0.2578125
 40
0.265625
 40
0.28125
 40
0.296875
 40
0.3046875
 40
0.30859375
 40
0.310546875
 40
0.3125
 40
0.314453125
 40
0.31640625
 40
0.3203125
 40
0.328125
 40
0.34375
 40
0.359375
 40
0.3671875
 40
0.37109375
 40
0.373046875
 40
0.375
 40
0.376953125
 40
0.37890625
 40
0.3828125
 40
0.390625
 40
0.40625
 40
0.421875
 40
0.4296875
 40
0.43359375
 40
0.435546875
 40
0.4375
 40
0.439453125
 40
0.44140625
 40
0.4453125
 40
0.453125
 40
0.46875
 40
0.484375
 40
0.4921875
 40
0.49609375
 40
0.498046875
 40
0.5
 40
0.501953125
 40
0.50390625
 40
0.5078125
 40
0.515625
 40
0.53125
 40
0.546875
 40
0.5546875
 40
0.55859375
 40
0.560546875
 40
0.5625
 40
0.564453125
 40
0.56640625
 40
0.5703125
 40
0.578125
 40
0.59375
 40
0.609375
 40
0.6171875
 40
0.62109375
 40
0.623046875
 40
0.625
 40
0.626953125
 40
0.62890625
 40
0.6328125
 40
0.640625
 40
0.65625
 40
0.671875
 40
0.6796875
 40
0.68359375
 40
0.685546875
 40
0.6875
 40
0.689453125
 40
0.69140625
 40
0.6953125
 40
0.703125
 40
0.71875
 40
0.734375
 40
0.7421875
 40
0.74609375
 40
0.748046875
 40
0.75
 40
0.751953125
 40
0.75390625
 40
0.7578125
 40
0.765625
 40
0.78125
 40
0.796875
 40
0.8046875
 40
0.80859375
 40
0.810546875
 40
0.8125
 40
0.814453125
 40
0.81640625
 40
0.8203125
 40
0.828125
 40
0.84375
 40
0.859375
 40
0.8671875
 40
0.87109375
 40
0.873046875
 40
0.875
 40
0.876953125
 40
0.87890625
 40
0.8828125
 40
0.890625
 40
0.90625
 40
0.921875
 40
0.9296875
 40
0.93359375
 40
0.935546875
 40
0.9375
 40
0.939453125
 40
0.94140625
 40
0.9453125
 40
0.953125
 40
0.9609375
 40
0.96875
 40
0.984375
 40
1.0
 40
1.0
 40
1.0
 40
1.0
 10
146.8859738736
 20
19.1955328812
 30
0.0
 10
146.9822421941
 20
19.2303292027
 30
0.0
 10
147.1747769188
 20
19.2999257493
 30
0.0
 10
147.4154549069
 20
19.3869019142
 30
0.0
 10
147.6079771747
 20
19.4565238346
 30
0.0
 10
147.7524234941
 20
19.5086290206
 30
0.0
 10
147.8726217495
 20
19.5524037782
 30
0.0
 10
147.9571013553
 20
19.5823518668
 30
0.0
 10
148.0048432442
 20
19.6005490582
 30
0.0
 10
148.0421487962
 20
19.6111433128
 30
0.0
 10
148.0737238926
 20
19.6334101242
 30
0.0
 10
148.117822736
 20
19.659027991
 30
0.0
 10
148.1940658
 20
19.7057530674
 30
0.0
 10
148.3472176185
 20
19.7978513862
 30
0.0
 10
148.5656137941
 20
19.9301857923
 30
0.0
 10
148.7843105341
 20
20.0620336036
 30
0.0
 10
148.9370415625
 20
20.154813155
 30
0.0
 10
149.013863213
 20
20.2006015366
 30
0.0
 10
149.0570303066
 20
20.227727847
 30
0.0
 10
149.0914682793
 20
20.2453598439
 30
0.0
 10
149.1180211384
 20
20.2733620238
 30
0.0
 10
149.1561751743
 20
20.3070812944
 30
0.0
 10
149.221665285
 20
20.3677725545
 30
0.0
 10
149.3535602572
 20
20.4879537259
 30
0.0
 10
149.5414520805
 20
20.6603238937
 30
0.0
 10
149.7297197833
 20
20.8322512247
 30
0.0
 10
149.8610885242
 20
20.9530523677
 30
0.0
 10
149.9273022029
 20
21.0128911668
 30
0.0
 10
149.9642910125
 20
21.0479832316
 30
0.0
 10
149.9944241234
 20
21.0717673909
 30
0.0
 10
150.0154150083
 20
21.1052418746
 30
0.0
 10
150.0465915516
 20
21.1464946952
 30
0.0
 10
150.0996669784
 20
21.2202591521
 30
0.0
 10
150.2068794601
 20
21.3666678941
 30
0.0
 10
150.3594177586
 20
21.5764417358
 30
0.0
 10
150.5124234668
 20
21.7858752541
 30
0.0
 10
150.6189815749
 20
21.9327604489
 30
0.0
 10
150.6729567653
 20
22.0058697832
 30
0.0
 10
150.7026843387
 20
22.0481776064
 30
0.0
 10
150.7281273003
 20
22.0784105094
 30
0.0
 10
150.7415388319
 20
22.1143697398
 30
0.0
 10
150.7636172684
 20
22.1603181267
 30
0.0
 10
150.8003023963
 20
22.2416568211
 30
0.0
 10
150.8750672135
 20
22.4036715828
 30
0.0
 10
150.9810757751
 20
22.6354922331
 30
0.0
 10
151.0876213097
 20
22.8670910675
 30
0.0
 10
151.1616343647
 20
23.0294163715
 30
0.0
 10
151.1993531656
 20
23.1103280703
 30
0.0
 10
151.2197669858
 20
23.1569640866
 30
0.0
 10
151.2382931853
 20
23.1908105201
 30
0.0
 10
151.2445259375
 20
23.2289788885
 30
0.0
 10
151.257124058
 20
23.2783626312
 30
0.0
 10
151.2771761
 20
23.3654852674
 30
0.0
 10
151.3187053423
 20
23.5392314322
 30
0.0
 10
151.3772152966
 20
23.7877120966
 30
0.0
 10
151.4362808027
 20
24.0360560121
 30
0.0
 10
151.4770322726
 20
24.2099936253
 30
0.0
 10
151.4981537517
 20
24.2968530199
 30
0.0
 10
151.5090296618
 20
24.3466606843
 30
0.0
 10
151.5205540443
 20
24.3835265192
 30
0.0
 10
151.5192053802
 20
24.4222651453
 30
0.0
 10
151.5218971006
 20
24.473263452
 30
0.0
 10
151.5245189131
 20
24.5628142655
 30
0.0
 10
151.5312547345
 20
24.7416998435
 30
0.0
 10
151.5400225005
 20
24.9973666508
 30
0.0
 10
151.5493673315
 20
25.2529810538
 30
0.0
 10
151.5552952619
 20
25.4319399977
 30
0.0
 10
151.5590279245
 20
25.5213899331
 30
0.0
 10
151.5599307435
 20
25.5725506928
 30
0.0
 10
151.564078623
 20
25.6107901688
 30
0.0
 10
151.5549585069
 20
25.6495307646
 30
0.0
 10
151.5474260368
 20
25.7010101381
 30
0.0
 10
151.5320915102
 20
25.7911800416
 30
0.0
 10
151.5029595589
 20
25.9714653101
 30
0.0
 10
151.4604684916
 20
26.2290203099
 30
0.0
 10
151.4185455871
 20
26.4866607273
 30
0.0
 10
151.3886182078
 20
26.6668264113
 30
0.0
 10
151.3743773947
 20
26.7571607435
 30
0.0
 10
151.3650836196
 20
26.8083753227
 30
0.0
 10
151.361375255
 20
26.8479295204
 30
0.0
 10
151.3451971076
 20
26.8831131842
 30
0.0
 10
151.3279755236
 20
26.9315491235
 30
0.0
 10
151.2958145602
 20
27.0156028159
 30
0.0
 10
151.2329372151
 20
27.1842175836
 30
0.0
 10
151.1422914005
 20
27.424799406
 30
0.0
 10
151.0521781449
 20
27.6656004533
 30
0.0
 10
150.9885552173
 20
27.8339083061
 30
0.0
 10
150.9574194298
 20
27.9183840064
 30
0.0
 10
150.9385469131
 20
27.9661403485
 30
0.0
 10
150.9274413896
 20
28.0034121296
 30
0.0
 10
150.904680729
 20
28.0351235556
 30
0.0
 10
150.8783983206
 20
28.0793448433
 30
0.0
 10
150.8305131251
 20
28.1558297833
 30
0.0
 10
150.7360925253
 20
28.3094456452
 30
0.0
 10
150.60044192
 20
28.5285159658
 30
0.0
 10
150.4652764199
 20
28.7478794875
 30
0.0
 10
150.370176673
 20
28.9010848678
 30
0.0
 10
150.3232253047
 20
28.97813422
 30
0.0
 10
150.2954390706
 20
29.0214465841
 30
0.0
 10
150.277299036
 20
29.0559507509
 30
0.0
 10
150.2488388778
 20
29.0827332615
 30
0.0
 10
150.2144915093
 20
29.1211364878
 30
0.0
 10
150.1527092015
 20
29.1870892028
 30
0.0
 10
150.0303401192
 20
29.3198904418
 30
0.0
 10
149.8548477895
 20
29.5090877403
 30
0.0
 10
149.6797956734
 20
29.6986537649
 30
0.0
 10
149.5568102921
 20
29.8309387874
 30
0.0
 10
149.4958753955
 20
29.8976013001
 30
0.0
 10
149.4601633648
 20
29.9348614756
 30
0.0
 10
149.4358962413
 20
29.9651561019
 30
0.0
 10
149.4020075645
 20
29.9864690941
 30
0.0
 10
149.3601784999
 20
30.0180191017
 30
0.0
 10
149.2854167776
 20
30.0717741452
 30
0.0
 10
149.1370054953
 20
30.180327275
 30
0.0
 10
148.924375753
 20
30.3347912072
 30
0.0
 10
148.7120821048
 20
30.4897162614
 30
0.0
 10
148.5632002909
 20
30.5976238203
 30
0.0
 10
148.4890855496
 20
30.6522665238
 30
0.0
 10
148.4462145934
 20
30.682387053
 30
0.0
 10
148.4155272122
 20
30.7080922329
 30
0.0
 10
148.3792363252
 20
30.721890217
 30
0.0
 10
148.332802891
 20
30.7444405924
 30
0.0
 10
148.2506352924
 20
30.7819717697
 30
0.0
 10
148.086948481
 20
30.8584142993
 30
0.0
 10
147.8527473791
 20
30.966827725
 30
0.0
 10
147.6187624563
 20
31.0757729976
 30
0.0
 10
147.4547729942
 20
31.1514709417
 30
0.0
 10
147.3730215403
 20
31.190025924
 30
0.0
 10
147.325917951
 20
31.2109275744
 30
0.0
 10
147.2916861696
 20
31.2297913993
 30
0.0
 10
147.2532649825
 20
31.2364697596
 30
0.0
 10
147.2034979237
 20
31.2496243616
 30
0.0
 10
147.1157259887
 20
31.2706677649
 30
0.0
 10
146.9406658535
 20
31.3141672354
 30
0.0
 10
146.6903169735
 20
31.3754987895
 30
0.0
 10
146.4400985841
 20
31.4373817415
 30
0.0
 10
146.2648557622
 20
31.4801092549
 30
0.0
 10
146.1773350213
 20
31.5022140992
 30
0.0
 10
146.1271634421
 20
31.5136593676
 30
0.0
 10
146.0899851767
 20
31.5255897933
 30
0.0
 10
146.0510850991
 20
31.5247273569
 30
0.0
 10
145.9998188644
 20
31.5280394137
 30
0.0
 10
145.9098236742
 20
31.5317598242
 30
0.0
 10
145.7300318371
 20
31.5406835596
 30
0.0
 10
145.4730804381
 20
31.5525821374
 30
0.0
 10
145.2161745311
 20
31.5650545786
 30
0.0
 10
145.0363190053
 20
31.5731749053
 30
0.0
 10
144.9464113871
 20
31.5780000028
 30
0.0
 10
144.8950041274
 20
31.5795330831
 30
0.0
 10
144.8565373605
 20
31.5841366954
 30
0.0
 10
144.8177316211
 20
31.5755371587
 30
0.0
 10
144.7661088726
 20
31.5686765161
 30
0.0
 10
144.6757139738
 20
31.554524647
 30
0.0
 10
144.5466072052
 20
31.5354295137
 30
0.0
 10
144.3916667548
 20
31.512035164
 30
0.0
 10
144.1850837954
 20
31.4810104882
 30
0.0
 10
143.9268536081
 20
31.4421716895
 30
0.0
 10
143.7202699118
 20
31.4111183127
 30
0.0
 10
143.616978007
 20
31.3955894166
 30
0.0
  0
SPLINE
  5
294
100
AcDbEntity
  8
_21_KURVEN
100
AcDbSpline
 62
1
  6
CENTER
 70
0
 71
3
 72
71
 73
67
 74
0
 42
0.0000001
 43
0.0000001
 44
0.0000000001
 40
0.0
 40
0.0
 40
0.0
 40
0.0
 40
0.03125
 40
0.0625
 40
0.09375
 40
0.109375
 40
0.125
 40
0.1328125
 40
0.140625
 40
0.15625
 40
0.171875
 40
0.1875
 40
0.21875
 40
0.234375
 40
0.25
 40
0.265625
 40
0.2734375
 40
0.28125
 40
0.28515625
 40
0.2890625
 40
0.296875
 40
0.3125
 40
0.34375
 40
0.375
 40
0.40625
 40
0.4140625
 40
0.421875
 40
0.4296875
 40
0.43359375
 40
0.4375
 40
0.4453125
 40
0.453125
 40
0.46875
 40
0.5
 40
0.53125
 40
0.546875
 40
0.5546875
 40
0.5625
 40
0.56640625
 40
0.5703125
 40
0.578125
 40
0.5859375
 40
0.59375
 40
0.625
 40
0.65625
 40
0.6875
 40
0.703125
 40
0.7109375
 40
0.71484375
 40
0.71875
 40
0.7265625
 40
0.734375
 40
0.75
 40
0.765625
 40
0.78125
 40
0.8125
 40
0.828125
 40
0.84375
 40
0.859375
 40
0.8671875
 40
0.875
 40
0.890625
 40
0.90625
 40
0.9375
 40
0.96875
 40
1.0
 40
1.0
 40
1.0
 40
1.0
 10
143.6169785409
 20
31.3955895522
 30
0.0
 10
143.5226961374
 20
31.3601966635
 30
0.0
 10
143.3341279023
 20
31.2894174608
 30
0.0
 10
143.0512961179
 20
31.183209209
 30
0.0
 10
142.8155429734
 20
31.094817388
 30
0.0
 10
142.6270741516
 20
31.0238475218
 30
0.0
 10
142.5089768988
 20
30.9800748513
 30
0.0
 10
142.4151958473
 20
30.9437204271
 30
0.0
 10
142.318871184
 20
30.9122443574
 30
0.0
 10
142.2166715046
 20
30.8379819708
 30
0.0
 10
142.0897747933
 20
30.7570315582
 30
0.0
 10
141.9220699057
 20
30.6462394949
 30
0.0
 10
141.7539348448
 20
30.5362676072
 30
0.0
 10
141.5859722583
 20
30.4259788277
 30
0.0
 10
141.4599130685
 20
30.3433927429
 30
0.0
 10
141.3550827125
 20
30.2742680441
 30
0.0
 10
141.2707365275
 20
30.2196301428
 30
0.0
 10
141.2191154278
 20
30.183978291
 30
0.0
 10
141.1753103849
 20
30.1588989375
 30
0.0
 10
141.1406617819
 20
30.1212536027
 30
0.0
 10
141.0784310379
 20
30.0575643579
 30
0.0
 10
140.9550990538
 20
29.9286331796
 30
0.0
 10
140.7783472651
 20
29.7452397355
 30
0.0
 10
140.5663669471
 20
29.524905629
 30
0.0
 10
140.4076921113
 20
29.3594882258
 30
0.0
 10
140.3013534782
 20
29.2495698626
 30
0.0
 10
140.2491915127
 20
29.1939464776
 30
0.0
 10
140.2024579393
 20
29.149747684
 30
0.0
 10
140.1784977614
 20
29.1055310469
 30
0.0
 10
140.1521927659
 20
29.0628612893
 30
0.0
 10
140.1201143025
 20
29.0089944991
 30
0.0
 10
140.0683405981
 20
28.9231032729
 30
0.0
 10
139.9779467527
 20
28.7726551479
 30
0.0
 10
139.8486921222
 20
28.5578075757
 30
0.0
 10
139.7195194929
 20
28.3429104905
 30
0.0
 10
139.6290108458
 20
28.1925316838
 30
0.0
 10
139.5774175441
 20
28.1065315289
 30
0.0
 10
139.5448778238
 20
28.0529432494
 30
0.0
 10
139.5195199425
 20
28.0097016163
 30
0.0
 10
139.4917016067
 20
27.9678145674
 30
0.0
 10
139.4745397271
 20
27.905760137
 30
0.0
 10
139.4498339928
 20
27.8335584492
 30
0.0
 10
139.4025359702
 20
27.68799087
 30
0.0
 10
139.3307233373
 20
27.4701253399
 30
0.0
 10
139.2353627955
 20
27.1793752342
 30
0.0
 10
139.1561357356
 20
26.9370955406
 30
0.0
 10
139.1000022057
 20
26.7675893719
 30
0.0
 10
139.0728843074
 20
26.6826986962
 30
0.0
 10
139.0558581068
 20
26.6344128071
 30
0.0
 10
139.0541975035
 20
26.583886287
 30
0.0
 10
139.0468604896
 20
26.5214953357
 30
0.0
 10
139.0380621351
 20
26.4212410032
 30
0.0
 10
139.0260527235
 20
26.2960703706
 30
0.0
 10
139.0120851771
 20
26.1458018688
 30
0.0
 10
138.9932529274
 20
25.9454696234
 30
0.0
 10
138.9747863099
 20
25.7451103216
 30
0.0
 10
138.9553794367
 20
25.544812871
 30
0.0
 10
138.9432794166
 20
25.3944312858
 30
0.0
 10
138.925404057
 20
25.2696158512
 30
0.0
 10
138.9430951383
 20
25.1677003344
 30
0.0
 10
138.9551992598
 20
25.0661451287
 30
0.0
 10
138.9722423994
 20
24.9390777502
 30
0.0
 10
138.9984422203
 20
24.7358388989
 30
0.0
 10
139.0315590643
 20
24.4817666622
 30
0.0
 10
139.0711411554
 20
24.1768901756
 30
0.0
 10
139.0975593346
 20
23.9736372422
 30
0.0
 10
139.1107646594
 20
23.8720110182
 30
0.0
  0
SPLINE
  5
295
100
AcDbEntity
  8
_21_KURVEN
100
AcDbSpline
 62
1
  6
CENTER
 70
0
 71
3
 72
10
 73
6
 74
0
 42
0.0000001
 43
0.0000001
 44
0.0000000001
 40
0.0
 40
0.0
 40
0.0
 40
0.0
 40
0.375
 40
0.75
 40
1.0
 40
1.0
 40
1.0
 40
1.0
 10
139.1107646663
 20
23.8720109903
 30
0.0
 10
139.113412228
 20
23.8613144108
 30
0.0
 10
139.1189872527
 20
23.838897089
 30
0.0
 10
139.1251271675
 20
23.8145164785
 30
0.0
 10
139.1316856943
 20
23.7893221812
 30
0.0
 10
139.1340914186
 20
23.7800409756
 30
0.0
  0
SPLINE
  5
296
100
AcDbEntity
  8
_21_KURVEN
100
AcDbSpline
 62
1
  6
CENTER
 70
0
 71
3
 72
9
 73
5
 74
0
 42
0.0000001
 43
0.0000001
 44
0.0000000001
 40
0.0
 40
0.0
 40
0.0
 40
0.0
 40
0.5
 40
1.0
 40
1.0
 40
1.0
 40
1.0
 10
145.8412427563
 20
19.0219287523
 30
0.0
 10
146.0167844263
 20
19.0385974642
 30
0.0
 10
146.36767877
 20
19.0768737575
 30
0.0
 10
146.7116222597
 20
19.1538752698
 30
0.0
 10
146.8859738337
 20
19.1955328711
 30
0.0
  0
SPLINE
  5
297
100
AcDbEntity
  8
_30_VOLUMEN
100
AcDbSpline
 62
4
  6
CONTINUOUS
 70
0
 71
3
 72
15
 73
11
 74
0
 42
0.0000001
 43
0.0000001
 44
0.0000000001
 40
0.0
 40
0.0
 40
0.0
 40
0.0
 40
0.1243222033
 40
0.2491092953
 40
0.3743892157
 40
0.4999702082
 40
0.6255574414
 40
0.7508537503
 40
0.8756612038
 40
1.0
 40
1.0
 40
1.0
 40
1.0
 10
147.5385243371
 20
24.5776424698
 30
0.0
 10
147.6107483362
 20
24.8140600503
 30
0.0
 10
147.6803307404
 20
25.3143758315
 30
0.0
 10
147.5467119261
 20
26.0586720052
 30
0.0
 10
147.1899784944
 20
26.7288309786
 30
0.0
 10
146.6447090088
 20
27.2590343959
 30
0.0
 10
145.9640495471
 20
27.5984215104
 30
0.0
 10
145.2135734391
 20
27.7136556691
 30
0.0
 10
144.4668272167
 20
27.593860364
 30
0.0
 10
144.0175056355
 20
27.3629100381
 30
0.0
 10
143.8181775195
 20
27.2166424957
 30
0.0
  0
ELLIPSE
  5
298
100
AcDbEntity
  8
_30_VOLUMEN
100
AcDbEllipse
 62
4
  6
CONTINUOUS
 10
145.6560601643
 20
25.8701304994
 30
0.0
 11
1.3891562762
 21
-0.9777115158
 31
0.0
 40
0.8957644897
 41
0.141701696
 42
2.9916619688
  0
ENDSEC
  0
SECTION
  2
OBJECTS
  0
DICTIONARY
  5
C
100
AcDbDictionary
280
0
281
1
  3
ACAD_GROUP
350
D
  3
ACAD_MLINESTYLE
350
17
  3
ACAD_LAYOUT
350
1A
  3
ACAD_PLOTSETTINGS
350
19
  3
ACAD_PLOTSTYLENAME
350
E
  0
DICTIONARY
  5
D
102
{ACAD_REACTORS
330
C
102
}
100
AcDbDictionary
280
0
281
1
  0
ACDBDICTIONARYWDFLT
  5
E
102
{ACAD_REACTORS
330
C
102
}
100
AcDbDictionary
281
1
  3
Normal
350
F
100
AcDbDictionaryWithDefault
340
F
  0
DICTIONARY
  5
17
102
{ACAD_REACTORS
330
C
102
}
100
AcDbDictionary
280
0
281
1
  3
Standard
350
18
  0
DICTIONARY
  5
19
102
{ACAD_REACTORS
330
C
102
}
100
AcDbDictionary
281
1
  0
DICTIONARY
  5
1A
102
{ACAD_REACTORS
330
C
102
}
100
AcDbDictionary
281
1
  3
Model
350
299
  3
Layout1
350
29A
  0
ACDBPLACEHOLDER
  5
F
102
{ACAD_REACTORS
330
E
102
}
  0
MLINESTYLE
  5
18
102
{ACAD_REACTORS
330
17
102
}
100
AcDbMlineStyle
  2
STANDARD
 70
0
  3

 62
256
 51
90.0
 52
90.0
 71
2
 49
0.5
 62
256
  6
BYLAYER
 49
-0.5
 62
256
  6
BYLAYER
  0
LAYOUT
  5
299
102
{ACAD_REACTORS
330
1A
102
}
100
AcDbPlotSettings
  1

  2
none_device
  4
ISO_A3_(420.00_x_297.00_MM)
  6

 40
0.0
 41
0.0
 42
0.0
 43
0.0
 44
420.0
 45
297.0
 46
0.0
 47
0.0
 48
0.0
 49
0.0
140
0.0
141
0.0
142
1.0
143
1.0
 70
1024
 72
1
 73
0
 74
0
  7

 75
0
147
1.0
148
0.0
149
0.0
100
AcDbLayout
  1
Model
 70
0
 71
0
 10
0.0
 20
0.0
 11
420.0
 21
297.0
 12
0.0
 22
0.0
 32
0.0
 14
0.0
 24
0.0
 34
0.0
 15
0.0
 25
0.0
 35
0.0
146
0.0
 13
0.0
 23
0.0
 33
0.0
 16
1.0
 26
0.0
 36
0.0
 17
0.0
 27
1.0
 37
0.0
 76
0
330
20E
345
0
346
0
  0
LAYOUT
  5
29A
102
{ACAD_REACTORS
330
1A
102
}
100
AcDbPlotSettings
  1

  2
none_device
  4
ISO_A3_(420.00_x_297.00_MM)
  6

 40
0.0
 41
0.0
 42
0.0
 43
0.0
 44
420.0
 45
297.0
 46
0.0
 47
0.0
 48
0.0
 49
0.0
140
0.0
141
0.0
142
1.0
143
1.0
 70
0
 72
1
 73
0
 74
0
  7

 75
0
147
1.0
148
0.0
149
0.0
100
AcDbLayout
  1
Layout1
 70
0
 71
1
 10
0.0
 20
0.0
 11
420.0
 21
297.0
 12
0.0
 22
0.0
 32
0.0
 14
0.0
 24
0.0
 34
0.0
 15
0.0
 25
0.0
 35
0.0
146
0.0
 13
0.0
 23
0.0
 33
0.0
 16
1.0
 26
0.0
 36
0.0
 17
0.0
 27
1.0
 37
0.0
 76
0
330
20F
345
0
346
0
  0
ENDSEC
  0
EOF
