  0
SECTION
  2
HEADER
  9
$ACADVER
  1
AC1018
  9
$ACADMAINTVER
 70
     0
  9
$DWGCODEPAGE
  3
ANSI_1252
  9
$LASTSAVEDBY
  1
piechottad
  9
$INSBASE
 10
0.0
 20
0.0
 30
0.0
  9
$EXTMIN
 10
0.0
 20
0.0
 30
0.0
  9
$EXTMAX
 10
297.0
 20
210.0
 30
0.0
  9
$LIMMIN
 10
0.0
 20
0.0
  9
$LIMMAX
 10
297.0
 20
210.0
  9
$ORTHOMODE
 70
     0
  9
$REGENMODE
 70
     1
  9
$FILLMODE
 70
     1
  9
$QTEXTMODE
 70
     0
  9
$MIRRTEXT
 70
     1
  9
$LTSCALE
 40
1.0
  9
$ATTMODE
 70
     1
  9
$TEXTSIZE
 40
3.5
  9
$TRACEWID
 40
1.0
  9
$TEXTSTYLE
  7
Standard
  9
$CLAYER
  8
0
  9
$CELTYPE
  6
ByLayer
  9
$CECOLOR
 62
   256
  9
$CELTSCALE
 40
1.0
  9
$DISPSILH
 70
     0
  9
$DIMSCALE
 40
1.0
  9
$DIMASZ
 40
3.302
  9
$DIMEXO
 40
1.0
  9
$DIMDLI
 40
3.75
  9
$DIMRND
 40
0.0
  9
$DIMDLE
 40
0.0
  9
$DIMEXE
 40
1.0
  9
$DIMTP
 40
0.0
  9
$DIMTM
 40
0.0
  9
$DIMTXT
 40
3.5
  9
$DIMCEN
 40
2.5
  9
$DIMTSZ
 40
0.0
  9
$DIMTOL
 70
     0
  9
$DIMLIM
 70
     0
  9
$DIMTIH
 70
     1
  9
$DIMTOH
 70
     1
  9
$DIMSE1
 70
     0
  9
$DIMSE2
 70
     0
  9
$DIMTAD
 70
     1
  9
$DIMZIN
 70
     0
  9
$DIMBLK
  1

  9
$DIMASO
 70
     1
  9
$DIMSHO
 70
     1
  9
$DIMPOST
  1

  9
$DIMAPOST
  1

  9
$DIMALT
 70
     0
  9
$DIMALTD
 70
     3
  9
$DIMALTF
 40
0.0393700787
  9
$DIMLFAC
 40
1.0
  9
$DIMTOFL
 70
     1
  9
$DIMTVP
 40
0.0
  9
$DIMTIX
 70
     0
  9
$DIMSOXD
 70
     0
  9
$DIMSAH
 70
     0
  9
$DIMBLK1
  1

  9
$DIMBLK2
  1

  9
$DIMSTYLE
  2
ISO-25
  9
$DIMCLRD
 70
     0
  9
$DIMCLRE
 70
     0
  9
$DIMCLRT
 70
     0
  9
$DIMTFAC
 40
1.0
  9
$DIMGAP
 40
1.524
  9
$DIMJUST
 70
     0
  9
$DIMSD1
 70
     0
  9
$DIMSD2
 70
     0
  9
$DIMTOLJ
 70
     0
  9
$DIMTZIN
 70
     0
  9
$DIMALTZ
 70
     0
  9
$DIMALTTZ
 70
     0
  9
$DIMUPT
 70
     0
  9
$DIMDEC
 70
     2
  9
$DIMTDEC
 70
     2
  9
$DIMALTU
 70
     2
  9
$DIMALTTD
 70
     3
  9
$DIMTXSTY
  7
Standard
  9
$DIMAUNIT
 70
     0
  9
$DIMADEC
 70
     2
  9
$DIMALTRND
 40
0.0
  9
$DIMAZIN
 70
     0
  9
$DIMDSEP
 70
    44
  9
$DIMATFIT
 70
     3
  9
$DIMFRAC
 70
     0
  9
$DIMLDRBLK
  1

  9
$DIMLUNIT
 70
     2
  9
$DIMLWD
 70
    -2
  9
$DIMLWE
 70
    -2
  9
$DIMTMOVE
 70
     0
  9
$LUNITS
 70
     2
  9
$LUPREC
 70
     2
  9
$SKETCHINC
 40
1.0
  9
$FILLETRAD
 40
10.0
  9
$AUNITS
 70
     0
  9
$AUPREC
 70
     2
  9
$MENU
  1
.
  9
$ELEVATION
 40
0.0
  9
$PELEVATION
 40
0.0
  9
$THICKNESS
 40
0.0
  9
$LIMCHECK
 70
     0
  9
$CHAMFERA
 40
0.0
  9
$CHAMFERB
 40
0.0
  9
$CHAMFERC
 40
0.0
  9
$CHAMFERD
 40
0.0
  9
$SKPOLY
 70
     0
  9
$TDCREATE
 40
2456996.608994722
  9
$TDUCREATE
 40
2456996.567328055
  9
$TDUPDATE
 40
2457031.477628982
  9
$TDUUPDATE
 40
2457031.435962315
  9
$TDINDWG
 40
0.0001913889
  9
$TDUSRTIMER
 40
2457031.435771169
  9
$USRTIMER
 70
     1
  9
$ANGBASE
 50
0.0
  9
$ANGDIR
 70
     0
  9
$PDMODE
 70
     0
  9
$PDSIZE
 40
-1.0
  9
$PLINEWID
 40
0.0
  9
$SPLFRAME
 70
     0
  9
$SPLINETYPE
 70
     6
  9
$SPLINESEGS
 70
     8
  9
$HANDSEED
  5
1C9
  9
$SURFTAB1
 70
     6
  9
$SURFTAB2
 70
     6
  9
$SURFTYPE
 70
     6
  9
$SURFU
 70
     6
  9
$SURFV
 70
     6
  9
$UCSBASE
  2

  9
$UCSNAME
  2

  9
$UCSORG
 10
0.0
 20
0.0
 30
0.0
  9
$UCSXDIR
 10
1.0
 20
0.0
 30
0.0
  9
$UCSYDIR
 10
0.0
 20
1.0
 30
0.0
  9
$UCSORTHOREF
  2

  9
$UCSORTHOVIEW
 70
     0
  9
$UCSORGTOP
 10
0.0
 20
0.0
 30
0.0
  9
$UCSORGBOTTOM
 10
0.0
 20
0.0
 30
0.0
  9
$UCSORGLEFT
 10
0.0
 20
0.0
 30
0.0
  9
$UCSORGRIGHT
 10
0.0
 20
0.0
 30
0.0
  9
$UCSORGFRONT
 10
0.0
 20
0.0
 30
0.0
  9
$UCSORGBACK
 10
0.0
 20
0.0
 30
0.0
  9
$PUCSBASE
  2

  9
$PUCSNAME
  2

  9
$PUCSORG
 10
0.0
 20
0.0
 30
0.0
  9
$PUCSXDIR
 10
1.0
 20
0.0
 30
0.0
  9
$PUCSYDIR
 10
0.0
 20
1.0
 30
0.0
  9
$PUCSORTHOREF
  2

  9
$PUCSORTHOVIEW
 70
     0
  9
$PUCSORGTOP
 10
0.0
 20
0.0
 30
0.0
  9
$PUCSORGBOTTOM
 10
0.0
 20
0.0
 30
0.0
  9
$PUCSORGLEFT
 10
0.0
 20
0.0
 30
0.0
  9
$PUCSORGRIGHT
 10
0.0
 20
0.0
 30
0.0
  9
$PUCSORGFRONT
 10
0.0
 20
0.0
 30
0.0
  9
$PUCSORGBACK
 10
0.0
 20
0.0
 30
0.0
  9
$USERI1
 70
     0
  9
$USERI2
 70
     0
  9
$USERI3
 70
     0
  9
$USERI4
 70
     0
  9
$USERI5
 70
     0
  9
$USERR1
 40
0.0
  9
$USERR2
 40
0.0
  9
$USERR3
 40
0.0
  9
$USERR4
 40
0.0
  9
$USERR5
 40
0.0
  9
$WORLDVIEW
 70
     1
  9
$SHADEDGE
 70
     3
  9
$SHADEDIF
 70
    70
  9
$TILEMODE
 70
     1
  9
$MAXACTVP
 70
    64
  9
$PINSBASE
 10
0.0
 20
0.0
 30
0.0
  9
$PLIMCHECK
 70
     0
  9
$PEXTMIN
 10
1.000000000000000E+20
 20
1.000000000000000E+20
 30
1.000000000000000E+20
  9
$PEXTMAX
 10
-1.000000000000000E+20
 20
-1.000000000000000E+20
 30
-1.000000000000000E+20
  9
$PLIMMIN
 10
0.0
 20
0.0
  9
$PLIMMAX
 10
0.0
 20
0.0
  9
$UNITMODE
 70
     0
  9
$VISRETAIN
 70
     1
  9
$PLINEGEN
 70
     0
  9
$PSLTSCALE
 70
     1
  9
$TREEDEPTH
 70
  3020
  9
$CMLSTYLE
  2
Standard
  9
$CMLJUST
 70
     0
  9
$CMLSCALE
 40
20.0
  9
$PROXYGRAPHICS
 70
     1
  9
$MEASUREMENT
 70
     1
  9
$CELWEIGHT
370
    -1
  9
$ENDCAPS
280
     0
  9
$JOINSTYLE
280
     0
  9
$LWDISPLAY
290
     1
  9
$INSUNITS
 70
     4
  9
$HYPERLINKBASE
  1

  9
$STYLESHEET
  1

  9
$XEDIT
290
     1
  9
$CEPSNTYPE
380
     0
  9
$PSTYLEMODE
290
     1
  9
$FINGERPRINTGUID
  2
{044DA7EA-1B80-4779-BD1A-05BFAECFCF13}
  9
$VERSIONGUID
  2
{FAEB1C32-E019-11D5-929B-00C0DF256EC4}
  9
$EXTNAMES
290
     1
  9
$PSVPSCALE
 40
0.0
  9
$OLESTARTUP
290
     0
  9
$SORTENTS
280
   127
  9
$INDEXCTL
280
     0
  9
$HIDETEXT
280
     1
  9
$XCLIPFRAME
290
     0
  9
$HALOGAP
280
     0
  9
$OBSCOLOR
 70
   257
  9
$OBSLTYPE
280
     0
  9
$INTERSECTIONDISPLAY
280
     0
  9
$INTERSECTIONCOLOR
 70
   257
  9
$DIMASSOC
280
     2
  9
$PROJECTNAME
  1

  0
ENDSEC
  0
SECTION
  2
CLASSES
  0
CLASS
  1
ACDBDICTIONARYWDFLT
  2
AcDbDictionaryWithDefault
  3
ObjectDBX Classes
 90
        0
 91
        7
280
     0
281
     0
  0
CLASS
  1
VISUALSTYLE
  2
AcDbVisualStyle
  3
ObjectDBX Classes
 90
     4095
 91
        7
280
     0
281
     0
  0
CLASS
  1
MATERIAL
  2
AcDbMaterial
  3
ObjectDBX Classes
 90
     1153
 91
        7
280
     0
281
     0
  0
CLASS
  1
SCALE
  2
AcDbScale
  3
ObjectDBX Classes
 90
     1153
 91
        7
280
     0
281
     0
  0
CLASS
  1
SUN
  2
AcDbSun
  3
SCENEOE
 90
     1153
 91
        7
280
     0
281
     0
  0
CLASS
  1
DICTIONARYVAR
  2
AcDbDictionaryVar
  3
ObjectDBX Classes
 90
        0
 91
        5
280
     0
281
     0
  0
CLASS
  1
TABLESTYLE
  2
AcDbTableStyle
  3
ObjectDBX Classes
 90
     4095
 91
        7
280
     0
281
     0
  0
CLASS
  1
RASTERVARIABLES
  2
AcDbRasterVariables
  3
ISM
 90
        0
 91
        7
280
     0
281
     0
  0
CLASS
  1
CELLSTYLEMAP
  2
AcDbCellStyleMap
  3
ObjectDBX Classes
 90
     1152
 91
        4
280
     0
281
     0
  0
ENDSEC
  0
SECTION
  2
TABLES
  0
TABLE
  2
VPORT
  5
8
330
0
100
AcDbSymbolTable
 70
     1
  0
VPORT
  5
29
330
8
100
AcDbSymbolTableRecord
100
AcDbViewportTableRecord
  2
*Active
 70
     0
 10
0.0
 20
0.0
 11
1.0
 21
1.0
 12
99.65778688524588
 22
12.90983606557378
 13
0.0
 23
0.0
 14
10.0
 24
10.0
 15
10.0
 25
10.0
 16
0.0
 26
0.0
 36
1.0
 17
0.0
 27
0.0
 37
0.0
 40
210.0
 41
1.497950819672131
 42
50.0
 43
0.0
 44
0.0
 50
0.0
 51
0.0
 71
    16
 72
  2000
 73
     1
 74
     3
 75
     0
 76
     0
 77
     0
 78
     0
281
     0
 65
     1
110
0.0
120
0.0
130
0.0
111
1.0
121
0.0
131
0.0
112
0.0
122
1.0
132
0.0
 79
     0
146
0.0
  0
ENDTAB
  0
TABLE
  2
LTYPE
  5
5
330
0
100
AcDbSymbolTable
 70
     8
  0
LTYPE
  5
14
330
5
100
AcDbSymbolTableRecord
100
AcDbLinetypeTableRecord
  2
ByBlock
 70
     0
  3

 72
    65
 73
     0
 40
0.0
  0
LTYPE
  5
15
330
5
100
AcDbSymbolTableRecord
100
AcDbLinetypeTableRecord
  2
ByLayer
 70
     0
  3

 72
    65
 73
     0
 40
0.0
  0
LTYPE
  5
16
330
5
100
AcDbSymbolTableRecord
100
AcDbLinetypeTableRecord
  2
Continuous
 70
     0
  3
Solid line
 72
    65
 73
     0
 40
0.0
  0
LTYPE
  5
6A
330
5
100
AcDbSymbolTableRecord
100
AcDbLinetypeTableRecord
  2
SLD-Durchgehend
 70
     0
  3
SolidWorks Line Style
 72
    65
 73
     0
 40
0.0
  0
LTYPE
  5
6B
330
5
100
AcDbSymbolTableRecord
100
AcDbLinetypeTableRecord
  2
SLD-Gestrichelt
 70
     0
  3
SolidWorks Line Style
 72
    65
 73
     2
 40
1.905
 49
1.27
 74
     0
 49
-0.635
 74
     0
  0
LTYPE
  5
6C
330
5
100
AcDbSymbolTableRecord
100
AcDbLinetypeTableRecord
  2
SLD-Phantom
 70
     0
  3
SolidWorks Line Style
 72
    65
 73
     6
 40
12.7
 49
6.35
 74
     0
 49
-1.27
 74
     0
 49
1.27
 74
     0
 49
-1.27
 74
     0
 49
1.27
 74
     0
 49
-1.27
 74
     0
  0
LTYPE
  5
6D
330
5
100
AcDbSymbolTableRecord
100
AcDbLinetypeTableRecord
  2
SLD-Kette
 70
     0
  3
SolidWorks Line Style
 72
    65
 73
     4
 40
10.16
 49
6.35
 74
     0
 49
-1.27
 74
     0
 49
1.27
 74
     0
 49
-1.27
 74
     0
  0
LTYPE
  5
6E
330
5
100
AcDbSymbolTableRecord
100
AcDbLinetypeTableRecord
  2
SLD-Punktstrich
 70
     0
  3
SolidWorks Line Style
 72
    65
 73
     4
 40
19.05
 49
15.24
 74
     0
 49
-1.27
 74
     0
 49
1.27
 74
     0
 49
-1.27
 74
     0
  0
LTYPE
  5
6F
330
5
100
AcDbSymbolTableRecord
100
AcDbLinetypeTableRecord
  2
SLD-Naht
 70
     0
  3
SolidWorks Line Style
 72
    65
 73
     2
 40
0.635
 49
0.0
 74
     0
 49
-0.635
 74
     0
  0
LTYPE
  5
70
330
5
100
AcDbSymbolTableRecord
100
AcDbLinetypeTableRecord
  2
SLD-Dicke-Dünne-Kette
 70
     0
  3
SolidWorks Line Style
 72
    65
 73
     4
 40
10.16
 49
6.35
 74
     0
 49
-1.27
 74
     0
 49
1.27
 74
     0
 49
-1.27
 74
     0
  0
ENDTAB
  0
TABLE
  2
LAYER
  5
2
330
0
100
AcDbSymbolTable
 70
     4
  0
LAYER
  5
10
330
2
100
AcDbSymbolTableRecord
100
AcDbLayerTableRecord
  2
0
 70
     0
 62
     7
  6
Continuous
370
    -3
390
F
  0
LAYER
  5
71
330
2
100
AcDbSymbolTableRecord
100
AcDbLayerTableRecord
  2
1
 70
     0
 62
     4
  6
Continuous
370
    -1
390
F
  0
LAYER
  5
72
330
2
100
AcDbSymbolTableRecord
100
AcDbLayerTableRecord
  2
2
 70
     0
 62
     7
  6
SLD-Durchgehend
370
    -3
390
F
  0
LAYER
  5
1B4
330
2
100
AcDbSymbolTableRecord
100
AcDbLayerTableRecord
  2
Defpoints
 70
     0
 62
     7
  6
Continuous
290
     0
370
    -3
390
F
  0
ENDTAB
  0
TABLE
  2
STYLE
  5
3
330
0
100
AcDbSymbolTable
 70
     2
  0
STYLE
  5
11
330
3
100
AcDbSymbolTableRecord
100
AcDbTextStyleTableRecord
  2
Standard
 70
     0
 40
0.0
 41
1.0
 50
0.0
 71
     0
 42
3.5
  3
txt
  4

  0
STYLE
  5
14F
330
3
100
AcDbSymbolTableRecord
100
AcDbTextStyleTableRecord
  2
SLDTEXTSTYLE0
 70
     0
 40
0.0
 41
0.75
 50
0.0
 71
     0
 42
3.5
  3
TXT
  4

  0
ENDTAB
  0
TABLE
  2
VIEW
  5
6
330
0
100
AcDbSymbolTable
 70
     0
  0
ENDTAB
  0
TABLE
  2
UCS
  5
7
330
0
100
AcDbSymbolTable
 70
     0
  0
ENDTAB
  0
TABLE
  2
APPID
  5
9
330
0
100
AcDbSymbolTable
 70
     1
  0
APPID
  5
12
330
9
100
AcDbSymbolTableRecord
100
AcDbRegAppTableRecord
  2
ACAD
 70
     0
  0
ENDTAB
  0
TABLE
  2
DIMSTYLE
  5
A
330
0
100
AcDbSymbolTable
 70
     2
100
AcDbDimStyleTable
  0
DIMSTYLE
105
27
330
A
100
AcDbSymbolTableRecord
100
AcDbDimStyleTableRecord
  2
ISO-25
 70
     0
 41
2.5
 42
0.625
 43
3.75
 44
1.25
 73
     0
 74
     0
 77
     1
 78
     8
140
2.5
141
2.5
143
0.0393700787
147
0.625
171
     3
172
     1
178
     0
271
     2
272
     2
274
     3
278
    44
283
     0
284
     8
340
11
  0
DIMSTYLE
105
150
102
{ACAD_REACTORS
330
14E
330
15A
330
164
330
16F
102
}
330
A
100
AcDbSymbolTableRecord
100
AcDbDimStyleTableRecord
  2
SLDDIMSTYLE0
 70
     0
 41
3.302
 44
0.0
 45
0.000000001
 73
     0
 74
     0
 77
     1
 78
    12
 79
     3
140
3.5
147
0.875
173
     1
178
     0
271
     2
272
     2
276
     2
284
    12
340
14F
  0
ENDTAB
  0
TABLE
  2
BLOCK_RECORD
  5
1
330
0
100
AcDbSymbolTable
 70
     7
  0
BLOCK_RECORD
  5
1F
330
1
100
AcDbSymbolTableRecord
100
AcDbBlockTableRecord
  2
*Model_Space
340
22
  0
BLOCK_RECORD
  5
1B
330
1
100
AcDbSymbolTableRecord
100
AcDbBlockTableRecord
  2
*Paper_Space
340
1E
  0
BLOCK_RECORD
  5
23
330
1
100
AcDbSymbolTableRecord
100
AcDbBlockTableRecord
  2
*Paper_Space0
340
26
  0
BLOCK_RECORD
  5
151
330
1
100
AcDbSymbolTableRecord
100
AcDbBlockTableRecord
  2
_D
340
0
  0
BLOCK_RECORD
  5
15B
330
1
100
AcDbSymbolTableRecord
100
AcDbBlockTableRecord
  2
_D_1
340
0
  0
BLOCK_RECORD
  5
165
330
1
100
AcDbSymbolTableRecord
100
AcDbBlockTableRecord
  2
_D_2
340
0
  0
BLOCK_RECORD
  5
170
330
1
100
AcDbSymbolTableRecord
100
AcDbBlockTableRecord
  2
_D_3
340
0
  0
BLOCK_RECORD
  5
179
330
1
100
AcDbSymbolTableRecord
100
AcDbBlockTableRecord
  2
SW_CENTERMARKSYMBOL_0
340
0
102
{BLKREFS
331
0
102
}
  0
BLOCK_RECORD
  5
185
330
1
100
AcDbSymbolTableRecord
100
AcDbBlockTableRecord
  2
SW_CENTERMARKSYMBOL_1
340
0
102
{BLKREFS
331
0
102
}
  0
ENDTAB
  0
ENDSEC
  0
SECTION
  2
BLOCKS
  0
BLOCK
  5
20
330
1F
100
AcDbEntity
  8
0
100
AcDbBlockBegin
  2
*Model_Space
 70
     0
 10
0.0
 20
0.0
 30
0.0
  3
*Model_Space
  1
*Model_Space
  0
ENDBLK
  5
21
330
1F
100
AcDbEntity
  8
0
100
AcDbBlockEnd
  0
BLOCK
  5
1C
330
1B
100
AcDbEntity
 67
     1
  8
0
100
AcDbBlockBegin
  2
*Paper_Space
 70
     0
 10
0.0
 20
0.0
 30
0.0
  3
*Paper_Space
  1
*Paper_Space
  0
ENDBLK
  5
1D
330
1B
100
AcDbEntity
 67
     1
  8
0
100
AcDbBlockEnd
  0
BLOCK
  5
24
330
23
100
AcDbEntity
  8
0
100
AcDbBlockBegin
  2
*Paper_Space0
 70
     0
 10
0.0
 20
0.0
 30
0.0
  3
*Paper_Space0
  1
*Paper_Space0
  0
ENDBLK
  5
25
330
23
100
AcDbEntity
  8
0
100
AcDbBlockEnd
  0
BLOCK
  5
152
330
151
100
AcDbEntity
  8
0
100
AcDbBlockBegin
  2
_D
 70
     0
 10
0.0
 20
0.0
 30
0.0
  3
_D
  1
_D
  0
LINE
  5
154
330
151
100
AcDbEntity
  8
2
  6
SLD-Durchgehend
 62
     0
370
    -2
100
AcDbLine
 10
125.0027086782
 20
7.5605059343
 30
0.0
 11
125.0027086782
 21
31.9981909343
 31
0.0
  0
LINE
  5
155
330
151
100
AcDbEntity
  8
2
  6
SLD-Durchgehend
 62
     0
370
    -2
100
AcDbLine
 10
0.0027086782
 20
0.0605059343
 30
0.0
 11
0.0027086782000012
 21
31.9981909343
 31
0.0
  0
LINE
  5
156
330
151
100
AcDbEntity
  8
2
  6
SLD-Durchgehend
 62
     0
370
    -2
100
AcDbLine
 10
121.7007086782
 20
31.9981909343
 30
0.0
 11
3.304708678200001
 21
31.9981909343
 31
0.0
  0
SOLID
  5
157
330
151
100
AcDbEntity
  8
2
 62
     0
100
AcDbTrace
 10
121.7007086782
 20
31.44785760096666
 30
0.0
 11
121.7007086782
 21
32.54852426763333
 31
0.0
 12
125.0027086782
 22
31.9981909343
 32
0.0
 13
125.0027086782
 23
31.9981909343
 33
0.0
  0
SOLID
  5
158
330
151
100
AcDbEntity
  8
2
 62
     0
100
AcDbTrace
 10
3.304708678200001
 20
32.54852426763333
 30
0.0
 11
3.304708678200001
 21
31.44785760096666
 31
0.0
 12
0.0027086782000012
 22
31.9981909343
 32
0.0
 13
0.0027086782000012
 23
31.9981909343
 33
0.0
  0
MTEXT
  5
159
330
151
100
AcDbEntity
  8
2
 62
     0
370
    15
100
AcDbMText
 10
62.5027086782
 20
36.3731909343
 30
0.0
 40
3.5
 41
0.0
 71
     2
 72
     1
  1
\A1;125
  7
SLDTEXTSTYLE0
 73
     1
 44
1.0
  0
POINT
  5
1B5
330
151
100
AcDbEntity
  8
Defpoints
 62
     0
100
AcDbPoint
 10
125.0027086782
 20
7.4980059343
 30
0.0
  0
POINT
  5
1B6
330
151
100
AcDbEntity
  8
Defpoints
 62
     0
100
AcDbPoint
 10
0.0027086782
 20
-0.0019940657
 30
0.0
  0
POINT
  5
1B7
330
151
100
AcDbEntity
  8
Defpoints
 62
     0
100
AcDbPoint
 10
0.0027086782
 20
31.9981909343
 30
0.0
  0
ENDBLK
  5
153
330
151
100
AcDbEntity
  8
0
100
AcDbBlockEnd
  0
BLOCK
  5
15C
330
15B
100
AcDbEntity
  8
0
100
AcDbBlockBegin
  2
_D_1
 70
     0
 10
0.0
 20
0.0
 30
0.0
  3
_D_1
  1
_D_1
  0
LINE
  5
15E
330
15B
100
AcDbEntity
  8
2
  6
SLD-Durchgehend
 62
     0
370
    -2
100
AcDbLine
 10
0.9402086782000001
 20
19.9980059343
 30
0.0
 11
-5.997291321799999
 21
19.9980059343
 31
0.0
  0
LINE
  5
15F
330
15B
100
AcDbEntity
  8
2
  6
SLD-Durchgehend
 62
     0
370
    -2
100
AcDbLine
 10
0.9402086782000001
 20
-0.0019940657
 30
0.0
 11
-5.997291321800001
 21
-0.0019940656999999
 31
0.0
  0
LINE
  5
160
330
15B
100
AcDbEntity
  8
2
  6
SLD-Durchgehend
 62
     0
370
    -2
100
AcDbLine
 10
-5.997291321799999
 20
16.6960059343
 30
0.0
 11
-5.997291321800001
 21
3.3000059343
 31
0.0
  0
SOLID
  5
161
330
15B
100
AcDbEntity
  8
2
 62
     0
100
AcDbTrace
 10
-5.446957988466665
 20
16.6960059343
 30
0.0
 11
-6.547624655133332
 21
16.6960059343
 31
0.0
 12
-5.997291321799999
 22
19.9980059343
 32
0.0
 13
-5.997291321799999
 23
19.9980059343
 33
0.0
  0
SOLID
  5
162
330
15B
100
AcDbEntity
  8
2
 62
     0
100
AcDbTrace
 10
-6.547624655133334
 20
3.3000059343
 30
0.0
 11
-5.446957988466667
 21
3.3000059343
 31
0.0
 12
-5.997291321800001
 22
-0.0019940656999999
 32
0.0
 13
-5.997291321800001
 23
-0.0019940656999999
 33
0.0
  0
MTEXT
  5
163
330
15B
100
AcDbEntity
  8
2
 62
     0
370
    15
100
AcDbMText
 10
-10.3722913218
 20
9.9980059343
 30
0.0
 40
3.5
 41
0.0
 71
     2
 72
     1
  1
\A1;20
  7
SLDTEXTSTYLE0
 11
4.440892098500626E-17
 21
1.0
 31
0.0
 73
     1
 44
1.0
  0
POINT
  5
1B8
330
15B
100
AcDbEntity
  8
Defpoints
 62
     0
100
AcDbPoint
 10
1.0027086782
 20
19.9980059343
 30
0.0
  0
POINT
  5
1B9
330
15B
100
AcDbEntity
  8
Defpoints
 62
     0
100
AcDbPoint
 10
1.0027086782
 20
-0.0019940657
 30
0.0
  0
POINT
  5
1BA
330
15B
100
AcDbEntity
  8
Defpoints
 62
     0
100
AcDbPoint
 10
-5.9972913218
 20
-0.0019940656999996
 30
0.0
  0
ENDBLK
  5
15D
330
15B
100
AcDbEntity
  8
0
100
AcDbBlockEnd
  0
BLOCK
  5
166
330
165
100
AcDbEntity
  8
0
100
AcDbBlockBegin
  2
_D_2
 70
     0
 10
0.0
 20
0.0
 30
0.0
  3
_D_2
  1
_D_2
  0
LINE
  5
168
330
165
100
AcDbEntity
  8
2
  6
SLD-Durchgehend
 62
     0
370
    -2
100
AcDbLine
 10
125.0652086782
 20
7.4980059343
 30
0.0
 11
131.0027539408
 21
7.4980059343
 31
0.0
  0
LINE
  5
169
330
165
100
AcDbEntity
  8
2
  6
SLD-Durchgehend
 62
     0
370
    -2
100
AcDbLine
 10
125.0652086782
 20
-0.0019940657
 30
0.0
 11
131.0027539408
 21
-0.0019940656999999
 31
0.0
  0
LINE
  5
16A
330
165
100
AcDbEntity
  8
2
  6
SLD-Durchgehend
 62
     0
370
    -2
100
AcDbLine
 10
131.0027539408
 20
-0.0019940656999999
 30
0.0
 11
131.0027539408
 21
-14.3207443093
 31
0.0
  0
LINE
  5
16B
330
165
100
AcDbEntity
  8
2
  6
SLD-Durchgehend
 62
     0
370
    -2
100
AcDbLine
 10
131.0027539408
 20
10.8000059343
 30
0.0
 11
131.0027539408
 21
14.1020059343
 31
0.0
  0
LINE
  5
16C
330
165
100
AcDbEntity
  8
2
  6
SLD-Durchgehend
 62
     0
370
    -2
100
AcDbLine
 10
131.0027539408
 20
-3.3039940657
 30
0.0
 11
131.0027539408
 21
-6.6059940657
 31
0.0
  0
SOLID
  5
16D
330
165
100
AcDbEntity
  8
2
 62
     0
100
AcDbTrace
 10
130.4524206074667
 20
10.8000059343
 30
0.0
 11
131.5530872741333
 21
10.8000059343
 31
0.0
 12
131.0027539408
 22
7.4980059343
 32
0.0
 13
131.0027539408
 23
7.4980059343
 33
0.0
  0
SOLID
  5
16E
330
165
100
AcDbEntity
  8
2
 62
     0
100
AcDbTrace
 10
131.5530872741333
 20
-3.3039940657
 30
0.0
 11
130.4524206074667
 21
-3.3039940657
 31
0.0
 12
131.0027539408
 22
-0.0019940656999999
 32
0.0
 13
131.0027539408
 23
-0.0019940656999999
 33
0.0
  0
MTEXT
  5
1BB
330
165
100
AcDbEntity
  8
2
 62
     0
370
    15
100
AcDbMText
 10
126.6277539408
 20
-10.8207443093
 30
0.0
 40
3.5
 41
0.0
 71
     2
 72
     1
  1
\A1;7.5
  7
SLDTEXTSTYLE0
 11
0.0
 21
1.0
 31
0.0
 73
     1
 44
1.0
  0
POINT
  5
1BC
330
165
100
AcDbEntity
  8
Defpoints
 62
     0
100
AcDbPoint
 10
125.0027086782
 20
7.4980059343
 30
0.0
  0
POINT
  5
1BD
330
165
100
AcDbEntity
  8
Defpoints
 62
     0
100
AcDbPoint
 10
125.0027086782
 20
-0.0019940657
 30
0.0
  0
POINT
  5
1BE
330
165
100
AcDbEntity
  8
Defpoints
 62
     0
100
AcDbPoint
 10
131.0027539408
 20
-0.0019940657000004
 30
0.0
  0
ENDBLK
  5
167
330
165
100
AcDbEntity
  8
0
100
AcDbBlockEnd
  0
BLOCK
  5
171
330
170
100
AcDbEntity
  8
0
100
AcDbBlockBegin
  2
_D_3
 70
     0
 10
0.0
 20
0.0
 30
0.0
  3
_D_3
  1
_D_3
  0
LINE
  5
173
330
170
100
AcDbEntity
  8
2
  6
SLD-Durchgehend
 62
     0
370
    -2
100
AcDbLine
 10
82.0027086782
 20
0.0605059343
 30
0.0
 11
82.0027086782
 21
25.9981909343
 31
0.0
  0
LINE
  5
174
330
170
100
AcDbEntity
  8
2
  6
SLD-Durchgehend
 62
     0
370
    -2
100
AcDbLine
 10
125.0027086782
 20
7.5605059343
 30
0.0
 11
125.0027086782
 21
25.9981909343
 31
0.0
  0
LINE
  5
175
330
170
100
AcDbEntity
  8
2
  6
SLD-Durchgehend
 62
     0
370
    -2
100
AcDbLine
 10
85.3047086782
 20
25.9981909343
 30
0.0
 11
121.7007086782
 21
25.9981909343
 31
0.0
  0
SOLID
  5
176
330
170
100
AcDbEntity
  8
2
 62
     0
100
AcDbTrace
 10
85.3047086782
 20
26.54852426763333
 30
0.0
 11
85.3047086782
 21
25.44785760096666
 31
0.0
 12
82.0027086782
 22
25.9981909343
 32
0.0
 13
82.0027086782
 23
25.9981909343
 33
0.0
  0
SOLID
  5
177
330
170
100
AcDbEntity
  8
2
 62
     0
100
AcDbTrace
 10
121.7007086782
 20
25.44785760096666
 30
0.0
 11
121.7007086782
 21
26.54852426763333
 31
0.0
 12
125.0027086782
 22
25.9981909343
 32
0.0
 13
125.0027086782
 23
25.9981909343
 33
0.0
  0
MTEXT
  5
178
330
170
100
AcDbEntity
  8
2
 62
     0
370
    15
100
AcDbMText
 10
103.5027086782
 20
30.3731909343
 30
0.0
 40
3.5
 41
0.0
 71
     2
 72
     1
  1
\A1;43
  7
SLDTEXTSTYLE0
 73
     1
 44
1.0
  0
POINT
  5
1BF
330
170
100
AcDbEntity
  8
Defpoints
 62
     0
100
AcDbPoint
 10
82.0027086782
 20
-0.0019940657
 30
0.0
  0
POINT
  5
1C0
330
170
100
AcDbEntity
  8
Defpoints
 62
     0
100
AcDbPoint
 10
125.0027086782
 20
7.4980059343
 30
0.0
  0
POINT
  5
1C1
330
170
100
AcDbEntity
  8
Defpoints
 62
     0
100
AcDbPoint
 10
125.0027086782
 20
25.9981909343
 30
0.0
  0
ENDBLK
  5
172
330
170
100
AcDbEntity
  8
0
100
AcDbBlockEnd
  0
BLOCK
  5
17A
330
179
100
AcDbEntity
  8
0
100
AcDbBlockBegin
  2
SW_CENTERMARKSYMBOL_0
 70
     0
 10
0.0
 20
0.0
 30
0.0
  3
SW_CENTERMARKSYMBOL_0
  1
SW_CENTERMARKSYMBOL_0
  0
LINE
  5
17C
330
179
100
AcDbEntity
  8
0
  6
SLD-Punktstrich
 62
     0
370
    15
100
AcDbLine
 10
0.0
 20
0.0
 30
0.0
 11
0.0
 21
2.5
 31
0.0
  0
LINE
  5
17D
330
179
100
AcDbEntity
  8
0
  6
SLD-Punktstrich
 62
     0
370
    15
100
AcDbLine
 10
0.0
 20
0.0
 30
0.0
 11
-2.5
 21
0.0
 31
0.0
  0
LINE
  5
17E
330
179
100
AcDbEntity
  8
0
  6
SLD-Punktstrich
 62
     0
370
    15
100
AcDbLine
 10
0.0
 20
0.0
 30
0.0
 11
0.0
 21
-2.5
 31
0.0
  0
LINE
  5
17F
330
179
100
AcDbEntity
  8
0
  6
SLD-Punktstrich
 62
     0
370
    15
100
AcDbLine
 10
0.0
 20
0.0
 30
0.0
 11
2.5
 21
0.0
 31
0.0
  0
LINE
  5
180
330
179
100
AcDbEntity
  8
0
  6
SLD-Punktstrich
 62
     0
370
    15
100
AcDbLine
 10
0.0
 20
2.5
 30
0.0
 11
0.0
 21
4.7
 31
0.0
  0
LINE
  5
181
330
179
100
AcDbEntity
  8
0
  6
SLD-Punktstrich
 62
     0
370
    15
100
AcDbLine
 10
-2.5
 20
0.0
 30
0.0
 11
-4.7
 21
0.0
 31
0.0
  0
LINE
  5
182
330
179
100
AcDbEntity
  8
0
  6
SLD-Punktstrich
 62
     0
370
    15
100
AcDbLine
 10
0.0
 20
-2.5
 30
0.0
 11
0.0
 21
-4.7
 31
0.0
  0
LINE
  5
183
330
179
100
AcDbEntity
  8
0
  6
SLD-Punktstrich
 62
     0
370
    15
100
AcDbLine
 10
2.5
 20
0.0
 30
0.0
 11
4.7
 21
0.0
 31
0.0
  0
ENDBLK
  5
17B
330
179
100
AcDbEntity
  8
0
100
AcDbBlockEnd
  0
BLOCK
  5
186
330
185
100
AcDbEntity
  8
0
100
AcDbBlockBegin
  2
SW_CENTERMARKSYMBOL_1
 70
     0
 10
0.0
 20
0.0
 30
0.0
  3
SW_CENTERMARKSYMBOL_1
  1
SW_CENTERMARKSYMBOL_1
  0
LINE
  5
188
330
185
100
AcDbEntity
  8
0
  6
SLD-Punktstrich
 62
     0
370
    15
100
AcDbLine
 10
0.0
 20
0.0
 30
0.0
 11
0.0
 21
2.5
 31
0.0
  0
LINE
  5
189
330
185
100
AcDbEntity
  8
0
  6
SLD-Punktstrich
 62
     0
370
    15
100
AcDbLine
 10
0.0
 20
0.0
 30
0.0
 11
-2.5
 21
0.0
 31
0.0
  0
LINE
  5
18A
330
185
100
AcDbEntity
  8
0
  6
SLD-Punktstrich
 62
     0
370
    15
100
AcDbLine
 10
0.0
 20
0.0
 30
0.0
 11
0.0
 21
-2.5
 31
0.0
  0
LINE
  5
18B
330
185
100
AcDbEntity
  8
0
  6
SLD-Punktstrich
 62
     0
370
    15
100
AcDbLine
 10
0.0
 20
0.0
 30
0.0
 11
2.5
 21
0.0
 31
0.0
  0
LINE
  5
18C
330
185
100
AcDbEntity
  8
0
  6
SLD-Punktstrich
 62
     0
370
    15
100
AcDbLine
 10
0.0
 20
2.5
 30
0.0
 11
0.0
 21
4.7
 31
0.0
  0
LINE
  5
18D
330
185
100
AcDbEntity
  8
0
  6
SLD-Punktstrich
 62
     0
370
    15
100
AcDbLine
 10
-2.5
 20
0.0
 30
0.0
 11
-4.7
 21
0.0
 31
0.0
  0
LINE
  5
18E
330
185
100
AcDbEntity
  8
0
  6
SLD-Punktstrich
 62
     0
370
    15
100
AcDbLine
 10
0.0
 20
-2.5
 30
0.0
 11
0.0
 21
-4.7
 31
0.0
  0
LINE
  5
18F
330
185
100
AcDbEntity
  8
0
  6
SLD-Punktstrich
 62
     0
370
    15
100
AcDbLine
 10
2.5
 20
0.0
 30
0.0
 11
4.7
 21
0.0
 31
0.0
  0
ENDBLK
  5
187
330
185
100
AcDbEntity
  8
0
100
AcDbBlockEnd
  0
ENDSEC
  0
SECTION
  2
ENTITIES
  0
LINE
  5
73
330
1F
100
AcDbEntity
  8
0
  6
SLD-Punktstrich
 62
     7
100
AcDbLine
 10
0.0027086782
 20
-0.0019940657
 30
0.0
 11
125.0027086782
 21
-0.0019940657
 31
0.0
  0
POINT
  5
74
330
1F
100
AcDbEntity
  8
1
 62
     4
420
    65535
100
AcDbPoint
 10
125.0027086782
 20
-0.0019940657
 30
0.0
  0
POINT
  5
75
330
1F
100
AcDbEntity
  8
1
 62
     4
420
    65535
100
AcDbPoint
 10
82.0027086782
 20
-0.0019940657
 30
0.0
  0
POINT
  5
76
330
1F
100
AcDbEntity
  8
1
 62
     4
420
    65535
100
AcDbPoint
 10
125.0027086782
 20
7.4980059343
 30
0.0
  0
LINE
  5
77
330
1F
100
AcDbEntity
  8
1
 62
     4
420
    65535
100
AcDbLine
 10
110.5088690096
 20
2.8095526272
 30
0.0
 11
111.3077571783
 21
2.8101565748
 31
0.0
  0
LINE
  5
78
330
1F
100
AcDbEntity
  8
1
 62
     4
420
    65535
100
AcDbLine
 10
111.4644476176
 20
12.7181626145
 30
0.0
 11
110.3936806144
 21
12.7173531305
 31
0.0
  0
LINE
  5
79
330
1F
100
AcDbEntity
  8
1
 62
     4
420
    65535
100
AcDbLine
 10
94.2563034305
 20
14.4893609609
 30
0.0
 11
93.724342796
 21
12.757570901
 31
0.0
  0
LINE
  5
7A
330
1F
100
AcDbEntity
  8
1
 62
     4
420
    65535
100
AcDbLine
 10
93.7489152388
 20
12.8375661287
 30
0.0
 11
93.4592655991
 21
12.886703008
 31
0.0
  0
SPLINE
  5
7B
330
1F
100
AcDbEntity
  8
1
 62
     4
420
    65535
100
AcDbSpline
210
0.0
220
0.0
230
1.0
 70
     8
 71
     3
 72
     9
 73
     5
 74
     0
 42
0.000000001
 43
0.00000001
 40
0.0
 40
0.0
 40
0.0
 40
0.0
 40
0.4867142541045894
 40
1.0
 40
1.0
 40
1.0
 40
1.0
 10
105.5198097092587
 20
14.70147077962382
 30
0.0
 10
105.4318913675437
 20
14.77013505393216
 30
0.0
 10
105.2512549038003
 20
14.91121223367216
 30
0.0
 10
105.0535367820773
 20
15.02067619938202
 30
0.0
 10
104.9520508884918
 20
15.07686249267008
 30
0.0
  0
LINE
  5
7C
330
1F
100
AcDbEntity
  8
1
 62
     4
420
    65535
100
AcDbLine
 10
111.6781000296
 20
9.7606044374
 30
0.0
 11
105.5198097093
 21
14.7014707796
 31
0.0
  0
ARC
  5
7D
330
1F
100
AcDbEntity
  8
1
 62
     4
420
    65535
100
AcDbCircle
 10
93.4258150216
 20
12.6895202023
 30
0.0
 40
0.2000000000000006
100
AcDbArc
 50
80.3718656216
 51
90.04331475090001
  0
LINE
  5
7E
330
1F
100
AcDbEntity
  8
1
 62
     4
420
    65535
100
AcDbLine
 10
104.905626461
 20
15.1112318436
 30
0.0
 11
101.5505124861
 21
16.9231073293
 31
0.0
  0
LINE
  5
7F
330
1F
100
AcDbEntity
  8
1
 62
     4
420
    65535
100
AcDbLine
 10
93.4256638246
 20
12.8895201451
 30
0.0
 11
92.9254470332
 21
12.8891419887
 31
0.0
  0
SPLINE
  5
80
330
1F
100
AcDbEntity
  8
1
 62
     4
420
    65535
100
AcDbSpline
210
0.0
220
0.0
230
1.0
 70
     8
 71
     3
 72
    13
 73
     9
 74
     0
 42
0.000000001
 43
0.00000001
 40
0.0
 40
0.0
 40
0.0
 40
0.0
 40
0.1038148126416718
 40
0.2924554889169339
 40
0.4851737147946985
 40
0.6800082121652163
 40
0.8746048729945592
 40
1.0
 40
1.0
 40
1.0
 40
1.0
 10
93.5842354331067
 20
7.231052451257675
 30
0.0
 10
93.61710856822383
 20
7.236684674770804
 30
0.0
 10
93.70971509091825
 20
7.252551145453627
 30
0.0
 10
93.91116389307005
 20
7.261194471830511
 30
0.0
 10
94.18950938723215
 20
7.244886591873372
 30
0.0
 10
94.49797902690904
 20
7.199308193252525
 30
0.0
 10
94.77900641044427
 20
7.136233194393583
 30
0.0
 10
94.94561603488371
 20
7.085121345114056
 30
0.0
 10
95.01090531983154
 20
7.065092153504931
 30
0.0
  0
LINE
  5
81
330
1F
100
AcDbEntity
  8
1
 62
     4
420
    65535
100
AcDbLine
 10
95.0109053198
 20
7.0650921535
 30
0.0
 11
96.7819848385
 21
6.4920017417
 31
0.0
  0
LINE
  5
82
330
1F
100
AcDbEntity
  8
1
 62
     4
420
    65535
100
AcDbLine
 10
100.1739161879
 20
17.5140551305
 30
0.0
 11
98.4028366692
 21
18.0871455424
 31
0.0
  0
LINE
  5
83
330
1F
100
AcDbEntity
  8
1
 62
     4
420
    65535
100
AcDbLine
 10
112.1914533957
 20
6.3047134806
 30
0.0
 11
112.2200876938
 21
6.3272642235
 31
0.0
  0
LINE
  5
84
330
1F
100
AcDbEntity
  8
1
 62
     4
420
    65535
100
AcDbLine
 10
112.0431847105
 20
6.2091725296
 30
0.0
 11
112.1846504341
 21
6.3025238753
 31
0.0
  0
SPLINE
  5
85
330
1F
100
AcDbEntity
  8
1
 62
     4
420
    65535
100
AcDbSpline
210
0.0
220
0.0
230
1.0
 70
     8
 71
     3
 72
    10
 73
     6
 74
     0
 42
0.000000001
 43
0.00000001
 40
0.0
 40
0.0
 40
0.0
 40
0.0
 40
0.0519291790602612
 40
0.6330301916750263
 40
1.0
 40
1.0
 40
1.0
 40
1.0
 10
112.255365346437
 20
9.2620905688357
 30
0.0
 10
112.2467007174254
 20
9.270821152146604
 30
0.0
 10
112.1410766374128
 20
9.377249232211646
 30
0.0
 10
111.9534593879353
 20
9.535869652216492
 30
0.0
 10
111.754940675181
 20
9.697890876127362
 30
0.0
 10
111.6781000295675
 20
9.760604437361339
 30
0.0
  0
SPLINE
  5
86
330
1F
100
AcDbEntity
  8
1
 62
     4
420
    65535
100
AcDbSpline
210
0.0
220
0.0
230
1.0
 70
     8
 71
     3
 72
    11
 73
     7
 74
     0
 42
0.000000001
 43
0.00000001
 40
0.0
 40
0.0
 40
0.0
 40
0.0
 40
0.2875030136912117
 40
0.6238872981087763
 40
0.9564473426554458
 40
1.0
 40
1.0
 40
1.0
 40
1.0
 10
112.8259520161012
 20
8.422860365840913
 30
0.0
 10
112.8048803741098
 20
8.484118036439694
 30
0.0
 10
112.7591544889443
 20
8.61704840856914
 30
0.0
 10
112.6564383266984
 20
8.795334428722633
 30
0.0
 10
112.5742154374435
 20
8.916025596504163
 30
0.0
 10
112.5300288744126
 20
8.96704369958153
 30
0.0
 10
112.5249122106327
 20
8.972951434019969
 30
0.0
  0
LINE
  5
87
330
1F
100
AcDbEntity
  8
1
 62
     4
420
    65535
100
AcDbLine
 10
112.8554719752
 20
8.3369583639
 30
0.0
 11
112.8358880535
 21
8.4006953383
 31
0.0
  0
SPLINE
  5
88
330
1F
100
AcDbEntity
  8
1
 62
     4
420
    65535
100
AcDbSpline
210
0.0
220
0.0
230
1.0
 70
     8
 71
     3
 72
    14
 73
    10
 74
     0
 42
0.000000001
 43
0.00000001
 40
0.0
 40
0.0
 40
0.0
 40
0.0
 40
0.110418352650121
 40
0.2821819802334082
 40
0.4522860444151617
 40
0.6217996007730214
 40
0.7916379059169738
 40
0.9535005316495315
 40
0.9999999999999999
 40
0.9999999999999999
 40
0.9999999999999999
 40
0.9999999999999999
 10
112.2200876938272
 20
6.327264223529856
 30
0.0
 10
112.2825596538125
 20
6.380463142264363
 30
0.0
 10
112.4422112058834
 20
6.51641677564582
 30
0.0
 10
112.6517271639475
 20
6.783687259941756
 30
0.0
 10
112.8259087239294
 20
7.125259200466363
 30
0.0
 10
112.9261187661901
 20
7.495374432743172
 30
0.0
 10
112.9476496713201
 20
7.871864884065777
 30
0.0
 10
112.908177966415
 20
8.154077478763229
 30
0.0
 10
112.8650881784206
 20
8.30359176339546
 30
0.0
 10
112.8554719752341
 20
8.336958363864685
 30
0.0
  0
LINE
  5
89
330
1F
100
AcDbEntity
  8
1
 62
     4
420
    65535
100
AcDbLine
 10
111.245196127
 20
12.6856916317
 30
0.0
 11
108.9102425053
 21
11.9812879989
 31
0.0
  0
ARC
  5
8A
330
1F
100
AcDbEntity
  8
1
 62
     4
420
    65535
100
AcDbCircle
 10
111.4650385312
 20
11.9575267594
 30
0.0
 40
0.7606278747968098
100
AcDbArc
 50
70.9019648708
 51
106.7997452794
  0
LINE
  5
8B
330
1F
100
AcDbEntity
  8
1
 62
     4
420
    65535
100
AcDbLine
 10
124.4721104204
 20
8.2647853562
 30
0.0
 11
111.7139049376
 21
12.6762897772
 31
0.0
  0
ARC
  5
8C
330
1F
100
AcDbEntity
  8
1
 62
     4
420
    65535
100
AcDbCircle
 10
124.1989377852
 20
7.5068738017
 30
0.0
 40
0.8056383885730406
100
AcDbArc
 50
287.6429504589
 51
70.1794115283
  0
LINE
  5
8D
330
1F
100
AcDbEntity
  8
1
 62
     4
420
    65535
100
AcDbLine
 10
111.5270086689
 20
2.8426275576
 30
0.0
 11
124.443114167
 21
6.7391296335
 31
0.0
  0
ARC
  5
8E
330
1F
100
AcDbEntity
  8
1
 62
     4
420
    65535
100
AcDbCircle
 10
111.3071662647
 20
3.5707924298
 30
0.0
 40
0.7606278747968687
100
AcDbArc
 50
250.9019648708
 51
286.7997452794
  0
LINE
  5
8F
330
1F
100
AcDbEntity
  8
1
 62
     4
420
    65535
100
AcDbLine
 10
101.7453420668
 20
6.0722436126
 30
0.0
 11
111.0582998583
 21
2.8520294121
 31
0.0
  0
ARC
  5
90
330
1F
100
AcDbEntity
  8
1
 62
     4
420
    65535
100
AcDbCircle
 10
111.3734015344
 20
7.7787481059
 30
0.0
 40
2.165529065942707
100
AcDbArc
 50
235.4476700978
 51
87.94911364719998
  0
LINE
  5
91
330
1F
100
AcDbEntity
  8
1
 62
     4
420
    65535
100
AcDbLine
 10
110.1744291238
 20
12.6848821477
 30
0.0
 11
110.1117590038
 21
12.6659759648
 31
0.0
  0
LINE
  5
92
330
1F
100
AcDbEntity
  8
1
 62
     4
420
    65535
100
AcDbLine
 10
110.1744291238
 20
12.6848821477
 30
0.0
 11
111.245196127
 21
12.6856916317
 31
0.0
  0
ARC
  5
93
330
1F
100
AcDbEntity
  8
1
 62
     4
420
    65535
100
AcDbCircle
 10
111.3376206506
 20
7.7741652449
 30
0.0
 40
1.898857319676194
100
AcDbArc
 50
249.9533196464
 51
71.4142075034
  0
LWPOLYLINE
  5
94
330
1F
100
AcDbEntity
  8
1
 62
     4
420
    65535
100
AcDbPolyline
 90
        3
 70
   128
 43
0.0
 10
110.9325162822
 20
5.9587589721
 10
110.9712784712
 20
5.9727043987
 10
110.9874390734
 20
5.9788125953
  0
ARC
  5
95
330
1F
100
AcDbEntity
  8
1
 62
     4
420
    65535
100
AcDbCircle
 10
110.394342352
 20
11.9564313702
 30
0.0
 40
0.7609220480794398
100
AcDbArc
 50
90.0498274114
 51
106.7986283693
  0
SPLINE
  5
96
330
1F
100
AcDbEntity
  8
1
 62
     4
420
    65535
100
AcDbSpline
210
0.0
220
0.0
230
1.0
 70
     8
 71
     3
 72
    18
 73
    14
 74
     0
 42
0.000000001
 43
0.00000001
 40
0.0
 40
0.0
 40
0.0
 40
0.0
 40
0.0712315802030714
 40
0.1423594750135218
 40
0.2135117540798681
 40
0.2848163795935691
 40
0.3564005190022659
 40
0.4283898790396875
 40
0.5009080779906316
 40
0.6308793147044902
 40
0.7567403014776373
 40
0.8794393010781453
 40
1.0
 40
1.0
 40
1.0
 40
1.0
 10
102.0535619672321
 20
7.720304591423957
 30
0.0
 10
101.999078035143
 20
7.701179851209409
 30
0.0
 10
101.8901894783151
 20
7.662958208941307
 30
0.0
 10
101.7223257575247
 20
7.615127183603925
 30
0.0
 10
101.5519257876629
 20
7.574752292124782
 30
0.0
 10
101.3789238174828
 20
7.542610933384577
 30
0.0
 10
101.2036809956809
 20
7.518550311472262
 30
0.0
 10
101.0263733438919
 20
7.502575108819169
 30
0.0
 10
100.8004472725441
 20
7.492340635373287
 30
0.0
 10
100.5296977309098
 20
7.496867499586367
 30
0.0
 10
100.220055356356
 20
7.528683049314987
 30
0.0
 10
99.92228370983172
 20
7.5828273152897
 30
0.0
 10
99.73314659394588
 20
7.638796299020802
 30
0.0
 10
99.63940931225977
 20
7.666534801689162
 30
0.0
  0
LINE
  5
97
330
1F
100
AcDbEntity
  8
1
 62
     4
420
    65535
100
AcDbLine
 10
99.6394093123
 20
7.6665348017
 30
0.0
 11
98.5908725121
 21
8.0058230043
 31
0.0
  0
SPLINE
  5
98
330
1F
100
AcDbEntity
  8
1
 62
     4
420
    65535
100
AcDbSpline
210
0.0
220
0.0
230
1.0
 70
     8
 71
     3
 72
    18
 73
    14
 74
     0
 42
0.000000001
 43
0.00000001
 40
0.0
 40
0.0
 40
0.0
 40
0.0
 40
0.0688155697224283
 40
0.1381820106563469
 40
0.2082986617636853
 40
0.2793585333565591
 40
0.3515470477383611
 40
0.4250410553685418
 40
0.5000081316395685
 40
0.6263425705143372
 40
0.7513379785888243
 40
0.8756638793690714
 40
0.9999999999999999
 40
0.9999999999999999
 40
0.9999999999999999
 40
0.9999999999999999
 10
98.59087251213133
 20
8.005823004325688
 30
0.0
 10
98.53829664979814
 20
8.023679364476653
 30
0.0
 10
98.43272405338584
 20
8.059535025609978
 30
0.0
 10
98.27841113883335
 20
8.123124024025486
 30
0.0
 10
98.12648071156995
 20
8.19419461834021
 30
0.0
 10
97.97723075744527
 20
8.273657201127072
 30
0.0
 10
97.83054251755928
 20
8.36159287360067
 30
0.0
 10
97.68635538089322
 20
8.458353291728843
 30
0.0
 10
97.51334536131321
 20
8.587773933153782
 30
0.0
 10
97.31749440135212
 20
8.754620927235274
 30
0.0
 10
97.10673929759804
 20
8.966069461220894
 30
0.0
 10
96.91089278026725
 20
9.194043153110304
 30
0.0
 10
96.79233362647918
 20
9.359298022960985
 30
0.0
 10
96.7330516132323
 20
9.441928853821269
 30
0.0
  0
SPLINE
  5
99
330
1F
100
AcDbEntity
  8
1
 62
     4
420
    65535
100
AcDbSpline
210
0.0
220
0.0
230
1.0
 70
     8
 71
     3
 72
    17
 73
    13
 74
     0
 42
0.000000001
 43
0.00000001
 40
0.0
 40
0.0
 40
0.0
 40
0.0
 40
0.0625899441014449
 40
0.1250948221042669
 40
0.1876167292946235
 40
0.2502576776937049
 40
0.3751984025346038
 40
0.5003119891833642
 40
0.625177473086915
 40
0.750219050883606
 40
0.8750708295554595
 40
1.0
 40
1.0
 40
1.0
 40
1.0
 10
96.73305161323225
 20
9.441928853821297
 30
0.0
 10
96.70075782102677
 20
9.485023137966294
 30
0.0
 10
96.63621412716329
 20
9.571153136742007
 30
0.0
 10
96.54595068433821
 20
9.705278821558453
 30
0.0
 10
96.4606573224721
 20
9.84280460776292
 30
0.0
 10
96.35440837205321
 20
10.03071862097769
 30
0.0
 10
96.23546963401454
 20
10.27366822968975
 30
0.0
 10
96.11642700399891
 20
10.57585006574628
 30
0.0
 10
96.0212813841303
 20
10.88696731656804
 30
0.0
 10
95.95163122716022
 20
11.2047690425326
 30
0.0
 10
95.90526809737347
 20
11.52733940059357
 30
0.0
 10
95.89610771901968
 20
11.74418148587171
 30
0.0
 10
95.89152611072352
 20
11.85263612153185
 30
0.0
  0
SPLINE
  5
9A
330
1F
100
AcDbEntity
  8
1
 62
     4
420
    65535
100
AcDbSpline
210
0.0
220
0.0
230
1.0
 70
     8
 71
     3
 72
    18
 73
    14
 74
     0
 42
0.000000001
 43
0.00000001
 40
0.0
 40
0.0
 40
0.0
 40
0.0
 40
0.0720777495946256
 40
0.1436138577784816
 40
0.2147942935815657
 40
0.2858078577210035
 40
0.3568447113293441
 40
0.4280948514145827
 40
0.4997465931334084
 40
0.6249917043151184
 40
0.7494360076736025
 40
0.8741004813051135
 40
1.0
 40
1.0
 40
1.0
 40
1.0
 10
95.89152611072349
 20
11.85263612153184
 30
0.0
 10
95.88906804677976
 20
11.91557213298017
 30
0.0
 10
95.88417039046266
 20
12.04097121172665
 30
0.0
 10
95.88805442841924
 20
12.22866083933746
 30
0.0
 10
95.90056580539114
 20
12.41489954795575
 30
0.0
 10
95.92261196403143
 20
12.59974122462974
 30
0.0
 10
95.9540787555489
 20
12.78318539408749
 30
0.0
 10
95.9950676313415
 20
12.96525671818224
 30
0.0
 10
96.05803805078074
 20
13.19044616689838
 30
0.0
 10
96.15198030226344
 20
13.45473022405515
 30
0.0
 10
96.28912851076795
 20
13.75092054936887
 30
0.0
 10
96.45118205616548
 20
14.03494449050659
 30
0.0
 10
96.578862634685
 20
14.21076306014954
 30
0.0
 10
96.64301759658927
 20
14.29910565514952
 30
0.0
  0
SPLINE
  5
9B
330
1F
100
AcDbEntity
  8
1
 62
     4
420
    65535
100
AcDbSpline
210
0.0
220
0.0
230
1.0
 70
     8
 71
     3
 72
    17
 73
    13
 74
     0
 42
0.000000001
 43
0.00000001
 40
0.0
 40
0.0
 40
0.0
 40
0.0
 40
0.0624591280541247
 40
0.1248489910267627
 40
0.1872722494426186
 40
0.249831399419294
 40
0.3746618992017363
 40
0.4997383966944655
 40
0.6246407801440959
 40
0.749792643730104
 40
0.8748246770709646
 40
1.0
 40
1.0
 40
1.0
 40
1.0
 10
96.6430175965893
 20
14.29910565514951
 30
0.0
 10
96.67469171119026
 20
14.34253736487355
 30
0.0
 10
96.73800481485974
 20
14.42935262000991
 30
0.0
 10
96.83939224515731
 20
14.55443200170456
 30
0.0
 10
96.94534214928045
 20
14.67553874823943
 30
0.0
 10
97.0929555394993
 20
14.83090338675389
 30
0.0
 10
97.2888624247314
 20
15.01362442571198
 30
0.0
 10
97.5404203885899
 20
15.2124129645637
 30
0.0
 10
97.80693685629706
 20
15.39008686754115
 30
0.0
 10
98.08672722494569
 20
15.54446440436794
 30
0.0
 10
98.37739972631353
 20
15.67720450688891
 30
0.0
 10
98.57875713461125
 20
15.74474988484028
 30
0.0
 10
98.67949349577819
 20
15.77854191487279
 30
0.0
  0
SPLINE
  5
9C
330
1F
100
AcDbEntity
  8
1
 62
     4
420
    65535
100
AcDbSpline
210
0.0
220
0.0
230
1.0
 70
     8
 71
     3
 72
    18
 73
    14
 74
     0
 42
0.000000001
 43
0.00000001
 40
0.0
 40
0.0
 40
0.0
 40
0.0
 40
0.0712315802030653
 40
0.1423594750135188
 40
0.2135117540798612
 40
0.2848163795935673
 40
0.3564005190022657
 40
0.4283898790396813
 40
0.5009080779906327
 40
0.6308793147044892
 40
0.7567403014776241
 40
0.8794393010781345
 40
1.0
 40
1.0
 40
1.0
 40
1.0
 10
98.67949349577819
 20
15.77854191487279
 30
0.0
 10
98.73364858497065
 20
15.79766640648699
 30
0.0
 10
98.84187993467218
 20
15.83588755191626
 30
0.0
 10
99.00500725075318
 20
15.88371499660195
 30
0.0
 10
99.16865332024283
 20
15.92408478223263
 30
0.0
 10
99.33311003842432
 20
15.95621968088912
 30
0.0
 10
99.49859675282018
 20
15.98027292732899
 30
0.0
 10
99.66537414164169
 20
15.99624016925951
 30
0.0
 10
99.87756061667251
 20
16.00646425577444
 30
0.0
 10
100.1321665758892
 20
16.00192518725258
 30
0.0
 10
100.4265633404933
 20
15.97009811206902
 30
0.0
 10
100.7140526044005
 20
15.91594607276561
 30
0.0
 10
100.9018627122715
 20
15.85997608583612
 30
0.0
 10
100.9949423222812
 20
15.83223708597773
 30
0.0
  0
LINE
  5
9D
330
1F
100
AcDbEntity
  8
1
 62
     4
420
    65535
100
AcDbLine
 10
100.9949423223
 20
15.832237086
 30
0.0
 11
102.0434791224
 21
15.4929488833
 31
0.0
  0
SPLINE
  5
9E
330
1F
100
AcDbEntity
  8
1
 62
     4
420
    65535
100
AcDbSpline
210
0.0
220
0.0
230
1.0
 70
     8
 71
     3
 72
    18
 73
    14
 74
     0
 42
0.000000001
 43
0.00000001
 40
0.0
 40
0.0
 40
0.0
 40
0.0
 40
0.0688155697224233
 40
0.1381820106563391
 40
0.2082986617636709
 40
0.2793585333565374
 40
0.351547047738329
 40
0.4250410553685027
 40
0.5000081316395217
 40
0.6263425705142963
 40
0.7513379785887939
 40
0.8756638793690503
 40
0.9999999999999999
 40
0.9999999999999999
 40
0.9999999999999999
 40
0.9999999999999999
 10
102.0434791224095
 20
15.49294888334125
 30
0.0
 10
102.096267504524
 20
15.47509268385208
 30
0.0
 10
102.2022668417279
 20
15.43923734532846
 30
0.0
 10
102.359975032919
 20
15.37565091369173
 30
0.0
 10
102.5172017199803
 20
15.30458432327083
 30
0.0
 10
102.6736813740827
 20
15.2251272060299
 30
0.0
 10
102.8292325545256
 20
15.13719823380786
 30
0.0
 10
102.9836086747409
 20
15.04044551840009
 30
0.0
 10
103.170189846031
 20
14.9110351365645
 30
0.0
 10
103.3824920272371
 20
14.74420057936216
 30
0.0
 10
103.6101448790775
 20
14.53276481982338
 30
0.0
 10
103.8191539777535
 20
14.30480107865013
 30
0.0
 10
103.9397189073891
 20
14.13954772513622
 30
0.0
 10
104.0000038497779
 20
14.05691765247548
 30
0.0
  0
SPLINE
  5
9F
330
1F
100
AcDbEntity
  8
1
 62
     4
420
    65535
100
AcDbSpline
210
0.0
220
0.0
230
1.0
 70
     8
 71
     3
 72
    29
 73
    25
 74
     0
 42
0.000000001
 43
0.00000001
 40
0.0
 40
0.0
 40
0.0
 40
0.0
 40
0.0250954355418459
 40
0.0501032127053629
 40
0.0750824085814896
 40
0.1000923028017424
 40
0.1251919574912229
 40
0.156434793861929
 40
0.1877408577276436
 40
0.2502338075583616
 40
0.3127029056331937
 40
0.37515276580421
 40
0.4375891343137422
 40
0.5000185521695791
 40
0.5624479700254149
 40
0.6248843385349475
 40
0.6873341987059645
 40
0.7498032967807976
 40
0.8122962466115137
 40
0.8748162595022431
 40
0.906066260918772
 40
0.9373938049304655
 40
0.9686758280588382
 40
1.0
 40
1.0
 40
1.0
 40
1.0
 10
104.000003849778
 20
14.05691765247545
 30
0.0
 10
104.0387535314048
 20
14.00496845235416
 30
0.0
 10
104.1161175419863
 20
13.90125151071311
 30
0.0
 10
104.2225900226045
 20
13.73875773139706
 30
0.0
 10
104.3216392158127
 20
13.57171929585571
 30
0.0
 10
104.412602969526
 20
13.3996052443844
 30
0.0
 10
104.502296094496
 20
13.20850103841537
 30
0.0
 10
104.5878858007698
 20
12.99744341194415
 30
0.0
 10
104.6919048461255
 20
12.68933215075687
 30
0.0
 10
104.7874516701577
 20
12.29287588829945
 30
0.0
 10
104.8449385612366
 20
11.8067832740589
 30
0.0
 10
104.8445136815538
 20
11.31723695751915
 30
0.0
 10
104.7861603073247
 20
10.83148213802642
 30
0.0
 10
104.6707418975755
 20
10.3566545940833
 30
0.0
 10
104.4999550962793
 20
9.899743895435078
 30
0.0
 10
104.276312551754
 20
9.467471964099154
 30
0.0
 10
104.0031089241133
 20
9.066198696355412
 30
0.0
 10
103.6843519123117
 20
8.701827398055016
 30
0.0
 10
103.3247810263138
 20
8.379716299336017
 30
0.0
 10
102.9954658141443
 20
8.150514696643402
 30
0.0
 10
102.7173184896969
 20
7.99259382348892
 30
0.0
 10
102.5018909730091
 20
7.887594660833634
 30
0.0
 10
102.2807969075799
 20
7.795051340476348
 30
0.0
 10
102.1293409359407
 20
7.745231354662224
 30
0.0
 10
102.0535619672321
 20
7.720304591423946
 30
0.0
  0
ELLIPSE
  5
A0
330
1F
100
AcDbEntity
  8
1
 62
     4
420
    65535
100
AcDbEllipse
 10
96.5594106742
 20
10.5836180182
 30
0.0
 11
0.8205865265883859
 21
0.6549805323422131
 31
0.0
210
0.0
220
0.0
230
1.0
 40
0.9452259571
 41
2.196425907212105
 42
3.700184735802094
  0
LINE
  5
A1
330
1F
100
AcDbEntity
  8
1
 62
     4
420
    65535
100
AcDbLine
 10
95.8915261107
 20
11.8526361215
 30
0.0
 11
95.5770260247
 21
10.8287856945
 31
0.0
  0
LINE
  5
A2
330
1F
100
AcDbEntity
  8
1
 62
     4
420
    65535
100
AcDbLine
 10
96.1916725303
 20
9.6171096734
 30
0.0
 11
96.7330516132
 21
9.4419288538
 31
0.0
  0
ELLIPSE
  5
A3
330
1F
100
AcDbEntity
  8
1
 62
     4
420
    65535
100
AcDbEllipse
 10
96.2219840976
 20
10.5833629287
 30
0.0
 11
-0.5084588032642472
 21
2.449808905014763
 31
0.0
210
0.0
220
0.0
230
1.0
 40
0.9195559864
 41
1.105680673240637
 42
2.609439501830622
  0
ARC
  5
A4
330
1F
100
AcDbEntity
  8
1
 62
     4
420
    65535
100
AcDbCircle
 10
91.0542190053
 20
-2.6077254546
 30
0.0
 40
14.17729223775051
100
AcDbArc
 50
71.3964706572
 51
78.0881733278
  0
ARC
  5
A5
330
1F
100
AcDbEntity
  8
1
 62
     4
420
    65535
100
AcDbCircle
 10
92.7086429028
 20
10.4615228598
 30
0.0
 40
3.583926480123635
100
AcDbArc
 50
321.5941598018
 51
346.3723468808
  0
LINE
  5
A6
330
1F
100
AcDbEntity
  8
1
 62
     4
420
    65535
100
AcDbLine
 10
93.9804994456
 20
11.2642786537
 30
0.0
 11
95.3609911035
 21
15.7584490413
 31
0.0
  0
ARC
  5
A7
330
1F
100
AcDbEntity
  8
1
 62
     4
420
    65535
100
AcDbCircle
 10
92.4347106632
 20
1.8864449331
 30
0.0
 40
14.17729223775097
100
AcDbArc
 50
71.3964706572
 51
78.0881733278
  0
LINE
  5
A8
330
1F
100
AcDbEntity
  8
1
 62
     4
420
    65535
100
AcDbLine
 10
96.9575176826
 20
15.3229560822
 30
0.0
 11
96.6430175966
 21
14.2991056551
 31
0.0
  0
LINE
  5
A9
330
1F
100
AcDbEntity
  8
1
 62
     4
420
    65535
100
AcDbLine
 10
102.0535619672
 20
7.7203045914
 30
0.0
 11
102.6656234547
 21
7.5222521798
 31
0.0
  0
ELLIPSE
  5
AA
330
1F
100
AcDbEntity
  8
1
 62
     4
420
    65535
100
AcDbEllipse
 10
103.1382774716
 20
7.259869153
 30
0.0
 11
0.7679349306902452
 21
1.323512052304743
 31
0.0
210
0.0
220
0.0
230
1.0
 40
0.3532382651000001
 41
1.577501927754976
 42
1.773116966906065
  0
SPLINE
  5
AB
330
1F
100
AcDbEntity
  8
1
 62
     4
420
    65535
100
AcDbSpline
210
0.0
220
0.0
230
1.0
 70
     8
 71
     3
 72
    14
 73
    10
 74
     0
 42
0.000000001
 43
0.00000001
 40
0.0
 40
0.0
 40
0.0
 40
0.0
 40
0.1249999999999983
 40
0.1249999999999983
 40
0.2499999999999967
 40
0.2499999999999967
 40
0.4999999999999978
 40
0.4999999999999978
 40
1.0
 40
1.0
 40
1.0
 40
1.0
 10
101.7609698479206
 20
6.436495975718772
 30
0.0
 10
101.813720583545
 20
6.438476279189365
 30
0.0
 10
101.8588424856533
 20
6.452498513788929
 30
0.0
 10
101.9419114193543
 20
6.490500333177208
 30
0.0
 10
101.9792493183439
 20
6.514654658153428
 30
0.0
 10
102.0849698499955
 20
6.596067878697809
 30
0.0
 10
102.148308042534
 20
6.663459003160965
 30
0.0
 10
102.3265024619345
 20
6.886389503372097
 30
0.0
 10
102.431972076591
 20
7.066711138524695
 30
0.0
 10
102.5259870394151
 20
7.259649441672295
 30
0.0
  0
SPLINE
  5
AC
330
1F
100
AcDbEntity
  8
1
 62
     4
420
    65535
100
AcDbSpline
210
0.0
220
0.0
230
1.0
 70
     8
 71
     3
 72
    38
 73
    34
 74
     0
 42
0.000000001
 43
0.00000001
 40
0.0
 40
0.0
 40
0.0
 40
0.0
 40
0.0002289472365003
 40
0.0002289472365003
 40
0.0002289472365003
 40
0.0003913682947533
 40
0.0003913682947533
 40
0.0003913682947533
 40
0.0005084210263002
 40
0.0005084210263002
 40
0.0005084210263002
 40
0.0005934284256123
 40
0.0005934284256123
 40
0.0005934284256123
 40
0.0006554063448609
 40
0.0006554063448609
 40
0.0006554063448609
 40
0.0007006866047019
 40
0.0007006866047019
 40
0.0007006866047019
 40
0.0007338037319135
 40
0.0007338037319135
 40
0.0007338037319135
 40
0.0007580389890264
 40
0.0007580389890264
 40
0.0007580389890264
 40
0.000775779936862
 40
0.000775779936862
 40
0.000775779936862
 40
0.0008075384711267
 40
0.0008075384711267
 40
0.0008075384711267
 40
0.0008242981310853
 40
0.0008242981310853
 40
0.0008242981310853
 40
0.0008242981310853
 10
101.7609698479206
 20
6.436495975718772
 30
0.0
 10
101.6873557270513
 20
6.433732444607474
 30
0.0
 10
101.6139017137083
 20
6.432558593900685
 30
0.0
 10
101.5407114358484
 20
6.432980889388808
 30
0.0
 10
101.4887810108455
 20
6.433280519132214
 30
0.0
 10
101.4369656765744
 20
6.434383687937649
 30
0.0
 10
101.3853011923461
 20
6.436292977469083
 30
0.0
 10
101.3480654188478
 20
6.437669046031409
 30
0.0
 10
101.3109016317781
 20
6.439464058418343
 30
0.0
 10
101.2738229922996
 20
6.441679080104888
 30
0.0
 10
101.246894405082
 20
6.443287753063601
 30
0.0
 10
101.2200083387094
 20
6.445118095790216
 30
0.0
 10
101.1931697925132
 20
6.447170547882406
 30
0.0
 10
101.1736017755408
 20
6.448666993221936
 30
0.0
 10
101.1540581045091
 20
6.450281577765391
 30
0.0
 10
101.1345407091914
 20
6.452014481435176
 30
0.0
 10
101.1202814237638
 20
6.453280529882914
 30
0.0
 10
101.1060358090982
 20
6.454609764214576
 30
0.0
 10
101.0918046163172
 20
6.456002257427569
 30
0.0
 10
101.0813961398604
 20
6.457020705638247
 30
0.0
 10
101.0709952399907
 20
6.458073005898351
 30
0.0
 10
101.0606022103343
 20
6.45915918759889
 30
0.0
 10
101.052996526449
 20
6.459954062137834
 30
0.0
 10
101.0453950034418
 20
6.460767087158691
 30
0.0
 10
101.0377977563548
 20
6.4615982744227
 30
0.0
 10
101.0322363318966
 20
6.462206729712693
 30
0.0
 10
101.0266771776564
 20
6.462824919908013
 30
0.0
 10
101.0211203387601
 20
6.463452849692647
 30
0.0
 10
101.0111729314361
 20
6.464576919232025
 30
0.0
 10
101.0012328640136
 20
6.465732208648491
 30
0.0
 10
100.9913003953883
 20
6.466918745293073
 30
0.0
 10
100.9860602556235
 20
6.467544734469406
 30
0.0
 10
100.9808222114761
 20
6.468179420273566
 30
0.0
 10
100.9755862940654
 20
6.468822816424825
 30
0.0
  0
LINE
  5
AD
330
1F
100
AcDbEntity
  8
1
 62
     4
420
    65535
100
AcDbLine
 10
100.9755862941
 20
6.4688228164
 30
0.0
 11
95.5171157095
 21
8.2350886009
 31
0.0
  0
ELLIPSE
  5
AE
330
1F
100
AcDbEntity
  8
1
 62
     4
420
    65535
100
AcDbEllipse
 10
97.8992689341
 20
14.9455069735
 30
0.0
 11
-0.368198311402324
 21
0.9992687278906391
 31
0.0
210
0.0
220
0.0
230
1.0
 40
0.9187669496
 41
5.657908413061615
 42
7.161667241651577
  0
LINE
  5
AF
330
1F
100
AcDbEntity
  8
1
 62
     4
420
    65535
100
AcDbLine
 10
98.6794934958
 20
15.7785419149
 30
0.0
 11
98.1381144128
 21
15.9537227345
 31
0.0
  0
ELLIPSE
  5
B0
330
1F
100
AcDbEntity
  8
1
 62
     4
420
    65535
100
AcDbEllipse
 10
97.5618423574
 20
14.945251884
 30
0.0
 11
1.109646770604044
 21
2.250822676252404
 31
0.0
210
0.0
220
0.0
230
1.0
 40
0.9343235493999998
 41
0.1643411206675688
 42
1.668099949257541
  0
ARC
  5
B1
330
1F
100
AcDbEntity
  8
1
 62
     4
420
    65535
100
AcDbCircle
 10
95.7317386656
 20
16.9592408202
 30
0.0
 40
2.608008983415236
100
AcDbArc
 50
337.3221055327
 51
8.2920648075
  0
LINE
  5
B2
330
1F
100
AcDbEntity
  8
1
 62
     4
420
    65535
100
AcDbLine
 10
98.3124829291
 20
17.335365672
 30
0.0
 11
103.7709535137
 21
15.5690998876
 31
0.0
  0
SPLINE
  5
B3
330
1F
100
AcDbEntity
  8
1
 62
     4
420
    65535
100
AcDbSpline
210
0.0
220
0.0
230
1.0
 70
     8
 71
     3
 72
    38
 73
    34
 74
     0
 42
0.000000001
 43
0.00000001
 40
0.0
 40
0.0
 40
0.0
 40
0.0
 40
0.0002289472364999
 40
0.0002289472364999
 40
0.0002289472364999
 40
0.0003913682947526
 40
0.0003913682947526
 40
0.0003913682947526
 40
0.0005084210262994
 40
0.0005084210262994
 40
0.0005084210262994
 40
0.0005934284256113
 40
0.0005934284256113
 40
0.0005934284256113
 40
0.0006554063448599
 40
0.0006554063448599
 40
0.0006554063448599
 40
0.0007006866047008
 40
0.0007006866047008
 40
0.0007006866047008
 40
0.0007338037319124
 40
0.0007338037319124
 40
0.0007338037319124
 40
0.0007580389890253
 40
0.0007580389890253
 40
0.0007580389890253
 40
0.0007757799368608
 40
0.0007757799368608
 40
0.0007757799368608
 40
0.0008075384711255
 40
0.0008075384711255
 40
0.0008075384711255
 40
0.0008242981310841
 40
0.0008242981310841
 40
0.0008242981310841
 40
0.0008242981310841
 10
104.4493431669275
 20
15.18845596947266
 30
0.0
 10
104.3891170799433
 20
15.22927698673033
 30
0.0
 10
104.3280998538724
 20
15.26859091496611
 30
0.0
 10
104.2663780004524
 20
15.30634849836911
 30
0.0
 10
104.222584723889
 20
15.33313849576405
 30
0.0
 10
104.178421866819
 20
15.35915419209795
 30
0.0
 10
104.1339190833837
 20
15.38437829374399
 30
0.0
 10
104.1018449111782
 20
15.40255787977145
 30
0.0
 10
104.0695886923867
 20
15.42032940886168
 30
0.0
 10
104.0371612749722
 20
15.4376864159036
 30
0.0
 10
104.0136106660403
 20
15.45029204773202
 30
0.0
 10
103.9899676718731
 20
15.46268016455856
 30
0.0
 10
103.9662363929914
 20
15.47484827991601
 30
0.0
 10
103.9489338884318
 20
15.48372006775789
 30
0.0
 10
103.931583644343
 20
15.49247532161137
 30
0.0
 10
103.9141872376251
 20
15.50111307262563
 30
0.0
 10
103.9014775330376
 20
15.50742375881912
 30
0.0
 10
103.8887428727619
 20
15.51367188305301
 30
0.0
 10
103.875983868851
 20
15.51985706558624
 30
0.0
 10
103.8666521287881
 20
15.5243808133682
 30
0.0
 10
103.8573072430692
 20
15.52887095224087
 30
0.0
 10
103.8479494504594
 20
15.5333273329949
 30
0.0
 10
103.8411013594977
 20
15.53658854020864
 30
0.0
 10
103.8342463078283
 20
15.53983169174473
 30
0.0
 10
103.8273843888559
 20
15.54305672892367
 30
0.0
 10
103.8223612477672
 20
15.54541755784502
 30
0.0
 10
103.8173344076254
 20
15.54776868879654
 30
0.0
 10
103.8123039050277
 20
15.55011009869773
 30
0.0
 10
103.8032987027322
 20
15.5543015029177
 30
0.0
 10
103.7942816918094
 20
15.5584617892596
 30
0.0
 10
103.785253081947
 20
15.56259082487805
 30
0.0
 10
103.7804897970734
 20
15.56476920817337
 30
0.0
 10
103.7757232674545
 20
15.56693890262457
 30
0.0
 10
103.7709535136604
 20
15.56909988760697
 30
0.0
  0
SPLINE
  5
B4
330
1F
100
AcDbEntity
  8
1
 62
     4
420
    65535
100
AcDbSpline
210
0.0
220
0.0
230
1.0
 70
     8
 71
     3
 72
    16
 73
    12
 74
     0
 42
0.000000001
 43
0.00000001
 40
0.0
 40
0.0
 40
0.0
 40
0.0
 40
0.249999999999998
 40
0.249999999999998
 40
0.499999999999996
 40
0.499999999999996
 40
0.749999999999994
 40
0.749999999999994
 40
0.874999999999997
 40
0.874999999999997
 40
1.0
 40
1.0
 40
1.0
 40
1.0
 10
104.64325520308
 20
14.15238496074116
 30
0.0
 10
104.6578285860107
 20
14.25647831092752
 30
0.0
 10
104.6675192514092
 20
14.35694391766477
 30
0.0
 10
104.6754436917867
 20
14.55135721347379
 30
0.0
 10
104.6736014905499
 20
14.6460492243407
 30
0.0
 10
104.6543892125955
 20
14.82192718375967
 30
0.0
 10
104.6375474633359
 20
14.9044015170227
 30
0.0
 10
104.5916918280417
 20
15.019262886592
 30
0.0
 10
104.5731721402174
 20
15.05564547606968
 30
0.0
 10
104.5235294411163
 20
15.12556610907577
 30
0.0
 10
104.4927683980908
 20
15.15902250966338
 30
0.0
 10
104.4493431669276
 20
15.18845596947265
 30
0.0
  0
ELLIPSE
  5
B5
330
1F
100
AcDbEntity
  8
1
 62
     4
420
    65535
100
AcDbEllipse
 10
105.0847193542
 20
13.596482214
 30
0.0
 11
0.03639089298147269
 21
1.558064465384639
 31
0.0
210
0.0
220
0.0
230
1.0
 40
0.3111969151
 41
1.213244636336207
 42
1.408859675487302
  0
LINE
  5
B6
330
1F
100
AcDbEntity
  8
1
 62
     4
420
    65535
100
AcDbLine
 10
104.6120653372
 20
13.8588652408
 30
0.0
 11
104.0000038498
 21
14.0569176525
 31
0.0
  0
ELLIPSE
  5
B7
330
1F
100
AcDbEntity
  8
1
 62
     4
420
    65535
100
AcDbEllipse
 10
90.1931783664
 20
8.672025355
 30
0.0
 11
2.428474855650435
 21
3.211656992679069
 31
0.0
210
0.0
220
0.0
230
1.0
 40
0.2776906826
 41
4.886597121025759
 42
5.64525773734404
  0
LINE
  5
B8
330
1F
100
AcDbEntity
  8
1
 62
     4
420
    65535
100
AcDbLine
 10
92.6751725995
 20
10.8504454074
 30
0.0
 11
93.9804994456
 21
11.2642786537
 31
0.0
  0
LINE
  5
B9
330
1F
100
AcDbEntity
  8
1
 62
     4
420
    65535
100
AcDbLine
 10
95.5171157095
 20
8.2350886009
 30
0.0
 11
92.9547251482
 21
7.4227231712
 31
0.0
  0
ELLIPSE
  5
BA
330
1F
100
AcDbEntity
  8
1
 62
     4
420
    65535
100
AcDbEllipse
 10
93.8740705081
 20
9.8389940332
 30
0.0
 11
2.051466316471021
 21
1.637451330855519
 31
0.0
210
0.0
220
0.0
230
1.0
 40
0.9452259571
 41
3.318238244043105
 42
3.700184735802103
  0
ELLIPSE
  5
BB
330
1F
100
AcDbEntity
  8
1
 62
     4
420
    65535
100
AcDbEllipse
 10
94.1222843435
 20
9.9176863068
 30
0.0
 11
-2.835628353494598
 21
-0.8989911532594128
 31
0.0
210
0.0
220
0.0
230
1.0
 40
0.8404145593
 41
0.1993635185211122
 42
0.5625152390338123
  0
LINE
  5
BC
330
1F
100
AcDbEntity
  8
1
 62
     4
420
    65535
100
AcDbLine
 10
94.3065841472
 20
14.576557561
 30
0.0
 11
93.7206693603
 21
12.6691205474
 31
0.0
  0
LINE
  5
BD
330
1F
100
AcDbEntity
  8
1
 62
     4
420
    65535
100
AcDbLine
 10
93.8438498082
 20
14.6550569557
 30
0.0
 11
94.3065841472
 21
14.576557561
 31
0.0
  0
LINE
  5
BE
330
1F
100
AcDbEntity
  8
1
 62
     4
420
    65535
100
AcDbLine
 10
94.4266122299
 20
16.5522314903
 30
0.0
 11
93.8438498082
 21
14.6550569557
 31
0.0
  0
LINE
  5
BF
330
1F
100
AcDbEntity
  8
1
 62
     4
420
    65535
100
AcDbLine
 10
95.3609911035
 20
15.7584490413
 30
0.0
 11
94.4266122299
 21
16.5522314903
 31
0.0
  0
LINE
  5
C0
330
1F
100
AcDbEntity
  8
1
 62
     4
420
    65535
100
AcDbLine
 10
93.2579350212
 20
12.7476199421
 30
0.0
 11
92.6751725995
 21
10.8504454074
 31
0.0
  0
LINE
  5
C1
330
1F
100
AcDbEntity
  8
1
 62
     4
420
    65535
100
AcDbLine
 10
93.7206693603
 20
12.6691205474
 30
0.0
 11
93.2579350212
 21
12.7476199421
 31
0.0
  0
ELLIPSE
  5
C2
330
1F
100
AcDbEntity
  8
1
 62
     4
420
    65535
100
AcDbEllipse
 10
93.2463035135
 20
18.6114295868
 30
0.0
 11
-0.2060249478476664
 21
3.196565845971307
 31
0.0
210
0.0
220
0.0
230
1.0
 40
0.4371137844999999
 41
3.984592825309749
 42
4.719643799895155
  0
ELLIPSE
  5
C3
330
1F
100
AcDbEntity
  8
1
 62
     4
420
    65535
100
AcDbEllipse
 10
95.8811591924
 20
16.3730418699
 30
0.0
 11
-0.9204957785058241
 21
2.498171819726597
 31
0.0
210
0.0
220
0.0
230
1.0
 40
0.9187669496000002
 41
5.657908413061607
 42
6.426616267066127
  0
LINE
  5
C4
330
1F
100
AcDbEntity
  8
1
 62
     4
420
    65535
100
AcDbLine
 10
96.4782728892
 20
18.8935812724
 30
0.0
 11
98.3124829291
 21
17.335365672
 31
0.0
  0
LINE
  5
C5
330
1F
100
AcDbEntity
  8
1
 62
     4
420
    65535
100
AcDbLine
 10
96.7986073482
 20
6.4980522198
 30
0.0
 11
100.9755862941
 21
6.4688228164
 31
0.0
  0
LINE
  5
C6
330
1F
100
AcDbEntity
  8
1
 62
     4
420
    65535
100
AcDbLine
 10
95.0275278295
 20
7.0711426317
 30
0.0
 11
96.7986073482
 21
6.4980522198
 31
0.0
  0
ELLIPSE
  5
C7
330
1F
100
AcDbEntity
  8
1
 62
     4
420
    65535
100
AcDbEllipse
 10
94.5875271448
 20
6.7003512948
 30
0.0
 11
1.413192085391856
 21
-0.3364099507133922
 31
0.0
210
0.0
220
0.0
230
1.0
 40
0.3276696231
 41
1.333016600572805
 42
2.516076412791704
  0
LINE
  5
C8
330
1F
100
AcDbEntity
  8
1
 62
     4
420
    65535
100
AcDbLine
 10
93.5064496774
 20
7.2441947458
 30
0.0
 11
92.9547251482
 21
7.4227231712
 31
0.0
  0
LINE
  5
C9
330
1F
100
AcDbEntity
  8
1
 62
     4
420
    65535
100
AcDbLine
 10
105.7542516892
 20
10.1415555426
 30
0.0
 11
104.6120653372
 21
13.8588652408
 31
0.0
  0
SPLINE
  5
CA
330
1F
100
AcDbEntity
  8
1
 62
     4
420
    65535
100
AcDbSpline
210
0.0
220
0.0
230
1.0
 70
     8
 71
     3
 72
    11
 73
     7
 74
     0
 42
0.000000001
 43
0.00000001
 40
0.0
 40
0.0
 40
0.0
 40
0.0
 40
0.0000489886699245
 40
0.0000489886699245
 40
0.0000489886699245
 40
0.0001016450381113
 40
0.0001016450381113
 40
0.0001016450381113
 40
0.0001016450381113
 10
105.7573748389904
 20
10.04100151888844
 30
0.0
 10
105.7618112514794
 20
10.05668329207517
 30
0.0
 10
105.7637051249707
 20
10.07330187961882
 30
0.0
 10
105.7632035921405
 20
10.08962334185822
 30
0.0
 10
105.7626636720266
 20
10.10719404754459
 30
0.0
 10
105.7594031634374
 20
10.12478977999813
 30
0.0
 10
105.7542516891639
 20
10.14155554264732
 30
0.0
  0
ELLIPSE
  5
CB
330
1F
100
AcDbEntity
  8
1
 62
     4
420
    65535
100
AcDbEllipse
 10
100.1833269118
 20
11.80870384
 30
0.0
 11
5.554972897267703
 21
-1.830036469761882
 31
0.0
210
0.0
220
0.0
230
1.0
 40
0.5116809561
 41
6.282098609438569
 42
6.304964648539783
  0
SPLINE
  5
CC
330
1F
100
AcDbEntity
  8
1
 62
     4
420
    65535
100
AcDbSpline
210
0.0
220
0.0
230
1.0
 70
     8
 71
     3
 72
     8
 73
     4
 74
     0
 42
0.000000001
 43
0.00000001
 40
0.0
 40
0.0
 40
0.0
 40
0.0
 40
1.0
 40
1.0
 40
1.0
 40
1.0
 10
105.6785304655605
 20
9.895046207443777
 30
0.0
 10
105.7049935099077
 20
9.915886994549284
 30
0.0
 10
105.7264845579139
 20
9.943046529369786
 30
0.0
 10
105.7372789511592
 20
9.975579650164345
 30
0.0
  0
LINE
  5
CD
330
1F
100
AcDbEntity
  8
1
 62
     4
420
    65535
100
AcDbLine
 10
102.6656234547
 20
7.5222521798
 30
0.0
 11
105.6785304656
 21
9.8950462074
 31
0.0
  0
ARC
  5
CE
330
1F
100
AcDbEntity
  8
1
 62
     4
420
    65535
100
AcDbCircle
 10
111.2972090421
 20
18.6171913728
 30
0.0
 40
14.35019491636029
100
AcDbArc
 50
232.321747105
 51
234.1203425643
  0
SPLINE
  5
CF
330
1F
100
AcDbEntity
  8
1
 62
     4
420
    65535
100
AcDbSpline
210
0.0
220
0.0
230
1.0
 70
     8
 71
     3
 72
    12
 73
     8
 74
     0
 42
0.000000001
 43
0.00000001
 40
0.0
 40
0.0
 40
0.0
 40
0.0
 40
0.5000000000000114
 40
0.5000000000000114
 40
0.7500000000000057
 40
0.7500000000000057
 40
1.0
 40
1.0
 40
1.0
 40
1.0
 10
102.8867790901911
 20
6.989949130474712
 30
0.0
 10
102.7489486879545
 20
6.769339393820426
 30
0.0
 10
102.5779629410902
 20
6.58328096081981
 30
0.0
 10
102.2846956595741
 20
6.393032437109714
 30
0.0
 10
102.1801784663973
 20
6.344306148346386
 30
0.0
 10
101.9593222848393
 20
6.284625226485598
 30
0.0
 10
101.8429053916762
 20
6.273771586478754
 30
0.0
 10
101.7198028018262
 20
6.284027801480969
 30
0.0
  0
ARC
  5
D0
330
1F
100
AcDbEntity
  8
1
 62
     4
420
    65535
100
AcDbCircle
 10
99.9512449406
 20
6.8433375613
 30
0.0
 40
1.85489199575157
100
AcDbArc
 50
342.4503430348
 51
347.3300590603
  0
ARC
  5
D1
330
1F
100
AcDbEntity
  8
1
 62
     4
420
    65535
100
AcDbCircle
 10
99.448992202
 20
5.0787372494
 30
0.0
 40
4.039490293464215
100
AcDbArc
 50
29.4885445977
 51
37.22213171319999
  0
ELLIPSE
  5
D2
330
1F
100
AcDbEntity
  8
1
 62
     4
420
    65535
100
AcDbEllipse
 10
103.6627882831
 20
6.8049615055
 30
0.0
 11
0.8421548068430695
 21
-0.0127338278097211
 31
0.0
210
0.0
220
0.0
230
1.0
 40
0.5398136826
 41
2.555078083015611
 42
2.750693122166695
  0
ARC
  5
D3
330
1F
100
AcDbEntity
  8
1
 62
     4
420
    65535
100
AcDbCircle
 10
102.4618992128
 20
7.451531277
 30
0.0
 40
4.039490293534543
100
AcDbArc
 50
29.4885445978
 51
37.22213171319999
  0
LINE
  5
D4
330
1F
100
AcDbEntity
  8
1
 62
     4
420
    65535
100
AcDbLine
 10
105.9780902259
 20
9.4399685002
 30
0.0
 11
102.965183215
 21
7.0671744726
 31
0.0
  0
LINE
  5
D5
330
1F
100
AcDbEntity
  8
1
 62
     4
420
    65535
100
AcDbLine
 10
100.1805823247
 20
17.5080222582
 30
0.0
 11
98.409502806
 21
18.0811126701
 31
0.0
  0
LINE
  5
D6
330
1F
100
AcDbEntity
  8
1
 62
     4
420
    65535
100
AcDbLine
 10
103.7709535137
 20
15.5690998876
 30
0.0
 11
100.1805823247
 21
17.5080222582
 31
0.0
  0
LINE
  5
D7
330
1F
100
AcDbEntity
  8
1
 62
     4
420
    65535
100
AcDbLine
 10
97.0299974184
 20
18.715052847
 30
0.0
 11
96.4782728892
 21
18.8935812724
 31
0.0
  0
ELLIPSE
  5
D8
330
1F
100
AcDbEntity
  8
1
 62
     4
420
    65535
100
AcDbEllipse
 10
98.1971454426
 20
18.4514108339
 30
0.0
 11
1.36057528435839
 21
-0.5084763303562205
 31
0.0
210
0.0
220
0.0
230
1.0
 40
0.1926198269
 41
3.757503417471927
 42
4.940563229690735
  0
ARC
  5
D9
330
1F
100
AcDbEntity
  8
1
 62
     4
420
    65535
100
AcDbCircle
 10
102.5648048808
 20
7.038410526
 30
0.0
 40
0.9835052565809115
100
AcDbArc
 50
280.0978137826
 51
351.1866298162001
  0
ELLIPSE
  5
DA
330
1F
100
AcDbEntity
  8
1
 62
     4
420
    65535
100
AcDbEllipse
 10
104.3270338667
 20
11.0591207054
 30
0.0
 11
2.881482826940328
 21
4.629314670465186
 31
0.0
210
0.0
220
0.0
230
1.0
 40
0.6456273729
 41
3.229724426244641
 42
3.515740186476786
  0
ELLIPSE
  5
DB
330
1F
100
AcDbEntity
  8
1
 62
     4
420
    65535
100
AcDbEllipse
 10
105.1138000839
 20
10.3767592341
 30
0.0
 11
2.827490312817942
 21
3.036481378008074
 31
0.0
210
0.0
220
0.0
230
1.0
 40
0.6078671433
 41
3.413842640374159
 42
3.648081687691211
  0
ELLIPSE
  5
DC
330
1F
100
AcDbEntity
  8
1
 62
     4
420
    65535
100
AcDbEllipse
 10
-362.8132212175
 20
185.6808751591
 30
0.0
 11
494.0622990110883
 21
-186.6790361862164
 31
0.0
210
0.0
220
0.0
230
1.0
 40
0.0049625411
 41
0.2843709981367186
 42
0.3231014149667114
  0
LINE
  5
DD
330
1F
100
AcDbEntity
  8
1
 62
     4
420
    65535
100
AcDbLine
 10
111.1891302165
 20
6.8110135469
 30
0.0
 11
111.6666072547
 21
7.1870472779
 31
0.0
  0
LINE
  5
DE
330
1F
100
AcDbEntity
  8
1
 62
     4
420
    65535
100
AcDbLine
 10
103.5366975512
 20
6.887721353
 30
0.0
 11
111.1891302165
 21
6.8110135469
 31
0.0
  0
ARC
  5
DF
330
1F
100
AcDbEntity
  8
1
 62
     4
420
    65535
100
AcDbCircle
 10
103.4910818297
 20
15.5937995979
 30
0.0
 40
1.040465399505883
100
AcDbArc
 50
337.0716844288
 51
343.1233619252
  0
SPLINE
  5
E0
330
1F
100
AcDbEntity
  8
1
 62
     4
420
    65535
100
AcDbSpline
210
0.0
220
0.0
230
1.0
 70
     8
 71
     3
 72
    14
 73
    10
 74
     0
 42
0.000000001
 43
0.00000001
 40
0.0
 40
0.0
 40
0.0
 40
0.0
 40
0.25
 40
0.25
 40
0.5
 40
0.5
 40
0.75
 40
0.75
 40
1.0
 40
1.0
 40
1.0
 40
1.0
 10
104.4867365029916
 20
15.29173996950873
 30
0.0
 10
104.5963370912423
 20
15.23730305736825
 30
0.0
 10
104.689863547872
 20
15.17072132402911
 30
0.0
 10
104.8442131092424
 20
15.01485136742646
 30
0.0
 10
104.9062119390917
 20
14.92462718409367
 30
0.0
 10
105.001388166717
 20
14.72740493585971
 30
0.0
 10
105.0358607182599
 20
14.61759316026709
 30
0.0
 10
105.0783060973959
 20
14.38666424230914
 30
0.0
 10
105.0867047301747
 20
14.26594492032391
 30
0.0
 10
105.0829231302069
 20
14.13946391059848
 30
0.0
  0
ARC
  5
E1
330
1F
100
AcDbEntity
  8
1
 62
     4
420
    65535
100
AcDbCircle
 10
104.7587923736
 20
10.5969903857
 30
0.0
 40
3.557271345055429
100
AcDbArc
 50
84.77208315660002
 51
91.8612458882
  0
ARC
  5
E2
330
1F
100
AcDbEntity
  8
1
 62
     4
420
    65535
100
AcDbCircle
 10
101.7686795888
 20
22.7653036702
 30
0.0
 40
9.349304145764657
100
AcDbArc
 50
287.7057137107
 51
290.9029750814
  0
LINE
  5
E3
330
1F
100
AcDbEntity
  8
1
 62
     4
420
    65535
100
AcDbLine
 10
105.1043851614
 20
14.0313151
 30
0.0
 11
106.2465715133
 21
10.3140054019
 31
0.0
  0
ARC
  5
E4
330
1F
100
AcDbEntity
  8
1
 62
     4
420
    65535
100
AcDbCircle
 10
102.9108659408
 20
19.0479939719
 30
0.0
 40
9.349304145659492
100
AcDbArc
 50
287.7057137106
 51
290.9029750814
  0
ELLIPSE
  5
E5
330
1F
100
AcDbEntity
  8
1
 62
     4
420
    65535
100
AcDbEllipse
 10
105.8019902294
 20
13.7691021329
 30
0.0
 11
0.6704239075609452
 21
-0.5532065141910999
 31
0.0
210
0.0
220
0.0
230
1.0
 40
0.4754423037
 41
3.570837778414108
 42
3.76645281756519
  0
ELLIPSE
  5
E6
330
1F
100
AcDbEntity
  8
1
 62
     4
420
    65535
100
AcDbEllipse
 10
94.4744641475
 20
14.5184578212
 30
0.0
 11
0.2101366304479768
 21
0.1295204143992983
 31
0.0
210
0.0
220
0.0
230
1.0
 40
0.6259051592
 41
2.043687349628141
 42
2.522163074574193
  0
ELLIPSE
  5
E7
330
1F
100
AcDbEntity
  8
1
 62
     4
420
    65535
100
AcDbEllipse
 10
93.8885493606
 20
12.6110208076
 30
0.0
 11
-0.1243100113875499
 21
0.2016831635775614
 31
0.0
210
0.0
220
0.0
230
1.0
 40
0.5828380561
 41
0.4728910228332262
 42
0.9513667477792677
  0
SPLINE
  5
E8
330
1F
100
AcDbEntity
  8
1
 62
     4
420
    65535
100
AcDbSpline
210
0.0
220
0.0
230
1.0
 70
     8
 71
     3
 72
     8
 73
     4
 74
     0
 42
0.000000001
 43
0.00000001
 40
0.0
 40
0.0
 40
0.0
 40
0.0
 40
1.0
 40
1.0
 40
1.0
 40
1.0
 10
101.7198028018264
 20
6.284027801481076
 30
0.0
 10
101.4701325301843
 20
6.3368873309476
 30
0.0
 10
101.2217776960204
 20
6.39850473388041
 30
0.0
 10
100.9755862940654
 20
6.468822816424825
 30
0.0
  0
ARC
  5
E9
330
1F
100
AcDbEntity
  8
1
 62
     4
420
    65535
100
AcDbCircle
 10
94.0297080705
 20
14.5882625697
 30
0.0
 40
0.197496287791551
100
AcDbArc
 50
160.232401884
 51
247.1884024991
  0
ELLIPSE
  5
EA
330
1F
100
AcDbEntity
  8
1
 62
     4
420
    65535
100
AcDbEllipse
 10
105.0557047054
 20
10.1876305798
 30
0.0
 11
-0.8996977677450675
 21
4.05388180896947
 31
0.0
210
0.0
220
0.0
230
1.0
 40
0.5692446476
 41
5.66620831889228
 42
5.900447366209333
  0
ELLIPSE
  5
EB
330
1F
100
AcDbEntity
  8
1
 62
     4
420
    65535
100
AcDbEllipse
 10
103.9797983926
 20
9.9287007015
 30
0.0
 11
-0.2674691664815185
 21
5.469263335241668
 31
0.0
210
0.0
220
0.0
230
1.0
 40
0.6160206574
 41
5.915278769910635
 42
5.926485866521951
  0
ARC
  5
EC
330
1F
100
AcDbEntity
  8
1
 62
     4
420
    65535
100
AcDbCircle
 10
102.6497801633
 20
1.0637906395
 30
0.0
 40
9.431470306195301
100
AcDbArc
 50
68.0894978196
 51
70.8913022123
  0
SPLINE
  5
ED
330
1F
100
AcDbEntity
  8
1
 62
     4
420
    65535
100
AcDbSpline
210
0.0
220
0.0
230
1.0
 70
     8
 71
     3
 72
     8
 73
     4
 74
     0
 42
0.000000001
 43
0.00000001
 40
0.0
 40
0.0
 40
0.0
 40
0.0
 40
1.0
 40
1.0
 40
1.0
 40
1.0
 10
106.1692073119943
 20
9.814005761465348
 30
0.0
 10
106.1254585103817
 20
9.680156991162413
 30
0.0
 10
106.0606935317749
 20
9.553803118608462
 30
0.0
 10
105.9780902259186
 20
9.439968500248682
 30
0.0
  0
SPLINE
  5
EE
330
1F
100
AcDbEntity
  8
1
 62
     4
420
    65535
100
AcDbSpline
210
0.0
220
0.0
230
1.0
 70
     8
 71
     3
 72
     8
 73
     4
 74
     0
 42
0.000000001
 43
0.00000001
 40
0.0
 40
0.0
 40
0.0
 40
0.0
 40
1.0
 40
1.0
 40
1.0
 40
1.0
 10
106.2465715132846
 20
10.31400540185166
 30
0.0
 10
106.2518498752837
 20
10.17618552823978
 30
0.0
 10
106.234921543039
 20
10.03650787387901
 30
0.0
 10
106.1960018291052
 20
9.901234919762492
 30
0.0
  0
ARC
  5
EF
330
1F
100
AcDbEntity
  8
1
 62
     4
420
    65535
100
AcDbCircle
 10
102.686005499
 20
-0.3559722042
 30
0.0
 40
10.84114256990851
100
AcDbArc
 50
71.1091532098
 51
73.5423359575
  0
ELLIPSE
  5
F0
330
1F
100
AcDbEntity
  8
1
 62
     4
420
    65535
100
AcDbEllipse
 10
99.9583758607
 20
11.8085337803
 30
0.0
 11
6.217991551715912
 21
-1.972323619007352
 31
0.0
210
0.0
220
0.0
230
1.0
 40
0.6117593265
 41
6.2773391631816
 42
6.300205202282812
  0
LINE
  5
F1
330
1F
100
AcDbEntity
  8
1
 62
     4
420
    65535
100
AcDbLine
 10
111.8153157587
 20
8.8495514149
 30
0.0
 11
105.6570254384
 21
13.7904177572
 31
0.0
  0
LINE
  5
F2
330
1F
100
AcDbEntity
  8
1
 62
     4
420
    65535
100
AcDbLine
 10
111.8153157587
 20
8.8495514149
 30
0.0
 11
111.9963262427
 21
8.2604426179
 31
0.0
  0
ELLIPSE
  5
F3
330
1F
100
AcDbEntity
  8
1
 62
     4
420
    65535
100
AcDbEllipse
 10
-362.5626331346
 20
186.4966609954
 30
0.0
 11
494.581099739331
 21
-184.9901066351908
 31
0.0
210
0.0
220
0.0
230
1.0
 40
0.0046568411
 41
5.960677399962062
 42
5.999407816792007
  0
LINE
  5
F4
330
1F
100
AcDbEntity
  8
1
 62
     4
420
    65535
100
AcDbLine
 10
102.7372420318
 20
6.0701398931
 30
0.0
 11
99.2688744553
 21
6.0944106199
 31
0.0
  0
ELLIPSE
  5
F5
330
1F
100
AcDbEntity
  8
1
 62
     4
420
    65535
100
AcDbEllipse
 10
99.3111721294
 20
11.0942203906
 30
0.0
 11
6.456986208669008
 21
-0.06328271280125541
 31
0.0
210
0.0
220
0.0
230
1.0
 40
0.7743158508
 41
4.320309941372279
 42
4.713427097578332
  0
LINE
  5
F6
330
1F
100
AcDbEntity
  8
1
 62
     4
420
    65535
100
AcDbLine
 10
110.3896746971
 20
5.993432087
 30
0.0
 11
102.7372420318
 21
6.0701398931
 31
0.0
  0
ARC
  5
F7
330
1F
100
AcDbEntity
  8
1
 62
     4
420
    65535
100
AcDbCircle
 10
110.217237546
 20
6.9617027199
 30
0.0
 40
0.9835052565809566
100
AcDbArc
 50
280.0978137826
 51
351.1866298162001
  0
LINE
  5
F8
330
1F
100
AcDbEntity
  8
1
 62
     4
420
    65535
100
AcDbLine
 10
93.9531383298
 20
14.4062135145
 30
0.0
 11
93.4529215384
 21
14.405835358
 31
0.0
  0
LINE
  5
F9
330
1F
100
AcDbEntity
  8
1
 62
     4
420
    65535
100
AcDbLine
 10
94.1603326453
 20
14.1769294742
 30
0.0
 11
93.4529215384
 21
14.405835358
 31
0.0
  0
ARC
  5
FA
330
1F
100
AcDbEntity
  8
1
 62
     4
420
    65535
100
AcDbCircle
 10
110.0211243727
 20
8.1611013404
 30
0.0
 40
1.912170293536444
100
AcDbArc
 50
329.376318684
 51
340.4423357863
  0
ELLIPSE
  5
FB
330
1F
100
AcDbEntity
  8
1
 62
     4
420
    65535
100
AcDbEllipse
 10
-363.4950852724
 20
186.2722551009
 30
0.0
 11
494.7486783919996
 21
-187.2693874959392
 31
0.0
210
0.0
220
0.0
230
1.0
 40
0.0073408032
 41
0.2839805663416829
 42
0.3225889157038953
  0
ARC
  5
FC
330
1F
100
AcDbEntity
  8
1
 62
     4
420
    65535
100
AcDbCircle
 10
110.1917804449
 20
8.360186411
 30
0.0
 40
1.807300296233084
100
AcDbArc
 50
345.3349398098
 51
356.8362736886
  0
ELLIPSE
  5
FD
330
1F
100
AcDbEntity
  8
1
 62
     4
420
    65535
100
AcDbEllipse
 10
-363.4950852724
 20
186.2722551009
 30
0.0
 11
495.5161113569864
 21
-184.7710701928551
 31
0.0
210
0.0
220
0.0
230
1.0
 40
0.0068907134
 41
5.961471808751805
 42
6.000080158114004
  0
SPLINE
  5
FE
330
1F
100
AcDbEntity
  8
1
 62
     4
420
    65535
100
AcDbSpline
210
0.0
220
0.0
230
1.0
 70
     8
 71
     3
 72
    10
 73
     6
 74
     0
 42
0.000000001
 43
0.00000001
 40
0.0
 40
0.0
 40
0.0
 40
0.0
 40
0.4999999999999984
 40
0.4999999999999984
 40
1.0
 40
1.0
 40
1.0
 40
1.0
 10
112.2247122610172
 20
7.624271591201077
 30
0.0
 10
112.1865724089534
 20
7.684569879203076
 30
0.0
 10
112.145387738228
 20
7.741455748419185
 30
0.0
 10
112.0519198113698
 20
7.840236292969495
 30
0.0
 10
111.9998869505997
 20
7.881976585585812
 30
0.0
 10
111.9402030872208
 20
7.902635731305122
 30
0.0
  0
SPLINE
  5
FF
330
1F
100
AcDbEntity
  8
1
 62
     4
420
    65535
100
AcDbSpline
210
0.0
220
0.0
230
1.0
 70
     8
 71
     3
 72
    29
 73
    25
 74
     0
 42
0.000000001
 43
0.00000001
 40
0.0
 40
0.0
 40
0.0
 40
0.0
 40
0.0000156253751563
 40
0.0000156253751563
 40
0.0000156253751563
 40
0.0000278922373085
 40
0.0000278922373085
 40
0.0000278922373085
 40
0.0000392567339813
 40
0.0000392567339813
 40
0.0000392567339813
 40
0.0000510785579912
 40
0.0000510785579912
 40
0.0000510785579912
 40
0.0000617161729061
 40
0.0000617161729061
 40
0.0000617161729061
 40
0.0000722381387467
 40
0.0000722381387467
 40
0.0000722381387467
 40
0.0000864190862181
 40
0.0000864190862181
 40
0.0000864190862181
 40
0.000091021705367
 40
0.000091021705367
 40
0.000091021705367
 40
0.000091021705367
 10
112.2020510610703
 20
7.550498386436948
 30
0.0
 10
112.2059448637541
 20
7.551856442143267
 30
0.0
 10
112.2097970302471
 20
7.554265191124029
 30
0.0
 10
112.2132143151203
 20
7.557387187192641
 30
0.0
 10
112.2159189418698
 20
7.559858106180107
 30
0.0
 10
112.2184217739848
 20
7.562824345485896
 30
0.0
 10
112.2205987992076
 20
7.566089075535462
 30
0.0
 10
112.2226196069213
 20
7.56911953728602
 30
0.0
 10
112.2243943951794
 20
7.572454981861004
 30
0.0
 10
112.2258566889702
 20
7.575941290081637
 30
0.0
 10
112.2273772803241
 20
7.579566587659267
 30
0.0
 10
112.228583392225
 20
7.583410495920561
 30
0.0
 10
112.2294212957877
 20
7.587300110939555
 30
0.0
 10
112.23017623708
 20
7.590804608497152
 30
0.0
 10
112.2306426893797
 20
7.594392732164426
 30
0.0
 10
112.2307929346903
 20
7.597928961087454
 30
0.0
 10
112.2309415027734
 20
7.601425714168959
 30
0.0
 10
112.2307821008855
 20
7.604917970542858
 30
0.0
 10
112.2303033789312
 20
7.608258096561149
 30
0.0
 10
112.2296627607685
 20
7.612727800474413
 30
0.0
 10
112.2284242030357
 20
7.617027965219193
 30
0.0
 10
112.226644653242
 20
7.620760461861908
 30
0.0
 10
112.2260593051369
 20
7.621988193642503
 30
0.0
 10
112.2254133565989
 20
7.623163174125089
 30
0.0
 10
112.2247122610172
 20
7.62427159120108
 30
0.0
  0
SPLINE
  5
100
330
1F
100
AcDbEntity
  8
1
 62
     4
420
    65535
100
AcDbSpline
210
0.0
220
0.0
230
1.0
 70
     8
 71
     3
 72
    10
 73
     6
 74
     0
 42
0.000000001
 43
0.00000001
 40
0.0
 40
0.0
 40
0.0
 40
0.0
 40
0.5
 40
0.5
 40
1.0
 40
1.0
 40
1.0
 40
1.0
 10
111.8229721166016
 20
7.520992022213972
 30
0.0
 10
111.8818029855053
 20
7.497015793914812
 30
0.0
 10
111.9451928058478
 20
7.495204619993211
 30
0.0
 10
112.0743560883163
 20
7.510794375901421
 30
0.0
 10
112.1385224547601
 20
7.528341283645777
 30
0.0
 10
112.2020510610703
 20
7.550498386436948
 30
0.0
  0
SPLINE
  5
101
330
1F
100
AcDbEntity
  8
1
 62
     4
420
    65535
100
AcDbSpline
210
0.0
220
0.0
230
1.0
 70
     8
 71
     3
 72
     8
 73
     4
 74
     0
 42
0.000000001
 43
0.00000001
 40
0.0
 40
0.0
 40
0.0
 40
0.0
 40
1.0
 40
1.0
 40
1.0
 40
1.0
 10
104.4867365029951
 20
15.2917399695081
 30
0.0
 10
104.2518564268615
 20
15.39274876399265
 30
0.0
 10
104.0129993666206
 20
15.48528603097753
 30
0.0
 10
103.7709535136604
 20
15.56909988760697
 30
0.0
  0
ELLIPSE
  5
102
330
1F
100
AcDbEntity
  8
1
 62
     4
420
    65535
100
AcDbEllipse
 10
90.0073211104
 20
8.7321655183
 30
0.0
 11
2.600871787338677
 21
3.012804653398176
 31
0.0
210
0.0
220
0.0
230
1.0
 40
0.2858573921
 41
4.959013120028905
 42
5.706563157593652
  0
ARC
  5
103
330
1F
100
AcDbEntity
  8
1
 62
     4
420
    65535
100
AcDbCircle
 10
92.6527729316
 20
10.7333069598
 30
0.0
 40
0.1192608948473522
100
AcDbArc
 50
79.1743684399
 51
87.87488038930002
  0
SPLINE
  5
104
330
1F
100
AcDbEntity
  8
1
 62
     4
420
    65535
100
AcDbSpline
210
0.0
220
0.0
230
1.0
 70
     8
 71
     3
 72
     8
 73
     4
 74
     0
 42
0.000000001
 43
0.00000001
 40
0.0
 40
0.0
 40
0.0
 40
0.0
 40
1.0
 40
1.0
 40
1.0
 40
1.0
 10
91.49245014055523
 20
8.564538738882154
 30
0.0
 10
91.45969872942143
 20
8.618813040884032
 30
0.0
 10
91.45799671531645
 20
8.686586888071538
 30
0.0
 10
91.47744960739587
 20
8.746704136639854
 30
0.0
  0
LINE
  5
105
330
1F
100
AcDbEntity
  8
1
 62
     4
420
    65535
100
AcDbLine
 10
92.6571953439
 20
10.8524858308
 30
0.0
 11
93.2399577656
 21
12.7496603655
 31
0.0
  0
ARC
  5
106
330
1F
100
AcDbEntity
  8
1
 62
     4
420
    65535
100
AcDbCircle
 10
93.2355353533
 20
12.6304814945
 30
0.0
 40
0.1192608948447932
100
AcDbArc
 50
79.1743684398
 51
87.8748803894
  0
LINE
  5
107
330
1F
100
AcDbEntity
  8
1
 62
     4
420
    65535
100
AcDbLine
 10
92.7397409742
 20
12.7492822091
 30
0.0
 11
92.1243514397
 21
10.7458905864
 31
0.0
  0
LINE
  5
108
330
1F
100
AcDbEntity
  8
1
 62
     4
420
    65535
100
AcDbLine
 10
93.2399577656
 20
12.7496603655
 30
0.0
 11
92.7397409742
 21
12.7492822091
 31
0.0
  0
LINE
  5
109
330
1F
100
AcDbEntity
  8
1
 62
     4
420
    65535
100
AcDbLine
 10
91.4774496074
 20
8.7467041366
 30
0.0
 11
92.1243514397
 21
10.7458905864
 31
0.0
  0
ELLIPSE
  5
10A
330
1F
100
AcDbEntity
  8
1
 62
     4
420
    65535
100
AcDbEllipse
 10
99.6683556722
 20
12.2570261866
 30
0.0
 11
5.176371877215246
 21
-3.966695323602789
 31
0.0
210
0.0
220
0.0
230
1.0
 40
0.7597828662000001
 41
1.77840444062095
 42
2.01242472426095
  0
ARC
  5
10B
330
1F
100
AcDbEntity
  8
1
 62
     4
420
    65535
100
AcDbCircle
 10
92.9273137406
 20
12.6934430671
 30
0.0
 40
0.1957078243056907
100
AcDbArc
 50
90.5465089645
 51
163.4220880438
  0
ARC
  5
10C
330
1F
100
AcDbEntity
  8
1
 62
     4
420
    65535
100
AcDbCircle
 10
93.8214501402
 20
14.537918508
 30
0.0
 40
0.1192608948424044
100
AcDbArc
 50
79.1743684397
 51
87.8748803895
  0
ARC
  5
10D
330
1F
100
AcDbEntity
  8
1
 62
     4
420
    65535
100
AcDbCircle
 10
94.0175030447
 20
14.59658475
 30
0.0
 40
0.2009577662366876
100
AcDbArc
 50
162.4750469215
 51
251.3195507191
  0
LINE
  5
10E
330
1F
100
AcDbEntity
  8
1
 62
     4
420
    65535
100
AcDbLine
 10
93.8258725525
 20
14.6570973791
 30
0.0
 11
94.4086349742
 21
16.5542719138
 31
0.0
  0
ARC
  5
10F
330
1F
100
AcDbEntity
  8
1
 62
     4
420
    65535
100
AcDbCircle
 10
94.4042125619
 20
16.4350930427
 30
0.0
 40
0.1192608948426549
100
AcDbArc
 50
79.1743684397
 51
87.8748803895
  0
ARC
  5
110
330
1F
100
AcDbEntity
  8
1
 62
     4
420
    65535
100
AcDbCircle
 10
93.5172862532
 20
14.5962065935
 30
0.0
 40
0.200957766236699
100
AcDbArc
 50
162.4750469215
 51
251.3195507191
  0
LINE
  5
111
330
1F
100
AcDbEntity
  8
1
 62
     4
420
    65535
100
AcDbLine
 10
93.3256557611
 20
14.6567192226
 30
0.0
 11
93.8258725525
 21
14.6570973791
 31
0.0
  0
LINE
  5
112
330
1F
100
AcDbEntity
  8
1
 62
     4
420
    65535
100
AcDbLine
 10
94.5318229753
 20
18.5833789353
 30
0.0
 11
93.3256557611
 21
14.6567192226
 31
0.0
  0
ELLIPSE
  5
113
330
1F
100
AcDbEntity
  8
1
 62
     4
420
    65535
100
AcDbEllipse
 10
93.0604462575
 20
18.6715697501
 30
0.0
 11
-0.5244062190046037
 21
3.091702794352209
 31
0.0
210
0.0
220
0.0
230
1.0
 40
0.4605032107
 41
3.882914476744
 42
4.605995737282202
  0
SPLINE
  5
114
330
1F
100
AcDbEntity
  8
1
 62
     4
420
    65535
100
AcDbSpline
210
0.0
220
0.0
230
1.0
 70
     8
 71
     3
 72
     8
 73
     4
 74
     0
 42
0.000000001
 43
0.00000001
 40
0.0
 40
0.0
 40
0.0
 40
0.0
 40
1.0
 40
1.0
 40
1.0
 40
1.0
 10
94.64203507665964
 20
18.72467386638313
 30
0.0
 10
94.58860478128126
 20
18.69486094861244
 30
0.0
 10
94.55007104662774
 20
18.64278526450024
 30
0.0
 10
94.53182297528402
 20
18.58337893531448
 30
0.0
  0
ELLIPSE
  5
115
330
1F
100
AcDbEntity
  8
1
 62
     4
420
    65535
100
AcDbEllipse
 10
107.304798504
 20
6.0193143569
 30
0.0
 11
1.512915764692409
 21
-0.01285962338647639
 31
0.0
210
0.0
220
0.0
230
1.0
 40
0.0020434377
 41
0.2093316140349268
 42
1.353511257445479
  0
LINE
  5
116
330
1F
100
AcDbEntity
  8
1
 62
     4
420
    65535
100
AcDbLine
 10
99.2688744553
 20
6.0944106199
 30
0.0
 11
107.6309775281
 21
6.0195609434
 31
0.0
  0
ELLIPSE
  5
117
330
1F
100
AcDbEntity
  8
1
 62
     4
420
    65535
100
AcDbEllipse
 10
108.5332755003
 20
6.0070080211
 30
0.0
 11
2.71742829103728
 21
-0.02380150447279128
 31
0.0
210
0.0
220
0.0
230
1.0
 40
0.0013523495
 41
0.6424837504380504
 42
0.818746782896806
  0
LINE
  5
118
330
1F
100
AcDbEntity
  8
1
 62
     4
420
    65535
100
AcDbLine
 10
110.7088950534
 20
5.9901542542
 30
0.0
 11
108.7846928205
 21
6.0073779016
 31
0.0
  0
SPLINE
  5
119
330
1F
100
AcDbEntity
  8
1
 62
     4
420
    65535
100
AcDbSpline
210
0.0
220
0.0
230
1.0
 70
     8
 71
     3
 72
     8
 73
     4
 74
     0
 42
0.000000001
 43
0.00000001
 40
0.0
 40
0.0
 40
0.0
 40
0.0
 40
1.0
 40
1.0
 40
1.0
 40
1.0
 10
93.50644967741196
 20
7.244194745849028
 30
0.0
 10
93.5318831249614
 20
7.235964926252005
 30
0.0
 10
93.55794487386206
 20
7.232631622140675
 30
0.0
 10
93.58456298934954
 20
7.233634227228098
 30
0.0
  0
LWPOLYLINE
  5
11A
330
1F
100
AcDbEntity
  8
1
 62
     4
420
    65535
100
AcDbPolyline
 90
        3
 70
   128
 43
0.0
 10
96.7986073482
 20
6.4980522198
 10
96.7864699778
 20
6.4916472223
 10
96.7819848385
 20
6.4920017417
  0
LINE
  5
11B
330
1F
100
AcDbEntity
  8
1
 62
     4
420
    65535
100
AcDbLine
 10
89.5927086782
 20
-0.0019940657
 30
0.0
 11
89.5927086782
 21
19.9980059343
 31
0.0
  0
LINE
  5
11C
330
1F
100
AcDbEntity
  8
1
 62
     4
420
    65535
100
AcDbLine
 10
89.5927086782
 20
-0.0019940657
 30
0.0
 11
82.0027086782
 21
-0.0019940657
 31
0.0
  0
LINE
  5
11D
330
1F
100
AcDbEntity
  8
1
 62
     4
420
    65535
100
AcDbLine
 10
82.0027086782
 20
-0.0019940657
 30
0.0
 11
82.0027086782
 21
19.9980059343
 31
0.0
  0
LINE
  5
11E
330
1F
100
AcDbEntity
  8
1
 62
     4
420
    65535
100
AcDbLine
 10
82.0027086782
 20
19.9980059343
 30
0.0
 11
89.5927086782
 21
19.9980059343
 31
0.0
  0
LINE
  5
11F
330
1F
100
AcDbEntity
  8
1
 62
     4
420
    65535
100
AcDbLine
 10
92.1173569778
 20
19.9980059343
 30
0.0
 11
92.1243514397
 21
10.7458905864
 31
0.0
  0
LINE
  5
120
330
1F
100
AcDbEntity
  8
1
 62
     4
420
    65535
100
AcDbLine
 10
98.5027086782
 20
19.9980059343
 30
0.0
 11
110.4570200402
 21
12.4479164169
 31
0.0
  0
LINE
  5
121
330
1F
100
AcDbEntity
  8
1
 62
     4
420
    65535
100
AcDbLine
 10
110.4570200402
 20
12.4479164169
 30
0.0
 11
108.9102425053
 21
11.9812879989
 31
0.0
  0
LINE
  5
122
330
1F
100
AcDbEntity
  8
1
 62
     4
420
    65535
100
AcDbLine
 10
101.7453420668
 20
6.0722436126
 30
0.0
 11
110.818889845
 21
2.9348120835
 31
0.0
  0
LINE
  5
123
330
1F
100
AcDbEntity
  8
1
 62
     4
420
    65535
100
AcDbLine
 10
110.818889845
 20
2.9348120835
 30
0.0
 11
110.5885357513
 21
2.8643857694
 31
0.0
  0
LINE
  5
124
330
1F
100
AcDbEntity
  8
1
 62
     4
420
    65535
100
AcDbLine
 10
110.5885357513
 20
2.8643857694
 30
0.0
 11
106.4239897757
 21
-0.0019940657
 31
0.0
  0
LINE
  5
125
330
1F
100
AcDbEntity
  8
1
 62
     4
420
    65535
100
AcDbLine
 10
92.1265132713
 20
7.8862688618
 30
0.0
 11
92.1324766811
 21
-0.0019940657
 31
0.0
  0
LINE
  5
126
330
1F
100
AcDbEntity
  8
1
 62
     4
420
    65535
100
AcDbLine
 10
106.4239897757
 20
-0.0019940657
 30
0.0
 11
92.1324766811
 21
-0.0019940657
 31
0.0
  0
LINE
  5
127
330
1F
100
AcDbEntity
  8
1
 62
     4
420
    65535
100
AcDbLine
 10
92.1173569778
 20
19.9980059343
 30
0.0
 11
98.5027086782
 21
19.9980059343
 31
0.0
  0
LINE
  5
128
330
1F
100
AcDbEntity
  8
1
 62
     4
420
    65535
100
AcDbLine
 10
89.5927086782
 20
-0.0019940657
 30
0.0
 11
92.1324766811
 21
-0.0019940657
 31
0.0
  0
LINE
  5
129
330
1F
100
AcDbEntity
  8
1
 62
     4
420
    65535
100
AcDbLine
 10
89.5927086782
 20
19.9980059343
 30
0.0
 11
92.1173569778
 21
19.9980059343
 31
0.0
  0
LINE
  5
12A
330
1F
100
AcDbEntity
  8
1
 62
     4
420
    65535
100
AcDbLine
 10
98.4028366692
 20
18.0871455424
 30
0.0
 11
98.409502806
 21
18.0811126701
 31
0.0
  0
LINE
  5
12B
330
1F
100
AcDbEntity
  8
1
 62
     4
420
    65535
100
AcDbLine
 10
100.1739161879
 20
17.5140551305
 30
0.0
 11
100.1805823247
 21
17.5080222582
 31
0.0
  0
SPLINE
  5
12C
330
1F
100
AcDbEntity
  8
1
 62
     4
420
    65535
100
AcDbSpline
210
0.0
220
0.0
230
1.0
 70
     8
 71
     3
 72
     8
 73
     4
 74
     0
 42
0.000000001
 43
0.00000001
 40
0.0
 40
0.0
 40
0.0
 40
0.0
 40
1.0
 40
1.0
 40
1.0
 40
1.0
 10
112.1049800220081
 20
7.017066934868148
 30
0.0
 10
111.9531146291922
 20
7.040183543178222
 30
0.0
 10
111.8031412776061
 20
7.08670114053809
 30
0.0
 10
111.6666072546514
 20
7.187047277926154
 30
0.0
  0
ELLIPSE
  5
12D
330
1F
100
AcDbEntity
  8
1
 62
     4
420
    65535
100
AcDbEllipse
 10
108.5459648025
 20
7.5069509524
 30
0.0
 11
3.651137245664784
 21
-1.194611154269743
 31
0.0
210
0.0
220
0.0
230
1.0
 40
0.0593522956
 41
6.216639404002242
 42
6.24368185449848
  0
ELLIPSE
  5
12E
330
1F
100
AcDbEntity
  8
1
 62
     4
420
    65535
100
AcDbEllipse
 10
108.5332755003
 20
6.0070080211
 30
0.0
 11
2.71742829103728
 21
-0.02380150447279128
 31
0.0
210
0.0
220
0.0
230
1.0
 40
0.0013523495
 41
0.1618144266132931
 42
0.1682671835349468
  0
SPLINE
  5
12F
330
1F
100
AcDbEntity
  8
1
 62
     4
420
    65535
100
AcDbSpline
210
0.0
220
0.0
230
1.0
 70
     8
 71
     3
 72
    10
 73
     6
 74
     0
 42
0.000000001
 43
0.00000001
 40
0.0
 40
0.0
 40
0.0
 40
0.0
 40
0.5
 40
0.5
 40
1.0
 40
1.0
 40
1.0
 40
1.0
 10
111.2123294450215
 20
5.984158131730362
 30
0.0
 10
111.3043080725106
 20
5.983442730175611
 30
0.0
 10
111.384400739785
 20
5.991764920063352
 30
0.0
 10
111.534962083409
 20
6.023608146906041
 30
0.0
 10
111.6031137921064
 20
6.04694082838235
 30
0.0
 10
111.6662353868565
 20
6.077286851440269
 30
0.0
  0
SPLINE
  5
130
330
1F
100
AcDbEntity
  8
1
 62
     4
420
    65535
100
AcDbSpline
210
0.0
220
0.0
230
1.0
 70
     8
 71
     3
 72
    16
 73
    12
 74
     0
 42
0.000000001
 43
0.00000001
 40
0.0
 40
0.0
 40
0.0
 40
0.0
 40
0.0624999999999918
 40
0.0624999999999918
 40
0.1249999999999836
 40
0.1249999999999836
 40
0.2499999999999947
 40
0.2499999999999947
 40
0.4999999999999822
 40
0.4999999999999822
 40
1.0
 40
1.0
 40
1.0
 40
1.0
 10
111.6662353868565
 20
6.077286851440269
 30
0.0
 10
111.6801341536216
 20
6.083968753226808
 30
0.0
 10
111.6837266462834
 20
6.088632157920213
 30
0.0
 10
111.670699439919
 20
6.089855385684388
 30
0.0
 10
111.6581050328459
 20
6.087985183205753
 30
0.0
 10
111.6171990498993
 20
6.080964474002286
 30
0.0
 10
111.5846404035792
 20
6.074123370116841
 30
0.0
 10
111.4841044056303
 20
6.054230589758379
 30
0.0
 10
111.4110124351572
 20
6.040999733616561
 30
0.0
 10
111.1880211288246
 20
6.008703655760377
 30
0.0
 10
111.0319551846365
 20
5.995821793128079
 30
0.0
 10
110.8714009469623
 20
5.991495924024352
 30
0.0
  0
SPLINE
  5
131
330
1F
100
AcDbEntity
  8
1
 62
     4
420
    65535
100
AcDbSpline
210
0.0
220
0.0
230
1.0
 70
     8
 71
     3
 72
     8
 73
     4
 74
     0
 42
0.000000001
 43
0.00000001
 40
0.0
 40
0.0
 40
0.0
 40
0.0
 40
0.0001667859152705
 40
0.0001667859152705
 40
0.0001667859152705
 40
0.0001667859152705
 10
110.8714009469623
 20
5.991495924024352
 30
0.0
 10
110.8172492594429
 20
5.990036896126065
 30
0.0
 10
110.7630634127649
 20
5.989669390054106
 30
0.0
 10
110.7088950533697
 20
5.990154254225769
 30
0.0
  0
SPLINE
  5
132
330
1F
100
AcDbEntity
  8
1
 62
     4
420
    65535
100
AcDbSpline
210
0.0
220
0.0
230
1.0
 70
     8
 71
     3
 72
    11
 73
     7
 74
     0
 42
0.000000001
 43
0.00000001
 40
0.0
 40
0.0
 40
0.0
 40
0.0
 40
0.3071946895726413
 40
0.8162854592968557
 40
0.9856512278842576
 40
1.0
 40
1.0
 40
1.0
 40
1.0
 10
112.0380241659405
 20
6.217003973481327
 30
0.0
 10
111.9677303299645
 20
6.171825292926018
 30
0.0
 10
111.7809437801541
 20
6.051775366090304
 30
0.0
 10
111.4825552020702
 20
5.993606078631021
 30
0.0
 10
111.2750783920823
 20
5.98372206301285
 30
0.0
 10
111.219547271771
 20
5.98408143920666
 30
0.0
 10
111.2152100898167
 20
5.984109507791155
 30
0.0
  0
ARC
  5
133
330
1F
100
AcDbEntity
  8
1
 62
     4
420
    65535
100
AcDbCircle
 10
110.571382238
 20
7.5716909256
 30
0.0
 40
1.630806528736829
100
AcDbArc
 50
340.1175305291001
 51
359.2554130672
  0
SPLINE
  5
134
330
1F
100
AcDbEntity
  8
1
 62
     4
420
    65535
100
AcDbSpline
210
0.0
220
0.0
230
1.0
 70
     8
 71
     3
 72
     8
 73
     4
 74
     0
 42
0.000000001
 43
0.00000001
 40
0.0
 40
0.0
 40
0.0
 40
0.0
 40
1.0
 40
1.0
 40
1.0
 40
1.0
 10
111.9963262427119
 20
8.260442617882443
 30
0.0
 10
112.1590249810212
 20
8.245275328392042
 30
0.0
 10
112.3025220587734
 20
8.177674316350723
 30
0.0
 10
112.4342637161501
 20
8.089045181843744
 30
0.0
  0
ARC
  5
135
330
1F
100
AcDbEntity
  8
1
 62
     4
420
    65535
100
AcDbCircle
 10
111.0100121687
 20
8.4515675716
 30
0.0
 40
1.469664911930805
100
AcDbArc
 50
325.7423908164
 51
345.7194470899
  0
SPLINE
  5
136
330
1F
100
AcDbEntity
  8
1
 62
     4
420
    65535
100
AcDbSpline
210
0.0
220
0.0
230
1.0
 70
     8
 71
     3
 72
    15
 73
    11
 74
     0
 42
0.000000001
 43
0.00000001
 40
0.0
 40
0.0
 40
0.0
 40
0.0
 40
0.6685246264015412
 40
0.755519821460909
 40
0.8544403829347236
 40
0.8944114529003486
 40
0.9347774993469531
 40
0.9635600684629958
 40
0.9922959738672497
 40
1.0
 40
1.0
 40
1.0
 40
1.0
 10
112.2556239249372
 20
9.262317102363266
 30
0.0
 10
112.3418916485044
 20
9.174192269190812
 30
0.0
 10
112.439385401963
 20
9.074599740216817
 30
0.0
 10
112.5227716044008
 20
8.972343741344403
 30
0.0
 10
112.5422397468401
 20
8.948278942233431
 30
0.0
 10
112.5528813049929
 20
8.935546494679981
 30
0.0
 10
112.5560033935969
 20
8.93236705259363
 30
0.0
 10
112.554210916735
 20
8.935578013584513
 30
0.0
 10
112.5505190834815
 20
8.940873403011834
 30
0.0
 10
112.5478088135243
 20
8.944585956895278
 30
0.0
 10
112.5472358159994
 20
8.945370854421999
 30
0.0
  0
SPLINE
  5
137
330
1F
100
AcDbEntity
  8
1
 62
     4
420
    65535
100
AcDbSpline
210
0.0
220
0.0
230
1.0
 70
     8
 71
     3
 72
    10
 73
     6
 74
     0
 42
0.000000001
 43
0.00000001
 40
0.0
 40
0.0
 40
0.0
 40
0.0
 40
0.5
 40
0.5
 40
1.0
 40
1.0
 40
1.0
 40
1.0
 10
112.4342637161501
 20
8.089045181843744
 30
0.0
 10
112.49988991803
 20
7.899162278906467
 30
0.0
 10
112.5050776153863
 20
7.686906696924227
 30
0.0
 10
112.3867209748966
 20
7.301996889774026
 30
0.0
 10
112.2644455015163
 20
7.132708756921389
 30
0.0
 10
112.104980022008
 20
7.017066934868152
 30
0.0
  0
SPLINE
  5
138
330
1F
100
AcDbEntity
  8
1
 62
     4
420
    65535
100
AcDbSpline
210
0.0
220
0.0
230
1.0
 70
     8
 71
     3
 72
     8
 73
     4
 74
     0
 42
0.000000001
 43
0.00000001
 40
0.0
 40
0.0
 40
0.0
 40
0.0
 40
1.0
 40
1.0
 40
1.0
 40
1.0
 10
111.0489617028368
 20
5.984661342168351
 30
0.0
 10
111.032429836005
 20
5.984856877979278
 30
0.0
 10
111.0199676847182
 20
5.985021757817012
 30
0.0
 10
111.0122233758911
 20
5.985151118265605
 30
0.0
  0
SPLINE
  5
139
330
1F
100
AcDbEntity
  8
1
 62
     4
420
    65535
100
AcDbSpline
210
0.0
220
0.0
230
1.0
 70
     8
 71
     3
 72
    12
 73
     8
 74
     0
 42
0.000000001
 43
0.00000001
 40
0.0
 40
0.0
 40
0.0
 40
0.0
 40
0.1209609864878276
 40
0.3554793883806899
 40
0.5812631739721417
 40
0.8193037205866637
 40
0.9999999999999999
 40
0.9999999999999999
 40
0.9999999999999999
 40
0.9999999999999999
 10
111.0085403253066
 20
5.985280555401142
 30
0.0
 10
111.0065267579122
 20
5.985329991115401
 30
0.0
 10
111.0006092986836
 20
5.985475272482388
 30
0.0
 10
111.0248550218459
 20
5.98542431588434
 30
0.0
 10
111.0754453472987
 20
5.9851512246718
 30
0.0
 10
111.141519158821
 20
5.984699697607747
 30
0.0
 10
111.1909840185769
 20
5.984321384207097
 30
0.0
 10
111.2123294450215
 20
5.984158131730362
 30
0.0
  0
LINE
  5
13A
330
1F
100
AcDbEntity
  8
1
 62
     4
420
    65535
100
AcDbLine
 10
111.2152100898
 20
5.9841095078
 30
0.0
 11
111.1083157215
 21
5.9840286972
 31
0.0
  0
SPLINE
  5
13B
330
1F
100
AcDbEntity
  8
1
 62
     4
420
    65535
100
AcDbSpline
210
0.0
220
0.0
230
1.0
 70
     8
 71
     3
 72
     8
 73
     4
 74
     0
 42
0.000000001
 43
0.00000001
 40
0.0
 40
0.0
 40
0.0
 40
0.0
 40
1.0
 40
1.0
 40
1.0
 40
1.0
 10
111.1083157215031
 20
5.984028697234759
 30
0.0
 10
111.0855566939258
 20
5.984257510418099
 30
0.0
 10
111.0643526823981
 20
5.984479292372611
 30
0.0
 10
111.0489617915648
 20
5.984661332919417
 30
0.0
  0
LINE
  5
13C
330
1F
100
AcDbEntity
  8
1
 62
     4
420
    65535
100
AcDbLine
 10
1.0027086782
 20
19.9980059343
 30
0.0
 11
1.0027086782
 21
-0.0019940657
 31
0.0
  0
LINE
  5
13D
330
1F
100
AcDbEntity
  8
1
 62
     4
420
    65535
100
AcDbLine
 10
82.0027086782
 20
-0.0019940657
 30
0.0
 11
1.0027086782
 21
-0.0019940657
 31
0.0
  0
LINE
  5
13E
330
1F
100
AcDbEntity
  8
1
 62
     4
420
    65535
100
AcDbLine
 10
82.0027086782
 20
19.9980059343
 30
0.0
 11
1.0027086782
 21
19.9980059343
 31
0.0
  0
LINE
  5
13F
330
1F
100
AcDbEntity
  8
1
 62
     4
420
    65535
100
AcDbLine
 10
0.0027086782
 20
0.9980059343
 30
0.0
 11
0.0027086782
 21
18.9980059343
 31
0.0
  0
LINE
  5
140
330
1F
100
AcDbEntity
  8
1
 62
     4
420
    65535
100
AcDbLine
 10
0.0027086782
 20
18.9980059343
 30
0.0
 11
1.0027086782
 21
19.9980059343
 31
0.0
  0
LINE
  5
141
330
1F
100
AcDbEntity
  8
1
 62
     4
420
    65535
100
AcDbLine
 10
0.0027086782
 20
0.9980059343
 30
0.0
 11
1.0027086782
 21
-0.0019940657
 31
0.0
  0
LINE
  5
142
330
1F
100
AcDbEntity
  8
1
 62
     4
420
    65535
100
AcDbLine
 10
110.5700469937
 20
2.8516603001
 30
0.0
 11
111.0582998583
 21
2.8520294121
 31
0.0
  0
ARC
  5
143
330
1F
100
AcDbEntity
  8
1
 62
     4
420
    65535
100
AcDbCircle
 10
93.4370726907
 20
12.7035682807
 30
0.0
 40
0.1844745334708433
100
AcDbArc
 50
83.0903886619
 51
166.1845479629
  0
LINE
  5
144
330
1F
100
AcDbEntity
  8
1
 62
     4
420
    65535
100
AcDbLine
 10
94.2170123066
 20
14.3614492822
 30
0.0
 11
93.9531383298
 21
14.4062135145
 31
0.0
  0
ARC
  5
145
330
1F
100
AcDbEntity
  8
1
 62
     4
420
    65535
100
AcDbCircle
 10
104.9323121614
 20
14.1471217463
 30
0.0
 40
0.807741957360506
100
AcDbArc
 50
333.7935815045
 51
43.3400215734
  0
ELLIPSE
  5
146
330
1F
100
AcDbEntity
  8
1
 62
     4
420
    65535
100
AcDbEllipse
 10
103.9797983926
 20
9.9287007015
 30
0.0
 11
-0.2674691664815185
 21
5.469263335241668
 31
0.0
210
0.0
220
0.0
230
1.0
 40
0.6160206574
 41
5.926485866521951
 42
6.053404754186852
  0
ARC
  5
147
330
1F
100
AcDbEntity
  8
1
 62
     4
420
    65535
100
AcDbCircle
 10
111.0905808926
 20
9.206257174
 30
0.0
 40
0.8077621090041307
100
AcDbArc
 50
333.7941451185999
 51
43.3359927536
  0
ARC
  5
148
330
1F
100
AcDbEntity
  8
1
 62
     4
420
    65535
100
AcDbCircle
 10
93.4269956555
 20
12.6945314335
 30
0.0
 40
0.1949932599370736
100
AcDbArc
 50
90.39134114269999
 51
163.5772558656
  0
LWPOLYLINE
  5
149
330
1F
100
AcDbEntity
  8
1
 62
     4
420
    65535
100
AcDbPolyline
 90
        3
 70
   128
 43
0.0
 10
95.0275278295
 20
7.0711426317
 10
95.0153904591
 20
7.0647376341
 10
95.0105406775
 20
7.0652186499
  0
LWPOLYLINE
  5
14A
330
1F
100
AcDbEntity
  8
1
 62
     4
420
    65535
100
AcDbPolyline
 90
        9
 70
   128
 43
0.0
 10
112.104980022
 20
7.0170669349
 10
112.1647577073
 20
6.8778071441
 10
112.2114509137
 20
6.7518963059
 10
112.2447421853
 20
6.6401904574
 10
112.2644051831
 20
6.5434490593
 10
112.2703062231
 20
6.4623298326
 10
112.2624051855
 20
6.3973842872
 10
112.2407557877
 20
6.349053972
 10
112.2200876938
 20
6.3272642235
  0
ELLIPSE
  5
14B
330
1F
100
AcDbEntity
  8
1
 62
     4
420
    65535
100
AcDbEllipse
 10
108.5459648025
 20
7.5069509524
 30
0.0
 11
3.651137245664784
 21
-1.194611154269743
 31
0.0
210
0.0
220
0.0
230
1.0
 40
0.0593522956
 41
6.24368185449848
 42
7.064115208522308
  0
ELLIPSE
  5
14C
330
1F
100
AcDbEntity
  8
1
 62
     4
420
    65535
100
AcDbEllipse
 10
109.1543216492
 20
9.487447763
 30
0.0
 11
3.681822088244644
 21
-1.094723143249739
 31
0.0
210
0.0
220
0.0
230
1.0
 40
0.054431165
 41
0.0379874530103419
 42
0.779359581815718
  0
ARC
  5
14D
330
1F
100
AcDbEntity
  8
1
 62
     4
420
    65535
100
AcDbCircle
 10
112.3078845517
 20
8.785541504
 30
0.0
 40
0.7078692110749025
100
AcDbArc
 50
280.2844175038999
 51
320.6756956961
  0
DIMENSION
  5
14E
330
1F
100
AcDbEntity
  8
2
  6
SLD-Durchgehend
 62
     7
370
    15
100
AcDbDimension
  2
_D
 10
0.0027086782000012
 20
31.9981909343
 30
0.0
 11
62.5027086782
 21
31.9981909343
 31
0.0
 70
   160
  1
<>
 71
     2
 42
125.0
  3
SLDDIMSTYLE0
100
AcDbAlignedDimension
 13
125.0027086782
 23
7.4980059343
 33
0.0
 14
0.0027086782
 24
-0.0019940657
 34
0.0
100
AcDbRotatedDimension
  0
DIMENSION
  5
15A
330
1F
100
AcDbEntity
  8
2
  6
SLD-Durchgehend
 62
     7
370
    15
100
AcDbDimension
  2
_D_1
 10
-5.997291321800001
 20
-0.0019940656999999
 30
0.0
 11
-5.9972913218
 21
9.9980059343
 31
0.0
 70
   160
  1
<>
 71
     2
 42
20.0
  3
SLDDIMSTYLE0
100
AcDbAlignedDimension
 13
1.0027086782
 23
19.9980059343
 33
0.0
 14
1.0027086782
 24
-0.0019940657
 34
0.0
 50
90.0
100
AcDbRotatedDimension
  0
DIMENSION
  5
164
330
1F
100
AcDbEntity
  8
2
  6
SLD-Durchgehend
 62
     7
370
    15
100
AcDbDimension
  2
_D_2
 10
131.0027539408
 20
-0.0019940656999999
 30
0.0
 11
131.0027539408
 21
-10.8207443093
 31
0.0
 70
   160
  1
<>
 71
     2
 42
7.5
  3
SLDDIMSTYLE0
100
AcDbAlignedDimension
 13
125.0027086782
 23
7.4980059343
 33
0.0
 14
125.0027086782
 24
-0.0019940657
 34
0.0
 50
90.0
100
AcDbRotatedDimension
  0
DIMENSION
  5
16F
330
1F
100
AcDbEntity
  8
2
  6
SLD-Durchgehend
 62
     7
370
    15
100
AcDbDimension
  2
_D_3
 10
125.0027086782
 20
25.9981909343
 30
0.0
 11
103.5027086782
 21
25.9981909343
 31
0.0
 70
   160
  1
<>
 71
     2
 42
43.0
  3
SLDDIMSTYLE0
100
AcDbAlignedDimension
 13
82.0027086782
 23
-0.0019940657
 33
0.0
 14
125.0027086782
 24
7.4980059343
 34
0.0
100
AcDbRotatedDimension
  0
ENDSEC
  0
SECTION
  2
OBJECTS
  0
DICTIONARY
  5
C
330
0
100
AcDbDictionary
281
     1
  3
ACAD_DETAILVIEWSTYLE
350
195
  3
ACAD_GROUP
350
D
  3
ACAD_IMAGE_VARS
350
1B3
  3
ACAD_LAYOUT
350
1A
  3
ACAD_MATERIAL
350
43
  3
ACAD_MLEADERSTYLE
350
194
  3
ACAD_MLINESTYLE
350
17
  3
ACAD_PLOTSETTINGS
350
19
  3
ACAD_PLOTSTYLENAME
350
E
  3
ACAD_SCALELIST
350
47
  3
ACAD_SECTIONVIEWSTYLE
350
196
  3
ACAD_TABLESTYLE
350
193
  3
ACDB_RECOMPOSE_DATA
350
1C5
  3
AcDbVariableDictionary
350
191
  3
APPDATA
350
1B1
  0
DICTIONARY
  5
195
102
{ACAD_REACTORS
330
C
102
}
330
C
100
AcDbDictionary
281
     1
  0
DICTIONARY
  5
D
102
{ACAD_REACTORS
330
C
102
}
330
C
100
AcDbDictionary
281
     1
  0
RASTERVARIABLES
  5
1B3
102
{ACAD_REACTORS
330
C
102
}
330
C
100
AcDbRasterVariables
 90
        0
 70
     1
 71
     1
 72
     1
  0
DICTIONARY
  5
1A
102
{ACAD_REACTORS
330
C
102
}
330
C
100
AcDbDictionary
281
     1
  3
Layout1
350
1E
  3
Layout2
350
26
  3
Model
350
22
  0
DICTIONARY
  5
43
102
{ACAD_REACTORS
330
C
102
}
330
C
100
AcDbDictionary
281
     1
  3
ByBlock
350
45
  3
ByLayer
350
44
  3
Global
350
46
  0
DICTIONARY
  5
194
102
{ACAD_REACTORS
330
C
102
}
330
C
100
AcDbDictionary
281
     1
  0
DICTIONARY
  5
17
102
{ACAD_REACTORS
330
C
102
}
330
C
100
AcDbDictionary
281
     1
  3
Standard
350
18
  0
DICTIONARY
  5
19
102
{ACAD_REACTORS
330
C
102
}
330
C
100
AcDbDictionary
281
     1
  0
ACDBDICTIONARYWDFLT
  5
E
102
{ACAD_REACTORS
330
C
102
}
330
C
100
AcDbDictionary
281
     1
  3
Normal
350
F
100
AcDbDictionaryWithDefault
340
F
  0
DICTIONARY
  5
47
102
{ACAD_REACTORS
330
C
102
}
330
C
100
AcDbDictionary
281
     1
  3
A0
350
48
  3
A1
350
49
  3
A2
350
4A
  3
A3
350
4B
  3
A4
350
4C
  3
A5
350
4D
  3
A6
350
4E
  3
A7
350
4F
  3
A8
350
50
  3
A9
350
51
  3
B0
350
52
  3
B1
350
53
  3
B2
350
54
  3
B3
350
55
  3
B4
350
56
  3
B5
350
57
  3
B6
350
58
  3
B7
350
59
  3
B8
350
5A
  3
B9
350
5B
  3
C0
350
5C
  3
C1
350
5D
  3
C2
350
5E
  3
C3
350
5F
  3
C4
350
60
  3
C5
350
61
  3
C6
350
62
  3
C7
350
63
  3
C8
350
64
  3
C9
350
65
  3
D0
350
66
  3
D1
350
67
  3
D2
350
68
  0
DICTIONARY
  5
196
102
{ACAD_REACTORS
330
C
102
}
330
C
100
AcDbDictionary
281
     1
  0
DICTIONARY
  5
193
102
{ACAD_REACTORS
330
C
102
}
330
C
100
AcDbDictionary
281
     1
  3
Standard
350
1B0
  0
XRECORD
  5
1C5
102
{ACAD_REACTORS
330
C
102
}
330
C
100
AcDbXrecord
280
     1
 90
        1
330
1B0
  0
DICTIONARY
  5
191
102
{ACAD_REACTORS
330
C
102
}
330
C
100
AcDbDictionary
281
     1
  3
CANNOSCALE
350
192
  3
CTABLESTYLE
350
1C6
  3
MSLTSCALE
350
1C7
  3
XCLIPFRAME
350
1C8
  0
DICTIONARY
  5
1B1
102
{ACAD_REACTORS
330
C
102
}
330
C
100
AcDbDictionary
281
     1
  0
LAYOUT
  5
1E
102
{ACAD_REACTORS
330
1A
102
}
330
1A
100
AcDbPlotSettings
  1

  2
none_device
  4

  6

 40
0.0
 41
0.0
 42
0.0
 43
0.0
 44
0.0
 45
0.0
 46
0.0
 47
0.0
 48
0.0
 49
0.0
140
0.0
141
0.0
142
1.0
143
1.0
 70
   688
 72
     1
 73
     0
 74
     5
  7

 75
    16
 76
     0
 77
     2
 78
   300
147
1.0
148
0.0
149
0.0
100
AcDbLayout
  1
Layout1
 70
     1
 71
     1
 10
0.0
 20
0.0
 11
420.0
 21
297.0
 12
0.0
 22
0.0
 32
0.0
 14
1.000000000000000E+20
 24
1.000000000000000E+20
 34
1.000000000000000E+20
 15
-1.000000000000000E+20
 25
-1.000000000000000E+20
 35
-1.000000000000000E+20
146
0.0
 13
0.0
 23
0.0
 33
0.0
 16
1.0
 26
0.0
 36
0.0
 17
0.0
 27
1.0
 37
0.0
 76
     0
330
1B
  0
LAYOUT
  5
26
102
{ACAD_REACTORS
330
1A
102
}
330
1A
100
AcDbPlotSettings
  1

  2
none_device
  4

  6

 40
0.0
 41
0.0
 42
0.0
 43
0.0
 44
0.0
 45
0.0
 46
0.0
 47
0.0
 48
0.0
 49
0.0
140
0.0
141
0.0
142
1.0
143
1.0
 70
   688
 72
     1
 73
     0
 74
     5
  7

 75
    16
 76
     0
 77
     2
 78
   300
147
1.0
148
0.0
149
0.0
100
AcDbLayout
  1
Layout2
 70
     1
 71
     2
 10
0.0
 20
0.0
 11
0.0
 21
0.0
 12
0.0
 22
0.0
 32
0.0
 14
0.0
 24
0.0
 34
0.0
 15
0.0
 25
0.0
 35
0.0
146
0.0
 13
0.0
 23
0.0
 33
0.0
 16
1.0
 26
0.0
 36
0.0
 17
0.0
 27
1.0
 37
0.0
 76
     0
330
23
  0
LAYOUT
  5
22
102
{ACAD_REACTORS
330
1A
102
}
330
1A
100
AcDbPlotSettings
  1

  2
none_device
  4
Letter_(8.50_x_11.00_Inches)
  6

 40
6.35
 41
6.35
 42
6.35000508
 43
6.35000508
 44
215.9
 45
279.4
 46
0.0
 47
0.0
 48
0.0
 49
0.0
140
0.0
141
0.0
142
1.0
143
1.0
 70
  1712
 72
     1
 73
     0
 74
     0
  7

 75
     0
 76
     0
 77
     2
 78
   300
147
1.0
148
0.0
149
0.0
100
AcDbLayout
  1
Model
 70
     1
 71
     0
 10
0.0
 20
0.0
 11
297.0
 21
210.0
 12
0.0
 22
0.0
 32
0.0
 14
0.0
 24
0.0
 34
0.0
 15
297.0
 25
210.0
 35
0.0
146
0.0
 13
0.0
 23
0.0
 33
0.0
 16
1.0
 26
0.0
 36
0.0
 17
0.0
 27
1.0
 37
0.0
 76
     0
330
1F
331
29
  0
MATERIAL
  5
45
102
{ACAD_REACTORS
330
43
102
}
330
43
100
AcDbMaterial
  1
ByBlock
  0
MATERIAL
  5
44
102
{ACAD_REACTORS
330
43
102
}
330
43
100
AcDbMaterial
  1
ByLayer
  0
MATERIAL
  5
46
102
{ACAD_REACTORS
330
43
102
}
330
43
100
AcDbMaterial
  1
Global
  0
MLINESTYLE
  5
18
102
{ACAD_REACTORS
330
17
102
}
330
17
100
AcDbMlineStyle
  2
Standard
 70
     0
  3

 62
   256
 51
90.0
 52
90.0
 71
     2
 49
0.5
 62
   256
  6
BYLAYER
 49
-0.5
 62
   256
  6
BYLAYER
  0
ACDBPLACEHOLDER
  5
F
102
{ACAD_REACTORS
330
E
102
}
330
E
  0
SCALE
  5
48
102
{ACAD_REACTORS
330
47
102
}
330
47
100
AcDbScale
 70
     0
300
1:1
140
1.0
141
1.0
290
     1
  0
SCALE
  5
49
102
{ACAD_REACTORS
330
47
102
}
330
47
100
AcDbScale
 70
     0
300
1:2
140
1.0
141
2.0
290
     0
  0
SCALE
  5
4A
102
{ACAD_REACTORS
330
47
102
}
330
47
100
AcDbScale
 70
     0
300
1:4
140
1.0
141
4.0
290
     0
  0
SCALE
  5
4B
102
{ACAD_REACTORS
330
47
102
}
330
47
100
AcDbScale
 70
     0
300
1:5
140
1.0
141
5.0
290
     0
  0
SCALE
  5
4C
102
{ACAD_REACTORS
330
47
102
}
330
47
100
AcDbScale
 70
     0
300
1:8
140
1.0
141
8.0
290
     0
  0
SCALE
  5
4D
102
{ACAD_REACTORS
330
47
102
}
330
47
100
AcDbScale
 70
     0
300
1:10
140
1.0
141
10.0
290
     0
  0
SCALE
  5
4E
102
{ACAD_REACTORS
330
47
102
}
330
47
100
AcDbScale
 70
     0
300
1:16
140
1.0
141
16.0
290
     0
  0
SCALE
  5
4F
102
{ACAD_REACTORS
330
47
102
}
330
47
100
AcDbScale
 70
     0
300
1:20
140
1.0
141
20.0
290
     0
  0
SCALE
  5
50
102
{ACAD_REACTORS
330
47
102
}
330
47
100
AcDbScale
 70
     0
300
1:30
140
1.0
141
30.0
290
     0
  0
SCALE
  5
51
102
{ACAD_REACTORS
330
47
102
}
330
47
100
AcDbScale
 70
     0
300
1:40
140
1.0
141
40.0
290
     0
  0
SCALE
  5
52
102
{ACAD_REACTORS
330
47
102
}
330
47
100
AcDbScale
 70
     0
300
1:50
140
1.0
141
50.0
290
     0
  0
SCALE
  5
53
102
{ACAD_REACTORS
330
47
102
}
330
47
100
AcDbScale
 70
     0
300
1:100
140
1.0
141
100.0
290
     0
  0
SCALE
  5
54
102
{ACAD_REACTORS
330
47
102
}
330
47
100
AcDbScale
 70
     0
300
2:1
140
2.0
141
1.0
290
     0
  0
SCALE
  5
55
102
{ACAD_REACTORS
330
47
102
}
330
47
100
AcDbScale
 70
     0
300
4:1
140
4.0
141
1.0
290
     0
  0
SCALE
  5
56
102
{ACAD_REACTORS
330
47
102
}
330
47
100
AcDbScale
 70
     0
300
8:1
140
8.0
141
1.0
290
     0
  0
SCALE
  5
57
102
{ACAD_REACTORS
330
47
102
}
330
47
100
AcDbScale
 70
     0
300
10:1
140
10.0
141
1.0
290
     0
  0
SCALE
  5
58
102
{ACAD_REACTORS
330
47
102
}
330
47
100
AcDbScale
 70
     0
300
100:1
140
100.0
141
1.0
290
     0
  0
SCALE
  5
59
102
{ACAD_REACTORS
330
47
102
}
330
47
100
AcDbScale
 70
     0
300
1/128" = 1'-0"
140
0.0078125
141
12.0
290
     0
  0
SCALE
  5
5A
102
{ACAD_REACTORS
330
47
102
}
330
47
100
AcDbScale
 70
     0
300
1/64" = 1'-0"
140
0.015625
141
12.0
290
     0
  0
SCALE
  5
5B
102
{ACAD_REACTORS
330
47
102
}
330
47
100
AcDbScale
 70
     0
300
1/32" = 1'-0"
140
0.03125
141
12.0
290
     0
  0
SCALE
  5
5C
102
{ACAD_REACTORS
330
47
102
}
330
47
100
AcDbScale
 70
     0
300
1/16" = 1'-0"
140
0.0625
141
12.0
290
     0
  0
SCALE
  5
5D
102
{ACAD_REACTORS
330
47
102
}
330
47
100
AcDbScale
 70
     0
300
3/32" = 1'-0"
140
0.09375
141
12.0
290
     0
  0
SCALE
  5
5E
102
{ACAD_REACTORS
330
47
102
}
330
47
100
AcDbScale
 70
     0
300
1/8" = 1'-0"
140
0.125
141
12.0
290
     0
  0
SCALE
  5
5F
102
{ACAD_REACTORS
330
47
102
}
330
47
100
AcDbScale
 70
     0
300
3/16" = 1'-0"
140
0.1875
141
12.0
290
     0
  0
SCALE
  5
60
102
{ACAD_REACTORS
330
47
102
}
330
47
100
AcDbScale
 70
     0
300
1/4" = 1'-0"
140
0.25
141
12.0
290
     0
  0
SCALE
  5
61
102
{ACAD_REACTORS
330
47
102
}
330
47
100
AcDbScale
 70
     0
300
3/8" = 1'-0"
140
0.375
141
12.0
290
     0
  0
SCALE
  5
62
102
{ACAD_REACTORS
330
47
102
}
330
47
100
AcDbScale
 70
     0
300
1/2" = 1'-0"
140
0.5
141
12.0
290
     0
  0
SCALE
  5
63
102
{ACAD_REACTORS
330
47
102
}
330
47
100
AcDbScale
 70
     0
300
3/4" = 1'-0"
140
0.75
141
12.0
290
     0
  0
SCALE
  5
64
102
{ACAD_REACTORS
330
47
102
}
330
47
100
AcDbScale
 70
     0
300
1" = 1'-0"
140
1.0
141
12.0
290
     0
  0
SCALE
  5
65
102
{ACAD_REACTORS
330
47
102
}
330
47
100
AcDbScale
 70
     0
300
1-1/2" = 1'-0"
140
1.5
141
12.0
290
     0
  0
SCALE
  5
66
102
{ACAD_REACTORS
330
47
102
}
330
47
100
AcDbScale
 70
     0
300
3" = 1'-0"
140
3.0
141
12.0
290
     0
  0
SCALE
  5
67
102
{ACAD_REACTORS
330
47
102
}
330
47
100
AcDbScale
 70
     0
300
6" = 1'-0"
140
6.0
141
12.0
290
     0
  0
SCALE
  5
68
102
{ACAD_REACTORS
330
47
102
}
330
47
100
AcDbScale
 70
     0
300
1'-0" = 1'-0"
140
12.0
141
12.0
290
     0
  0
TABLESTYLE
  5
1B0
102
{ACAD_REACTORS
330
193
102
}
102
{ACAD_XDICTIONARY
360
1C2
102
}
330
193
100
AcDbTableStyle
  3
Standard
 70
     0
 71
     0
 40
0.06
 41
0.06
280
     0
281
     0
  7
Standard
140
4.5
170
     2
 62
     0
 63
   257
283
     0
274
    -2
284
     1
 64
     0
275
    -2
285
     1
 65
     0
276
    -2
286
     1
 66
     0
277
    -2
287
     1
 67
     0
278
    -2
288
     1
 68
     0
279
    -2
289
     1
 69
     0
  7
Standard
140
6.0
170
     5
 62
     0
 63
   257
283
     0
274
    -2
284
     1
 64
     0
275
    -2
285
     1
 65
     0
276
    -2
286
     1
 66
     0
277
    -2
287
     1
 67
     0
278
    -2
288
     1
 68
     0
279
    -2
289
     1
 69
     0
  7
Standard
140
4.5
170
     5
 62
     0
 63
   257
283
     0
274
    -2
284
     1
 64
     0
275
    -2
285
     1
 65
     0
276
    -2
286
     1
 66
     0
277
    -2
287
     1
 67
     0
278
    -2
288
     1
 68
     0
279
    -2
289
     1
 69
     0
  0
DICTIONARYVAR
  5
192
102
{ACAD_REACTORS
330
191
102
}
330
191
100
DictionaryVariables
280
     0
  1
1:1
  0
DICTIONARYVAR
  5
1C6
102
{ACAD_REACTORS
330
191
102
}
330
191
100
DictionaryVariables
280
     0
  1
Standard
  0
DICTIONARYVAR
  5
1C7
102
{ACAD_REACTORS
330
191
102
}
330
191
100
DictionaryVariables
280
     0
  1
0
  0
DICTIONARYVAR
  5
1C8
102
{ACAD_REACTORS
330
191
102
}
330
191
100
DictionaryVariables
280
     0
  1
0
  0
DICTIONARY
  5
1C2
330
1B0
100
AcDbDictionary
280
     1
281
     1
  3
ACAD_ROUNDTRIP_2008_TABLESTYLE_CELLSTYLEMAP
360
1C4
  3
ACAD_XREC_ROUNDTRIP
360
1C3
  0
CELLSTYLEMAP
  5
1C4
102
{ACAD_REACTORS
330
1C2
102
}
330
1C2
100
AcDbCellStyleMap
 90
        3
300
CELLSTYLE
  1
TABLEFORMAT_BEGIN
 90
        5
170
     1
 91
        0
 92
        0
 62
   257
 93
        1
300
CONTENTFORMAT
  1
CONTENTFORMAT_BEGIN
 90
        0
 91
        0
 92
        4
 93
        0
300

 40
0.0
140
1.0
 94
        5
 62
     0
340
11
144
6.0
309
CONTENTFORMAT_END
171
     1
301
MARGIN
  1
CELLMARGIN_BEGIN
 40
1.5
 40
1.5
 40
1.5
 40
1.5
 40
1.5
 40
1.5
309
CELLMARGIN_END
 94
        6
 95
        1
302
GRIDFORMAT
  1
GRIDFORMAT_BEGIN
 90
        0
 91
        1
 62
     0
 92
       -2
340
14
 93
        0
 40
0.045
309
GRIDFORMAT_END
 95
        2
302
GRIDFORMAT
  1
GRIDFORMAT_BEGIN
 90
        0
 91
        1
 62
     0
 92
       -2
340
14
 93
        0
 40
0.045
309
GRIDFORMAT_END
 95
        4
302
GRIDFORMAT
  1
GRIDFORMAT_BEGIN
 90
        0
 91
        1
 62
     0
 92
       -2
340
14
 93
        0
 40
0.045
309
GRIDFORMAT_END
 95
        8
302
GRIDFORMAT
  1
GRIDFORMAT_BEGIN
 90
        0
 91
        1
 62
     0
 92
       -2
340
14
 93
        0
 40
0.045
309
GRIDFORMAT_END
 95
       16
302
GRIDFORMAT
  1
GRIDFORMAT_BEGIN
 90
        0
 91
        1
 62
     0
 92
       -2
340
14
 93
        0
 40
0.045
309
GRIDFORMAT_END
 95
       32
302
GRIDFORMAT
  1
GRIDFORMAT_BEGIN
 90
        0
 91
        1
 62
     0
 92
       -2
340
14
 93
        0
 40
0.045
309
GRIDFORMAT_END
309
TABLEFORMAT_END
  1
CELLSTYLE_BEGIN
 90
        1
 91
        1
300
_TITLE
309
CELLSTYLE_END
300
CELLSTYLE
  1
TABLEFORMAT_BEGIN
 90
        5
170
     1
 91
        0
 92
        0
 62
   257
 93
        1
300
CONTENTFORMAT
  1
CONTENTFORMAT_BEGIN
 90
        0
 91
        0
 92
        4
 93
        0
300

 40
0.0
140
1.0
 94
        5
 62
     0
340
11
144
4.5
309
CONTENTFORMAT_END
171
     1
301
MARGIN
  1
CELLMARGIN_BEGIN
 40
1.5
 40
1.5
 40
1.5
 40
1.5
 40
1.5
 40
1.5
309
CELLMARGIN_END
 94
        6
 95
        1
302
GRIDFORMAT
  1
GRIDFORMAT_BEGIN
 90
        0
 91
        1
 62
     0
 92
       -2
340
14
 93
        0
 40
0.045
309
GRIDFORMAT_END
 95
        2
302
GRIDFORMAT
  1
GRIDFORMAT_BEGIN
 90
        0
 91
        1
 62
     0
 92
       -2
340
14
 93
        0
 40
0.045
309
GRIDFORMAT_END
 95
        4
302
GRIDFORMAT
  1
GRIDFORMAT_BEGIN
 90
        0
 91
        1
 62
     0
 92
       -2
340
14
 93
        0
 40
0.045
309
GRIDFORMAT_END
 95
        8
302
GRIDFORMAT
  1
GRIDFORMAT_BEGIN
 90
        0
 91
        1
 62
     0
 92
       -2
340
14
 93
        0
 40
0.045
309
GRIDFORMAT_END
 95
       16
302
GRIDFORMAT
  1
GRIDFORMAT_BEGIN
 90
        0
 91
        1
 62
     0
 92
       -2
340
14
 93
        0
 40
0.045
309
GRIDFORMAT_END
 95
       32
302
GRIDFORMAT
  1
GRIDFORMAT_BEGIN
 90
        0
 91
        1
 62
     0
 92
       -2
340
14
 93
        0
 40
0.045
309
GRIDFORMAT_END
309
TABLEFORMAT_END
  1
CELLSTYLE_BEGIN
 90
        2
 91
        1
300
_HEADER
309
CELLSTYLE_END
300
CELLSTYLE
  1
TABLEFORMAT_BEGIN
 90
        5
170
     1
 91
        0
 92
        0
 62
   257
 93
        1
300
CONTENTFORMAT
  1
CONTENTFORMAT_BEGIN
 90
        0
 91
        0
 92
        4
 93
        0
300

 40
0.0
140
1.0
 94
        2
 62
     0
340
11
144
4.5
309
CONTENTFORMAT_END
171
     1
301
MARGIN
  1
CELLMARGIN_BEGIN
 40
1.5
 40
1.5
 40
1.5
 40
1.5
 40
1.5
 40
1.5
309
CELLMARGIN_END
 94
        6
 95
        1
302
GRIDFORMAT
  1
GRIDFORMAT_BEGIN
 90
        0
 91
        1
 62
     0
 92
       -2
340
14
 93
        0
 40
0.045
309
GRIDFORMAT_END
 95
        2
302
GRIDFORMAT
  1
GRIDFORMAT_BEGIN
 90
        0
 91
        1
 62
     0
 92
       -2
340
14
 93
        0
 40
0.045
309
GRIDFORMAT_END
 95
        4
302
GRIDFORMAT
  1
GRIDFORMAT_BEGIN
 90
        0
 91
        1
 62
     0
 92
       -2
340
14
 93
        0
 40
0.045
309
GRIDFORMAT_END
 95
        8
302
GRIDFORMAT
  1
GRIDFORMAT_BEGIN
 90
        0
 91
        1
 62
     0
 92
       -2
340
14
 93
        0
 40
0.045
309
GRIDFORMAT_END
 95
       16
302
GRIDFORMAT
  1
GRIDFORMAT_BEGIN
 90
        0
 91
        1
 62
     0
 92
       -2
340
14
 93
        0
 40
0.045
309
GRIDFORMAT_END
 95
       32
302
GRIDFORMAT
  1
GRIDFORMAT_BEGIN
 90
        0
 91
        1
 62
     0
 92
       -2
340
14
 93
        0
 40
0.045
309
GRIDFORMAT_END
309
TABLEFORMAT_END
  1
CELLSTYLE_BEGIN
 90
        3
 91
        2
300
_DATA
309
CELLSTYLE_END
  0
XRECORD
  5
1C3
102
{ACAD_REACTORS
330
1C2
102
}
330
1C2
100
AcDbXrecord
280
     1
102
ACAD_ROUNDTRIP_PRE2007_TABLESTYLE
 90
        4
 91
        0
  1

 92
        4
 93
        0
  2

 94
        4
 95
        0
  3

  0
ENDSEC
  0
EOF
