999
DXF file: 70508016.dxf
999
Pro/ENGINEER 2017380 by Parametric Technology Corporation
  0
SECTION
  2
HEADER
  9
$ACADVER
  1
AC1027
  9
$DWGCODEPAGE
  3
ANSI_1252
  9
$EXTMAX
 10
420.0
 20
297.0
 30
0.0
  9
$EXTMIN
 10
0.0
 20
0.0
 30
0.0
  9
$LIMMIN
 10
0.0
 20
0.0
  9
$LIMMAX
 10
420.0
 20
297.0
  9
$VIEWCTR
 10
210.0
 20
148.5
  9
$VIEWSIZE
 40
297.0
  9
$CLAYER
  8
0
  9
$LTSCALE
 40
23.1
  9
$CELTYPE
  6
BYLAYER
  9
$DIMSCALE
 40
1.0
  9
$DIMASZ
 40
3.5
  9
$DIMEXO
 40
0.0
  9
$DIMDLI
 40
15.96
  9
$DIMEXE
 40
1.5
  9
$DIMCEN
 40
3.78
  9
$DIMLFAC
 40
1.0
  9
$DIMBLK
  1
_FILLED
  9
$DIMALT
 70
0
  9
$DIMALTF
 40
25.4
  9
$DIMTXT
 40
3.5
  9
$DIMTOL
 70
1
  9
$DIMLIM
 70
0
  9
$DIMTFAC
 40
1.0
  9
$DIMTP
 40
0.05
  9
$DIMTM
 40
0.05
  9
$DIMGAP
 40
0.625
  9
$DIMDSEP
 70
46
  9
$AUNITS
 70
0
  9
$PDMODE
 70
3
  9
$PDSIZE
 40
0.3125
  9
$HANDSEED
  5
280
  9
$TILEMODE
 70
1
  9
$MEASUREMENT
 70
1
  9
$INSUNITS
 70
4
  0
ENDSEC
  0
SECTION
  2
CLASSES
  0
CLASS
  1
ACDBDICTIONARYWDFLT
  2
AcDbDictionaryWithDefault
  3
AutoCAD 2000
 90
0
 91
1
280
0
281
0
  0
CLASS
  1
ACDBPLACEHOLDER
  2
AcDbPlaceHolder
  3
AutoCAD 2000
 90
0
 91
1
280
0
281
0
  0
CLASS
  1
LAYOUT
  2
AcDbLayout
  3
AutoCAD 2000
 90
0
 91
0
280
0
281
0
  0
ENDSEC
  0
SECTION
  2
TABLES
  0
TABLE
  2
VPORT
  5
8
100
AcDbSymbolTable
 70
2
  0
VPORT
  5
1F4
100
AcDbSymbolTableRecord
100
AcDbViewportTableRecord
  2
*ACTIVE
 70
0
 10
0.0
 20
0.0
 11
1.0
 21
1.0
 12
210.0
 22
148.5
 13
0.0
 23
0.0
 14
1.0
 24
1.0
 15
0.0
 25
0.0
 16
0.0
 26
0.0
 36
1.0
 17
0.0
 27
0.0
 37
0.0
 40
297.0
 41
1.4141414141
 42
50.0
 43
0.0
 44
0.0
 50
0.0
 51
0.0
 71
0
 72
100
 73
1
 74
1
 75
0
 76
0
 77
0
 78
0
  0
ENDTAB
  0
TABLE
  2
LTYPE
  5
5
100
AcDbSymbolTable
 70
6
  0
LTYPE
  5
14
100
AcDbSymbolTableRecord
100
AcDbLinetypeTableRecord
  2
BYBLOCK
 70
0
  3

 72
65
 73
0
 40
0.0
  0
LTYPE
  5
15
100
AcDbSymbolTableRecord
100
AcDbLinetypeTableRecord
  2
BYLAYER
 70
0
  3

 72
65
 73
0
 40
0.0
  0
LTYPE
  5
16
100
AcDbSymbolTableRecord
100
AcDbLinetypeTableRecord
  2
CONTINUOUS
 70
64
  3
Solid line
 72
65
 73
0
 40
0.0
  0
LTYPE
  5
1F5
100
AcDbSymbolTableRecord
100
AcDbLinetypeTableRecord
  2
CENTER
 70
64
  3
____ _ ____ _ ____ _ ____ _ ____ _ ____ _ ____
 72
65
 73
4
 40
0.6
 49
0.375
 74
0
 49
-0.075
 74
0
 49
0.075
 74
0
 49
-0.075
 74
0
  0
LTYPE
  5
1F6
100
AcDbSymbolTableRecord
100
AcDbLinetypeTableRecord
  2
HIDDEN
 70
64
  3
- - - - - - - - - - - - - - - - - - - -
 72
65
 73
2
 40
0.2
 49
0.1
 74
0
 49
-0.1
 74
0
  0
LTYPE
  5
1F7
100
AcDbSymbolTableRecord
100
AcDbLinetypeTableRecord
  2
PHANTOM
 70
64
  3
_____ _ _ _____ _ _ _____ _ _ _____
 72
65
 73
6
 40
0.8
 49
0.45
 74
0
 49
-0.05
 74
0
 49
0.1
 74
0
 49
-0.05
 74
0
 49
0.1
 74
0
 49
-0.05
 74
0
  0
LTYPE
  5
1F8
100
AcDbSymbolTableRecord
100
AcDbLinetypeTableRecord
  2
DOT
 70
64
  3
. . . . . . . . . . . . . . . . . . . .
 72
65
 73
2
 40
0.2
 49
0.1
 74
0
 49
-0.1
 74
0
  0
LTYPE
  5
1F9
100
AcDbSymbolTableRecord
100
AcDbLinetypeTableRecord
  2
DASHED
 70
64
  3
- - - - - - - - - - - - - - - - - - - -
 72
65
 73
2
 40
0.2
 49
0.1
 74
0
 49
-0.1
 74
0
  0
ENDTAB
  0
TABLE
  2
LAYER
  5
2
100
AcDbSymbolTable
 70
36
  0
LAYER
  5
10
100
AcDbSymbolTableRecord
100
AcDbLayerTableRecord
  2
0
 70
0
 62
7
  6
CONTINUOUS
370
-3
390
F
  0
LAYER
  5
1FA
100
AcDbSymbolTableRecord
100
AcDbLayerTableRecord
  2
DEFAULT_1
 70
0
 62
7
  6
CENTER
370
-3
390
F
  0
LAYER
  5
1FB
100
AcDbSymbolTableRecord
100
AcDbLayerTableRecord
  2
DEFAULT_2
 70
0
 62
1
  6
HIDDEN
370
-3
390
F
  0
LAYER
  5
1FC
100
AcDbSymbolTableRecord
100
AcDbLayerTableRecord
  2
DEFAULT_3
 70
0
 62
7
  6
PHANTOM
370
-3
390
F
  0
LAYER
  5
1FD
100
AcDbSymbolTableRecord
100
AcDbLayerTableRecord
  2
BG_STARTBEZUEGE
 70
0
 62
7
  6
CONTINUOUS
370
-3
390
F
  0
LAYER
  5
1FE
100
AcDbSymbolTableRecord
100
AcDbLayerTableRecord
  2
HILFEN
 70
0
 62
7
  6
CONTINUOUS
370
-3
390
F
  0
LAYER
  5
1FF
100
AcDbSymbolTableRecord
100
AcDbLayerTableRecord
  2
PLATZIERUNG
 70
0
 62
7
  6
CONTINUOUS
370
-3
390
F
  0
LAYER
  5
200
100
AcDbSymbolTableRecord
100
AcDbLayerTableRecord
  2
T_STARTBEZUEGE
 70
0
 62
7
  6
CONTINUOUS
370
-3
390
F
  0
LAYER
  5
201
100
AcDbSymbolTableRecord
100
AcDbLayerTableRecord
  2
_03_2D_ZEICHNUNG_BEMASSUNGEN
 70
0
 62
7
  6
CONTINUOUS
370
-3
390
F
  0
LAYER
  5
202
100
AcDbSymbolTableRecord
100
AcDbLayerTableRecord
  2
_04_NOTIZEN
 70
0
 62
7
  6
CONTINUOUS
370
-3
390
F
  0
LAYER
  5
203
100
AcDbSymbolTableRecord
100
AcDbLayerTableRecord
  2
_05_2D_ELEMENTE
 70
0
 62
7
  6
CONTINUOUS
370
-3
390
F
  0
LAYER
  5
204
100
AcDbSymbolTableRecord
100
AcDbLayerTableRecord
  2
_07_EINRASTLINIEN
 70
0
 62
7
  6
CONTINUOUS
370
-3
390
F
  0
LAYER
  5
205
100
AcDbSymbolTableRecord
100
AcDbLayerTableRecord
  2
_21_KURVEN
 70
0
 62
7
  6
CONTINUOUS
370
-3
390
F
  0
LAYER
  5
206
100
AcDbSymbolTableRecord
100
AcDbLayerTableRecord
  2
_24_IMPORT
 70
0
 62
7
  6
CONTINUOUS
370
-3
390
F
  0
LAYER
  5
207
100
AcDbSymbolTableRecord
100
AcDbLayerTableRecord
  2
_26_BEZUGSACHSEN
 70
0
 62
7
  6
CONTINUOUS
370
-3
390
F
  0
LAYER
  5
208
100
AcDbSymbolTableRecord
100
AcDbLayerTableRecord
  2
_27_BEZUGSEBENEN
 70
0
 62
7
  6
CONTINUOUS
370
-3
390
F
  0
LAYER
  5
209
100
AcDbSymbolTableRecord
100
AcDbLayerTableRecord
  2
_28_BEZUGSPUNKTE
 70
0
 62
7
  6
CONTINUOUS
370
-3
390
F
  0
LAYER
  5
20A
100
AcDbSymbolTableRecord
100
AcDbLayerTableRecord
  2
_29_KOORDINATENSYSTEME
 70
0
 62
7
  6
CONTINUOUS
370
-3
390
F
  0
LAYER
  5
20B
100
AcDbSymbolTableRecord
100
AcDbLayerTableRecord
  2
_30_VOLUMEN
 70
0
 62
7
  6
CONTINUOUS
370
-3
390
F
  0
ENDTAB
  0
TABLE
  2
STYLE
  5
3
100
AcDbSymbolTable
 70
1
  0
STYLE
  5
11
100
AcDbSymbolTableRecord
100
AcDbTextStyleTableRecord
  2
STANDARD
 70
0
 40
0.0
 41
0.7
 50
0.0
 71
0
 42
0.2
  3
SIMPLEX.SHX
  4

  0
STYLE
  5
20C
100
AcDbSymbolTableRecord
100
AcDbTextStyleTableRecord
  2
TEXTSTYLE_1
 70
0
 40
0.0
 41
0.8
 50
0.0
 71
0
 42
0.2
  3
gdt
  4

  0
ENDTAB
  0
TABLE
  2
VIEW
  5
6
100
AcDbSymbolTable
 70
0
  0
ENDTAB
  0
TABLE
  2
UCS
  5
7
100
AcDbSymbolTable
 70
0
  0
ENDTAB
  0
TABLE
  2
APPID
  5
9
100
AcDbSymbolTable
 70
1
  0
APPID
  5
20D
100
AcDbSymbolTableRecord
100
AcDbRegAppTableRecord
  2
ACAD
 70
0
  0
ENDTAB
  0
TABLE
  2
BLOCK_RECORD
  5
1
100
AcDbSymbolTable
 70
0
  0
BLOCK_RECORD
  5
20E
100
AcDbSymbolTableRecord
100
AcDbBlockTableRecord
  2
*Model_Space
  0
BLOCK_RECORD
  5
20F
100
AcDbSymbolTableRecord
100
AcDbBlockTableRecord
  2
*Paper_Space
  0
BLOCK_RECORD
  5
210
100
AcDbSymbolTableRecord
100
AcDbBlockTableRecord
  2
_FILLED
  0
BLOCK_RECORD
  5
211
100
AcDbSymbolTableRecord
100
AcDbBlockTableRecord
  2
*D0
  0
BLOCK_RECORD
  5
212
100
AcDbSymbolTableRecord
100
AcDbBlockTableRecord
  2
*D1
  0
BLOCK_RECORD
  5
213
100
AcDbSymbolTableRecord
100
AcDbBlockTableRecord
  2
*D2
  0
ENDTAB
  0
TABLE
  2
DIMSTYLE
  5
A
100
AcDbSymbolTable
 70
1
100
AcDbDimStyleTable
 71
0
  0
DIMSTYLE
105
214
100
AcDbSymbolTableRecord
100
AcDbDimStyleTableRecord
  2
STANDARD
 70
0
  3

  4

 40
1.0
 41
3.5
 42
0.0
 43
0.38
 44
1.5
 45
0.0
 46
0.0
 47
0.05
 48
0.05
140
3.5
141
0.09
142
0.0
143
25.4
144
1.0
145
0.0
146
1.0
147
0.625
 71
1.0
 72
0.0
 73
0
 74
0
 75
0
 76
0
 77
1
 78
8
 79
2
170
0
171
1
172
0
173
0
174
0
175
0
176
0
177
0
178
2
270
2
179
2
271
2
272
2
273
2
274
2
275
0
280
0
281
0
282
0
283
1
284
8
285
0
286
0
287
3
288
0
340
11
278
46
341
210
342
210
343
210
344
210
  0
DIMSTYLE
105
215
100
AcDbSymbolTableRecord
100
AcDbDimStyleTableRecord
  2
DIMSTYLE_1
 70
0
  3

  4

 40
1.0
 41
3.5
 42
0.0
 43
0.38
 44
1.5
 45
0.0
 46
0.0
 47
0.2
 48
0.2
140
3.5
141
0.09
142
0.0
143
25.4
144
1.0
145
0.0
146
1.0
147
0.875
 71
0.0
 72
0.0
 73
0
 74
0
 75
0
 76
0
 77
1
 78
8
 79
2
170
0
171
1
172
0
173
0
174
0
175
0
176
0
177
0
178
2
270
2
179
2
271
2
272
2
273
2
274
2
275
0
280
0
281
0
282
0
283
1
284
8
285
0
286
0
287
3
288
0
340
11
278
46
341
210
342
210
343
210
344
210
  0
DIMSTYLE
105
216
100
AcDbSymbolTableRecord
100
AcDbDimStyleTableRecord
  2
DIMSTYLE_2
 70
0
  3

  4

 40
1.0
 41
3.5
 42
0.0
 43
0.38
 44
1.5
 45
0.0
 46
0.0
 47
0.3
 48
0.3
140
3.5
141
0.09
142
0.0
143
25.4
144
1.0
145
0.0
146
1.0
147
0.875
 71
0.0
 72
0.0
 73
0
 74
0
 75
0
 76
0
 77
1
 78
8
 79
2
170
0
171
1
172
0
173
0
174
0
175
0
176
0
177
0
178
2
270
2
179
2
271
2
272
2
273
2
274
2
275
0
280
0
281
0
282
0
283
1
284
8
285
0
286
0
287
3
288
0
340
11
278
46
341
210
342
210
343
210
344
210
  0
ENDTAB
  0
ENDSEC
  0
SECTION
  2
BLOCKS
  0
BLOCK
  5
20
100
AcDbEntity
  8
0
100
AcDbBlockBegin
  2
*Model_Space
 70
0
 10
0.0
 20
0.0
 30
0.0
  3
*Model_Space
  1

  0
ENDBLK
  5
21
100
AcDbEntity
  8
0
100
AcDbBlockEnd
  0
BLOCK
  5
1C
100
AcDbEntity
  8
0
100
AcDbBlockBegin
  2
*Paper_Space
 70
0
 10
0.0
 20
0.0
 30
0.0
  3
*Paper_Space
  1

  0
ENDBLK
  5
1D
100
AcDbEntity
  8
0
100
AcDbBlockEnd
  0
BLOCK
  5
217
100
AcDbEntity
  8
0
100
AcDbBlockBegin
  2
_FILLED
 70
64
 10
0.0
 20
0.0
  3
_FILLED
  1

  0
SOLID
  5
218
100
AcDbEntity
  8
0
  6
BYBLOCK
 62
0
100
AcDbTrace
 10
0.0
 20
0.0
 11
-1.0
 21
0.125
 12
-1.0
 22
-0.125
 13
-1.0
 23
-0.125
  0
ENDBLK
  5
219
100
AcDbEntity
  8
0
  6
BYBLOCK
 62
0
100
AcDbBlockEnd
  0
BLOCK
  5
21A
100
AcDbEntity
  8
_03_2D_ZEICHNUNG_BEMASSUNGEN
100
AcDbBlockBegin
 62
7
  6
CONTINUOUS
  2
*D0
 70
65
 10
0.0
 20
0.0
  3
*D0
  1

  0
TEXT
  5
21B
100
AcDbEntity
  8
_03_2D_ZEICHNUNG_BEMASSUNGEN
100
AcDbText
 62
2
  6
CONTINUOUS
 10
-9.875
 20
5.625
  7
STANDARD
 40
3.5
  1
16
 50
90.0
 41
0.6785714286
 72
1
 11
-9.875
 21
8.0
100
AcDbText
  0
LINE
  5
21C
100
AcDbEntity
  8
_03_2D_ZEICHNUNG_BEMASSUNGEN
100
AcDbLine
 62
7
  6
CONTINUOUS
 10
0.0
 20
16.0
 11
-10.5
 21
16.0
  0
LINE
  5
21D
100
AcDbEntity
  8
_03_2D_ZEICHNUNG_BEMASSUNGEN
100
AcDbLine
 62
7
  6
CONTINUOUS
 10
-0.0
 20
-0.0
 11
-10.5
 21
0.0
  0
LINE
  5
21E
100
AcDbEntity
  8
_03_2D_ZEICHNUNG_BEMASSUNGEN
100
AcDbLine
 62
7
  6
CONTINUOUS
 10
-9.0
 20
16.0
 11
-9.0
 21
22.0
  0
LINE
  5
21F
100
AcDbEntity
  8
_03_2D_ZEICHNUNG_BEMASSUNGEN
100
AcDbLine
 62
7
  6
CONTINUOUS
 10
-9.0
 20
22.0
 11
-9.0
 21
8.0
  0
LINE
  5
220
100
AcDbEntity
  8
_03_2D_ZEICHNUNG_BEMASSUNGEN
100
AcDbLine
 62
7
  6
CONTINUOUS
 10
-9.0
 20
0.0
 11
-9.0
 21
-6.0
  0
LINE
  5
221
100
AcDbEntity
  8
_03_2D_ZEICHNUNG_BEMASSUNGEN
100
AcDbLine
 62
7
  6
CONTINUOUS
 10
-9.0
 20
-6.0
 11
-9.0
 21
8.0
  0
INSERT
  5
222
100
AcDbEntity
  8
_03_2D_ZEICHNUNG_BEMASSUNGEN
100
AcDbBlockReference
 62
7
  6
CONTINUOUS
  2
_FILLED
 10
-9.0
 20
16.0
 41
3.5
 42
3.5
 43
3.5
 50
270.0
  0
INSERT
  5
223
100
AcDbEntity
  8
_03_2D_ZEICHNUNG_BEMASSUNGEN
100
AcDbBlockReference
 62
7
  6
CONTINUOUS
  2
_FILLED
 10
-9.0
 20
0.0
 41
3.5
 42
3.5
 43
3.5
 50
90.0
  0
ENDBLK
  5
224
100
AcDbEntity
  8
0
  6
BYBLOCK
 62
0
100
AcDbBlockEnd
  0
BLOCK
  5
225
100
AcDbEntity
  8
_03_2D_ZEICHNUNG_BEMASSUNGEN
100
AcDbBlockBegin
 62
7
  6
CONTINUOUS
  2
*D1
 70
65
 10
0.0
 20
0.0
  3
*D1
  1

  0
TEXT
  5
226
100
AcDbEntity
  8
_03_2D_ZEICHNUNG_BEMASSUNGEN
100
AcDbText
 62
2
  6
CONTINUOUS
 10
46.25
 20
29.9148071799
  7
STANDARD
 40
3.5
  1
100
 41
0.7142857143
 72
1
 11
50.0
 21
29.9148071799
100
AcDbText
  0
LINE
  5
227
100
AcDbEntity
  8
_03_2D_ZEICHNUNG_BEMASSUNGEN
100
AcDbLine
 62
7
  6
CONTINUOUS
 10
100.0
 20
0.0
 11
100.0
 21
30.5398071799
  0
LINE
  5
228
100
AcDbEntity
  8
_03_2D_ZEICHNUNG_BEMASSUNGEN
100
AcDbLine
 62
7
  6
CONTINUOUS
 10
0.0
 20
0.0
 11
0.0
 21
30.5398071799
  0
LINE
  5
229
100
AcDbEntity
  8
_03_2D_ZEICHNUNG_BEMASSUNGEN
100
AcDbLine
 62
7
  6
CONTINUOUS
 10
100.0
 20
29.0398071799
 11
50.0
 21
29.0398071799
  0
LINE
  5
22A
100
AcDbEntity
  8
_03_2D_ZEICHNUNG_BEMASSUNGEN
100
AcDbLine
 62
7
  6
CONTINUOUS
 10
0.0
 20
29.0398071799
 11
50.0
 21
29.0398071799
  0
INSERT
  5
22B
100
AcDbEntity
  8
_03_2D_ZEICHNUNG_BEMASSUNGEN
100
AcDbBlockReference
 62
7
  6
CONTINUOUS
  2
_FILLED
 10
100.0
 20
29.0398071799
 41
3.5
 42
3.5
 43
3.5
  0
INSERT
  5
22C
100
AcDbEntity
  8
_03_2D_ZEICHNUNG_BEMASSUNGEN
100
AcDbBlockReference
 62
7
  6
CONTINUOUS
  2
_FILLED
 10
0.0
 20
29.0398071799
 41
3.5
 42
3.5
 43
3.5
 50
180.0
  0
ENDBLK
  5
22D
100
AcDbEntity
  8
0
  6
BYBLOCK
 62
0
100
AcDbBlockEnd
  0
BLOCK
  5
22E
100
AcDbEntity
  8
_03_2D_ZEICHNUNG_BEMASSUNGEN
100
AcDbBlockBegin
 62
7
  6
CONTINUOUS
  2
*D2
 70
65
 10
0.0
 20
0.0
  3
*D2
  1

  0
TEXT
  5
22F
100
AcDbEntity
  8
_03_2D_ZEICHNUNG_BEMASSUNGEN
100
AcDbText
 62
2
  6
CONTINUOUS
 10
108.1644995576
 20
7.25
  7
STANDARD
 40
3.5
  1
20
 50
90.0
 41
0.7857142857
 72
1
 11
108.1644995576
 21
10.0
100
AcDbText
  0
LINE
  5
230
100
AcDbEntity
  8
_03_2D_ZEICHNUNG_BEMASSUNGEN
100
AcDbLine
 62
7
  6
CONTINUOUS
 10
100.0
 20
20.0
 11
110.5394995576
 21
20.0
  0
LINE
  5
231
100
AcDbEntity
  8
_03_2D_ZEICHNUNG_BEMASSUNGEN
100
AcDbLine
 62
7
  6
CONTINUOUS
 10
0.0
 20
0.0
 11
110.5394995576
 21
0.0
  0
LINE
  5
232
100
AcDbEntity
  8
_03_2D_ZEICHNUNG_BEMASSUNGEN
100
AcDbLine
 62
7
  6
CONTINUOUS
 10
109.0394995576
 20
20.0
 11
109.0394995576
 21
10.0
  0
LINE
  5
233
100
AcDbEntity
  8
_03_2D_ZEICHNUNG_BEMASSUNGEN
100
AcDbLine
 62
7
  6
CONTINUOUS
 10
109.0394995576
 20
0.0
 11
109.0394995576
 21
10.0
  0
INSERT
  5
234
100
AcDbEntity
  8
_03_2D_ZEICHNUNG_BEMASSUNGEN
100
AcDbBlockReference
 62
7
  6
CONTINUOUS
  2
_FILLED
 10
109.0394995576
 20
20.0
 41
3.5
 42
3.5
 43
3.5
 50
90.0
  0
INSERT
  5
235
100
AcDbEntity
  8
_03_2D_ZEICHNUNG_BEMASSUNGEN
100
AcDbBlockReference
 62
7
  6
CONTINUOUS
  2
_FILLED
 10
109.0394995576
 20
0.0
 41
3.5
 42
3.5
 43
3.5
 50
270.0
  0
ENDBLK
  5
236
100
AcDbEntity
  8
0
  6
BYBLOCK
 62
0
100
AcDbBlockEnd
  0
ENDSEC
  0
SECTION
  2
ENTITIES
  0
DIMENSION
  5
237
100
AcDbEntity
  8
_03_2D_ZEICHNUNG_BEMASSUNGEN
100
AcDbDimension
 62
7
  6
CONTINUOUS
  2
*D0
 10
-9.0
 20
0.0
 11
-9.0
 21
7.499999876
 70
160
 71
2
 42
16.0
  3
DIMSTYLE_1
100
AcDbAlignedDimension
 13
0.0
 23
16.0
 14
-0.0
 24
-0.0
 50
270.0
100
AcDbRotatedDimension
  0
DIMENSION
  5
238
100
AcDbEntity
  8
_03_2D_ZEICHNUNG_BEMASSUNGEN
100
AcDbDimension
 62
7
  6
CONTINUOUS
  2
*D1
 10
0.0
 20
29.0398071799
 11
49.5000002289
 21
29.0398071799
 70
160
 71
2
 42
100.0
  3
DIMSTYLE_2
100
AcDbAlignedDimension
 13
100.0
 23
0.0
 14
0.0
 24
0.0
 50
180.0
100
AcDbRotatedDimension
  0
DIMENSION
  5
239
100
AcDbEntity
  8
_03_2D_ZEICHNUNG_BEMASSUNGEN
100
AcDbDimension
 62
7
  6
CONTINUOUS
  2
*D2
 10
109.0394995576
 20
0.0
 11
109.0394995576
 21
9.4999987334
 70
160
 71
2
 42
20.0
  3
DIMSTYLE_1
100
AcDbAlignedDimension
 13
100.0
 23
20.0
 14
0.0
 24
0.0
 50
270.0
100
AcDbRotatedDimension
  0
LINE
  5
23A
100
AcDbEntity
  8
_30_VOLUMEN
100
AcDbLine
 62
4
  6
CONTINUOUS
 10
-0.0
 20
0.5
 11
0.0
 21
15.5
  0
LINE
  5
23B
100
AcDbEntity
  8
_30_VOLUMEN
100
AcDbLine
 62
4
  6
CONTINUOUS
 10
0.5
 20
-0.0
 11
0.5
 21
16.0
  0
LINE
  5
23C
100
AcDbEntity
  8
_30_VOLUMEN
100
AcDbLine
 62
4
  6
CONTINUOUS
 10
0.5
 20
16.0
 11
0.0
 21
15.5
  0
LINE
  5
23D
100
AcDbEntity
  8
_30_VOLUMEN
100
AcDbLine
 62
4
  6
CONTINUOUS
 10
0.5
 20
-0.0
 11
-0.0
 21
0.5
  0
LINE
  5
23E
100
AcDbEntity
  8
_30_VOLUMEN
100
AcDbLine
 62
4
  6
CONTINUOUS
 10
97.7886640046
 20
6.7256381223
 11
97.9165026568
 21
6.7368225552
  0
LINE
  5
23F
100
AcDbEntity
  8
_30_VOLUMEN
100
AcDbLine
 62
4
  6
CONTINUOUS
 10
0.5
 20
-0.0
 11
73.8
 21
0.0
  0
LINE
  5
240
100
AcDbEntity
  8
0
100
AcDbLine
 62
4
  6
CONTINUOUS
 10
73.8
 20
0.0
 11
97.0137136328
 21
0.0
  0
LINE
  5
241
100
AcDbEntity
  8
_30_VOLUMEN
100
AcDbLine
 62
4
  6
CONTINUOUS
 10
98.3740209163
 20
7.1943408146
 11
87.2071860263
 21
6.2173693543
  0
LINE
  5
242
100
AcDbEntity
  8
_21_KURVEN
100
AcDbLine
 62
7
  6
CONTINUOUS
 10
98.3740209163
 20
7.1943408146
 11
87.2071860263
 21
6.2173693543
  0
LINE
  5
243
100
AcDbEntity
  8
_26_BEZUGSACHSEN
100
AcDbLine
 62
4
  6
CONTINUOUS
 10
97.8254714329
 20
7.1463489535
 11
86.2626141042
 21
6.1347300192
  0
LINE
  5
244
100
AcDbEntity
  8
_30_VOLUMEN
100
AcDbLine
 62
4
  6
CONTINUOUS
 10
87.4391439385
 20
18.7526107722
 11
86.981625679
 21
18.2950925127
  0
LINE
  5
245
100
AcDbEntity
  8
_30_VOLUMEN
100
AcDbLine
 62
7
  6
CONTINUOUS
 10
87.2109554604
 20
18.2563862521
 11
86.753437201
 21
17.7988679926
  0
LINE
  5
246
100
AcDbEntity
  8
_26_BEZUGSACHSEN
100
AcDbLine
 62
4
  6
CONTINUOUS
 10
87.1774556282
 20
17.8281929143
 11
77.2573096263
 21
16.9602925986
  0
LINE
  5
247
100
AcDbEntity
  8
_30_VOLUMEN
100
AcDbLine
 62
4
  6
CONTINUOUS
 10
87.9280927455
 20
18.9801963845
 11
99.0949276355
 21
19.9571678448
  0
LINE
  5
248
100
AcDbEntity
  8
_21_KURVEN
100
AcDbLine
 62
7
  6
CONTINUOUS
 10
87.9280927455
 20
18.9801963845
 11
99.0949276355
 21
19.9571678448
  0
LINE
  5
249
100
AcDbEntity
  8
_30_VOLUMEN
100
AcDbLine
 62
4
  6
CONTINUOUS
 10
0.5
 20
16.0
 11
73.8
 21
16.0
  0
LINE
  5
24A
100
AcDbEntity
  8
0
100
AcDbLine
 62
4
  6
CONTINUOUS
 10
73.8
 20
16.0
 11
77.0
 21
16.0
  0
LINE
  5
24B
100
AcDbEntity
  8
_30_VOLUMEN
100
AcDbLine
 62
4
  6
CONTINUOUS
 10
77.0
 20
16.0
 11
77.2573096263
 21
16.9602925986
  0
LINE
  5
24C
100
AcDbEntity
  8
_28_BEZUGSPUNKTE
100
AcDbLine
 62
1
  6
CONTINUOUS
 10
100.15625
 20
20.15625
 11
99.84375
 21
19.84375
  0
LINE
  5
24D
100
AcDbEntity
  8
0
100
AcDbLine
 62
4
  6
CONTINUOUS
 10
74.5651825398
 20
16.0
 11
74.9705772629
 21
0.0
  0
LINE
  5
24E
100
AcDbEntity
  8
0
100
AcDbLine
 62
4
  6
CONTINUOUS
 10
73.8
 20
16.0
 11
73.8
 21
0.0
  0
LINE
  5
24F
100
AcDbEntity
  8
_30_VOLUMEN
100
AcDbLine
 62
7
  6
CONTINUOUS
 10
98.3740209163
 20
7.1943408146
 11
97.9165026568
 21
6.7368225552
  0
LINE
  5
250
100
AcDbEntity
  8
_30_VOLUMEN
100
AcDbLine
 62
4
  6
CONTINUOUS
 10
98.8629697233
 20
7.4219264269
 11
98.4054514638
 21
6.9644081675
  0
LINE
  5
251
100
AcDbEntity
  8
_30_VOLUMEN
100
AcDbLine
 62
4
  6
CONTINUOUS
 10
97.2181311273
 20
0.2044174945
 11
97.0137136328
 21
0.0
  0
LINE
  5
252
100
AcDbEntity
  8
_26_BEZUGSACHSEN
100
AcDbLine
 62
4
  6
CONTINUOUS
 10
86.2626141042
 20
6.1347300192
 11
87.1774556282
 21
17.8281929143
  0
LINE
  5
253
100
AcDbEntity
  8
_30_VOLUMEN
100
AcDbLine
 62
4
  6
CONTINUOUS
 10
86.3365755053
 20
7.0801012964
 11
87.2109554604
 21
18.2563862521
  0
LINE
  5
254
100
AcDbEntity
  8
_21_KURVEN
100
AcDbLine
 62
7
  6
CONTINUOUS
 10
86.3365755053
 20
7.0801012964
 11
87.2109554604
 21
18.2563862521
  0
LINE
  5
255
100
AcDbEntity
  8
_26_BEZUGSACHSEN
100
AcDbLine
 62
4
  6
CONTINUOUS
 10
97.8254714329
 20
7.1463489535
 11
97.2181311273
 21
0.2044174945
  0
LINE
  5
256
100
AcDbEntity
  8
_21_KURVEN
100
AcDbLine
 62
7
  6
CONTINUOUS
 10
99.9655381564
 20
19.0944359027
 11
99.0911582013
 21
7.918150947
  0
LINE
  5
257
100
AcDbEntity
  8
_30_VOLUMEN
100
AcDbLine
 62
4
  6
CONTINUOUS
 10
99.9655381564
 20
19.0944359027
 11
99.0911582013
 21
7.918150947
  0
LINE
  5
258
100
AcDbEntity
  8
_28_BEZUGSPUNKTE
100
AcDbLine
 62
1
  6
CONTINUOUS
 10
100.15625
 20
19.84375
 11
99.84375
 21
20.15625
  0
ARC
  5
259
100
AcDbEntity
  8
_30_VOLUMEN
100
AcDbCircle
 62
4
  6
CONTINUOUS
 10
92.6727153237
 20
12.6478009315
 40
2.5523819904
100
AcDbArc
 50
125.9469945549
 51
129.8244965943
  0
ARC
  5
25A
100
AcDbEntity
  8
_30_VOLUMEN
100
AcDbCircle
 62
4
  6
CONTINUOUS
 10
92.7100208111
 20
12.6052742455
 40
2.551710833
100
AcDbArc
 50
324.1465090248
 51
5.5797570465
  0
ARC
  5
25B
100
AcDbEntity
  8
_30_VOLUMEN
100
AcDbCircle
 62
4
  6
CONTINUOUS
 10
92.7379555189
 20
12.5879600809
 40
2.5189291842
100
AcDbArc
 50
320.7705199454
 51
324.0935484853
  0
ARC
  5
25C
100
AcDbEntity
  8
_30_VOLUMEN
100
AcDbCircle
 62
4
  6
CONTINUOUS
 10
92.7472986421
 20
12.5804661339
 40
2.5069524423
100
AcDbArc
 50
320.2935952954
 51
320.7681454054
  0
SPLINE
  5
25D
100
AcDbEntity
  8
_30_VOLUMEN
100
AcDbSpline
 62
4
  6
CONTINUOUS
 70
0
 71
3
 72
11
 73
7
 74
0
 42
0.0000001
 43
0.0000001
 44
0.0000000001
 40
0.0
 40
0.0
 40
0.0
 40
0.0
 40
0.2496349922
 40
0.5000147789
 40
0.7503855881
 40
1.0
 40
1.0
 40
1.0
 40
1.0
 10
99.9655381564
 20
19.0944359027
 30
0.0
 10
99.9745111843
 20
19.2091287382
 30
0.0
 10
99.9412604266
 20
19.4458976552
 30
0.0
 10
99.7473208077
 20
19.7449002072
 30
0.0
 10
99.4465759303
 20
19.9361118671
 30
0.0
 10
99.2095237165
 20
19.9671937028
 30
0.0
 10
99.0949276355
 20
19.9571678448
 30
0.0
  0
SPLINE
  5
25E
100
AcDbEntity
  8
_30_VOLUMEN
100
AcDbSpline
 62
4
  6
CONTINUOUS
 70
0
 71
3
 72
9
 73
5
 74
0
 42
0.0000001
 43
0.0000001
 44
0.0000000001
 40
0.0
 40
0.0
 40
0.0
 40
0.0
 40
0.5000778014
 40
1.0
 40
1.0
 40
1.0
 40
1.0
 10
87.9280927455
 20
18.9801963845
 30
0.0
 10
87.8371598325
 20
18.9722407854
 30
0.0
 10
87.6568158579
 20
18.9239996149
 30
0.0
 10
87.5036187488
 20
18.8171860102
 30
0.0
 10
87.4390939174
 20
18.7526612245
 30
0.0
  0
SPLINE
  5
25F
100
AcDbEntity
  8
_30_VOLUMEN
100
AcDbSpline
 62
4
  6
CONTINUOUS
 70
0
 71
3
 72
9
 73
5
 74
0
 42
0.0000001
 43
0.0000001
 44
0.0000000001
 40
0.0
 40
0.0
 40
0.0
 40
0.0
 40
0.5001197338
 40
1.0
 40
1.0
 40
1.0
 40
1.0
 10
86.753437201
 20
17.7988679926
 30
0.0
 10
86.7606508821
 20
17.8910729379
 30
0.0
 10
86.8082627682
 20
18.074237537
 30
0.0
 10
86.916208978
 20
18.2297763314
 30
0.0
 10
86.9815756579
 20
18.295142965
 30
0.0
  0
SPLINE
  5
260
100
AcDbEntity
  8
_30_VOLUMEN
100
AcDbSpline
 62
4
  6
CONTINUOUS
 70
0
 71
3
 72
9
 73
5
 74
0
 42
0.0000001
 43
0.0000001
 44
0.0000000001
 40
0.0
 40
0.0
 40
0.0
 40
0.0
 40
0.4998802662
 40
1.0
 40
1.0
 40
1.0
 40
1.0
 10
98.8630197444
 20
7.4218759746
 30
0.0
 10
98.9283864243
 20
7.4872426082
 30
0.0
 10
99.0363326341
 20
7.6427814026
 30
0.0
 10
99.0839445202
 20
7.8259460017
 30
0.0
 10
99.0911582013
 20
7.918150947
 30
0.0
  0
SPLINE
  5
261
100
AcDbEntity
  8
_30_VOLUMEN
100
AcDbSpline
 62
4
  6
CONTINUOUS
 70
0
 71
3
 72
9
 73
5
 74
0
 42
0.0000001
 43
0.0000001
 44
0.0000000001
 40
0.0
 40
0.0
 40
0.0
 40
0.0
 40
0.4999221986
 40
1.0
 40
1.0
 40
1.0
 40
1.0
 10
98.405501485
 20
6.9643577152
 30
0.0
 10
98.3409766535
 20
6.8998329294
 30
0.0
 10
98.1877795444
 20
6.7930193247
 30
0.0
 10
98.0074355698
 20
6.7447781542
 30
0.0
 10
97.9165026568
 20
6.7368225552
 30
0.0
  0
SPLINE
  5
262
100
AcDbEntity
  8
_30_VOLUMEN
100
AcDbSpline
 62
4
  6
CONTINUOUS
 70
0
 71
3
 72
9
 73
5
 74
0
 42
0.0000001
 43
0.0000001
 44
0.0000000001
 40
0.0
 40
0.0
 40
0.0
 40
0.0
 40
0.5033241938
 40
1.0
 40
1.0
 40
1.0
 40
1.0
 10
90.4379299483
 20
12.7205871942
 30
0.0
 10
90.4024157178
 20
13.0877184436
 30
0.0
 10
90.4919368581
 20
13.8423907462
 30
0.0
 10
90.8994034966
 20
14.4842862562
 30
0.0
 10
91.1567712141
 20
14.7416539737
 30
0.0
  0
SPLINE
  5
263
100
AcDbEntity
  8
_30_VOLUMEN
100
AcDbSpline
 62
4
  6
CONTINUOUS
 70
0
 71
3
 72
15
 73
11
 74
0
 42
0.0000001
 43
0.0000001
 44
0.0000000001
 40
0.0
 40
0.0
 40
0.0
 40
0.0
 40
0.1243289262
 40
0.2488920374
 40
0.3737504144
 40
0.4988891629
 40
0.6242307257
 40
0.7495911685
 40
0.875054414
 40
1.0
 40
1.0
 40
1.0
 40
1.0
 10
91.1743737715
 20
14.7141083669
 30
0.0
 10
91.3556716147
 20
14.8455696875
 30
0.0
 10
91.7558717773
 20
15.0611334883
 30
0.0
 10
92.4188686837
 20
15.2156003999
 30
0.0
 10
93.1010536496
 20
15.1914622546
 30
0.0
 10
93.7547457744
 20
14.9907800004
 30
0.0
 10
94.3352680349
 20
14.6277827392
 30
0.0
 10
94.8029401385
 20
14.1266750873
 30
0.0
 10
95.1242443388
 20
13.5226003377
 30
0.0
 10
95.2279717584
 20
13.0773895933
 30
0.0
 10
95.2496411648
 20
12.8533803398
 30
0.0
  0
SPLINE
  5
264
100
AcDbEntity
  8
_30_VOLUMEN
100
AcDbSpline
 62
4
  6
CONTINUOUS
 70
0
 71
3
 72
15
 73
11
 74
0
 42
0.0000001
 43
0.0000001
 44
0.0000000001
 40
0.0
 40
0.0
 40
0.0
 40
0.0
 40
0.1218909681
 40
0.2448243991
 40
0.3688250953
 40
0.4942964634
 40
0.6208478577
 40
0.7477612155
 40
0.8744854163
 40
1.0
 40
1.0
 40
1.0
 40
1.0
 10
94.8054422051
 20
11.0929829828
 30
0.0
 10
94.6390634077
 20
10.9266041854
 30
0.0
 10
94.2544481829
 20
10.6391595369
 30
0.0
 10
93.5788280528
 20
10.3866615158
 30
0.0
 10
92.8520240914
 20
10.3343064028
 30
0.0
 10
92.1326076403
 20
10.4873208749
 30
0.0
 10
91.4792325782
 20
10.8371830548
 30
0.0
 10
90.9458135111
 20
11.3553581441
 30
0.0
 10
90.5782183872
 20
11.9989303932
 30
0.0
 10
90.4612588439
 20
12.4794228354
 30
0.0
 10
90.4379299483
 20
12.7205871942
 30
0.0
  0
SPLINE
  5
265
100
AcDbEntity
  8
_30_VOLUMEN
100
AcDbSpline
 62
4
  6
CONTINUOUS
 70
0
 71
3
 72
15
 73
11
 74
0
 42
0.0000001
 43
0.0000001
 44
0.0000000001
 40
0.0
 40
0.0
 40
0.0
 40
0.0
 40
0.1248951824
 40
0.2493889825
 40
0.3738219425
 40
0.498502705
 40
0.6236222837
 40
0.7491143977
 40
0.8746665727
 40
1.0
 40
1.0
 40
1.0
 40
1.0
 10
96.1628986464
 20
13.3507706147
 30
0.0
 10
96.2007591274
 20
12.9593848091
 30
0.0
 10
96.1213878178
 20
12.1540047883
 30
0.0
 10
95.5479589016
 20
11.0920583233
 30
0.0
 10
94.6089878037
 20
10.3325167427
 30
0.0
 10
93.4480175901
 20
9.9943522156
 30
0.0
 10
92.2431428681
 20
10.1269395919
 30
0.0
 10
91.1773607106
 20
10.7098951156
 30
0.0
 10
90.4112737697
 20
11.6515939201
 30
0.0
 10
90.1772083451
 20
12.4310074445
 30
0.0
 10
90.1392150154
 20
12.8237665844
 30
0.0
  0
SPLINE
  5
266
100
AcDbEntity
  8
_30_VOLUMEN
100
AcDbSpline
 62
7
  6
CONTINUOUS
 70
0
 71
3
 72
9
 73
5
 74
0
 42
0.0000001
 43
0.0000001
 44
0.0000000001
 40
0.0
 40
0.0
 40
0.0
 40
0.0
 40
0.5007365021
 40
1.0
 40
1.0
 40
1.0
 40
1.0
 10
95.537209303
 20
13.140948478
 30
0.0
 10
95.5730281152
 20
12.7706685896
 30
0.0
 10
95.481010387
 20
12.0058515885
 30
0.0
 10
95.067784087
 20
11.3551926699
 30
0.0
 10
94.8054544101
 20
11.0929707728
 30
0.0
  0
SPLINE
  5
267
100
AcDbEntity
  8
_30_VOLUMEN
100
AcDbSpline
 62
4
  6
CONTINUOUS
 70
0
 71
3
 72
15
 73
11
 74
0
 42
0.0000001
 43
0.0000001
 44
0.0000000001
 40
0.0
 40
0.0
 40
0.0
 40
0.0
 40
0.1248797068
 40
0.2493907964
 40
0.3738200552
 40
0.4985026973
 40
0.6236242322
 40
0.749112591
 40
0.8746820906
 40
1.0
 40
1.0
 40
1.0
 40
1.0
 10
96.0762391191
 20
13.3151222937
 30
0.0
 10
96.1133929901
 20
12.9310411265
 30
0.0
 10
96.0354179777
 20
12.1406256606
 30
0.0
 10
95.4728624053
 20
11.0982314872
 30
0.0
 10
94.5511739809
 20
10.3528344706
 30
0.0
 10
93.4117636578
 20
10.0208376581
 30
0.0
 10
92.2292439548
 20
10.1510732738
 30
0.0
 10
91.183109512
 20
10.723136799
 30
0.0
 10
90.4314366235
 20
11.6475534763
 30
0.0
 10
90.2016437265
 20
12.4124709381
 30
0.0
 10
90.1643594826
 20
12.7978998453
 30
0.0
  0
SPLINE
  5
268
100
AcDbEntity
  8
_30_VOLUMEN
100
AcDbSpline
 62
7
  6
CONTINUOUS
 70
0
 71
3
 72
15
 73
11
 74
0
 42
0.0000001
 43
0.0000001
 44
0.0000000001
 40
0.0
 40
0.0
 40
0.0
 40
0.0
 40
0.1249414755
 40
0.250547789
 40
0.3759755021
 40
0.5013082195
 40
0.6264143521
 40
0.7512130035
 40
0.8756960564
 40
1.0
 40
1.0
 40
1.0
 40
1.0
 10
95.537209303
 20
13.140948478
 30
0.0
 10
95.5139469946
 20
13.3814244856
 30
0.0
 10
95.3972547847
 20
13.8593959516
 30
0.0
 10
95.033238924
 20
14.4992124769
 30
0.0
 10
94.5043258344
 20
15.0133948448
 30
0.0
 10
93.8546698275
 20
15.3599367401
 30
0.0
 10
93.1357582605
 20
15.5138467549
 30
0.0
 10
92.4037801753
 20
15.4602739229
 30
0.0
 10
91.7183501826
 20
15.2041581688
 30
0.0
 10
91.3267581654
 20
14.9115954948
 30
0.0
 10
91.1567590091
 20
14.7416661837
 30
0.0
  0
SPLINE
  5
269
100
AcDbEntity
  8
_30_VOLUMEN
100
AcDbSpline
 62
4
  6
CONTINUOUS
 70
0
 71
3
 72
15
 73
11
 74
0
 42
0.0000001
 43
0.0000001
 44
0.0000000001
 40
0.0
 40
0.0
 40
0.0
 40
0.0
 40
0.1253179094
 40
0.250887409
 40
0.3763757678
 40
0.5014973027
 40
0.6261799448
 40
0.7506092036
 40
0.8751202932
 40
1.0
 40
1.0
 40
1.0
 40
1.0
 10
96.0762391191
 20
13.3151222937
 30
0.0
 10
96.0389548752
 20
13.7005512009
 30
0.0
 10
95.8091619782
 20
14.4654686628
 30
0.0
 10
95.0574890897
 20
15.38988534
 30
0.0
 10
94.0113546469
 20
15.9619488652
 30
0.0
 10
92.8288349438
 20
16.0921844809
 30
0.0
 10
91.6894246207
 20
15.7601876684
 30
0.0
 10
90.7677361964
 20
15.0147906518
 30
0.0
 10
90.2051806239
 20
13.9723964784
 30
0.0
 10
90.1272056116
 20
13.1819810125
 30
0.0
 10
90.1643594826
 20
12.7978998453
 30
0.0
  0
SPLINE
  5
26A
100
AcDbEntity
  8
_30_VOLUMEN
100
AcDbSpline
 62
4
  6
CONTINUOUS
 70
0
 71
3
 72
15
 73
11
 74
0
 42
0.0000001
 43
0.0000001
 44
0.0000000001
 40
0.0
 40
0.0
 40
0.0
 40
0.0
 40
0.1248951824
 40
0.2493889825
 40
0.3738219425
 40
0.498502705
 40
0.6236222837
 40
0.7491143977
 40
0.8746665727
 40
1.0
 40
1.0
 40
1.0
 40
1.0
 10
90.1392150154
 20
12.8237665844
 30
0.0
 10
90.1013545344
 20
13.21515239
 30
0.0
 10
90.180725844
 20
14.0205324108
 30
0.0
 10
90.7541547602
 20
15.0824788758
 30
0.0
 10
91.6931258581
 20
15.8420204564
 30
0.0
 10
92.8540960717
 20
16.1801849835
 30
0.0
 10
94.0589707937
 20
16.0475976072
 30
0.0
 10
95.1247529512
 20
15.4646420835
 30
0.0
 10
95.8908398921
 20
14.522943279
 30
0.0
 10
96.1249053167
 20
13.7435297546
 30
0.0
 10
96.1628986464
 20
13.3507706147
 30
0.0
  0
SPLINE
  5
26B
100
AcDbEntity
  8
_30_VOLUMEN
100
AcDbSpline
 62
4
  6
CONTINUOUS
 70
0
 71
3
 72
9
 73
5
 74
0
 42
0.0000001
 43
0.0000001
 44
0.0000000001
 40
0.0
 40
0.0
 40
0.0
 40
0.0
 40
0.4998802662
 40
1.0
 40
1.0
 40
1.0
 40
1.0
 10
87.4390939174
 20
18.7526612245
 30
0.0
 10
87.3737272375
 20
18.6872945909
 30
0.0
 10
87.2657810276
 20
18.5317557965
 30
0.0
 10
87.2181691416
 20
18.3485911974
 30
0.0
 10
87.2109554604
 20
18.2563862521
 30
0.0
  0
SPLINE
  5
26C
100
AcDbEntity
  8
_30_VOLUMEN
100
AcDbSpline
 62
4
  6
CONTINUOUS
 70
0
 71
3
 72
11
 73
7
 74
0
 42
0.0000001
 43
0.0000001
 44
0.0000000001
 40
0.0
 40
0.0
 40
0.0
 40
0.0
 40
0.2496349922
 40
0.5000147789
 40
0.7503855881
 40
1.0
 40
1.0
 40
1.0
 40
1.0
 10
86.3365755053
 20
7.0801012964
 30
0.0
 10
86.3276024775
 20
6.9654084609
 30
0.0
 10
86.3608532352
 20
6.7286395439
 30
0.0
 10
86.5547928541
 20
6.4296369919
 30
0.0
 10
86.8555377315
 20
6.238425332
 30
0.0
 10
87.0925899453
 20
6.2073434963
 30
0.0
 10
87.2071860263
 20
6.2173693543
 30
0.0
  0
SPLINE
  5
26D
100
AcDbEntity
  8
_30_VOLUMEN
100
AcDbSpline
 62
4
  6
CONTINUOUS
 70
0
 71
3
 72
9
 73
5
 74
0
 42
0.0000001
 43
0.0000001
 44
0.0000000001
 40
0.0
 40
0.0
 40
0.0
 40
0.0
 40
0.5000778014
 40
1.0
 40
1.0
 40
1.0
 40
1.0
 10
98.3740209163
 20
7.1943408146
 30
0.0
 10
98.4649538292
 20
7.2022964137
 30
0.0
 10
98.6452978039
 20
7.2505375842
 30
0.0
 10
98.798494913
 20
7.3573511889
 30
0.0
 10
98.8630197444
 20
7.4218759746
 30
0.0
  0
SPLINE
  5
26E
100
AcDbEntity
  8
_21_KURVEN
100
AcDbSpline
 62
7
  6
CONTINUOUS
 70
0
 71
3
 72
37
 73
33
 74
0
 42
0.0000001
 43
0.0000001
 44
0.0000000001
 40
0.0
 40
0.0
 40
0.0
 40
0.0
 40
0.0625
 40
0.09375
 40
0.125
 40
0.15625
 40
0.1875
 40
0.21875
 40
0.25
 40
0.28125
 40
0.3125
 40
0.34375
 40
0.375
 40
0.40625
 40
0.4375
 40
0.46875
 40
0.5
 40
0.53125
 40
0.5625
 40
0.59375
 40
0.625
 40
0.65625
 40
0.6875
 40
0.71875
 40
0.75
 40
0.78125
 40
0.8125
 40
0.84375
 40
0.875
 40
0.90625
 40
0.9375
 40
1.0
 40
1.0
 40
1.0
 40
1.0
 10
86.3365755053
 20
7.0801012964
 30
0.0
 10
86.337440936
 20
7.0514410534
 30
0.0
 10
86.3383072959
 20
7.0084251002
 30
0.0
 10
86.3411895864
 20
6.9511728502
 30
0.0
 10
86.3390334443
 20
6.9079777769
 30
0.0
 10
86.3532851703
 20
6.8657550699
 30
0.0
 10
86.3628730792
 20
6.8231515594
 30
0.0
 10
86.3747083881
 20
6.7810988962
 30
0.0
 10
86.3822179142
 20
6.7372236475
 30
0.0
 10
86.4047831718
 20
6.7000878936
 30
0.0
 10
86.4230568568
 20
6.6610064713
 30
0.0
 10
86.4434411007
 20
6.6229682278
 30
0.0
 10
86.4596746814
 20
6.5827029373
 30
0.0
 10
86.4904003564
 20
6.5503026562
 30
0.0
 10
86.5170524715
 20
6.5155724984
 30
0.0
 10
86.5455067317
 20
6.482296838
 30
0.0
 10
86.5708259716
 20
6.4455330647
 30
0.0
 10
86.6068831476
 20
6.4212672455
 30
0.0
 10
86.6398899274
 20
6.3934165458
 30
0.0
 10
86.674360356
 20
6.3674074144
 30
0.0
 10
86.7060265857
 20
6.3376168901
 30
0.0
 10
86.7474459624
 20
6.321110369
 30
0.0
 10
86.7861741834
 20
6.3007614553
 30
0.0
 10
86.8259138802
 20
6.2824981092
 30
0.0
 10
86.8642988294
 20
6.2597348849
 30
0.0
 10
86.9070912934
 20
6.2528856059
 30
0.0
 10
86.9486460937
 20
6.2414860261
 30
0.0
 10
86.9907440341
 20
6.232373704
 30
0.0
 10
87.031907078
 20
6.2186626519
 30
0.0
 10
87.0762665675
 20
6.2210592618
 30
0.0
 10
87.1342909937
 20
6.2186029305
 30
0.0
 10
87.1780616642
 20
6.2180323395
 30
0.0
 10
87.2071860333
 20
6.2173693549
 30
0.0
  0
SPLINE
  5
26F
100
AcDbEntity
  8
_21_KURVEN
100
AcDbSpline
 62
7
  6
CONTINUOUS
 70
0
 71
3
 72
9
 73
5
 74
0
 42
0.0000001
 43
0.0000001
 44
0.0000000001
 40
0.0
 40
0.0
 40
0.0
 40
0.0
 40
0.5
 40
1.0
 40
1.0
 40
1.0
 40
1.0
 10
87.9280927455
 20
18.9801963845
 30
0.0
 10
87.8784770329
 20
18.9742769852
 30
0.0
 10
87.7791699443
 20
18.9591937842
 30
0.0
 10
87.6869247384
 20
18.9199428836
 30
0.0
 10
87.6390136167
 20
18.8976006843
 30
0.0
  0
SPLINE
  5
270
100
AcDbEntity
  8
_21_KURVEN
100
AcDbSpline
 62
7
  6
CONTINUOUS
 70
0
 71
3
 72
9
 73
5
 74
0
 42
0.0000001
 43
0.0000001
 44
0.0000000001
 40
0.0
 40
0.0
 40
0.0
 40
0.0
 40
0.5
 40
1.0
 40
1.0
 40
1.0
 40
1.0
 10
87.6390136204
 20
18.8976006862
 30
0.0
 10
87.631627038
 20
18.893800207
 30
0.0
 10
87.6119786458
 20
18.8835592849
 30
0.0
 10
87.5929426812
 20
18.8722323579
 30
0.0
 10
87.5812077633
 20
18.8651102703
 30
0.0
  0
SPLINE
  5
271
100
AcDbEntity
  8
_21_KURVEN
100
AcDbSpline
 62
7
  6
CONTINUOUS
 70
0
 71
3
 72
9
 73
5
 74
0
 42
0.0000001
 43
0.0000001
 44
0.0000000001
 40
0.0
 40
0.0
 40
0.0
 40
0.0
 40
0.5
 40
1.0
 40
1.0
 40
1.0
 40
1.0
 10
87.5812077628
 20
18.8651102701
 30
0.0
 10
87.5579343439
 20
18.8501330237
 30
0.0
 10
87.5072260568
 20
18.8162152335
 30
0.0
 10
87.4623667722
 20
18.7749005509
 30
0.0
 10
87.4391439388
 20
18.7526107725
 30
0.0
  0
SPLINE
  5
272
100
AcDbEntity
  8
_21_KURVEN
100
AcDbSpline
 62
7
  6
CONTINUOUS
 70
0
 71
3
 72
9
 73
5
 74
0
 42
0.0000001
 43
0.0000001
 44
0.0000000001
 40
0.0
 40
0.0
 40
0.0
 40
0.0
 40
0.5
 40
1.0
 40
1.0
 40
1.0
 40
1.0
 10
87.4391439385
 20
18.7526107722
 30
0.0
 10
87.4143032679
 20
18.7266054342
 30
0.0
 10
87.3619394531
 20
18.6691837889
 30
0.0
 10
87.3217903679
 20
18.6025993673
 30
0.0
 10
87.3024369153
 20
18.5686015118
 30
0.0
  0
SPLINE
  5
273
100
AcDbEntity
  8
_21_KURVEN
100
AcDbSpline
 62
7
  6
CONTINUOUS
 70
0
 71
3
 72
11
 73
7
 74
0
 42
0.0000001
 43
0.0000001
 44
0.0000000001
 40
0.0
 40
0.0
 40
0.0
 40
0.0
 40
0.25
 40
0.5
 40
0.75
 40
1.0
 40
1.0
 40
1.0
 40
1.0
 10
87.3024369105
 20
18.5686015028
 30
0.0
 10
87.2907779355
 20
18.5450237233
 30
0.0
 10
87.2676064322
 20
18.4973034052
 30
0.0
 10
87.2386359455
 20
18.4169107369
 30
0.0
 10
87.2212401395
 20
18.340778418
 30
0.0
 10
87.2141242554
 20
18.2842187525
 30
0.0
 10
87.210955461
 20
18.2563862595
 30
0.0
  0
SPLINE
  5
274
100
AcDbEntity
  8
_21_KURVEN
100
AcDbSpline
 62
7
  6
CONTINUOUS
 70
0
 71
3
 72
9
 73
5
 74
0
 42
0.0000001
 43
0.0000001
 44
0.0000000001
 40
0.0
 40
0.0
 40
0.0
 40
0.0
 40
0.5
 40
1.0
 40
1.0
 40
1.0
 40
1.0
 10
99.9655381564
 20
19.0944359027
 30
0.0
 10
99.9679334749
 20
19.1499401744
 30
0.0
 10
99.9684178433
 20
19.268834928
 30
0.0
 10
99.9366131296
 20
19.377979414
 30
0.0
 10
99.9177694749
 20
19.4351618424
 30
0.0
  0
SPLINE
  5
275
100
AcDbEntity
  8
_21_KURVEN
100
AcDbSpline
 62
7
  6
CONTINUOUS
 70
0
 71
3
 72
21
 73
17
 74
0
 42
0.0000001
 43
0.0000001
 44
0.0000000001
 40
0.0
 40
0.0
 40
0.0
 40
0.0
 40
0.125
 40
0.1875
 40
0.25
 40
0.3125
 40
0.375
 40
0.4375
 40
0.5
 40
0.5625
 40
0.625
 40
0.6875
 40
0.75
 40
0.8125
 40
0.875
 40
1.0
 40
1.0
 40
1.0
 40
1.0
 10
99.9177694781
 20
19.4351618338
 30
0.0
 10
99.9059414104
 20
19.4611638983
 30
0.0
 10
99.8887511402
 20
19.5003413191
 30
0.0
 10
99.8636234541
 20
19.551880584
 30
0.0
 10
99.8383263719
 20
19.5882008047
 30
0.0
 10
99.8159989586
 20
19.6260516485
 30
0.0
 10
99.7882441873
 20
19.6601142277
 30
0.0
 10
99.7587762004
 20
19.6925494909
 30
0.0
 10
99.7313619447
 20
19.7276574066
 30
0.0
 10
99.6974459798
 20
19.7537020286
 30
0.0
 10
99.6655599645
 20
19.7824399694
 30
0.0
 10
99.6320558602
 20
19.809467929
 30
0.0
 10
99.5939164504
 20
19.8318721791
 30
0.0
 10
99.5577809286
 20
19.8569406167
 30
0.0
 10
99.5050932374
 20
19.8823211462
 30
0.0
 10
99.4647847016
 20
19.899789561
 30
0.0
 10
99.4380885149
 20
19.9117833892
 30
0.0
  0
SPLINE
  5
276
100
AcDbEntity
  8
_21_KURVEN
100
AcDbSpline
 62
7
  6
CONTINUOUS
 70
0
 71
3
 72
9
 73
5
 74
0
 42
0.0000001
 43
0.0000001
 44
0.0000000001
 40
0.0
 40
0.0
 40
0.0
 40
0.0
 40
0.5
 40
1.0
 40
1.0
 40
1.0
 40
1.0
 10
99.4380885266
 20
19.9117833849
 30
0.0
 10
99.3850940269
 20
19.9290336856
 30
0.0
 10
99.2717981107
 20
19.9615134203
 30
0.0
 10
99.1542509894
 20
19.960130164
 30
0.0
 10
99.0949276265
 20
19.957167844
 30
0.0
  0
SPLINE
  5
277
100
AcDbEntity
  8
_21_KURVEN
100
AcDbSpline
 62
1
  6
CENTER
 70
0
 71
3
 72
163
 73
159
 74
0
 42
0.0000001
 43
0.0000001
 44
0.0000000001
 40
0.0
 40
0.0
 40
0.0
 40
0.0
 40
0.015625
 40
0.03125
 40
0.0390625
 40
0.046875
 40
0.0546875
 40
0.05859375
 40
0.060546875
 40
0.0625
 40
0.064453125
 40
0.06640625
 40
0.0703125
 40
0.078125
 40
0.09375
 40
0.109375
 40
0.1171875
 40
0.12109375
 40
0.123046875
 40
0.125
 40
0.126953125
 40
0.12890625
 40
0.1328125
 40
0.140625
 40
0.15625
 40
0.171875
 40
0.1796875
 40
0.18359375
 40
0.185546875
 40
0.1875
 40
0.189453125
 40
0.19140625
 40
0.1953125
 40
0.203125
 40
0.21875
 40
0.234375
 40
0.2421875
 40
0.24609375
 40
0.248046875
 40
0.25
 40
0.251953125
 40
0.25390625
 40
0.2578125
 40
0.265625
 40
0.28125
 40
0.296875
 40
0.3046875
 40
0.30859375
 40
0.310546875
 40
0.3125
 40
0.314453125
 40
0.31640625
 40
0.3203125
 40
0.328125
 40
0.34375
 40
0.359375
 40
0.3671875
 40
0.37109375
 40
0.373046875
 40
0.375
 40
0.376953125
 40
0.37890625
 40
0.3828125
 40
0.390625
 40
0.40625
 40
0.421875
 40
0.4296875
 40
0.43359375
 40
0.435546875
 40
0.4375
 40
0.439453125
 40
0.44140625
 40
0.4453125
 40
0.453125
 40
0.46875
 40
0.484375
 40
0.4921875
 40
0.49609375
 40
0.498046875
 40
0.5
 40
0.501953125
 40
0.50390625
 40
0.5078125
 40
0.515625
 40
0.53125
 40
0.546875
 40
0.5546875
 40
0.55859375
 40
0.560546875
 40
0.5625
 40
0.564453125
 40
0.56640625
 40
0.5703125
 40
0.578125
 40
0.59375
 40
0.609375
 40
0.6171875
 40
0.62109375
 40
0.623046875
 40
0.625
 40
0.626953125
 40
0.62890625
 40
0.6328125
 40
0.640625
 40
0.65625
 40
0.671875
 40
0.6796875
 40
0.68359375
 40
0.685546875
 40
0.6875
 40
0.689453125
 40
0.69140625
 40
0.6953125
 40
0.703125
 40
0.71875
 40
0.734375
 40
0.7421875
 40
0.74609375
 40
0.748046875
 40
0.75
 40
0.751953125
 40
0.75390625
 40
0.7578125
 40
0.765625
 40
0.78125
 40
0.796875
 40
0.8046875
 40
0.80859375
 40
0.810546875
 40
0.8125
 40
0.814453125
 40
0.81640625
 40
0.8203125
 40
0.828125
 40
0.84375
 40
0.859375
 40
0.8671875
 40
0.87109375
 40
0.873046875
 40
0.875
 40
0.876953125
 40
0.87890625
 40
0.8828125
 40
0.890625
 40
0.90625
 40
0.921875
 40
0.9296875
 40
0.93359375
 40
0.935546875
 40
0.9375
 40
0.939453125
 40
0.94140625
 40
0.9453125
 40
0.953125
 40
0.9609375
 40
0.96875
 40
0.984375
 40
1.0
 40
1.0
 40
1.0
 40
1.0
 10
99.4422395705
 20
13.6376757694
 30
0.0
 10
99.4223960588
 20
13.7387200555
 30
0.0
 10
99.3827048772
 20
13.9408074165
 30
0.0
 10
99.3331116914
 20
14.1934226732
 30
0.0
 10
99.2933934812
 20
14.3955021623
 30
0.0
 10
99.2637233335
 20
14.5470962948
 30
0.0
 10
99.2386213697
 20
14.6733149845
 30
0.0
 10
99.2217895125
 20
14.7618834502
 30
0.0
 10
99.2110166164
 20
14.8121577005
 30
0.0
 10
99.2061897295
 20
14.8508107546
 30
0.0
 10
99.1889290478
 20
14.885842494
 30
0.0
 10
99.1702515317
 20
14.9338145574
 30
0.0
 10
99.1355485355
 20
15.0171779555
 30
0.0
 10
99.0675828466
 20
15.1843261492
 30
0.0
 10
98.9696712216
 20
15.4228556631
 30
0.0
 10
98.8722872963
 20
15.6615969951
 30
0.0
 10
98.8035828278
 20
15.8284486435
 30
0.0
 10
98.7698956535
 20
15.9122197914
 30
0.0
 10
98.7495822685
 20
15.9595352187
 30
0.0
 10
98.737347926
 20
15.9965845254
 30
0.0
 10
98.7136425837
 20
16.0276597873
 30
0.0
 10
98.6860363804
 20
16.0711771403
 30
0.0
 10
98.6358643664
 20
16.1463631238
 30
0.0
 10
98.5368494085
 20
16.2974284337
 30
0.0
 10
98.3946426294
 20
16.5128324186
 30
0.0
 10
98.2529316453
 20
16.7285301526
 30
0.0
 10
98.1532225743
 20
16.8791842138
 30
0.0
 10
98.1040049657
 20
16.9549356642
 30
0.0
 10
98.0748617978
 20
16.9975423951
 30
0.0
 10
98.0558789032
 20
17.0314156171
 30
0.0
 10
98.0259074934
 20
17.0579560499
 30
0.0
 10
97.9897782316
 20
17.0959008882
 30
0.0
 10
97.9247693388
 20
17.1611143743
 30
0.0
 10
97.7960225233
 20
17.2923937451
 30
0.0
 10
97.6113912401
 20
17.4794293215
 30
0.0
 10
97.4271681062
 20
17.6668668089
 30
0.0
 10
97.2978498817
 20
17.7975835042
 30
0.0
 10
97.2336266764
 20
17.8635706691
 30
0.0
 10
97.1962321515
 20
17.9002695831
 30
0.0
 10
97.1701483646
 20
17.9306382187
 30
0.0
 10
97.1365639255
 20
17.9501330726
 30
0.0
 10
97.0944007868
 20
17.9799188355
 30
0.0
 10
97.0193983861
 20
18.0302795998
 30
0.0
 10
96.8702618841
 20
18.1322617003
 30
0.0
 10
96.656720932
 20
18.2772273467
 30
0.0
 10
96.443481302
 20
18.4226841777
 30
0.0
 10
96.2939229492
 20
18.5239786199
 30
0.0
 10
96.2195005934
 20
18.5752849143
 30
0.0
 10
96.1764033564
 20
18.6035480054
 30
0.0
 10
96.1456890095
 20
18.6277213913
 30
0.0
 10
96.1088254276
 20
18.6405179025
 30
0.0
 10
96.0618187373
 20
18.6615480167
 30
0.0
 10
95.9785594535
 20
18.6965047367
 30
0.0
 10
95.8127518472
 20
18.7677374138
 30
0.0
 10
95.5754903164
 20
18.8687390905
 30
0.0
 10
95.3384486608
 20
18.9702650968
 30
0.0
 10
95.1723332293
 20
19.0407637125
 30
0.0
 10
95.0894972052
 20
19.0767297669
 30
0.0
 10
95.0418089017
 20
19.0961344595
 30
0.0
 10
95.0070396314
 20
19.1139252097
 30
0.0
 10
94.9684592483
 20
19.119340706
 30
0.0
 10
94.918347992
 20
19.1308776852
 30
0.0
 10
94.8300350163
 20
19.1490594537
 30
0.0
 10
94.6538498066
 20
19.1868576655
 30
0.0
 10
94.4019118753
 20
19.2400318714
 30
0.0
 10
94.1501135339
 20
19.2937663214
 30
0.0
 10
93.9737328984
 20
19.3307801913
 30
0.0
 10
93.8856886331
 20
19.3500404299
 30
0.0
 10
93.8351446483
 20
19.3598406522
 30
0.0
 10
93.7978938584
 20
19.3705924743
 30
0.0
 10
93.7581307618
 20
19.3683404888
 30
0.0
 10
93.7059895269
 20
19.3698733863
 30
0.0
 10
93.6143350524
 20
19.3704460637
 30
0.0
 10
93.4313136715
 20
19.3730985265
 30
0.0
 10
93.1697171918
 20
19.376026223
 30
0.0
 10
92.9081224197
 20
19.3795293815
 30
0.0
 10
92.7250986483
 20
19.3813761976
 30
0.0
 10
92.6334474608
 20
19.3830566392
 30
0.0
 10
92.5813009325
 20
19.3828056047
 30
0.0
 10
92.5415541002
 20
19.386034894
 30
0.0
 10
92.5042422229
 20
19.376199566
 30
0.0
 10
92.4536437675
 20
19.3676425456
 30
0.0
 10
92.3654916283
 20
19.3505480419
 30
0.0
 10
92.1889042071
 20
19.3178727125
 30
0.0
 10
91.9368053561
 20
19.2703319627
 30
0.0
 10
91.6845702501
 20
19.2233548477
 30
0.0
 10
91.5081735859
 20
19.1898904296
 30
0.0
 10
91.4197591558
 20
19.1738809228
 30
0.0
 10
91.3695830908
 20
19.1635766347
 30
0.0
 10
91.3309733848
 20
19.1591099278
 30
0.0
 10
91.2961010749
 20
19.1421751837
 30
0.0
 10
91.2483010967
 20
19.1239441944
 30
0.0
 10
91.1652576816
 20
19.0900170629
 30
0.0
 10
90.998736007
 20
19.0236070879
 30
0.0
 10
90.7611091562
 20
18.9279155147
 30
0.0
 10
90.5232655576
 20
18.8327536379
 30
0.0
 10
90.3570473298
 20
18.7656020879
 30
0.0
 10
90.2735866755
 20
18.7326946219
 30
0.0
 10
90.226458615
 20
18.712821574
 30
0.0
 10
90.1895217837
 20
18.7009321875
 30
0.0
 10
90.1586662251
 20
18.677515594
 30
0.0
 10
90.1154044101
 20
18.6503139934
 30
0.0
 10
90.040683016
 20
18.6008409136
 30
0.0
 10
89.8905344609
 20
18.5032303474
 30
0.0
 10
89.6764472008
 20
18.3630260456
 30
0.0
 10
89.4620615555
 20
18.2233202996
 30
0.0
 10
89.3123307397
 20
18.1250117552
 30
0.0
 10
89.237034954
 20
18.0764983954
 30
0.0
 10
89.1946981332
 20
18.0477512717
 30
0.0
 10
89.1610004555
 20
18.0290834224
 30
0.0
 10
89.1347383548
 20
17.9993582013
 30
0.0
 10
89.0971287751
 20
17.9635812074
 30
0.0
 10
89.032518667
 20
17.8991776094
 30
0.0
 10
88.9024341633
 20
17.7716493874
 30
0.0
 10
88.7171121572
 20
17.5887541992
 30
0.0
 10
88.5313844165
 20
17.406270926
 30
0.0
 10
88.4018679412
 20
17.2781660231
 30
0.0
 10
88.3364767941
 20
17.2145553614
 30
0.0
 10
88.3001249916
 20
17.177501431
 30
0.0
 10
88.2699982691
 20
17.1516997002
 30
0.0
 10
88.2508157454
 20
17.1182955921
 30
0.0
 10
88.2214218622
 20
17.0764083749
 30
0.0
 10
88.171758312
 20
17.0018723316
 30
0.0
 10
88.071162488
 20
16.8536803372
 30
0.0
 10
87.9281818259
 20
16.6414819176
 30
0.0
 10
87.7847071482
 20
16.4295894135
 30
0.0
 10
87.6848029461
 20
16.2809691373
 30
0.0
 10
87.6341884157
 20
16.2070219813
 30
0.0
 10
87.6063259812
 20
16.1641864263
 30
0.0
 10
87.5824379581
 20
16.1336961628
 30
0.0
 10
87.5699846465
 20
16.0969503067
 30
0.0
 10
87.5493919593
 20
16.0501376803
 30
0.0
 10
87.5152101192
 20
15.9672007508
 30
0.0
 10
87.4455205149
 20
15.8020501863
 30
0.0
 10
87.3467269304
 20
15.565720189
 30
0.0
 10
87.2474069433
 20
15.3296149659
 30
0.0
 10
87.1784543027
 20
15.1641497175
 30
0.0
 10
87.1432591374
 20
15.0816454784
 30
0.0
 10
87.1242982986
 20
15.0341360519
 30
0.0
 10
87.1068310013
 20
14.9995311701
 30
0.0
 10
87.1017750348
 20
14.9609996096
 30
0.0
 10
87.0907048456
 20
14.9109937579
 30
0.0
 10
87.0733458125
 20
14.822846489
 30
0.0
 10
87.0371888991
 20
14.6470060907
 30
0.0
 10
86.986361724
 20
14.3955530595
 30
0.0
 10
86.9349729769
 20
14.1442448495
 30
0.0
 10
86.8996022642
 20
13.9682017014
 30
0.0
 10
86.8811622052
 20
13.8803332135
 30
0.0
 10
86.8718328888
 20
13.8298784157
 30
0.0
 10
86.8614279503
 20
13.7927262785
 30
0.0
 10
86.8640508864
 20
13.7529404132
 30
0.0
 10
86.8630038659
 20
13.7008112666
 30
0.0
 10
86.8632888393
 20
13.6091572329
 30
0.0
 10
86.862589014
 20
13.4784466771
 30
0.0
 10
86.8622230388
 20
13.3214982233
 30
0.0
 10
86.8615695089
 20
13.1122670885
 30
0.0
 10
86.860809781
 20
12.8507166096
 30
0.0
 10
86.8601845711
 20
12.6414797496
 30
0.0
 10
86.8598741446
 20
12.5368608792
 30
0.0
  0
SPLINE
  5
278
100
AcDbEntity
  8
_21_KURVEN
100
AcDbSpline
 62
1
  6
CENTER
 70
0
 71
3
 72
163
 73
159
 74
0
 42
0.0000001
 43
0.0000001
 44
0.0000000001
 40
0.0
 40
0.0
 40
0.0
 40
0.0
 40
0.015625
 40
0.03125
 40
0.0390625
 40
0.046875
 40
0.0546875
 40
0.05859375
 40
0.060546875
 40
0.0625
 40
0.064453125
 40
0.06640625
 40
0.0703125
 40
0.078125
 40
0.09375
 40
0.109375
 40
0.1171875
 40
0.12109375
 40
0.123046875
 40
0.125
 40
0.126953125
 40
0.12890625
 40
0.1328125
 40
0.140625
 40
0.15625
 40
0.171875
 40
0.1796875
 40
0.18359375
 40
0.185546875
 40
0.1875
 40
0.189453125
 40
0.19140625
 40
0.1953125
 40
0.203125
 40
0.21875
 40
0.234375
 40
0.2421875
 40
0.24609375
 40
0.248046875
 40
0.25
 40
0.251953125
 40
0.25390625
 40
0.2578125
 40
0.265625
 40
0.28125
 40
0.296875
 40
0.3046875
 40
0.30859375
 40
0.310546875
 40
0.3125
 40
0.314453125
 40
0.31640625
 40
0.3203125
 40
0.328125
 40
0.34375
 40
0.359375
 40
0.3671875
 40
0.37109375
 40
0.373046875
 40
0.375
 40
0.376953125
 40
0.37890625
 40
0.3828125
 40
0.390625
 40
0.40625
 40
0.421875
 40
0.4296875
 40
0.43359375
 40
0.435546875
 40
0.4375
 40
0.439453125
 40
0.44140625
 40
0.4453125
 40
0.453125
 40
0.46875
 40
0.484375
 40
0.4921875
 40
0.49609375
 40
0.498046875
 40
0.5
 40
0.501953125
 40
0.50390625
 40
0.5078125
 40
0.515625
 40
0.53125
 40
0.546875
 40
0.5546875
 40
0.55859375
 40
0.560546875
 40
0.5625
 40
0.564453125
 40
0.56640625
 40
0.5703125
 40
0.578125
 40
0.59375
 40
0.609375
 40
0.6171875
 40
0.62109375
 40
0.623046875
 40
0.625
 40
0.626953125
 40
0.62890625
 40
0.6328125
 40
0.640625
 40
0.65625
 40
0.671875
 40
0.6796875
 40
0.68359375
 40
0.685546875
 40
0.6875
 40
0.689453125
 40
0.69140625
 40
0.6953125
 40
0.703125
 40
0.71875
 40
0.734375
 40
0.7421875
 40
0.74609375
 40
0.748046875
 40
0.75
 40
0.751953125
 40
0.75390625
 40
0.7578125
 40
0.765625
 40
0.78125
 40
0.796875
 40
0.8046875
 40
0.80859375
 40
0.810546875
 40
0.8125
 40
0.814453125
 40
0.81640625
 40
0.8203125
 40
0.828125
 40
0.84375
 40
0.859375
 40
0.8671875
 40
0.87109375
 40
0.873046875
 40
0.875
 40
0.876953125
 40
0.87890625
 40
0.8828125
 40
0.890625
 40
0.90625
 40
0.921875
 40
0.9296875
 40
0.93359375
 40
0.935546875
 40
0.9375
 40
0.939453125
 40
0.94140625
 40
0.9453125
 40
0.953125
 40
0.9609375
 40
0.96875
 40
0.984375
 40
1.0
 40
1.0
 40
1.0
 40
1.0
 10
86.8598740913
 20
12.5368614297
 30
0.0
 10
86.879717603
 20
12.4358171436
 30
0.0
 10
86.9194087846
 20
12.2337297826
 30
0.0
 10
86.9690019704
 20
11.9811145259
 30
0.0
 10
87.0087201805
 20
11.7790350368
 30
0.0
 10
87.0383903282
 20
11.6274409043
 30
0.0
 10
87.0634922921
 20
11.5012222146
 30
0.0
 10
87.0803241493
 20
11.412653749
 30
0.0
 10
87.0910970454
 20
11.3623794986
 30
0.0
 10
87.0959239323
 20
11.3237264445
 30
0.0
 10
87.113184614
 20
11.2886947051
 30
0.0
 10
87.1318621301
 20
11.2407226417
 30
0.0
 10
87.1665651263
 20
11.1573592436
 30
0.0
 10
87.2345308152
 20
10.9902110499
 30
0.0
 10
87.3324424402
 20
10.751681536
 30
0.0
 10
87.4298263655
 20
10.512940204
 30
0.0
 10
87.4985308339
 20
10.3460885556
 30
0.0
 10
87.5322180083
 20
10.2623174077
 30
0.0
 10
87.5525313933
 20
10.2150019804
 30
0.0
 10
87.5647657357
 20
10.1779526737
 30
0.0
 10
87.5884710781
 20
10.1468774118
 30
0.0
 10
87.6160772813
 20
10.1033600588
 30
0.0
 10
87.6662492953
 20
10.0281740753
 30
0.0
 10
87.7652642533
 20
9.8771087654
 30
0.0
 10
87.9074710324
 20
9.6617047805
 30
0.0
 10
88.0491820165
 20
9.4460070465
 30
0.0
 10
88.1488910875
 20
9.2953529853
 30
0.0
 10
88.198108696
 20
9.2196015349
 30
0.0
 10
88.2272518639
 20
9.176994804
 30
0.0
 10
88.2462347585
 20
9.143121582
 30
0.0
 10
88.2762061684
 20
9.1165811492
 30
0.0
 10
88.3123354302
 20
9.0786363109
 30
0.0
 10
88.377344323
 20
9.0134228248
 30
0.0
 10
88.5060911384
 20
8.882143454
 30
0.0
 10
88.6907224217
 20
8.6951078776
 30
0.0
 10
88.8749455556
 20
8.5076703902
 30
0.0
 10
89.0042637801
 20
8.3769536949
 30
0.0
 10
89.0684869853
 20
8.31096653
 30
0.0
 10
89.1058815103
 20
8.274267616
 30
0.0
 10
89.1319652972
 20
8.2438989804
 30
0.0
 10
89.1655497363
 20
8.2244041265
 30
0.0
 10
89.207712875
 20
8.1946183636
 30
0.0
 10
89.2827152757
 20
8.1442575993
 30
0.0
 10
89.4318517777
 20
8.0422754988
 30
0.0
 10
89.6453927297
 20
7.8973098524
 30
0.0
 10
89.8586323598
 20
7.7518530214
 30
0.0
 10
90.0081907126
 20
7.6505585792
 30
0.0
 10
90.0826130684
 20
7.5992522848
 30
0.0
 10
90.1257103054
 20
7.5709891937
 30
0.0
 10
90.1564246523
 20
7.5468158078
 30
0.0
 10
90.1932882342
 20
7.5340192966
 30
0.0
 10
90.2402949244
 20
7.5129891824
 30
0.0
 10
90.3235542083
 20
7.4780324624
 30
0.0
 10
90.4893618145
 20
7.4067997853
 30
0.0
 10
90.7266233454
 20
7.3057981086
 30
0.0
 10
90.963665001
 20
7.2042721023
 30
0.0
 10
91.1297804325
 20
7.1337734866
 30
0.0
 10
91.2126164566
 20
7.0978074322
 30
0.0
 10
91.2603047601
 20
7.0784027396
 30
0.0
 10
91.2950740304
 20
7.0606119894
 30
0.0
 10
91.3336544135
 20
7.0551964931
 30
0.0
 10
91.3837656697
 20
7.0436595139
 30
0.0
 10
91.4720786455
 20
7.0254777454
 30
0.0
 10
91.6482638552
 20
6.9876795336
 30
0.0
 10
91.9002017865
 20
6.9345053277
 30
0.0
 10
92.1520001279
 20
6.8807708777
 30
0.0
 10
92.3283807633
 20
6.8437570078
 30
0.0
 10
92.4164250287
 20
6.8244967692
 30
0.0
 10
92.4669690135
 20
6.8146965469
 30
0.0
 10
92.5042198033
 20
6.8039447248
 30
0.0
 10
92.5439829
 20
6.8061967103
 30
0.0
 10
92.5961241349
 20
6.8046638128
 30
0.0
 10
92.6877786094
 20
6.8040911354
 30
0.0
 10
92.8707999903
 20
6.8014386727
 30
0.0
 10
93.13239647
 20
6.7985109761
 30
0.0
 10
93.3939912421
 20
6.7950078176
 30
0.0
 10
93.5770150135
 20
6.7931610015
 30
0.0
 10
93.668666201
 20
6.7914805599
 30
0.0
 10
93.7208127293
 20
6.7917315944
 30
0.0
 10
93.7605595616
 20
6.7885023051
 30
0.0
 10
93.7978714388
 20
6.7983376331
 30
0.0
 10
93.8484698943
 20
6.8068946535
 30
0.0
 10
93.9366220335
 20
6.8239891572
 30
0.0
 10
94.1132094547
 20
6.8566644866
 30
0.0
 10
94.3653083057
 20
6.9042052364
 30
0.0
 10
94.6175434117
 20
6.9511823514
 30
0.0
 10
94.7939400759
 20
6.9846467695
 30
0.0
 10
94.882354506
 20
7.0006562763
 30
0.0
 10
94.9325305709
 20
7.0109605644
 30
0.0
 10
94.971140277
 20
7.0154272713
 30
0.0
 10
95.0060125869
 20
7.0323620154
 30
0.0
 10
95.0538125651
 20
7.0505930047
 30
0.0
 10
95.1368559802
 20
7.0845201362
 30
0.0
 10
95.3033776547
 20
7.1509301112
 30
0.0
 10
95.5410045056
 20
7.2466216844
 30
0.0
 10
95.7788481041
 20
7.3417835612
 30
0.0
 10
95.945066332
 20
7.4089351112
 30
0.0
 10
96.0285269863
 20
7.4418425772
 30
0.0
 10
96.0756550468
 20
7.4617156251
 30
0.0
 10
96.1125918781
 20
7.4736050116
 30
0.0
 10
96.1434474367
 20
7.4970216051
 30
0.0
 10
96.1867092517
 20
7.5242232057
 30
0.0
 10
96.2614306458
 20
7.5736962855
 30
0.0
 10
96.4115792009
 20
7.6713068517
 30
0.0
 10
96.625666461
 20
7.8115111535
 30
0.0
 10
96.8400521063
 20
7.9512168995
 30
0.0
 10
96.9897829221
 20
8.0495254439
 30
0.0
 10
97.0650787077
 20
8.0980388037
 30
0.0
 10
97.1074155286
 20
8.1267859274
 30
0.0
 10
97.1411132062
 20
8.1454537767
 30
0.0
 10
97.167375307
 20
8.1751789978
 30
0.0
 10
97.2049848867
 20
8.2109559917
 30
0.0
 10
97.2695949948
 20
8.2753595897
 30
0.0
 10
97.3996794984
 20
8.4028878117
 30
0.0
 10
97.5850015046
 20
8.5857829999
 30
0.0
 10
97.7707292453
 20
8.7682662731
 30
0.0
 10
97.9002457205
 20
8.896371176
 30
0.0
 10
97.9656368677
 20
8.9599818377
 30
0.0
 10
98.0019886702
 20
8.9970357681
 30
0.0
 10
98.0321153927
 20
9.0228374989
 30
0.0
 10
98.0512979164
 20
9.056241607
 30
0.0
 10
98.0806917996
 20
9.0981288242
 30
0.0
 10
98.1303553498
 20
9.1726648675
 30
0.0
 10
98.2309511738
 20
9.3208568619
 30
0.0
 10
98.3739318359
 20
9.5330552815
 30
0.0
 10
98.5174065136
 20
9.7449477856
 30
0.0
 10
98.6173107157
 20
9.8935680618
 30
0.0
 10
98.667925246
 20
9.9675152178
 30
0.0
 10
98.6957876806
 20
10.0103507728
 30
0.0
 10
98.7196757037
 20
10.0408410363
 30
0.0
 10
98.7321290153
 20
10.0775868924
 30
0.0
 10
98.7527217025
 20
10.1243995188
 30
0.0
 10
98.7869035426
 20
10.2073364483
 30
0.0
 10
98.8565931469
 20
10.3724870128
 30
0.0
 10
98.9553867314
 20
10.6088170101
 30
0.0
 10
99.0547067185
 20
10.8449222332
 30
0.0
 10
99.1236593591
 20
11.0103874816
 30
0.0
 10
99.1588545243
 20
11.0928917207
 30
0.0
 10
99.1778153632
 20
11.1404011472
 30
0.0
 10
99.1952826605
 20
11.175006029
 30
0.0
 10
99.200338627
 20
11.2135375895
 30
0.0
 10
99.2114088162
 20
11.2635434412
 30
0.0
 10
99.2287678493
 20
11.3516907101
 30
0.0
 10
99.2649247627
 20
11.5275311084
 30
0.0
 10
99.3157519378
 20
11.7789841396
 30
0.0
 10
99.3671406848
 20
12.0302923496
 30
0.0
 10
99.4025113976
 20
12.2063354977
 30
0.0
 10
99.4209514566
 20
12.2942039856
 30
0.0
 10
99.430280773
 20
12.3446587834
 30
0.0
 10
99.4406857114
 20
12.3818109206
 30
0.0
 10
99.4380627754
 20
12.4215967859
 30
0.0
 10
99.4391097959
 20
12.4737259325
 30
0.0
 10
99.4388248225
 20
12.5653799662
 30
0.0
 10
99.4395246478
 20
12.696090522
 30
0.0
 10
99.439890623
 20
12.8530389758
 30
0.0
 10
99.4405441529
 20
13.0622701106
 30
0.0
 10
99.4413038807
 20
13.3238205896
 30
0.0
 10
99.4419290907
 20
13.5330574495
 30
0.0
 10
99.4422395172
 20
13.6376763199
 30
0.0
  0
SPLINE
  5
279
100
AcDbEntity
  8
_21_KURVEN
100
AcDbSpline
 62
7
  6
CONTINUOUS
 70
0
 71
3
 72
9
 73
5
 74
0
 42
0.0000001
 43
0.0000001
 44
0.0000000001
 40
0.0
 40
0.0
 40
0.0
 40
0.0
 40
0.5
 40
1.0
 40
1.0
 40
1.0
 40
1.0
 10
98.3740209163
 20
7.1943408146
 30
0.0
 10
98.4236366289
 20
7.2002602139
 30
0.0
 10
98.5229437175
 20
7.2153434149
 30
0.0
 10
98.6151889234
 20
7.2545943156
 30
0.0
 10
98.6631000451
 20
7.2769365148
 30
0.0
  0
SPLINE
  5
27A
100
AcDbEntity
  8
_21_KURVEN
100
AcDbSpline
 62
7
  6
CONTINUOUS
 70
0
 71
3
 72
9
 73
5
 74
0
 42
0.0000001
 43
0.0000001
 44
0.0000000001
 40
0.0
 40
0.0
 40
0.0
 40
0.0
 40
0.5
 40
1.0
 40
1.0
 40
1.0
 40
1.0
 10
98.6631000414
 20
7.2769365129
 30
0.0
 10
98.6972145043
 20
7.2953320208
 30
0.0
 10
98.7695730625
 20
7.3367092333
 30
0.0
 10
98.8316390156
 20
7.3922715887
 30
0.0
 10
98.8629697268
 20
7.4219264304
 30
0.0
  0
SPLINE
  5
27B
100
AcDbEntity
  8
_21_KURVEN
100
AcDbSpline
 62
7
  6
CONTINUOUS
 70
0
 71
3
 72
9
 73
5
 74
0
 42
0.0000001
 43
0.0000001
 44
0.0000000001
 40
0.0
 40
0.0
 40
0.0
 40
0.0
 40
0.5
 40
1.0
 40
1.0
 40
1.0
 40
1.0
 10
98.8629697233
 20
7.4219264269
 30
0.0
 10
98.8840666359
 20
7.4438572545
 30
0.0
 10
98.9247118363
 20
7.4874739112
 30
0.0
 10
98.9610520523
 20
7.541555538
 30
0.0
 10
98.9785060293
 20
7.5689375843
 30
0.0
  0
SPLINE
  5
27C
100
AcDbEntity
  8
_21_KURVEN
100
AcDbSpline
 62
7
  6
CONTINUOUS
 70
0
 71
3
 72
9
 73
5
 74
0
 42
0.0000001
 43
0.0000001
 44
0.0000000001
 40
0.0
 40
0.0
 40
0.0
 40
0.0
 40
0.25
 40
1.0
 40
1.0
 40
1.0
 40
1.0
 10
98.978506029
 20
7.5689375838
 30
0.0
 10
98.979937055
 20
7.5713070536
 30
0.0
 10
98.9872291841
 20
7.5834490461
 30
0.0
 10
98.9929248587
 20
7.5935359335
 30
0.0
 10
98.9996767517
 20
7.6059356971
 30
0.0
  0
SPLINE
  5
27D
100
AcDbEntity
  8
_21_KURVEN
100
AcDbSpline
 62
7
  6
CONTINUOUS
 70
0
 71
3
 72
11
 73
7
 74
0
 42
0.0000001
 43
0.0000001
 44
0.0000000001
 40
0.0
 40
0.0
 40
0.0
 40
0.0
 40
0.25
 40
0.5
 40
0.75
 40
1.0
 40
1.0
 40
1.0
 40
1.0
 10
98.9996767513
 20
7.6059356963
 30
0.0
 10
99.0113357262
 20
7.6295134758
 30
0.0
 10
99.0345072296
 20
7.6772337939
 30
0.0
 10
99.0634777163
 20
7.7576264622
 30
0.0
 10
99.0808735223
 20
7.8337587811
 30
0.0
 10
99.0879894064
 20
7.8903184466
 30
0.0
 10
99.0911582008
 20
7.9181509396
 30
0.0
  0
ENDSEC
  0
SECTION
  2
OBJECTS
  0
DICTIONARY
  5
C
100
AcDbDictionary
280
0
281
1
  3
ACAD_GROUP
350
D
  3
ACAD_MLINESTYLE
350
17
  3
ACAD_LAYOUT
350
1A
  3
ACAD_PLOTSETTINGS
350
19
  3
ACAD_PLOTSTYLENAME
350
E
  0
DICTIONARY
  5
D
102
{ACAD_REACTORS
330
C
102
}
100
AcDbDictionary
280
0
281
1
  0
ACDBDICTIONARYWDFLT
  5
E
102
{ACAD_REACTORS
330
C
102
}
100
AcDbDictionary
281
1
  3
Normal
350
F
100
AcDbDictionaryWithDefault
340
F
  0
DICTIONARY
  5
17
102
{ACAD_REACTORS
330
C
102
}
100
AcDbDictionary
280
0
281
1
  3
Standard
350
18
  0
DICTIONARY
  5
19
102
{ACAD_REACTORS
330
C
102
}
100
AcDbDictionary
281
1
  0
DICTIONARY
  5
1A
102
{ACAD_REACTORS
330
C
102
}
100
AcDbDictionary
281
1
  3
Model
350
27E
  3
Layout1
350
27F
  0
ACDBPLACEHOLDER
  5
F
102
{ACAD_REACTORS
330
E
102
}
  0
MLINESTYLE
  5
18
102
{ACAD_REACTORS
330
17
102
}
100
AcDbMlineStyle
  2
STANDARD
 70
0
  3

 62
256
 51
90.0
 52
90.0
 71
2
 49
0.5
 62
256
  6
BYLAYER
 49
-0.5
 62
256
  6
BYLAYER
  0
LAYOUT
  5
27E
102
{ACAD_REACTORS
330
1A
102
}
100
AcDbPlotSettings
  1

  2
none_device
  4
ISO_A3_(420.00_x_297.00_MM)
  6

 40
0.0
 41
0.0
 42
0.0
 43
0.0
 44
420.0
 45
297.0
 46
0.0
 47
0.0
 48
0.0
 49
0.0
140
0.0
141
0.0
142
1.0
143
1.0
 70
1024
 72
1
 73
0
 74
0
  7

 75
0
147
1.0
148
0.0
149
0.0
100
AcDbLayout
  1
Model
 70
0
 71
0
 10
0.0
 20
0.0
 11
420.0
 21
297.0
 12
0.0
 22
0.0
 32
0.0
 14
0.0
 24
0.0
 34
0.0
 15
0.0
 25
0.0
 35
0.0
146
0.0
 13
0.0
 23
0.0
 33
0.0
 16
1.0
 26
0.0
 36
0.0
 17
0.0
 27
1.0
 37
0.0
 76
0
330
20E
345
0
346
0
  0
LAYOUT
  5
27F
102
{ACAD_REACTORS
330
1A
102
}
100
AcDbPlotSettings
  1

  2
none_device
  4
ISO_A3_(420.00_x_297.00_MM)
  6

 40
0.0
 41
0.0
 42
0.0
 43
0.0
 44
420.0
 45
297.0
 46
0.0
 47
0.0
 48
0.0
 49
0.0
140
0.0
141
0.0
142
1.0
143
1.0
 70
0
 72
1
 73
0
 74
0
  7

 75
0
147
1.0
148
0.0
149
0.0
100
AcDbLayout
  1
Layout1
 70
0
 71
1
 10
0.0
 20
0.0
 11
420.0
 21
297.0
 12
0.0
 22
0.0
 32
0.0
 14
0.0
 24
0.0
 34
0.0
 15
0.0
 25
0.0
 35
0.0
146
0.0
 13
0.0
 23
0.0
 33
0.0
 16
1.0
 26
0.0
 36
0.0
 17
0.0
 27
1.0
 37
0.0
 76
0
330
20F
345
0
346
0
  0
ENDSEC
  0
EOF
