999
DXF file: 70508032.dxf
999
Pro/ENGINEER 2017380 by Parametric Technology Corporation
  0
SECTION
  2
HEADER
  9
$ACADVER
  1
AC1027
  9
$DWGCODEPAGE
  3
ANSI_1252
  9
$EXTMAX
 10
420.0
 20
297.0
 30
0.0
  9
$EXTMIN
 10
0.0
 20
0.0
 30
0.0
  9
$LIMMIN
 10
0.0
 20
0.0
  9
$LIMMAX
 10
420.0
 20
297.0
  9
$VIEWCTR
 10
210.0
 20
148.5
  9
$VIEWSIZE
 40
297.0
  9
$CLAYER
  8
0
  9
$LTSCALE
 40
23.1
  9
$CELTYPE
  6
BYLAYER
  9
$DIMSCALE
 40
1.0
  9
$DIMASZ
 40
3.5
  9
$DIMEXO
 40
0.0
  9
$DIMDLI
 40
15.96
  9
$DIMEXE
 40
1.5
  9
$DIMCEN
 40
3.78
  9
$DIMLFAC
 40
1.0
  9
$DIMBLK
  1
_FILLED
  9
$DIMALT
 70
0
  9
$DIMALTF
 40
25.4
  9
$DIMTXT
 40
3.5
  9
$DIMTOL
 70
1
  9
$DIMLIM
 70
0
  9
$DIMTFAC
 40
1.0
  9
$DIMTP
 40
0.05
  9
$DIMTM
 40
0.05
  9
$DIMGAP
 40
0.625
  9
$DIMDSEP
 70
46
  9
$AUNITS
 70
0
  9
$PDMODE
 70
3
  9
$PDSIZE
 40
0.3125
  9
$HANDSEED
  5
284
  9
$TILEMODE
 70
1
  9
$MEASUREMENT
 70
1
  9
$INSUNITS
 70
4
  0
ENDSEC
  0
SECTION
  2
CLASSES
  0
CLASS
  1
ACDBDICTIONARYWDFLT
  2
AcDbDictionaryWithDefault
  3
AutoCAD 2000
 90
0
 91
1
280
0
281
0
  0
CLASS
  1
ACDBPLACEHOLDER
  2
AcDbPlaceHolder
  3
AutoCAD 2000
 90
0
 91
1
280
0
281
0
  0
CLASS
  1
LAYOUT
  2
AcDbLayout
  3
AutoCAD 2000
 90
0
 91
0
280
0
281
0
  0
ENDSEC
  0
SECTION
  2
TABLES
  0
TABLE
  2
VPORT
  5
8
100
AcDbSymbolTable
 70
2
  0
VPORT
  5
1F4
100
AcDbSymbolTableRecord
100
AcDbViewportTableRecord
  2
*ACTIVE
 70
0
 10
0.0
 20
0.0
 11
1.0
 21
1.0
 12
210.0
 22
148.5
 13
0.0
 23
0.0
 14
1.0
 24
1.0
 15
0.0
 25
0.0
 16
0.0
 26
0.0
 36
1.0
 17
0.0
 27
0.0
 37
0.0
 40
297.0
 41
1.4141414141
 42
50.0
 43
0.0
 44
0.0
 50
0.0
 51
0.0
 71
0
 72
100
 73
1
 74
1
 75
0
 76
0
 77
0
 78
0
  0
ENDTAB
  0
TABLE
  2
LTYPE
  5
5
100
AcDbSymbolTable
 70
6
  0
LTYPE
  5
14
100
AcDbSymbolTableRecord
100
AcDbLinetypeTableRecord
  2
BYBLOCK
 70
0
  3

 72
65
 73
0
 40
0.0
  0
LTYPE
  5
15
100
AcDbSymbolTableRecord
100
AcDbLinetypeTableRecord
  2
BYLAYER
 70
0
  3

 72
65
 73
0
 40
0.0
  0
LTYPE
  5
16
100
AcDbSymbolTableRecord
100
AcDbLinetypeTableRecord
  2
CONTINUOUS
 70
64
  3
Solid line
 72
65
 73
0
 40
0.0
  0
LTYPE
  5
1F5
100
AcDbSymbolTableRecord
100
AcDbLinetypeTableRecord
  2
CENTER
 70
64
  3
____ _ ____ _ ____ _ ____ _ ____ _ ____ _ ____
 72
65
 73
4
 40
0.6
 49
0.375
 74
0
 49
-0.075
 74
0
 49
0.075
 74
0
 49
-0.075
 74
0
  0
LTYPE
  5
1F6
100
AcDbSymbolTableRecord
100
AcDbLinetypeTableRecord
  2
HIDDEN
 70
64
  3
- - - - - - - - - - - - - - - - - - - -
 72
65
 73
2
 40
0.2
 49
0.1
 74
0
 49
-0.1
 74
0
  0
LTYPE
  5
1F7
100
AcDbSymbolTableRecord
100
AcDbLinetypeTableRecord
  2
PHANTOM
 70
64
  3
_____ _ _ _____ _ _ _____ _ _ _____
 72
65
 73
6
 40
0.8
 49
0.45
 74
0
 49
-0.05
 74
0
 49
0.1
 74
0
 49
-0.05
 74
0
 49
0.1
 74
0
 49
-0.05
 74
0
  0
LTYPE
  5
1F8
100
AcDbSymbolTableRecord
100
AcDbLinetypeTableRecord
  2
DOT
 70
64
  3
. . . . . . . . . . . . . . . . . . . .
 72
65
 73
2
 40
0.2
 49
0.1
 74
0
 49
-0.1
 74
0
  0
LTYPE
  5
1F9
100
AcDbSymbolTableRecord
100
AcDbLinetypeTableRecord
  2
DASHED
 70
64
  3
- - - - - - - - - - - - - - - - - - - -
 72
65
 73
2
 40
0.2
 49
0.1
 74
0
 49
-0.1
 74
0
  0
ENDTAB
  0
TABLE
  2
LAYER
  5
2
100
AcDbSymbolTable
 70
36
  0
LAYER
  5
10
100
AcDbSymbolTableRecord
100
AcDbLayerTableRecord
  2
0
 70
0
 62
7
  6
CONTINUOUS
370
-3
390
F
  0
LAYER
  5
1FA
100
AcDbSymbolTableRecord
100
AcDbLayerTableRecord
  2
DEFAULT_1
 70
0
 62
7
  6
CENTER
370
-3
390
F
  0
LAYER
  5
1FB
100
AcDbSymbolTableRecord
100
AcDbLayerTableRecord
  2
DEFAULT_2
 70
0
 62
1
  6
HIDDEN
370
-3
390
F
  0
LAYER
  5
1FC
100
AcDbSymbolTableRecord
100
AcDbLayerTableRecord
  2
DEFAULT_3
 70
0
 62
7
  6
PHANTOM
370
-3
390
F
  0
LAYER
  5
1FD
100
AcDbSymbolTableRecord
100
AcDbLayerTableRecord
  2
BG_STARTBEZUEGE
 70
0
 62
7
  6
CONTINUOUS
370
-3
390
F
  0
LAYER
  5
1FE
100
AcDbSymbolTableRecord
100
AcDbLayerTableRecord
  2
HILFEN
 70
0
 62
7
  6
CONTINUOUS
370
-3
390
F
  0
LAYER
  5
1FF
100
AcDbSymbolTableRecord
100
AcDbLayerTableRecord
  2
PLATZIERUNG
 70
0
 62
7
  6
CONTINUOUS
370
-3
390
F
  0
LAYER
  5
200
100
AcDbSymbolTableRecord
100
AcDbLayerTableRecord
  2
T_STARTBEZUEGE
 70
0
 62
7
  6
CONTINUOUS
370
-3
390
F
  0
LAYER
  5
201
100
AcDbSymbolTableRecord
100
AcDbLayerTableRecord
  2
_03_2D_ZEICHNUNG_BEMASSUNGEN
 70
0
 62
7
  6
CONTINUOUS
370
-3
390
F
  0
LAYER
  5
202
100
AcDbSymbolTableRecord
100
AcDbLayerTableRecord
  2
_04_NOTIZEN
 70
0
 62
7
  6
CONTINUOUS
370
-3
390
F
  0
LAYER
  5
203
100
AcDbSymbolTableRecord
100
AcDbLayerTableRecord
  2
_05_2D_ELEMENTE
 70
0
 62
7
  6
CONTINUOUS
370
-3
390
F
  0
LAYER
  5
204
100
AcDbSymbolTableRecord
100
AcDbLayerTableRecord
  2
_07_EINRASTLINIEN
 70
0
 62
7
  6
CONTINUOUS
370
-3
390
F
  0
LAYER
  5
205
100
AcDbSymbolTableRecord
100
AcDbLayerTableRecord
  2
_21_KURVEN
 70
0
 62
7
  6
CONTINUOUS
370
-3
390
F
  0
LAYER
  5
206
100
AcDbSymbolTableRecord
100
AcDbLayerTableRecord
  2
_24_IMPORT
 70
0
 62
7
  6
CONTINUOUS
370
-3
390
F
  0
LAYER
  5
207
100
AcDbSymbolTableRecord
100
AcDbLayerTableRecord
  2
_26_BEZUGSACHSEN
 70
0
 62
7
  6
CONTINUOUS
370
-3
390
F
  0
LAYER
  5
208
100
AcDbSymbolTableRecord
100
AcDbLayerTableRecord
  2
_27_BEZUGSEBENEN
 70
0
 62
7
  6
CONTINUOUS
370
-3
390
F
  0
LAYER
  5
209
100
AcDbSymbolTableRecord
100
AcDbLayerTableRecord
  2
_28_BEZUGSPUNKTE
 70
0
 62
7
  6
CONTINUOUS
370
-3
390
F
  0
LAYER
  5
20A
100
AcDbSymbolTableRecord
100
AcDbLayerTableRecord
  2
_29_KOORDINATENSYSTEME
 70
0
 62
7
  6
CONTINUOUS
370
-3
390
F
  0
LAYER
  5
20B
100
AcDbSymbolTableRecord
100
AcDbLayerTableRecord
  2
_30_VOLUMEN
 70
0
 62
7
  6
CONTINUOUS
370
-3
390
F
  0
ENDTAB
  0
TABLE
  2
STYLE
  5
3
100
AcDbSymbolTable
 70
1
  0
STYLE
  5
11
100
AcDbSymbolTableRecord
100
AcDbTextStyleTableRecord
  2
STANDARD
 70
0
 40
0.0
 41
0.7
 50
0.0
 71
0
 42
0.2
  3
SIMPLEX.SHX
  4

  0
STYLE
  5
20C
100
AcDbSymbolTableRecord
100
AcDbTextStyleTableRecord
  2
TEXTSTYLE_1
 70
0
 40
0.0
 41
0.8
 50
0.0
 71
0
 42
0.2
  3
gdt
  4

  0
ENDTAB
  0
TABLE
  2
VIEW
  5
6
100
AcDbSymbolTable
 70
0
  0
ENDTAB
  0
TABLE
  2
UCS
  5
7
100
AcDbSymbolTable
 70
0
  0
ENDTAB
  0
TABLE
  2
APPID
  5
9
100
AcDbSymbolTable
 70
1
  0
APPID
  5
20D
100
AcDbSymbolTableRecord
100
AcDbRegAppTableRecord
  2
ACAD
 70
0
  0
ENDTAB
  0
TABLE
  2
BLOCK_RECORD
  5
1
100
AcDbSymbolTable
 70
0
  0
BLOCK_RECORD
  5
20E
100
AcDbSymbolTableRecord
100
AcDbBlockTableRecord
  2
*Model_Space
  0
BLOCK_RECORD
  5
20F
100
AcDbSymbolTableRecord
100
AcDbBlockTableRecord
  2
*Paper_Space
  0
BLOCK_RECORD
  5
210
100
AcDbSymbolTableRecord
100
AcDbBlockTableRecord
  2
_FILLED
  0
BLOCK_RECORD
  5
211
100
AcDbSymbolTableRecord
100
AcDbBlockTableRecord
  2
*D0
  0
BLOCK_RECORD
  5
212
100
AcDbSymbolTableRecord
100
AcDbBlockTableRecord
  2
*D1
  0
BLOCK_RECORD
  5
213
100
AcDbSymbolTableRecord
100
AcDbBlockTableRecord
  2
*D2
  0
ENDTAB
  0
TABLE
  2
DIMSTYLE
  5
A
100
AcDbSymbolTable
 70
1
100
AcDbDimStyleTable
 71
0
  0
DIMSTYLE
105
214
100
AcDbSymbolTableRecord
100
AcDbDimStyleTableRecord
  2
STANDARD
 70
0
  3

  4

 40
1.0
 41
3.5
 42
0.0
 43
0.38
 44
1.5
 45
0.0
 46
0.0
 47
0.05
 48
0.05
140
3.5
141
0.09
142
0.0
143
25.4
144
1.0
145
0.0
146
1.0
147
0.625
 71
1.0
 72
0.0
 73
0
 74
0
 75
0
 76
0
 77
1
 78
8
 79
2
170
0
171
1
172
0
173
0
174
0
175
0
176
0
177
0
178
2
270
2
179
2
271
2
272
2
273
2
274
2
275
0
280
0
281
0
282
0
283
1
284
8
285
0
286
0
287
3
288
0
340
11
278
46
341
210
342
210
343
210
344
210
  0
DIMSTYLE
105
215
100
AcDbSymbolTableRecord
100
AcDbDimStyleTableRecord
  2
DIMSTYLE_1
 70
0
  3

  4

 40
1.0
 41
3.5
 42
0.0
 43
0.38
 44
1.5
 45
0.0
 46
0.0
 47
0.2
 48
0.2
140
3.5
141
0.09
142
0.0
143
25.4
144
1.0
145
0.0
146
1.0
147
0.875
 71
0.0
 72
0.0
 73
0
 74
0
 75
0
 76
0
 77
1
 78
8
 79
2
170
0
171
1
172
0
173
0
174
0
175
0
176
0
177
0
178
2
270
2
179
2
271
2
272
2
273
2
274
2
275
0
280
0
281
0
282
0
283
1
284
8
285
0
286
0
287
3
288
0
340
11
278
46
341
210
342
210
343
210
344
210
  0
DIMSTYLE
105
216
100
AcDbSymbolTableRecord
100
AcDbDimStyleTableRecord
  2
DIMSTYLE_2
 70
0
  3

  4

 40
1.0
 41
3.5
 42
0.0
 43
0.38
 44
1.5
 45
0.0
 46
0.0
 47
0.5
 48
0.5
140
3.5
141
0.09
142
0.0
143
25.4
144
1.0
145
0.0
146
1.0
147
0.875
 71
0.0
 72
0.0
 73
0
 74
0
 75
0
 76
0
 77
1
 78
8
 79
2
170
0
171
1
172
0
173
0
174
0
175
0
176
0
177
0
178
2
270
2
179
2
271
2
272
2
273
2
274
2
275
0
280
0
281
0
282
0
283
1
284
8
285
0
286
0
287
3
288
0
340
11
278
46
341
210
342
210
343
210
344
210
  0
DIMSTYLE
105
217
100
AcDbSymbolTableRecord
100
AcDbDimStyleTableRecord
  2
DIMSTYLE_3
 70
0
  3

  4

 40
1.0
 41
3.5
 42
0.0
 43
0.38
 44
1.5
 45
0.0
 46
0.0
 47
0.3
 48
0.3
140
3.5
141
0.09
142
0.0
143
25.4
144
1.0
145
0.0
146
1.0
147
0.875
 71
0.0
 72
0.0
 73
0
 74
0
 75
0
 76
0
 77
1
 78
8
 79
2
170
0
171
1
172
0
173
0
174
0
175
0
176
0
177
0
178
2
270
2
179
2
271
2
272
2
273
2
274
2
275
0
280
0
281
0
282
0
283
1
284
8
285
0
286
0
287
3
288
0
340
11
278
46
341
210
342
210
343
210
344
210
  0
ENDTAB
  0
ENDSEC
  0
SECTION
  2
BLOCKS
  0
BLOCK
  5
20
100
AcDbEntity
  8
0
100
AcDbBlockBegin
  2
*Model_Space
 70
0
 10
0.0
 20
0.0
 30
0.0
  3
*Model_Space
  1

  0
ENDBLK
  5
21
100
AcDbEntity
  8
0
100
AcDbBlockEnd
  0
BLOCK
  5
1C
100
AcDbEntity
  8
0
100
AcDbBlockBegin
  2
*Paper_Space
 70
0
 10
0.0
 20
0.0
 30
0.0
  3
*Paper_Space
  1

  0
ENDBLK
  5
1D
100
AcDbEntity
  8
0
100
AcDbBlockEnd
  0
BLOCK
  5
218
100
AcDbEntity
  8
0
100
AcDbBlockBegin
  2
_FILLED
 70
64
 10
0.0
 20
0.0
  3
_FILLED
  1

  0
SOLID
  5
219
100
AcDbEntity
  8
0
  6
BYBLOCK
 62
0
100
AcDbTrace
 10
0.0
 20
0.0
 11
-1.0
 21
0.125
 12
-1.0
 22
-0.125
 13
-1.0
 23
-0.125
  0
ENDBLK
  5
21A
100
AcDbEntity
  8
0
  6
BYBLOCK
 62
0
100
AcDbBlockEnd
  0
BLOCK
  5
21B
100
AcDbEntity
  8
_03_2D_ZEICHNUNG_BEMASSUNGEN
100
AcDbBlockBegin
 62
7
  6
CONTINUOUS
  2
*D0
 70
65
 10
0.0
 20
0.0
  3
*D0
  1

  0
TEXT
  5
21C
100
AcDbEntity
  8
_03_2D_ZEICHNUNG_BEMASSUNGEN
100
AcDbText
 62
2
  6
CONTINUOUS
 10
-9.875
 20
9.875
  7
STANDARD
 40
3.5
  1
25
 50
90.0
 41
0.75
 72
1
 11
-9.875
 21
12.5
100
AcDbText
  0
LINE
  5
21D
100
AcDbEntity
  8
_03_2D_ZEICHNUNG_BEMASSUNGEN
100
AcDbLine
 62
7
  6
CONTINUOUS
 10
0.0
 20
25.0
 11
-10.5
 21
25.0
  0
LINE
  5
21E
100
AcDbEntity
  8
_03_2D_ZEICHNUNG_BEMASSUNGEN
100
AcDbLine
 62
7
  6
CONTINUOUS
 10
-0.0
 20
-0.0
 11
-10.5
 21
0.0
  0
LINE
  5
21F
100
AcDbEntity
  8
_03_2D_ZEICHNUNG_BEMASSUNGEN
100
AcDbLine
 62
7
  6
CONTINUOUS
 10
-9.0
 20
25.0
 11
-9.0
 21
31.0
  0
LINE
  5
220
100
AcDbEntity
  8
_03_2D_ZEICHNUNG_BEMASSUNGEN
100
AcDbLine
 62
7
  6
CONTINUOUS
 10
-9.0
 20
31.0
 11
-9.0
 21
12.5
  0
LINE
  5
221
100
AcDbEntity
  8
_03_2D_ZEICHNUNG_BEMASSUNGEN
100
AcDbLine
 62
7
  6
CONTINUOUS
 10
-9.0
 20
0.0
 11
-9.0
 21
-6.0
  0
LINE
  5
222
100
AcDbEntity
  8
_03_2D_ZEICHNUNG_BEMASSUNGEN
100
AcDbLine
 62
7
  6
CONTINUOUS
 10
-9.0
 20
-6.0
 11
-9.0
 21
12.5
  0
INSERT
  5
223
100
AcDbEntity
  8
_03_2D_ZEICHNUNG_BEMASSUNGEN
100
AcDbBlockReference
 62
7
  6
CONTINUOUS
  2
_FILLED
 10
-9.0
 20
25.0
 41
3.5
 42
3.5
 43
3.5
 50
270.0
  0
INSERT
  5
224
100
AcDbEntity
  8
_03_2D_ZEICHNUNG_BEMASSUNGEN
100
AcDbBlockReference
 62
7
  6
CONTINUOUS
  2
_FILLED
 10
-9.0
 20
0.0
 41
3.5
 42
3.5
 43
3.5
 50
90.0
  0
ENDBLK
  5
225
100
AcDbEntity
  8
0
  6
BYBLOCK
 62
0
100
AcDbBlockEnd
  0
BLOCK
  5
226
100
AcDbEntity
  8
_03_2D_ZEICHNUNG_BEMASSUNGEN
100
AcDbBlockBegin
 62
7
  6
CONTINUOUS
  2
*D1
 70
65
 10
0.0
 20
0.0
  3
*D1
  1

  0
TEXT
  5
227
100
AcDbEntity
  8
_03_2D_ZEICHNUNG_BEMASSUNGEN
100
AcDbText
 62
2
  6
CONTINUOUS
 10
81.25
 20
41.9148071799
  7
STANDARD
 40
3.5
  1
170
 41
0.7142857143
 72
1
 11
85.0
 21
41.9148071799
100
AcDbText
  0
LINE
  5
228
100
AcDbEntity
  8
_03_2D_ZEICHNUNG_BEMASSUNGEN
100
AcDbLine
 62
7
  6
CONTINUOUS
 10
170.0
 20
0.0
 11
170.0
 21
42.5398071799
  0
LINE
  5
229
100
AcDbEntity
  8
_03_2D_ZEICHNUNG_BEMASSUNGEN
100
AcDbLine
 62
7
  6
CONTINUOUS
 10
0.0
 20
0.0
 11
0.0
 21
42.5398071799
  0
LINE
  5
22A
100
AcDbEntity
  8
_03_2D_ZEICHNUNG_BEMASSUNGEN
100
AcDbLine
 62
7
  6
CONTINUOUS
 10
170.0
 20
41.0398071799
 11
85.0
 21
41.0398071799
  0
LINE
  5
22B
100
AcDbEntity
  8
_03_2D_ZEICHNUNG_BEMASSUNGEN
100
AcDbLine
 62
7
  6
CONTINUOUS
 10
0.0
 20
41.0398071799
 11
85.0
 21
41.0398071799
  0
INSERT
  5
22C
100
AcDbEntity
  8
_03_2D_ZEICHNUNG_BEMASSUNGEN
100
AcDbBlockReference
 62
7
  6
CONTINUOUS
  2
_FILLED
 10
170.0
 20
41.0398071799
 41
3.5
 42
3.5
 43
3.5
  0
INSERT
  5
22D
100
AcDbEntity
  8
_03_2D_ZEICHNUNG_BEMASSUNGEN
100
AcDbBlockReference
 62
7
  6
CONTINUOUS
  2
_FILLED
 10
0.0
 20
41.0398071799
 41
3.5
 42
3.5
 43
3.5
 50
180.0
  0
ENDBLK
  5
22E
100
AcDbEntity
  8
0
  6
BYBLOCK
 62
0
100
AcDbBlockEnd
  0
BLOCK
  5
22F
100
AcDbEntity
  8
_03_2D_ZEICHNUNG_BEMASSUNGEN
100
AcDbBlockBegin
 62
7
  6
CONTINUOUS
  2
*D2
 70
65
 10
0.0
 20
0.0
  3
*D2
  1

  0
TEXT
  5
230
100
AcDbEntity
  8
_03_2D_ZEICHNUNG_BEMASSUNGEN
100
AcDbText
 62
2
  6
CONTINUOUS
 10
178.1644995576
 20
13.375
  7
STANDARD
 40
3.5
  1
32
 50
90.0
 41
0.75
 72
1
 11
178.1644995576
 21
16.0
100
AcDbText
  0
LINE
  5
231
100
AcDbEntity
  8
_03_2D_ZEICHNUNG_BEMASSUNGEN
100
AcDbLine
 62
7
  6
CONTINUOUS
 10
170.0
 20
32.0
 11
180.5394995576
 21
32.0
  0
LINE
  5
232
100
AcDbEntity
  8
_03_2D_ZEICHNUNG_BEMASSUNGEN
100
AcDbLine
 62
7
  6
CONTINUOUS
 10
0.0
 20
0.0
 11
180.5394995576
 21
0.0
  0
LINE
  5
233
100
AcDbEntity
  8
_03_2D_ZEICHNUNG_BEMASSUNGEN
100
AcDbLine
 62
7
  6
CONTINUOUS
 10
179.0394995576
 20
32.0
 11
179.0394995576
 21
16.0
  0
LINE
  5
234
100
AcDbEntity
  8
_03_2D_ZEICHNUNG_BEMASSUNGEN
100
AcDbLine
 62
7
  6
CONTINUOUS
 10
179.0394995576
 20
0.0
 11
179.0394995576
 21
16.0
  0
INSERT
  5
235
100
AcDbEntity
  8
_03_2D_ZEICHNUNG_BEMASSUNGEN
100
AcDbBlockReference
 62
7
  6
CONTINUOUS
  2
_FILLED
 10
179.0394995576
 20
32.0
 41
3.5
 42
3.5
 43
3.5
 50
90.0
  0
INSERT
  5
236
100
AcDbEntity
  8
_03_2D_ZEICHNUNG_BEMASSUNGEN
100
AcDbBlockReference
 62
7
  6
CONTINUOUS
  2
_FILLED
 10
179.0394995576
 20
0.0
 41
3.5
 42
3.5
 43
3.5
 50
270.0
  0
ENDBLK
  5
237
100
AcDbEntity
  8
0
  6
BYBLOCK
 62
0
100
AcDbBlockEnd
  0
ENDSEC
  0
SECTION
  2
ENTITIES
  0
DIMENSION
  5
238
100
AcDbEntity
  8
_03_2D_ZEICHNUNG_BEMASSUNGEN
100
AcDbDimension
 62
7
  6
CONTINUOUS
  2
*D0
 10
-9.0
 20
0.0
 11
-9.0
 21
11.9999997234
 70
160
 71
2
 42
25.0
  3
DIMSTYLE_1
100
AcDbAlignedDimension
 13
0.0
 23
25.0
 14
-0.0
 24
-0.0
 50
270.0
100
AcDbRotatedDimension
  0
DIMENSION
  5
239
100
AcDbEntity
  8
_03_2D_ZEICHNUNG_BEMASSUNGEN
100
AcDbDimension
 62
7
  6
CONTINUOUS
  2
*D1
 10
0.0
 20
41.0398071799
 11
84.4999996948
 21
41.0398071799
 70
160
 71
2
 42
170.0
  3
DIMSTYLE_2
100
AcDbAlignedDimension
 13
170.0
 23
0.0
 14
0.0
 24
0.0
 50
180.0
100
AcDbRotatedDimension
  0
DIMENSION
  5
23A
100
AcDbEntity
  8
_03_2D_ZEICHNUNG_BEMASSUNGEN
100
AcDbDimension
 62
7
  6
CONTINUOUS
  2
*D2
 10
179.0394995576
 20
0.0
 11
179.0394995576
 21
15.5000057525
 70
160
 71
2
 42
32.0
  3
DIMSTYLE_3
100
AcDbAlignedDimension
 13
170.0
 23
32.0
 14
0.0
 24
0.0
 50
270.0
100
AcDbRotatedDimension
  0
LINE
  5
23B
100
AcDbEntity
  8
_30_VOLUMEN
100
AcDbLine
 62
4
  6
CONTINUOUS
 10
-0.0
 20
0.5
 11
0.0
 21
24.5
  0
LINE
  5
23C
100
AcDbEntity
  8
_30_VOLUMEN
100
AcDbLine
 62
4
  6
CONTINUOUS
 10
0.5
 20
-0.0
 11
0.5
 21
25.0
  0
LINE
  5
23D
100
AcDbEntity
  8
_30_VOLUMEN
100
AcDbLine
 62
4
  6
CONTINUOUS
 10
0.5
 20
25.0
 11
0.0
 21
24.5
  0
LINE
  5
23E
100
AcDbEntity
  8
_30_VOLUMEN
100
AcDbLine
 62
4
  6
CONTINUOUS
 10
0.5
 20
-0.0
 11
-0.0
 21
0.5
  0
LINE
  5
23F
100
AcDbEntity
  8
_30_VOLUMEN
100
AcDbLine
 62
4
  6
CONTINUOUS
 10
0.5
 20
-0.0
 11
141.9
 21
0.0
  0
LINE
  5
240
100
AcDbEntity
  8
0
100
AcDbLine
 62
4
  6
CONTINUOUS
 10
141.9
 20
0.0
 11
153.3711932271
 21
0.0
  0
LINE
  5
241
100
AcDbEntity
  8
_30_VOLUMEN
100
AcDbLine
 62
4
  6
CONTINUOUS
 10
167.7886640046
 20
18.7256381223
 11
167.9165026568
 21
18.7368225552
  0
LINE
  5
242
100
AcDbEntity
  8
_30_VOLUMEN
100
AcDbLine
 62
4
  6
CONTINUOUS
 10
168.3740209163
 20
19.1943408146
 11
157.2071860263
 21
18.2173693543
  0
LINE
  5
243
100
AcDbEntity
  8
_21_KURVEN
100
AcDbLine
 62
7
  6
CONTINUOUS
 10
168.3740209163
 20
19.1943408146
 11
157.2071860263
 21
18.2173693543
  0
LINE
  5
244
100
AcDbEntity
  8
_26_BEZUGSACHSEN
100
AcDbLine
 62
4
  6
CONTINUOUS
 10
167.8254714329
 20
19.1463489535
 11
156.2626141042
 21
18.1347300192
  0
LINE
  5
245
100
AcDbEntity
  8
_26_BEZUGSACHSEN
100
AcDbLine
 62
4
  6
CONTINUOUS
 10
157.1774556282
 20
29.8281929143
 11
146.0324432531
 21
28.8531306766
  0
LINE
  5
246
100
AcDbEntity
  8
_30_VOLUMEN
100
AcDbLine
 62
4
  6
CONTINUOUS
 10
157.9280927455
 20
30.9801963845
 11
169.0949276355
 21
31.9571678448
  0
LINE
  5
247
100
AcDbEntity
  8
_21_KURVEN
100
AcDbLine
 62
7
  6
CONTINUOUS
 10
157.9280927455
 20
30.9801963845
 11
169.0949276355
 21
31.9571678448
  0
LINE
  5
248
100
AcDbEntity
  8
_30_VOLUMEN
100
AcDbLine
 62
4
  6
CONTINUOUS
 10
0.5
 20
25.0
 11
141.9
 21
25.0
  0
LINE
  5
249
100
AcDbEntity
  8
0
100
AcDbLine
 62
4
  6
CONTINUOUS
 10
141.9
 20
25.0
 11
145.0
 21
25.0
  0
LINE
  5
24A
100
AcDbEntity
  8
_30_VOLUMEN
100
AcDbLine
 62
4
  6
CONTINUOUS
 10
157.4391439385
 20
30.7526107722
 11
156.981625679
 21
30.2950925127
  0
LINE
  5
24B
100
AcDbEntity
  8
_30_VOLUMEN
100
AcDbLine
 62
7
  6
CONTINUOUS
 10
157.2109554604
 20
30.2563862521
 11
156.753437201
 21
29.7988679926
  0
LINE
  5
24C
100
AcDbEntity
  8
_28_BEZUGSPUNKTE
100
AcDbLine
 62
1
  6
CONTINUOUS
 10
170.15625
 20
32.15625
 11
169.84375
 21
31.84375
  0
LINE
  5
24D
100
AcDbEntity
  8
0
100
AcDbLine
 62
4
  6
CONTINUOUS
 10
154.4939670305
 20
1.1227738034
 11
143.1057713659
 21
12.510969468
  0
LINE
  5
24E
100
AcDbEntity
  8
_30_VOLUMEN
100
AcDbLine
 62
7
  6
CONTINUOUS
 10
168.3740209163
 20
19.1943408146
 11
167.9165026568
 21
18.7368225552
  0
LINE
  5
24F
100
AcDbEntity
  8
_30_VOLUMEN
100
AcDbLine
 62
4
  6
CONTINUOUS
 10
168.8629697233
 20
19.4219264269
 11
168.4054514638
 21
18.9644081675
  0
LINE
  5
250
100
AcDbEntity
  8
0
100
AcDbLine
 62
4
  6
CONTINUOUS
 10
142.7893346738
 20
25.0
 11
143.1057713659
 21
12.510969468
  0
LINE
  5
251
100
AcDbEntity
  8
0
100
AcDbLine
 62
4
  6
CONTINUOUS
 10
141.9
 20
25.0
 11
141.9
 21
0.0
  0
LINE
  5
252
100
AcDbEntity
  8
0
100
AcDbLine
 62
4
  6
CONTINUOUS
 10
143.1057713659
 20
12.510969468
 11
143.1057713659
 21
0.0
  0
LINE
  5
253
100
AcDbEntity
  8
_30_VOLUMEN
100
AcDbLine
 62
4
  6
CONTINUOUS
 10
145.0
 20
25.0
 11
146.0324432531
 21
28.8531306766
  0
LINE
  5
254
100
AcDbEntity
  8
_30_VOLUMEN
100
AcDbLine
 62
4
  6
CONTINUOUS
 10
167.3756107216
 20
14.0044174945
 11
154.4939670305
 21
1.1227738034
  0
LINE
  5
255
100
AcDbEntity
  8
0
100
AcDbLine
 62
4
  6
CONTINUOUS
 10
154.4939670305
 20
1.1227738034
 11
153.3711932271
 21
0.0
  0
LINE
  5
256
100
AcDbEntity
  8
_26_BEZUGSACHSEN
100
AcDbLine
 62
4
  6
CONTINUOUS
 10
156.2626141042
 20
18.1347300192
 11
157.1774556282
 21
29.8281929143
  0
LINE
  5
257
100
AcDbEntity
  8
_30_VOLUMEN
100
AcDbLine
 62
4
  6
CONTINUOUS
 10
156.3365755053
 20
19.0801012964
 11
157.2109554604
 21
30.2563862521
  0
LINE
  5
258
100
AcDbEntity
  8
_21_KURVEN
100
AcDbLine
 62
7
  6
CONTINUOUS
 10
156.3365755053
 20
19.0801012964
 11
157.2109554604
 21
30.2563862521
  0
LINE
  5
259
100
AcDbEntity
  8
_28_BEZUGSPUNKTE
100
AcDbLine
 62
1
  6
CONTINUOUS
 10
170.15625
 20
31.84375
 11
169.84375
 21
32.15625
  0
LINE
  5
25A
100
AcDbEntity
  8
_21_KURVEN
100
AcDbLine
 62
7
  6
CONTINUOUS
 10
169.9655381564
 20
31.0944359027
 11
169.0911582013
 21
19.918150947
  0
LINE
  5
25B
100
AcDbEntity
  8
_30_VOLUMEN
100
AcDbLine
 62
4
  6
CONTINUOUS
 10
169.9655381564
 20
31.0944359027
 11
169.0911582013
 21
19.918150947
  0
LINE
  5
25C
100
AcDbEntity
  8
_26_BEZUGSACHSEN
100
AcDbLine
 62
4
  6
CONTINUOUS
 10
167.8254714329
 20
19.1463489535
 11
167.3756107216
 21
14.0044174945
  0
ARC
  5
25D
100
AcDbEntity
  8
_30_VOLUMEN
100
AcDbCircle
 62
4
  6
CONTINUOUS
 10
162.6727153237
 20
24.6478009315
 40
2.5523819904
100
AcDbArc
 50
125.9469945549
 51
129.8244965943
  0
ARC
  5
25E
100
AcDbEntity
  8
_30_VOLUMEN
100
AcDbCircle
 62
4
  6
CONTINUOUS
 10
162.7100208111
 20
24.6052742455
 40
2.551710833
100
AcDbArc
 50
324.1465090248
 51
5.5797570465
  0
ARC
  5
25F
100
AcDbEntity
  8
_30_VOLUMEN
100
AcDbCircle
 62
4
  6
CONTINUOUS
 10
162.7379555189
 20
24.5879600809
 40
2.5189291842
100
AcDbArc
 50
320.7705199454
 51
324.0935484853
  0
ARC
  5
260
100
AcDbEntity
  8
_30_VOLUMEN
100
AcDbCircle
 62
4
  6
CONTINUOUS
 10
162.7472986424
 20
24.5804661336
 40
2.5069524419
100
AcDbArc
 50
320.2935952954
 51
320.7681454055
  0
SPLINE
  5
261
100
AcDbEntity
  8
_30_VOLUMEN
100
AcDbSpline
 62
4
  6
CONTINUOUS
 70
0
 71
3
 72
11
 73
7
 74
0
 42
0.0000001
 43
0.0000001
 44
0.0000000001
 40
0.0
 40
0.0
 40
0.0
 40
0.0
 40
0.2496349922
 40
0.5000147789
 40
0.7503855881
 40
1.0
 40
1.0
 40
1.0
 40
1.0
 10
169.9655381564
 20
31.0944359027
 30
0.0
 10
169.9745111843
 20
31.2091287382
 30
0.0
 10
169.9412604266
 20
31.4458976552
 30
0.0
 10
169.7473208077
 20
31.7449002072
 30
0.0
 10
169.4465759303
 20
31.9361118671
 30
0.0
 10
169.2095237165
 20
31.9671937028
 30
0.0
 10
169.0949276355
 20
31.9571678448
 30
0.0
  0
SPLINE
  5
262
100
AcDbEntity
  8
_30_VOLUMEN
100
AcDbSpline
 62
4
  6
CONTINUOUS
 70
0
 71
3
 72
9
 73
5
 74
0
 42
0.0000001
 43
0.0000001
 44
0.0000000001
 40
0.0
 40
0.0
 40
0.0
 40
0.0
 40
0.5000778014
 40
1.0
 40
1.0
 40
1.0
 40
1.0
 10
157.9280927455
 20
30.9801963845
 30
0.0
 10
157.8371598325
 20
30.9722407854
 30
0.0
 10
157.6568158579
 20
30.9239996149
 30
0.0
 10
157.5036187488
 20
30.8171860102
 30
0.0
 10
157.4390939174
 20
30.7526612245
 30
0.0
  0
SPLINE
  5
263
100
AcDbEntity
  8
_30_VOLUMEN
100
AcDbSpline
 62
4
  6
CONTINUOUS
 70
0
 71
3
 72
9
 73
5
 74
0
 42
0.0000001
 43
0.0000001
 44
0.0000000001
 40
0.0
 40
0.0
 40
0.0
 40
0.0
 40
0.5001197338
 40
1.0
 40
1.0
 40
1.0
 40
1.0
 10
156.753437201
 20
29.7988679926
 30
0.0
 10
156.7606508821
 20
29.8910729379
 30
0.0
 10
156.8082627682
 20
30.074237537
 30
0.0
 10
156.916208978
 20
30.2297763314
 30
0.0
 10
156.9815756579
 20
30.295142965
 30
0.0
  0
SPLINE
  5
264
100
AcDbEntity
  8
_30_VOLUMEN
100
AcDbSpline
 62
4
  6
CONTINUOUS
 70
0
 71
3
 72
9
 73
5
 74
0
 42
0.0000001
 43
0.0000001
 44
0.0000000001
 40
0.0
 40
0.0
 40
0.0
 40
0.0
 40
0.4998802662
 40
1.0
 40
1.0
 40
1.0
 40
1.0
 10
168.8630197444
 20
19.4218759746
 30
0.0
 10
168.9283864243
 20
19.4872426082
 30
0.0
 10
169.0363326341
 20
19.6427814026
 30
0.0
 10
169.0839445202
 20
19.8259460017
 30
0.0
 10
169.0911582013
 20
19.918150947
 30
0.0
  0
SPLINE
  5
265
100
AcDbEntity
  8
_30_VOLUMEN
100
AcDbSpline
 62
4
  6
CONTINUOUS
 70
0
 71
3
 72
9
 73
5
 74
0
 42
0.0000001
 43
0.0000001
 44
0.0000000001
 40
0.0
 40
0.0
 40
0.0
 40
0.0
 40
0.4999221986
 40
1.0
 40
1.0
 40
1.0
 40
1.0
 10
168.405501485
 20
18.9643577152
 30
0.0
 10
168.3409766535
 20
18.8998329294
 30
0.0
 10
168.1877795444
 20
18.7930193247
 30
0.0
 10
168.0074355698
 20
18.7447781542
 30
0.0
 10
167.9165026568
 20
18.7368225552
 30
0.0
  0
SPLINE
  5
266
100
AcDbEntity
  8
_30_VOLUMEN
100
AcDbSpline
 62
4
  6
CONTINUOUS
 70
0
 71
3
 72
9
 73
5
 74
0
 42
0.0000001
 43
0.0000001
 44
0.0000000001
 40
0.0
 40
0.0
 40
0.0
 40
0.0
 40
0.5033241938
 40
1.0
 40
1.0
 40
1.0
 40
1.0
 10
160.4379299483
 20
24.7205871942
 30
0.0
 10
160.4024157178
 20
25.0877184436
 30
0.0
 10
160.4919368581
 20
25.8423907462
 30
0.0
 10
160.8994034966
 20
26.4842862562
 30
0.0
 10
161.1567712141
 20
26.7416539737
 30
0.0
  0
SPLINE
  5
267
100
AcDbEntity
  8
_30_VOLUMEN
100
AcDbSpline
 62
4
  6
CONTINUOUS
 70
0
 71
3
 72
15
 73
11
 74
0
 42
0.0000001
 43
0.0000001
 44
0.0000000001
 40
0.0
 40
0.0
 40
0.0
 40
0.0
 40
0.1243289262
 40
0.2488920374
 40
0.3737504144
 40
0.4988891629
 40
0.6242307257
 40
0.7495911685
 40
0.875054414
 40
1.0
 40
1.0
 40
1.0
 40
1.0
 10
161.1743737715
 20
26.7141083669
 30
0.0
 10
161.3556716147
 20
26.8455696875
 30
0.0
 10
161.7558717773
 20
27.0611334883
 30
0.0
 10
162.4188686837
 20
27.2156003999
 30
0.0
 10
163.1010536496
 20
27.1914622546
 30
0.0
 10
163.7547457744
 20
26.9907800004
 30
0.0
 10
164.3352680349
 20
26.6277827392
 30
0.0
 10
164.8029401385
 20
26.1266750873
 30
0.0
 10
165.1242443388
 20
25.5226003377
 30
0.0
 10
165.2279717584
 20
25.0773895933
 30
0.0
 10
165.2496411648
 20
24.8533803398
 30
0.0
  0
SPLINE
  5
268
100
AcDbEntity
  8
_30_VOLUMEN
100
AcDbSpline
 62
4
  6
CONTINUOUS
 70
0
 71
3
 72
15
 73
11
 74
0
 42
0.0000001
 43
0.0000001
 44
0.0000000001
 40
0.0
 40
0.0
 40
0.0
 40
0.0
 40
0.1218909681
 40
0.2448243991
 40
0.3688250953
 40
0.4942964634
 40
0.6208478577
 40
0.7477612155
 40
0.8744854163
 40
1.0
 40
1.0
 40
1.0
 40
1.0
 10
164.8054422051
 20
23.0929829828
 30
0.0
 10
164.6390634077
 20
22.9266041854
 30
0.0
 10
164.2544481829
 20
22.6391595369
 30
0.0
 10
163.5788280528
 20
22.3866615158
 30
0.0
 10
162.8520240914
 20
22.3343064028
 30
0.0
 10
162.1326076403
 20
22.4873208749
 30
0.0
 10
161.4792325782
 20
22.8371830548
 30
0.0
 10
160.9458135111
 20
23.3553581441
 30
0.0
 10
160.5782183872
 20
23.9989303932
 30
0.0
 10
160.4612588439
 20
24.4794228354
 30
0.0
 10
160.4379299483
 20
24.7205871942
 30
0.0
  0
SPLINE
  5
269
100
AcDbEntity
  8
_30_VOLUMEN
100
AcDbSpline
 62
4
  6
CONTINUOUS
 70
0
 71
3
 72
15
 73
11
 74
0
 42
0.0000001
 43
0.0000001
 44
0.0000000001
 40
0.0
 40
0.0
 40
0.0
 40
0.0
 40
0.1248951824
 40
0.2493889825
 40
0.3738219425
 40
0.498502705
 40
0.6236222837
 40
0.7491143977
 40
0.8746665727
 40
1.0
 40
1.0
 40
1.0
 40
1.0
 10
166.1628986464
 20
25.3507706147
 30
0.0
 10
166.2007591274
 20
24.9593848091
 30
0.0
 10
166.1213878178
 20
24.1540047883
 30
0.0
 10
165.5479589016
 20
23.0920583233
 30
0.0
 10
164.6089878037
 20
22.3325167427
 30
0.0
 10
163.4480175901
 20
21.9943522156
 30
0.0
 10
162.2431428681
 20
22.1269395919
 30
0.0
 10
161.1773607106
 20
22.7098951156
 30
0.0
 10
160.4112737697
 20
23.6515939201
 30
0.0
 10
160.1772083451
 20
24.4310074445
 30
0.0
 10
160.1392150154
 20
24.8237665844
 30
0.0
  0
SPLINE
  5
26A
100
AcDbEntity
  8
_30_VOLUMEN
100
AcDbSpline
 62
7
  6
CONTINUOUS
 70
0
 71
3
 72
9
 73
5
 74
0
 42
0.0000001
 43
0.0000001
 44
0.0000000001
 40
0.0
 40
0.0
 40
0.0
 40
0.0
 40
0.5007365021
 40
1.0
 40
1.0
 40
1.0
 40
1.0
 10
165.537209303
 20
25.140948478
 30
0.0
 10
165.5730281152
 20
24.7706685896
 30
0.0
 10
165.481010387
 20
24.0058515885
 30
0.0
 10
165.067784087
 20
23.3551926699
 30
0.0
 10
164.8054544101
 20
23.0929707728
 30
0.0
  0
SPLINE
  5
26B
100
AcDbEntity
  8
_30_VOLUMEN
100
AcDbSpline
 62
4
  6
CONTINUOUS
 70
0
 71
3
 72
15
 73
11
 74
0
 42
0.0000001
 43
0.0000001
 44
0.0000000001
 40
0.0
 40
0.0
 40
0.0
 40
0.0
 40
0.1248797068
 40
0.2493907964
 40
0.3738200552
 40
0.4985026973
 40
0.6236242322
 40
0.749112591
 40
0.8746820906
 40
1.0
 40
1.0
 40
1.0
 40
1.0
 10
166.0762391191
 20
25.3151222937
 30
0.0
 10
166.1133929901
 20
24.9310411265
 30
0.0
 10
166.0354179777
 20
24.1406256606
 30
0.0
 10
165.4728624053
 20
23.0982314872
 30
0.0
 10
164.5511739809
 20
22.3528344706
 30
0.0
 10
163.4117636578
 20
22.0208376581
 30
0.0
 10
162.2292439548
 20
22.1510732738
 30
0.0
 10
161.183109512
 20
22.723136799
 30
0.0
 10
160.4314366235
 20
23.6475534763
 30
0.0
 10
160.2016437265
 20
24.4124709381
 30
0.0
 10
160.1643594826
 20
24.7978998453
 30
0.0
  0
SPLINE
  5
26C
100
AcDbEntity
  8
_30_VOLUMEN
100
AcDbSpline
 62
7
  6
CONTINUOUS
 70
0
 71
3
 72
15
 73
11
 74
0
 42
0.0000001
 43
0.0000001
 44
0.0000000001
 40
0.0
 40
0.0
 40
0.0
 40
0.0
 40
0.1249414755
 40
0.250547789
 40
0.3759755021
 40
0.5013082195
 40
0.6264143521
 40
0.7512130035
 40
0.8756960564
 40
1.0
 40
1.0
 40
1.0
 40
1.0
 10
165.537209303
 20
25.140948478
 30
0.0
 10
165.5139469946
 20
25.3814244856
 30
0.0
 10
165.3972547847
 20
25.8593959517
 30
0.0
 10
165.033238924
 20
26.4992124769
 30
0.0
 10
164.5043258344
 20
27.0133948448
 30
0.0
 10
163.8546698275
 20
27.3599367401
 30
0.0
 10
163.1357582605
 20
27.5138467549
 30
0.0
 10
162.4037801753
 20
27.4602739229
 30
0.0
 10
161.7183501826
 20
27.2041581688
 30
0.0
 10
161.3267581654
 20
26.9115954948
 30
0.0
 10
161.1567590091
 20
26.7416661837
 30
0.0
  0
SPLINE
  5
26D
100
AcDbEntity
  8
_30_VOLUMEN
100
AcDbSpline
 62
4
  6
CONTINUOUS
 70
0
 71
3
 72
15
 73
11
 74
0
 42
0.0000001
 43
0.0000001
 44
0.0000000001
 40
0.0
 40
0.0
 40
0.0
 40
0.0
 40
0.1253179094
 40
0.250887409
 40
0.3763757678
 40
0.5014973027
 40
0.6261799448
 40
0.7506092036
 40
0.8751202932
 40
1.0
 40
1.0
 40
1.0
 40
1.0
 10
166.0762391191
 20
25.3151222937
 30
0.0
 10
166.0389548752
 20
25.7005512009
 30
0.0
 10
165.8091619782
 20
26.4654686628
 30
0.0
 10
165.0574890897
 20
27.38988534
 30
0.0
 10
164.0113546469
 20
27.9619488652
 30
0.0
 10
162.8288349438
 20
28.0921844809
 30
0.0
 10
161.6894246207
 20
27.7601876684
 30
0.0
 10
160.7677361964
 20
27.0147906518
 30
0.0
 10
160.2051806239
 20
25.9723964784
 30
0.0
 10
160.1272056116
 20
25.1819810125
 30
0.0
 10
160.1643594826
 20
24.7978998453
 30
0.0
  0
SPLINE
  5
26E
100
AcDbEntity
  8
_30_VOLUMEN
100
AcDbSpline
 62
4
  6
CONTINUOUS
 70
0
 71
3
 72
15
 73
11
 74
0
 42
0.0000001
 43
0.0000001
 44
0.0000000001
 40
0.0
 40
0.0
 40
0.0
 40
0.0
 40
0.1248951824
 40
0.2493889825
 40
0.3738219425
 40
0.498502705
 40
0.6236222837
 40
0.7491143977
 40
0.8746665727
 40
1.0
 40
1.0
 40
1.0
 40
1.0
 10
160.1392150154
 20
24.8237665844
 30
0.0
 10
160.1013545344
 20
25.21515239
 30
0.0
 10
160.180725844
 20
26.0205324108
 30
0.0
 10
160.7541547602
 20
27.0824788758
 30
0.0
 10
161.6931258581
 20
27.8420204564
 30
0.0
 10
162.8540960717
 20
28.1801849835
 30
0.0
 10
164.0589707937
 20
28.0475976072
 30
0.0
 10
165.1247529512
 20
27.4646420835
 30
0.0
 10
165.8908398921
 20
26.522943279
 30
0.0
 10
166.1249053167
 20
25.7435297546
 30
0.0
 10
166.1628986464
 20
25.3507706147
 30
0.0
  0
SPLINE
  5
26F
100
AcDbEntity
  8
_30_VOLUMEN
100
AcDbSpline
 62
4
  6
CONTINUOUS
 70
0
 71
3
 72
9
 73
5
 74
0
 42
0.0000001
 43
0.0000001
 44
0.0000000001
 40
0.0
 40
0.0
 40
0.0
 40
0.0
 40
0.4998802662
 40
1.0
 40
1.0
 40
1.0
 40
1.0
 10
157.4390939174
 20
30.7526612245
 30
0.0
 10
157.3737272375
 20
30.6872945909
 30
0.0
 10
157.2657810276
 20
30.5317557965
 30
0.0
 10
157.2181691416
 20
30.3485911974
 30
0.0
 10
157.2109554604
 20
30.2563862521
 30
0.0
  0
SPLINE
  5
270
100
AcDbEntity
  8
_30_VOLUMEN
100
AcDbSpline
 62
4
  6
CONTINUOUS
 70
0
 71
3
 72
11
 73
7
 74
0
 42
0.0000001
 43
0.0000001
 44
0.0000000001
 40
0.0
 40
0.0
 40
0.0
 40
0.0
 40
0.2496349922
 40
0.5000147789
 40
0.7503855881
 40
1.0
 40
1.0
 40
1.0
 40
1.0
 10
156.3365755053
 20
19.0801012964
 30
0.0
 10
156.3276024775
 20
18.9654084609
 30
0.0
 10
156.3608532352
 20
18.7286395439
 30
0.0
 10
156.5547928541
 20
18.4296369919
 30
0.0
 10
156.8555377315
 20
18.238425332
 30
0.0
 10
157.0925899453
 20
18.2073434963
 30
0.0
 10
157.2071860263
 20
18.2173693543
 30
0.0
  0
SPLINE
  5
271
100
AcDbEntity
  8
_30_VOLUMEN
100
AcDbSpline
 62
4
  6
CONTINUOUS
 70
0
 71
3
 72
9
 73
5
 74
0
 42
0.0000001
 43
0.0000001
 44
0.0000000001
 40
0.0
 40
0.0
 40
0.0
 40
0.0
 40
0.5000778014
 40
1.0
 40
1.0
 40
1.0
 40
1.0
 10
168.3740209163
 20
19.1943408146
 30
0.0
 10
168.4649538292
 20
19.2022964137
 30
0.0
 10
168.6452978039
 20
19.2505375842
 30
0.0
 10
168.798494913
 20
19.3573511889
 30
0.0
 10
168.8630197444
 20
19.4218759746
 30
0.0
  0
SPLINE
  5
272
100
AcDbEntity
  8
_21_KURVEN
100
AcDbSpline
 62
7
  6
CONTINUOUS
 70
0
 71
3
 72
37
 73
33
 74
0
 42
0.0000001
 43
0.0000001
 44
0.0000000001
 40
0.0
 40
0.0
 40
0.0
 40
0.0
 40
0.0625
 40
0.09375
 40
0.125
 40
0.15625
 40
0.1875
 40
0.21875
 40
0.25
 40
0.28125
 40
0.3125
 40
0.34375
 40
0.375
 40
0.40625
 40
0.4375
 40
0.46875
 40
0.5
 40
0.53125
 40
0.5625
 40
0.59375
 40
0.625
 40
0.65625
 40
0.6875
 40
0.71875
 40
0.75
 40
0.78125
 40
0.8125
 40
0.84375
 40
0.875
 40
0.90625
 40
0.9375
 40
1.0
 40
1.0
 40
1.0
 40
1.0
 10
156.3365755053
 20
19.0801012964
 30
0.0
 10
156.337440936
 20
19.0514410534
 30
0.0
 10
156.3383072959
 20
19.0084251002
 30
0.0
 10
156.3411895864
 20
18.9511728502
 30
0.0
 10
156.3390334443
 20
18.9079777769
 30
0.0
 10
156.3532851703
 20
18.8657550699
 30
0.0
 10
156.3628730792
 20
18.8231515594
 30
0.0
 10
156.3747083881
 20
18.7810988962
 30
0.0
 10
156.3822179142
 20
18.7372236475
 30
0.0
 10
156.4047831718
 20
18.7000878936
 30
0.0
 10
156.4230568568
 20
18.6610064713
 30
0.0
 10
156.4434411007
 20
18.6229682278
 30
0.0
 10
156.4596746814
 20
18.5827029373
 30
0.0
 10
156.4904003564
 20
18.5503026562
 30
0.0
 10
156.5170524715
 20
18.5155724984
 30
0.0
 10
156.5455067317
 20
18.482296838
 30
0.0
 10
156.5708259716
 20
18.4455330647
 30
0.0
 10
156.6068831476
 20
18.4212672455
 30
0.0
 10
156.6398899274
 20
18.3934165458
 30
0.0
 10
156.674360356
 20
18.3674074144
 30
0.0
 10
156.7060265857
 20
18.3376168901
 30
0.0
 10
156.7474459624
 20
18.321110369
 30
0.0
 10
156.7861741834
 20
18.3007614553
 30
0.0
 10
156.8259138802
 20
18.2824981092
 30
0.0
 10
156.8642988294
 20
18.2597348849
 30
0.0
 10
156.9070912934
 20
18.2528856059
 30
0.0
 10
156.9486460937
 20
18.2414860261
 30
0.0
 10
156.9907440341
 20
18.232373704
 30
0.0
 10
157.031907078
 20
18.2186626519
 30
0.0
 10
157.0762665675
 20
18.2210592618
 30
0.0
 10
157.1342909937
 20
18.2186029305
 30
0.0
 10
157.1780616642
 20
18.2180323395
 30
0.0
 10
157.2071860333
 20
18.2173693549
 30
0.0
  0
SPLINE
  5
273
100
AcDbEntity
  8
_21_KURVEN
100
AcDbSpline
 62
7
  6
CONTINUOUS
 70
0
 71
3
 72
9
 73
5
 74
0
 42
0.0000001
 43
0.0000001
 44
0.0000000001
 40
0.0
 40
0.0
 40
0.0
 40
0.0
 40
0.5
 40
1.0
 40
1.0
 40
1.0
 40
1.0
 10
157.9280927455
 20
30.9801963845
 30
0.0
 10
157.8784770329
 20
30.9742769852
 30
0.0
 10
157.7791699443
 20
30.9591937842
 30
0.0
 10
157.6869247384
 20
30.9199428836
 30
0.0
 10
157.6390136167
 20
30.8976006843
 30
0.0
  0
SPLINE
  5
274
100
AcDbEntity
  8
_21_KURVEN
100
AcDbSpline
 62
7
  6
CONTINUOUS
 70
0
 71
3
 72
9
 73
5
 74
0
 42
0.0000001
 43
0.0000001
 44
0.0000000001
 40
0.0
 40
0.0
 40
0.0
 40
0.0
 40
0.5
 40
1.0
 40
1.0
 40
1.0
 40
1.0
 10
157.6390136204
 20
30.8976006862
 30
0.0
 10
157.631627038
 20
30.893800207
 30
0.0
 10
157.6119786458
 20
30.8835592849
 30
0.0
 10
157.5929426812
 20
30.8722323579
 30
0.0
 10
157.5812077633
 20
30.8651102703
 30
0.0
  0
SPLINE
  5
275
100
AcDbEntity
  8
_21_KURVEN
100
AcDbSpline
 62
7
  6
CONTINUOUS
 70
0
 71
3
 72
9
 73
5
 74
0
 42
0.0000001
 43
0.0000001
 44
0.0000000001
 40
0.0
 40
0.0
 40
0.0
 40
0.0
 40
0.5
 40
1.0
 40
1.0
 40
1.0
 40
1.0
 10
157.5812077628
 20
30.8651102701
 30
0.0
 10
157.5579343439
 20
30.8501330237
 30
0.0
 10
157.5072260568
 20
30.8162152335
 30
0.0
 10
157.4623667722
 20
30.774900551
 30
0.0
 10
157.4391439388
 20
30.7526107725
 30
0.0
  0
SPLINE
  5
276
100
AcDbEntity
  8
_21_KURVEN
100
AcDbSpline
 62
7
  6
CONTINUOUS
 70
0
 71
3
 72
9
 73
5
 74
0
 42
0.0000001
 43
0.0000001
 44
0.0000000001
 40
0.0
 40
0.0
 40
0.0
 40
0.0
 40
0.5
 40
1.0
 40
1.0
 40
1.0
 40
1.0
 10
157.4391439385
 20
30.7526107722
 30
0.0
 10
157.4143032679
 20
30.7266054342
 30
0.0
 10
157.3619394531
 20
30.6691837889
 30
0.0
 10
157.3217903679
 20
30.6025993673
 30
0.0
 10
157.3024369153
 20
30.5686015118
 30
0.0
  0
SPLINE
  5
277
100
AcDbEntity
  8
_21_KURVEN
100
AcDbSpline
 62
7
  6
CONTINUOUS
 70
0
 71
3
 72
11
 73
7
 74
0
 42
0.0000001
 43
0.0000001
 44
0.0000000001
 40
0.0
 40
0.0
 40
0.0
 40
0.0
 40
0.25
 40
0.5
 40
0.75
 40
1.0
 40
1.0
 40
1.0
 40
1.0
 10
157.3024369105
 20
30.5686015028
 30
0.0
 10
157.2907779355
 20
30.5450237233
 30
0.0
 10
157.2676064322
 20
30.4973034052
 30
0.0
 10
157.2386359455
 20
30.4169107369
 30
0.0
 10
157.2212401395
 20
30.340778418
 30
0.0
 10
157.2141242554
 20
30.2842187525
 30
0.0
 10
157.210955461
 20
30.2563862595
 30
0.0
  0
SPLINE
  5
278
100
AcDbEntity
  8
_21_KURVEN
100
AcDbSpline
 62
7
  6
CONTINUOUS
 70
0
 71
3
 72
9
 73
5
 74
0
 42
0.0000001
 43
0.0000001
 44
0.0000000001
 40
0.0
 40
0.0
 40
0.0
 40
0.0
 40
0.5
 40
1.0
 40
1.0
 40
1.0
 40
1.0
 10
169.9655381564
 20
31.0944359027
 30
0.0
 10
169.9679334749
 20
31.1499401744
 30
0.0
 10
169.9684178433
 20
31.268834928
 30
0.0
 10
169.9366131296
 20
31.377979414
 30
0.0
 10
169.9177694749
 20
31.4351618424
 30
0.0
  0
SPLINE
  5
279
100
AcDbEntity
  8
_21_KURVEN
100
AcDbSpline
 62
7
  6
CONTINUOUS
 70
0
 71
3
 72
21
 73
17
 74
0
 42
0.0000001
 43
0.0000001
 44
0.0000000001
 40
0.0
 40
0.0
 40
0.0
 40
0.0
 40
0.125
 40
0.1875
 40
0.25
 40
0.3125
 40
0.375
 40
0.4375
 40
0.5
 40
0.5625
 40
0.625
 40
0.6875
 40
0.75
 40
0.8125
 40
0.875
 40
1.0
 40
1.0
 40
1.0
 40
1.0
 10
169.9177694781
 20
31.4351618338
 30
0.0
 10
169.9059414104
 20
31.4611638983
 30
0.0
 10
169.8887511402
 20
31.5003413191
 30
0.0
 10
169.8636234541
 20
31.551880584
 30
0.0
 10
169.8383263719
 20
31.5882008047
 30
0.0
 10
169.8159989586
 20
31.6260516485
 30
0.0
 10
169.7882441873
 20
31.6601142277
 30
0.0
 10
169.7587762004
 20
31.6925494909
 30
0.0
 10
169.7313619447
 20
31.7276574066
 30
0.0
 10
169.6974459798
 20
31.7537020286
 30
0.0
 10
169.6655599645
 20
31.7824399694
 30
0.0
 10
169.6320558602
 20
31.809467929
 30
0.0
 10
169.5939164504
 20
31.8318721791
 30
0.0
 10
169.5577809286
 20
31.8569406167
 30
0.0
 10
169.5050932374
 20
31.8823211462
 30
0.0
 10
169.4647847016
 20
31.899789561
 30
0.0
 10
169.4380885149
 20
31.9117833892
 30
0.0
  0
SPLINE
  5
27A
100
AcDbEntity
  8
_21_KURVEN
100
AcDbSpline
 62
7
  6
CONTINUOUS
 70
0
 71
3
 72
9
 73
5
 74
0
 42
0.0000001
 43
0.0000001
 44
0.0000000001
 40
0.0
 40
0.0
 40
0.0
 40
0.0
 40
0.5
 40
1.0
 40
1.0
 40
1.0
 40
1.0
 10
169.4380885266
 20
31.9117833849
 30
0.0
 10
169.3850940269
 20
31.9290336856
 30
0.0
 10
169.2717981107
 20
31.9615134203
 30
0.0
 10
169.1542509894
 20
31.960130164
 30
0.0
 10
169.0949276265
 20
31.957167844
 30
0.0
  0
SPLINE
  5
27B
100
AcDbEntity
  8
_21_KURVEN
100
AcDbSpline
 62
1
  6
CENTER
 70
0
 71
3
 72
163
 73
159
 74
0
 42
0.0000001
 43
0.0000001
 44
0.0000000001
 40
0.0
 40
0.0
 40
0.0
 40
0.0
 40
0.015625
 40
0.03125
 40
0.0390625
 40
0.046875
 40
0.0546875
 40
0.05859375
 40
0.060546875
 40
0.0625
 40
0.064453125
 40
0.06640625
 40
0.0703125
 40
0.078125
 40
0.09375
 40
0.109375
 40
0.1171875
 40
0.12109375
 40
0.123046875
 40
0.125
 40
0.126953125
 40
0.12890625
 40
0.1328125
 40
0.140625
 40
0.15625
 40
0.171875
 40
0.1796875
 40
0.18359375
 40
0.185546875
 40
0.1875
 40
0.189453125
 40
0.19140625
 40
0.1953125
 40
0.203125
 40
0.21875
 40
0.234375
 40
0.2421875
 40
0.24609375
 40
0.248046875
 40
0.25
 40
0.251953125
 40
0.25390625
 40
0.2578125
 40
0.265625
 40
0.28125
 40
0.296875
 40
0.3046875
 40
0.30859375
 40
0.310546875
 40
0.3125
 40
0.314453125
 40
0.31640625
 40
0.3203125
 40
0.328125
 40
0.34375
 40
0.359375
 40
0.3671875
 40
0.37109375
 40
0.373046875
 40
0.375
 40
0.376953125
 40
0.37890625
 40
0.3828125
 40
0.390625
 40
0.40625
 40
0.421875
 40
0.4296875
 40
0.43359375
 40
0.435546875
 40
0.4375
 40
0.439453125
 40
0.44140625
 40
0.4453125
 40
0.453125
 40
0.46875
 40
0.484375
 40
0.4921875
 40
0.49609375
 40
0.498046875
 40
0.5
 40
0.501953125
 40
0.50390625
 40
0.5078125
 40
0.515625
 40
0.53125
 40
0.546875
 40
0.5546875
 40
0.55859375
 40
0.560546875
 40
0.5625
 40
0.564453125
 40
0.56640625
 40
0.5703125
 40
0.578125
 40
0.59375
 40
0.609375
 40
0.6171875
 40
0.62109375
 40
0.623046875
 40
0.625
 40
0.626953125
 40
0.62890625
 40
0.6328125
 40
0.640625
 40
0.65625
 40
0.671875
 40
0.6796875
 40
0.68359375
 40
0.685546875
 40
0.6875
 40
0.689453125
 40
0.69140625
 40
0.6953125
 40
0.703125
 40
0.71875
 40
0.734375
 40
0.7421875
 40
0.74609375
 40
0.748046875
 40
0.75
 40
0.751953125
 40
0.75390625
 40
0.7578125
 40
0.765625
 40
0.78125
 40
0.796875
 40
0.8046875
 40
0.80859375
 40
0.810546875
 40
0.8125
 40
0.814453125
 40
0.81640625
 40
0.8203125
 40
0.828125
 40
0.84375
 40
0.859375
 40
0.8671875
 40
0.87109375
 40
0.873046875
 40
0.875
 40
0.876953125
 40
0.87890625
 40
0.8828125
 40
0.890625
 40
0.90625
 40
0.921875
 40
0.9296875
 40
0.93359375
 40
0.935546875
 40
0.9375
 40
0.939453125
 40
0.94140625
 40
0.9453125
 40
0.953125
 40
0.9609375
 40
0.96875
 40
0.984375
 40
1.0
 40
1.0
 40
1.0
 40
1.0
 10
169.4422395705
 20
25.6376757694
 30
0.0
 10
169.4223960588
 20
25.7387200555
 30
0.0
 10
169.3827048772
 20
25.9408074165
 30
0.0
 10
169.3331116914
 20
26.1934226732
 30
0.0
 10
169.2933934812
 20
26.3955021623
 30
0.0
 10
169.2637233335
 20
26.5470962948
 30
0.0
 10
169.2386213697
 20
26.6733149845
 30
0.0
 10
169.2217895125
 20
26.7618834502
 30
0.0
 10
169.2110166164
 20
26.8121577005
 30
0.0
 10
169.2061897295
 20
26.8508107546
 30
0.0
 10
169.1889290478
 20
26.885842494
 30
0.0
 10
169.1702515317
 20
26.9338145574
 30
0.0
 10
169.1355485355
 20
27.0171779555
 30
0.0
 10
169.0675828466
 20
27.1843261492
 30
0.0
 10
168.9696712216
 20
27.4228556631
 30
0.0
 10
168.8722872963
 20
27.6615969951
 30
0.0
 10
168.8035828278
 20
27.8284486435
 30
0.0
 10
168.7698956535
 20
27.9122197914
 30
0.0
 10
168.7495822685
 20
27.9595352187
 30
0.0
 10
168.737347926
 20
27.9965845254
 30
0.0
 10
168.7136425837
 20
28.0276597873
 30
0.0
 10
168.6860363804
 20
28.0711771403
 30
0.0
 10
168.6358643664
 20
28.1463631238
 30
0.0
 10
168.5368494085
 20
28.2974284337
 30
0.0
 10
168.3946426294
 20
28.5128324186
 30
0.0
 10
168.2529316453
 20
28.7285301526
 30
0.0
 10
168.1532225743
 20
28.8791842138
 30
0.0
 10
168.1040049657
 20
28.9549356642
 30
0.0
 10
168.0748617978
 20
28.9975423951
 30
0.0
 10
168.0558789032
 20
29.0314156171
 30
0.0
 10
168.0259074934
 20
29.0579560499
 30
0.0
 10
167.9897782316
 20
29.0959008882
 30
0.0
 10
167.9247693388
 20
29.1611143743
 30
0.0
 10
167.7960225233
 20
29.2923937451
 30
0.0
 10
167.6113912401
 20
29.4794293215
 30
0.0
 10
167.4271681062
 20
29.6668668089
 30
0.0
 10
167.2978498817
 20
29.7975835042
 30
0.0
 10
167.2336266764
 20
29.8635706691
 30
0.0
 10
167.1962321515
 20
29.9002695831
 30
0.0
 10
167.1701483646
 20
29.9306382187
 30
0.0
 10
167.1365639255
 20
29.9501330726
 30
0.0
 10
167.0944007868
 20
29.9799188355
 30
0.0
 10
167.0193983861
 20
30.0302795998
 30
0.0
 10
166.8702618841
 20
30.1322617003
 30
0.0
 10
166.656720932
 20
30.2772273467
 30
0.0
 10
166.443481302
 20
30.4226841777
 30
0.0
 10
166.2939229492
 20
30.5239786199
 30
0.0
 10
166.2195005934
 20
30.5752849143
 30
0.0
 10
166.1764033564
 20
30.6035480054
 30
0.0
 10
166.1456890095
 20
30.6277213913
 30
0.0
 10
166.1088254276
 20
30.6405179025
 30
0.0
 10
166.0618187373
 20
30.6615480167
 30
0.0
 10
165.9785594535
 20
30.6965047367
 30
0.0
 10
165.8127518472
 20
30.7677374138
 30
0.0
 10
165.5754903164
 20
30.8687390905
 30
0.0
 10
165.3384486608
 20
30.9702650968
 30
0.0
 10
165.1723332293
 20
31.0407637125
 30
0.0
 10
165.0894972052
 20
31.0767297669
 30
0.0
 10
165.0418089017
 20
31.0961344595
 30
0.0
 10
165.0070396314
 20
31.1139252097
 30
0.0
 10
164.9684592483
 20
31.119340706
 30
0.0
 10
164.918347992
 20
31.1308776852
 30
0.0
 10
164.8300350163
 20
31.1490594537
 30
0.0
 10
164.6538498066
 20
31.1868576655
 30
0.0
 10
164.4019118753
 20
31.2400318714
 30
0.0
 10
164.1501135339
 20
31.2937663214
 30
0.0
 10
163.9737328984
 20
31.3307801913
 30
0.0
 10
163.8856886331
 20
31.3500404299
 30
0.0
 10
163.8351446483
 20
31.3598406522
 30
0.0
 10
163.7978938584
 20
31.3705924743
 30
0.0
 10
163.7581307618
 20
31.3683404888
 30
0.0
 10
163.7059895269
 20
31.3698733863
 30
0.0
 10
163.6143350524
 20
31.3704460637
 30
0.0
 10
163.4313136715
 20
31.3730985265
 30
0.0
 10
163.1697171918
 20
31.376026223
 30
0.0
 10
162.9081224197
 20
31.3795293815
 30
0.0
 10
162.7250986483
 20
31.3813761976
 30
0.0
 10
162.6334474608
 20
31.3830566392
 30
0.0
 10
162.5813009325
 20
31.3828056047
 30
0.0
 10
162.5415541002
 20
31.386034894
 30
0.0
 10
162.5042422229
 20
31.376199566
 30
0.0
 10
162.4536437675
 20
31.3676425456
 30
0.0
 10
162.3654916283
 20
31.3505480419
 30
0.0
 10
162.1889042071
 20
31.3178727125
 30
0.0
 10
161.9368053561
 20
31.2703319627
 30
0.0
 10
161.6845702501
 20
31.2233548477
 30
0.0
 10
161.5081735859
 20
31.1898904296
 30
0.0
 10
161.4197591558
 20
31.1738809228
 30
0.0
 10
161.3695830908
 20
31.1635766347
 30
0.0
 10
161.3309733848
 20
31.1591099278
 30
0.0
 10
161.2961010749
 20
31.1421751837
 30
0.0
 10
161.2483010967
 20
31.1239441944
 30
0.0
 10
161.1652576816
 20
31.0900170629
 30
0.0
 10
160.998736007
 20
31.0236070879
 30
0.0
 10
160.7611091562
 20
30.9279155147
 30
0.0
 10
160.5232655576
 20
30.8327536379
 30
0.0
 10
160.3570473298
 20
30.7656020879
 30
0.0
 10
160.2735866755
 20
30.7326946219
 30
0.0
 10
160.226458615
 20
30.712821574
 30
0.0
 10
160.1895217837
 20
30.7009321875
 30
0.0
 10
160.1586662251
 20
30.677515594
 30
0.0
 10
160.1154044101
 20
30.6503139934
 30
0.0
 10
160.040683016
 20
30.6008409136
 30
0.0
 10
159.8905344609
 20
30.5032303474
 30
0.0
 10
159.6764472008
 20
30.3630260456
 30
0.0
 10
159.4620615555
 20
30.2233202996
 30
0.0
 10
159.3123307397
 20
30.1250117552
 30
0.0
 10
159.237034954
 20
30.0764983954
 30
0.0
 10
159.1946981332
 20
30.0477512717
 30
0.0
 10
159.1610004555
 20
30.0290834224
 30
0.0
 10
159.1347383548
 20
29.9993582013
 30
0.0
 10
159.0971287751
 20
29.9635812074
 30
0.0
 10
159.032518667
 20
29.8991776094
 30
0.0
 10
158.9024341633
 20
29.7716493874
 30
0.0
 10
158.7171121572
 20
29.5887541992
 30
0.0
 10
158.5313844165
 20
29.406270926
 30
0.0
 10
158.4018679412
 20
29.2781660231
 30
0.0
 10
158.3364767941
 20
29.2145553614
 30
0.0
 10
158.3001249916
 20
29.177501431
 30
0.0
 10
158.2699982691
 20
29.1516997002
 30
0.0
 10
158.2508157454
 20
29.1182955921
 30
0.0
 10
158.2214218622
 20
29.0764083749
 30
0.0
 10
158.171758312
 20
29.0018723316
 30
0.0
 10
158.071162488
 20
28.8536803372
 30
0.0
 10
157.9281818259
 20
28.6414819176
 30
0.0
 10
157.7847071482
 20
28.4295894135
 30
0.0
 10
157.6848029461
 20
28.2809691373
 30
0.0
 10
157.6341884157
 20
28.2070219813
 30
0.0
 10
157.6063259812
 20
28.1641864263
 30
0.0
 10
157.5824379581
 20
28.1336961628
 30
0.0
 10
157.5699846465
 20
28.0969503067
 30
0.0
 10
157.5493919593
 20
28.0501376803
 30
0.0
 10
157.5152101192
 20
27.9672007508
 30
0.0
 10
157.4455205149
 20
27.8020501863
 30
0.0
 10
157.3467269304
 20
27.565720189
 30
0.0
 10
157.2474069433
 20
27.3296149659
 30
0.0
 10
157.1784543027
 20
27.1641497175
 30
0.0
 10
157.1432591374
 20
27.0816454784
 30
0.0
 10
157.1242982986
 20
27.0341360519
 30
0.0
 10
157.1068310013
 20
26.9995311701
 30
0.0
 10
157.1017750348
 20
26.9609996096
 30
0.0
 10
157.0907048456
 20
26.9109937579
 30
0.0
 10
157.0733458125
 20
26.822846489
 30
0.0
 10
157.0371888991
 20
26.6470060907
 30
0.0
 10
156.986361724
 20
26.3955530595
 30
0.0
 10
156.9349729769
 20
26.1442448495
 30
0.0
 10
156.8996022642
 20
25.9682017014
 30
0.0
 10
156.8811622052
 20
25.8803332135
 30
0.0
 10
156.8718328888
 20
25.8298784157
 30
0.0
 10
156.8614279503
 20
25.7927262785
 30
0.0
 10
156.8640508864
 20
25.7529404132
 30
0.0
 10
156.8630038659
 20
25.7008112666
 30
0.0
 10
156.8632888393
 20
25.6091572329
 30
0.0
 10
156.862589014
 20
25.4784466771
 30
0.0
 10
156.8622230388
 20
25.3214982233
 30
0.0
 10
156.8615695089
 20
25.1122670885
 30
0.0
 10
156.860809781
 20
24.8507166096
 30
0.0
 10
156.8601845711
 20
24.6414797496
 30
0.0
 10
156.8598741446
 20
24.5368608792
 30
0.0
  0
SPLINE
  5
27C
100
AcDbEntity
  8
_21_KURVEN
100
AcDbSpline
 62
1
  6
CENTER
 70
0
 71
3
 72
163
 73
159
 74
0
 42
0.0000001
 43
0.0000001
 44
0.0000000001
 40
0.0
 40
0.0
 40
0.0
 40
0.0
 40
0.015625
 40
0.03125
 40
0.0390625
 40
0.046875
 40
0.0546875
 40
0.05859375
 40
0.060546875
 40
0.0625
 40
0.064453125
 40
0.06640625
 40
0.0703125
 40
0.078125
 40
0.09375
 40
0.109375
 40
0.1171875
 40
0.12109375
 40
0.123046875
 40
0.125
 40
0.126953125
 40
0.12890625
 40
0.1328125
 40
0.140625
 40
0.15625
 40
0.171875
 40
0.1796875
 40
0.18359375
 40
0.185546875
 40
0.1875
 40
0.189453125
 40
0.19140625
 40
0.1953125
 40
0.203125
 40
0.21875
 40
0.234375
 40
0.2421875
 40
0.24609375
 40
0.248046875
 40
0.25
 40
0.251953125
 40
0.25390625
 40
0.2578125
 40
0.265625
 40
0.28125
 40
0.296875
 40
0.3046875
 40
0.30859375
 40
0.310546875
 40
0.3125
 40
0.314453125
 40
0.31640625
 40
0.3203125
 40
0.328125
 40
0.34375
 40
0.359375
 40
0.3671875
 40
0.37109375
 40
0.373046875
 40
0.375
 40
0.376953125
 40
0.37890625
 40
0.3828125
 40
0.390625
 40
0.40625
 40
0.421875
 40
0.4296875
 40
0.43359375
 40
0.435546875
 40
0.4375
 40
0.439453125
 40
0.44140625
 40
0.4453125
 40
0.453125
 40
0.46875
 40
0.484375
 40
0.4921875
 40
0.49609375
 40
0.498046875
 40
0.5
 40
0.501953125
 40
0.50390625
 40
0.5078125
 40
0.515625
 40
0.53125
 40
0.546875
 40
0.5546875
 40
0.55859375
 40
0.560546875
 40
0.5625
 40
0.564453125
 40
0.56640625
 40
0.5703125
 40
0.578125
 40
0.59375
 40
0.609375
 40
0.6171875
 40
0.62109375
 40
0.623046875
 40
0.625
 40
0.626953125
 40
0.62890625
 40
0.6328125
 40
0.640625
 40
0.65625
 40
0.671875
 40
0.6796875
 40
0.68359375
 40
0.685546875
 40
0.6875
 40
0.689453125
 40
0.69140625
 40
0.6953125
 40
0.703125
 40
0.71875
 40
0.734375
 40
0.7421875
 40
0.74609375
 40
0.748046875
 40
0.75
 40
0.751953125
 40
0.75390625
 40
0.7578125
 40
0.765625
 40
0.78125
 40
0.796875
 40
0.8046875
 40
0.80859375
 40
0.810546875
 40
0.8125
 40
0.814453125
 40
0.81640625
 40
0.8203125
 40
0.828125
 40
0.84375
 40
0.859375
 40
0.8671875
 40
0.87109375
 40
0.873046875
 40
0.875
 40
0.876953125
 40
0.87890625
 40
0.8828125
 40
0.890625
 40
0.90625
 40
0.921875
 40
0.9296875
 40
0.93359375
 40
0.935546875
 40
0.9375
 40
0.939453125
 40
0.94140625
 40
0.9453125
 40
0.953125
 40
0.9609375
 40
0.96875
 40
0.984375
 40
1.0
 40
1.0
 40
1.0
 40
1.0
 10
156.8598740913
 20
24.5368614297
 30
0.0
 10
156.879717603
 20
24.4358171436
 30
0.0
 10
156.9194087846
 20
24.2337297826
 30
0.0
 10
156.9690019704
 20
23.9811145259
 30
0.0
 10
157.0087201805
 20
23.7790350368
 30
0.0
 10
157.0383903282
 20
23.6274409043
 30
0.0
 10
157.0634922921
 20
23.5012222146
 30
0.0
 10
157.0803241493
 20
23.412653749
 30
0.0
 10
157.0910970454
 20
23.3623794986
 30
0.0
 10
157.0959239323
 20
23.3237264445
 30
0.0
 10
157.113184614
 20
23.2886947051
 30
0.0
 10
157.1318621301
 20
23.2407226417
 30
0.0
 10
157.1665651263
 20
23.1573592436
 30
0.0
 10
157.2345308152
 20
22.9902110499
 30
0.0
 10
157.3324424402
 20
22.751681536
 30
0.0
 10
157.4298263655
 20
22.512940204
 30
0.0
 10
157.4985308339
 20
22.3460885556
 30
0.0
 10
157.5322180083
 20
22.2623174077
 30
0.0
 10
157.5525313933
 20
22.2150019804
 30
0.0
 10
157.5647657357
 20
22.1779526737
 30
0.0
 10
157.5884710781
 20
22.1468774118
 30
0.0
 10
157.6160772813
 20
22.1033600588
 30
0.0
 10
157.6662492953
 20
22.0281740753
 30
0.0
 10
157.7652642533
 20
21.8771087654
 30
0.0
 10
157.9074710324
 20
21.6617047805
 30
0.0
 10
158.0491820165
 20
21.4460070465
 30
0.0
 10
158.1488910875
 20
21.2953529853
 30
0.0
 10
158.198108696
 20
21.2196015349
 30
0.0
 10
158.2272518639
 20
21.176994804
 30
0.0
 10
158.2462347585
 20
21.143121582
 30
0.0
 10
158.2762061684
 20
21.1165811492
 30
0.0
 10
158.3123354302
 20
21.0786363109
 30
0.0
 10
158.377344323
 20
21.0134228248
 30
0.0
 10
158.5060911384
 20
20.882143454
 30
0.0
 10
158.6907224217
 20
20.6951078776
 30
0.0
 10
158.8749455556
 20
20.5076703902
 30
0.0
 10
159.0042637801
 20
20.3769536949
 30
0.0
 10
159.0684869853
 20
20.31096653
 30
0.0
 10
159.1058815103
 20
20.274267616
 30
0.0
 10
159.1319652972
 20
20.2438989804
 30
0.0
 10
159.1655497363
 20
20.2244041265
 30
0.0
 10
159.207712875
 20
20.1946183636
 30
0.0
 10
159.2827152757
 20
20.1442575993
 30
0.0
 10
159.4318517777
 20
20.0422754988
 30
0.0
 10
159.6453927297
 20
19.8973098524
 30
0.0
 10
159.8586323598
 20
19.7518530214
 30
0.0
 10
160.0081907126
 20
19.6505585792
 30
0.0
 10
160.0826130684
 20
19.5992522848
 30
0.0
 10
160.1257103054
 20
19.5709891937
 30
0.0
 10
160.1564246523
 20
19.5468158078
 30
0.0
 10
160.1932882342
 20
19.5340192966
 30
0.0
 10
160.2402949244
 20
19.5129891824
 30
0.0
 10
160.3235542083
 20
19.4780324624
 30
0.0
 10
160.4893618145
 20
19.4067997853
 30
0.0
 10
160.7266233454
 20
19.3057981086
 30
0.0
 10
160.963665001
 20
19.2042721023
 30
0.0
 10
161.1297804325
 20
19.1337734866
 30
0.0
 10
161.2126164566
 20
19.0978074322
 30
0.0
 10
161.2603047601
 20
19.0784027396
 30
0.0
 10
161.2950740304
 20
19.0606119894
 30
0.0
 10
161.3336544135
 20
19.0551964931
 30
0.0
 10
161.3837656697
 20
19.0436595139
 30
0.0
 10
161.4720786455
 20
19.0254777454
 30
0.0
 10
161.6482638552
 20
18.9876795336
 30
0.0
 10
161.9002017865
 20
18.9345053277
 30
0.0
 10
162.1520001279
 20
18.8807708777
 30
0.0
 10
162.3283807633
 20
18.8437570078
 30
0.0
 10
162.4164250287
 20
18.8244967692
 30
0.0
 10
162.4669690135
 20
18.8146965469
 30
0.0
 10
162.5042198033
 20
18.8039447248
 30
0.0
 10
162.5439829
 20
18.8061967103
 30
0.0
 10
162.5961241349
 20
18.8046638128
 30
0.0
 10
162.6877786094
 20
18.8040911354
 30
0.0
 10
162.8707999903
 20
18.8014386727
 30
0.0
 10
163.13239647
 20
18.7985109761
 30
0.0
 10
163.3939912421
 20
18.7950078176
 30
0.0
 10
163.5770150135
 20
18.7931610015
 30
0.0
 10
163.668666201
 20
18.7914805599
 30
0.0
 10
163.7208127293
 20
18.7917315944
 30
0.0
 10
163.7605595616
 20
18.7885023051
 30
0.0
 10
163.7978714388
 20
18.7983376331
 30
0.0
 10
163.8484698943
 20
18.8068946535
 30
0.0
 10
163.9366220335
 20
18.8239891572
 30
0.0
 10
164.1132094547
 20
18.8566644866
 30
0.0
 10
164.3653083057
 20
18.9042052364
 30
0.0
 10
164.6175434117
 20
18.9511823514
 30
0.0
 10
164.7939400759
 20
18.9846467695
 30
0.0
 10
164.882354506
 20
19.0006562763
 30
0.0
 10
164.9325305709
 20
19.0109605644
 30
0.0
 10
164.971140277
 20
19.0154272713
 30
0.0
 10
165.0060125869
 20
19.0323620154
 30
0.0
 10
165.0538125651
 20
19.0505930047
 30
0.0
 10
165.1368559802
 20
19.0845201362
 30
0.0
 10
165.3033776547
 20
19.1509301112
 30
0.0
 10
165.5410045056
 20
19.2466216844
 30
0.0
 10
165.7788481041
 20
19.3417835612
 30
0.0
 10
165.945066332
 20
19.4089351112
 30
0.0
 10
166.0285269863
 20
19.4418425772
 30
0.0
 10
166.0756550468
 20
19.4617156251
 30
0.0
 10
166.1125918781
 20
19.4736050116
 30
0.0
 10
166.1434474367
 20
19.4970216051
 30
0.0
 10
166.1867092517
 20
19.5242232057
 30
0.0
 10
166.2614306458
 20
19.5736962855
 30
0.0
 10
166.4115792009
 20
19.6713068517
 30
0.0
 10
166.625666461
 20
19.8115111535
 30
0.0
 10
166.8400521063
 20
19.9512168995
 30
0.0
 10
166.9897829221
 20
20.0495254439
 30
0.0
 10
167.0650787077
 20
20.0980388037
 30
0.0
 10
167.1074155286
 20
20.1267859274
 30
0.0
 10
167.1411132062
 20
20.1454537767
 30
0.0
 10
167.167375307
 20
20.1751789978
 30
0.0
 10
167.2049848867
 20
20.2109559917
 30
0.0
 10
167.2695949948
 20
20.2753595897
 30
0.0
 10
167.3996794984
 20
20.4028878117
 30
0.0
 10
167.5850015046
 20
20.5857829999
 30
0.0
 10
167.7707292453
 20
20.7682662731
 30
0.0
 10
167.9002457205
 20
20.896371176
 30
0.0
 10
167.9656368677
 20
20.9599818377
 30
0.0
 10
168.0019886702
 20
20.9970357681
 30
0.0
 10
168.0321153927
 20
21.0228374989
 30
0.0
 10
168.0512979164
 20
21.056241607
 30
0.0
 10
168.0806917996
 20
21.0981288242
 30
0.0
 10
168.1303553498
 20
21.1726648675
 30
0.0
 10
168.2309511738
 20
21.3208568619
 30
0.0
 10
168.3739318359
 20
21.5330552815
 30
0.0
 10
168.5174065136
 20
21.7449477856
 30
0.0
 10
168.6173107157
 20
21.8935680618
 30
0.0
 10
168.667925246
 20
21.9675152178
 30
0.0
 10
168.6957876806
 20
22.0103507728
 30
0.0
 10
168.7196757037
 20
22.0408410363
 30
0.0
 10
168.7321290153
 20
22.0775868924
 30
0.0
 10
168.7527217025
 20
22.1243995188
 30
0.0
 10
168.7869035426
 20
22.2073364483
 30
0.0
 10
168.8565931469
 20
22.3724870128
 30
0.0
 10
168.9553867314
 20
22.6088170101
 30
0.0
 10
169.0547067185
 20
22.8449222332
 30
0.0
 10
169.1236593591
 20
23.0103874816
 30
0.0
 10
169.1588545243
 20
23.0928917207
 30
0.0
 10
169.1778153632
 20
23.1404011472
 30
0.0
 10
169.1952826605
 20
23.175006029
 30
0.0
 10
169.200338627
 20
23.2135375895
 30
0.0
 10
169.2114088162
 20
23.2635434412
 30
0.0
 10
169.2287678493
 20
23.3516907101
 30
0.0
 10
169.2649247627
 20
23.5275311084
 30
0.0
 10
169.3157519378
 20
23.7789841396
 30
0.0
 10
169.3671406848
 20
24.0302923496
 30
0.0
 10
169.4025113976
 20
24.2063354977
 30
0.0
 10
169.4209514566
 20
24.2942039856
 30
0.0
 10
169.430280773
 20
24.3446587834
 30
0.0
 10
169.4406857114
 20
24.3818109206
 30
0.0
 10
169.4380627754
 20
24.4215967859
 30
0.0
 10
169.4391097959
 20
24.4737259325
 30
0.0
 10
169.4388248225
 20
24.5653799662
 30
0.0
 10
169.4395246478
 20
24.696090522
 30
0.0
 10
169.439890623
 20
24.8530389758
 30
0.0
 10
169.4405441529
 20
25.0622701106
 30
0.0
 10
169.4413038807
 20
25.3238205896
 30
0.0
 10
169.4419290907
 20
25.5330574495
 30
0.0
 10
169.4422395172
 20
25.6376763199
 30
0.0
  0
SPLINE
  5
27D
100
AcDbEntity
  8
_21_KURVEN
100
AcDbSpline
 62
7
  6
CONTINUOUS
 70
0
 71
3
 72
9
 73
5
 74
0
 42
0.0000001
 43
0.0000001
 44
0.0000000001
 40
0.0
 40
0.0
 40
0.0
 40
0.0
 40
0.5
 40
1.0
 40
1.0
 40
1.0
 40
1.0
 10
168.3740209163
 20
19.1943408146
 30
0.0
 10
168.4236366289
 20
19.2002602139
 30
0.0
 10
168.5229437175
 20
19.2153434149
 30
0.0
 10
168.6151889234
 20
19.2545943156
 30
0.0
 10
168.6631000451
 20
19.2769365148
 30
0.0
  0
SPLINE
  5
27E
100
AcDbEntity
  8
_21_KURVEN
100
AcDbSpline
 62
7
  6
CONTINUOUS
 70
0
 71
3
 72
9
 73
5
 74
0
 42
0.0000001
 43
0.0000001
 44
0.0000000001
 40
0.0
 40
0.0
 40
0.0
 40
0.0
 40
0.5
 40
1.0
 40
1.0
 40
1.0
 40
1.0
 10
168.6631000414
 20
19.2769365129
 30
0.0
 10
168.6972145043
 20
19.2953320208
 30
0.0
 10
168.7695730625
 20
19.3367092333
 30
0.0
 10
168.8316390156
 20
19.3922715887
 30
0.0
 10
168.8629697268
 20
19.4219264304
 30
0.0
  0
SPLINE
  5
27F
100
AcDbEntity
  8
_21_KURVEN
100
AcDbSpline
 62
7
  6
CONTINUOUS
 70
0
 71
3
 72
9
 73
5
 74
0
 42
0.0000001
 43
0.0000001
 44
0.0000000001
 40
0.0
 40
0.0
 40
0.0
 40
0.0
 40
0.5
 40
1.0
 40
1.0
 40
1.0
 40
1.0
 10
168.8629697233
 20
19.4219264269
 30
0.0
 10
168.8840666359
 20
19.4438572545
 30
0.0
 10
168.9247118363
 20
19.4874739112
 30
0.0
 10
168.9610520523
 20
19.541555538
 30
0.0
 10
168.9785060293
 20
19.5689375843
 30
0.0
  0
SPLINE
  5
280
100
AcDbEntity
  8
_21_KURVEN
100
AcDbSpline
 62
7
  6
CONTINUOUS
 70
0
 71
3
 72
9
 73
5
 74
0
 42
0.0000001
 43
0.0000001
 44
0.0000000001
 40
0.0
 40
0.0
 40
0.0
 40
0.0
 40
0.25
 40
1.0
 40
1.0
 40
1.0
 40
1.0
 10
168.978506029
 20
19.5689375838
 30
0.0
 10
168.979937055
 20
19.5713070536
 30
0.0
 10
168.9872291841
 20
19.5834490461
 30
0.0
 10
168.9929248587
 20
19.5935359335
 30
0.0
 10
168.9996767517
 20
19.6059356971
 30
0.0
  0
SPLINE
  5
281
100
AcDbEntity
  8
_21_KURVEN
100
AcDbSpline
 62
7
  6
CONTINUOUS
 70
0
 71
3
 72
11
 73
7
 74
0
 42
0.0000001
 43
0.0000001
 44
0.0000000001
 40
0.0
 40
0.0
 40
0.0
 40
0.0
 40
0.25
 40
0.5
 40
0.75
 40
1.0
 40
1.0
 40
1.0
 40
1.0
 10
168.9996767513
 20
19.6059356963
 30
0.0
 10
169.0113357262
 20
19.6295134758
 30
0.0
 10
169.0345072296
 20
19.6772337939
 30
0.0
 10
169.0634777163
 20
19.7576264622
 30
0.0
 10
169.0808735223
 20
19.8337587811
 30
0.0
 10
169.0879894064
 20
19.8903184466
 30
0.0
 10
169.0911582008
 20
19.9181509396
 30
0.0
  0
ENDSEC
  0
SECTION
  2
OBJECTS
  0
DICTIONARY
  5
C
100
AcDbDictionary
280
0
281
1
  3
ACAD_GROUP
350
D
  3
ACAD_MLINESTYLE
350
17
  3
ACAD_LAYOUT
350
1A
  3
ACAD_PLOTSETTINGS
350
19
  3
ACAD_PLOTSTYLENAME
350
E
  0
DICTIONARY
  5
D
102
{ACAD_REACTORS
330
C
102
}
100
AcDbDictionary
280
0
281
1
  0
ACDBDICTIONARYWDFLT
  5
E
102
{ACAD_REACTORS
330
C
102
}
100
AcDbDictionary
281
1
  3
Normal
350
F
100
AcDbDictionaryWithDefault
340
F
  0
DICTIONARY
  5
17
102
{ACAD_REACTORS
330
C
102
}
100
AcDbDictionary
280
0
281
1
  3
Standard
350
18
  0
DICTIONARY
  5
19
102
{ACAD_REACTORS
330
C
102
}
100
AcDbDictionary
281
1
  0
DICTIONARY
  5
1A
102
{ACAD_REACTORS
330
C
102
}
100
AcDbDictionary
281
1
  3
Model
350
282
  3
Layout1
350
283
  0
ACDBPLACEHOLDER
  5
F
102
{ACAD_REACTORS
330
E
102
}
  0
MLINESTYLE
  5
18
102
{ACAD_REACTORS
330
17
102
}
100
AcDbMlineStyle
  2
STANDARD
 70
0
  3

 62
256
 51
90.0
 52
90.0
 71
2
 49
0.5
 62
256
  6
BYLAYER
 49
-0.5
 62
256
  6
BYLAYER
  0
LAYOUT
  5
282
102
{ACAD_REACTORS
330
1A
102
}
100
AcDbPlotSettings
  1

  2
none_device
  4
ISO_A3_(420.00_x_297.00_MM)
  6

 40
0.0
 41
0.0
 42
0.0
 43
0.0
 44
420.0
 45
297.0
 46
0.0
 47
0.0
 48
0.0
 49
0.0
140
0.0
141
0.0
142
1.0
143
1.0
 70
1024
 72
1
 73
0
 74
0
  7

 75
0
147
1.0
148
0.0
149
0.0
100
AcDbLayout
  1
Model
 70
0
 71
0
 10
0.0
 20
0.0
 11
420.0
 21
297.0
 12
0.0
 22
0.0
 32
0.0
 14
0.0
 24
0.0
 34
0.0
 15
0.0
 25
0.0
 35
0.0
146
0.0
 13
0.0
 23
0.0
 33
0.0
 16
1.0
 26
0.0
 36
0.0
 17
0.0
 27
1.0
 37
0.0
 76
0
330
20E
345
0
346
0
  0
LAYOUT
  5
283
102
{ACAD_REACTORS
330
1A
102
}
100
AcDbPlotSettings
  1

  2
none_device
  4
ISO_A3_(420.00_x_297.00_MM)
  6

 40
0.0
 41
0.0
 42
0.0
 43
0.0
 44
420.0
 45
297.0
 46
0.0
 47
0.0
 48
0.0
 49
0.0
140
0.0
141
0.0
142
1.0
143
1.0
 70
0
 72
1
 73
0
 74
0
  7

 75
0
147
1.0
148
0.0
149
0.0
100
AcDbLayout
  1
Layout1
 70
0
 71
1
 10
0.0
 20
0.0
 11
420.0
 21
297.0
 12
0.0
 22
0.0
 32
0.0
 14
0.0
 24
0.0
 34
0.0
 15
0.0
 25
0.0
 35
0.0
146
0.0
 13
0.0
 23
0.0
 33
0.0
 16
1.0
 26
0.0
 36
0.0
 17
0.0
 27
1.0
 37
0.0
 76
0
330
20F
345
0
346
0
  0
ENDSEC
  0
EOF
