999
DXF file: 70508125.dxf
999
Pro/ENGINEER 2017380 by Parametric Technology Corporation
  0
SECTION
  2
HEADER
  9
$ACADVER
  1
AC1027
  9
$DWGCODEPAGE
  3
ANSI_1252
  9
$EXTMAX
 10
420.0
 20
297.0
 30
0.0
  9
$EXTMIN
 10
0.0
 20
0.0
 30
0.0
  9
$LIMMIN
 10
0.0
 20
0.0
  9
$LIMMAX
 10
420.0
 20
297.0
  9
$VIEWCTR
 10
210.0
 20
148.5
  9
$VIEWSIZE
 40
297.0
  9
$CLAYER
  8
0
  9
$LTSCALE
 40
23.1
  9
$CELTYPE
  6
BYLAYER
  9
$DIMSCALE
 40
1.0
  9
$DIMASZ
 40
3.5
  9
$DIMEXO
 40
0.0
  9
$DIMDLI
 40
15.96
  9
$DIMEXE
 40
1.5
  9
$DIMCEN
 40
3.78
  9
$DIMLFAC
 40
1.0
  9
$DIMBLK
  1
_FILLED
  9
$DIMALT
 70
0
  9
$DIMALTF
 40
25.4
  9
$DIMTXT
 40
3.5
  9
$DIMTOL
 70
1
  9
$DIMLIM
 70
0
  9
$DIMTFAC
 40
1.0
  9
$DIMTP
 40
0.05
  9
$DIMTM
 40
0.05
  9
$DIMGAP
 40
0.625
  9
$DIMDSEP
 70
46
  9
$AUNITS
 70
0
  9
$PDMODE
 70
3
  9
$PDSIZE
 40
0.3125
  9
$HANDSEED
  5
27D
  9
$TILEMODE
 70
1
  9
$MEASUREMENT
 70
1
  9
$INSUNITS
 70
4
  0
ENDSEC
  0
SECTION
  2
CLASSES
  0
CLASS
  1
ACDBDICTIONARYWDFLT
  2
AcDbDictionaryWithDefault
  3
AutoCAD 2000
 90
0
 91
1
280
0
281
0
  0
CLASS
  1
ACDBPLACEHOLDER
  2
AcDbPlaceHolder
  3
AutoCAD 2000
 90
0
 91
1
280
0
281
0
  0
CLASS
  1
LAYOUT
  2
AcDbLayout
  3
AutoCAD 2000
 90
0
 91
0
280
0
281
0
  0
ENDSEC
  0
SECTION
  2
TABLES
  0
TABLE
  2
VPORT
  5
8
100
AcDbSymbolTable
 70
2
  0
VPORT
  5
1F4
100
AcDbSymbolTableRecord
100
AcDbViewportTableRecord
  2
*ACTIVE
 70
0
 10
0.0
 20
0.0
 11
1.0
 21
1.0
 12
210.0
 22
148.5
 13
0.0
 23
0.0
 14
1.0
 24
1.0
 15
0.0
 25
0.0
 16
0.0
 26
0.0
 36
1.0
 17
0.0
 27
0.0
 37
0.0
 40
297.0
 41
1.4141414141
 42
50.0
 43
0.0
 44
0.0
 50
0.0
 51
0.0
 71
0
 72
100
 73
1
 74
1
 75
0
 76
0
 77
0
 78
0
  0
ENDTAB
  0
TABLE
  2
LTYPE
  5
5
100
AcDbSymbolTable
 70
6
  0
LTYPE
  5
14
100
AcDbSymbolTableRecord
100
AcDbLinetypeTableRecord
  2
BYBLOCK
 70
0
  3

 72
65
 73
0
 40
0.0
  0
LTYPE
  5
15
100
AcDbSymbolTableRecord
100
AcDbLinetypeTableRecord
  2
BYLAYER
 70
0
  3

 72
65
 73
0
 40
0.0
  0
LTYPE
  5
16
100
AcDbSymbolTableRecord
100
AcDbLinetypeTableRecord
  2
CONTINUOUS
 70
64
  3
Solid line
 72
65
 73
0
 40
0.0
  0
LTYPE
  5
1F5
100
AcDbSymbolTableRecord
100
AcDbLinetypeTableRecord
  2
CENTER
 70
64
  3
____ _ ____ _ ____ _ ____ _ ____ _ ____ _ ____
 72
65
 73
4
 40
0.6
 49
0.375
 74
0
 49
-0.075
 74
0
 49
0.075
 74
0
 49
-0.075
 74
0
  0
LTYPE
  5
1F6
100
AcDbSymbolTableRecord
100
AcDbLinetypeTableRecord
  2
HIDDEN
 70
64
  3
- - - - - - - - - - - - - - - - - - - -
 72
65
 73
2
 40
0.2
 49
0.1
 74
0
 49
-0.1
 74
0
  0
LTYPE
  5
1F7
100
AcDbSymbolTableRecord
100
AcDbLinetypeTableRecord
  2
PHANTOM
 70
64
  3
_____ _ _ _____ _ _ _____ _ _ _____
 72
65
 73
6
 40
0.8
 49
0.45
 74
0
 49
-0.05
 74
0
 49
0.1
 74
0
 49
-0.05
 74
0
 49
0.1
 74
0
 49
-0.05
 74
0
  0
LTYPE
  5
1F8
100
AcDbSymbolTableRecord
100
AcDbLinetypeTableRecord
  2
DOT
 70
64
  3
. . . . . . . . . . . . . . . . . . . .
 72
65
 73
2
 40
0.2
 49
0.1
 74
0
 49
-0.1
 74
0
  0
LTYPE
  5
1F9
100
AcDbSymbolTableRecord
100
AcDbLinetypeTableRecord
  2
DASHED
 70
64
  3
- - - - - - - - - - - - - - - - - - - -
 72
65
 73
2
 40
0.2
 49
0.1
 74
0
 49
-0.1
 74
0
  0
ENDTAB
  0
TABLE
  2
LAYER
  5
2
100
AcDbSymbolTable
 70
36
  0
LAYER
  5
10
100
AcDbSymbolTableRecord
100
AcDbLayerTableRecord
  2
0
 70
0
 62
7
  6
CONTINUOUS
370
-3
390
F
  0
LAYER
  5
1FA
100
AcDbSymbolTableRecord
100
AcDbLayerTableRecord
  2
DEFAULT_1
 70
0
 62
7
  6
CENTER
370
-3
390
F
  0
LAYER
  5
1FB
100
AcDbSymbolTableRecord
100
AcDbLayerTableRecord
  2
DEFAULT_2
 70
0
 62
1
  6
HIDDEN
370
-3
390
F
  0
LAYER
  5
1FC
100
AcDbSymbolTableRecord
100
AcDbLayerTableRecord
  2
DEFAULT_3
 70
0
 62
7
  6
PHANTOM
370
-3
390
F
  0
LAYER
  5
1FD
100
AcDbSymbolTableRecord
100
AcDbLayerTableRecord
  2
BG_STARTBEZUEGE
 70
0
 62
7
  6
CONTINUOUS
370
-3
390
F
  0
LAYER
  5
1FE
100
AcDbSymbolTableRecord
100
AcDbLayerTableRecord
  2
HILFEN
 70
0
 62
7
  6
CONTINUOUS
370
-3
390
F
  0
LAYER
  5
1FF
100
AcDbSymbolTableRecord
100
AcDbLayerTableRecord
  2
PLATZIERUNG
 70
0
 62
7
  6
CONTINUOUS
370
-3
390
F
  0
LAYER
  5
200
100
AcDbSymbolTableRecord
100
AcDbLayerTableRecord
  2
T_STARTBEZUEGE
 70
0
 62
7
  6
CONTINUOUS
370
-3
390
F
  0
LAYER
  5
201
100
AcDbSymbolTableRecord
100
AcDbLayerTableRecord
  2
_03_2D_ZEICHNUNG_BEMASSUNGEN
 70
0
 62
7
  6
CONTINUOUS
370
-3
390
F
  0
LAYER
  5
202
100
AcDbSymbolTableRecord
100
AcDbLayerTableRecord
  2
_04_NOTIZEN
 70
0
 62
7
  6
CONTINUOUS
370
-3
390
F
  0
LAYER
  5
203
100
AcDbSymbolTableRecord
100
AcDbLayerTableRecord
  2
_05_2D_ELEMENTE
 70
0
 62
7
  6
CONTINUOUS
370
-3
390
F
  0
LAYER
  5
204
100
AcDbSymbolTableRecord
100
AcDbLayerTableRecord
  2
_07_EINRASTLINIEN
 70
0
 62
7
  6
CONTINUOUS
370
-3
390
F
  0
LAYER
  5
205
100
AcDbSymbolTableRecord
100
AcDbLayerTableRecord
  2
_21_KURVEN
 70
0
 62
7
  6
CONTINUOUS
370
-3
390
F
  0
LAYER
  5
206
100
AcDbSymbolTableRecord
100
AcDbLayerTableRecord
  2
_24_IMPORT
 70
0
 62
7
  6
CONTINUOUS
370
-3
390
F
  0
LAYER
  5
207
100
AcDbSymbolTableRecord
100
AcDbLayerTableRecord
  2
_26_BEZUGSACHSEN
 70
0
 62
7
  6
CONTINUOUS
370
-3
390
F
  0
LAYER
  5
208
100
AcDbSymbolTableRecord
100
AcDbLayerTableRecord
  2
_27_BEZUGSEBENEN
 70
0
 62
7
  6
CONTINUOUS
370
-3
390
F
  0
LAYER
  5
209
100
AcDbSymbolTableRecord
100
AcDbLayerTableRecord
  2
_28_BEZUGSPUNKTE
 70
0
 62
7
  6
CONTINUOUS
370
-3
390
F
  0
LAYER
  5
20A
100
AcDbSymbolTableRecord
100
AcDbLayerTableRecord
  2
_29_KOORDINATENSYSTEME
 70
0
 62
7
  6
CONTINUOUS
370
-3
390
F
  0
LAYER
  5
20B
100
AcDbSymbolTableRecord
100
AcDbLayerTableRecord
  2
_30_VOLUMEN
 70
0
 62
7
  6
CONTINUOUS
370
-3
390
F
  0
ENDTAB
  0
TABLE
  2
STYLE
  5
3
100
AcDbSymbolTable
 70
1
  0
STYLE
  5
11
100
AcDbSymbolTableRecord
100
AcDbTextStyleTableRecord
  2
STANDARD
 70
0
 40
0.0
 41
0.7
 50
0.0
 71
0
 42
0.2
  3
SIMPLEX.SHX
  4

  0
STYLE
  5
20C
100
AcDbSymbolTableRecord
100
AcDbTextStyleTableRecord
  2
TEXTSTYLE_1
 70
0
 40
0.0
 41
0.8
 50
0.0
 71
0
 42
0.2
  3
gdt
  4

  0
ENDTAB
  0
TABLE
  2
VIEW
  5
6
100
AcDbSymbolTable
 70
0
  0
ENDTAB
  0
TABLE
  2
UCS
  5
7
100
AcDbSymbolTable
 70
0
  0
ENDTAB
  0
TABLE
  2
APPID
  5
9
100
AcDbSymbolTable
 70
1
  0
APPID
  5
20D
100
AcDbSymbolTableRecord
100
AcDbRegAppTableRecord
  2
ACAD
 70
0
  0
ENDTAB
  0
TABLE
  2
BLOCK_RECORD
  5
1
100
AcDbSymbolTable
 70
0
  0
BLOCK_RECORD
  5
20E
100
AcDbSymbolTableRecord
100
AcDbBlockTableRecord
  2
*Model_Space
  0
BLOCK_RECORD
  5
20F
100
AcDbSymbolTableRecord
100
AcDbBlockTableRecord
  2
*Paper_Space
  0
BLOCK_RECORD
  5
210
100
AcDbSymbolTableRecord
100
AcDbBlockTableRecord
  2
_FILLED
  0
BLOCK_RECORD
  5
211
100
AcDbSymbolTableRecord
100
AcDbBlockTableRecord
  2
*D0
  0
BLOCK_RECORD
  5
212
100
AcDbSymbolTableRecord
100
AcDbBlockTableRecord
  2
*D1
  0
BLOCK_RECORD
  5
213
100
AcDbSymbolTableRecord
100
AcDbBlockTableRecord
  2
*D2
  0
ENDTAB
  0
TABLE
  2
DIMSTYLE
  5
A
100
AcDbSymbolTable
 70
1
100
AcDbDimStyleTable
 71
0
  0
DIMSTYLE
105
214
100
AcDbSymbolTableRecord
100
AcDbDimStyleTableRecord
  2
STANDARD
 70
0
  3

  4

 40
1.0
 41
3.5
 42
0.0
 43
0.38
 44
1.5
 45
0.0
 46
0.0
 47
0.05
 48
0.05
140
3.5
141
0.09
142
0.0
143
25.4
144
1.0
145
0.0
146
1.0
147
0.625
 71
1.0
 72
0.0
 73
0
 74
0
 75
0
 76
0
 77
1
 78
8
 79
2
170
0
171
1
172
0
173
0
174
0
175
0
176
0
177
0
178
2
270
2
179
2
271
2
272
2
273
2
274
2
275
0
280
0
281
0
282
0
283
1
284
8
285
0
286
0
287
3
288
0
340
11
278
46
341
210
342
210
343
210
344
210
  0
DIMSTYLE
105
215
100
AcDbSymbolTableRecord
100
AcDbDimStyleTableRecord
  2
DIMSTYLE_1
 70
0
  3

  4

 40
1.0
 41
3.5
 42
0.0
 43
0.38
 44
1.5
 45
0.0
 46
0.0
 47
0.2
 48
0.2
140
3.5
141
0.09
142
0.0
143
25.4
144
1.0
145
0.0
146
1.0
147
0.875
 71
0.0
 72
0.0
 73
0
 74
0
 75
0
 76
0
 77
1
 78
8
 79
2
170
0
171
1
172
0
173
0
174
0
175
0
176
0
177
0
178
2
270
2
179
2
271
2
272
2
273
2
274
2
275
0
280
0
281
0
282
0
283
1
284
8
285
0
286
0
287
3
288
0
340
11
278
46
341
210
342
210
343
210
344
210
  0
DIMSTYLE
105
216
100
AcDbSymbolTableRecord
100
AcDbDimStyleTableRecord
  2
DIMSTYLE_2
 70
0
  3

  4

 40
1.0
 41
3.5
 42
0.0
 43
0.38
 44
1.5
 45
0.0
 46
0.0
 47
0.5
 48
0.5
140
3.5
141
0.09
142
0.0
143
25.4
144
1.0
145
0.0
146
1.0
147
0.875
 71
0.0
 72
0.0
 73
0
 74
0
 75
0
 76
0
 77
1
 78
8
 79
2
170
0
171
1
172
0
173
0
174
0
175
0
176
0
177
0
178
2
270
2
179
2
271
2
272
2
273
2
274
2
275
0
280
0
281
0
282
0
283
1
284
8
285
0
286
0
287
3
288
0
340
11
278
46
341
210
342
210
343
210
344
210
  0
DIMSTYLE
105
217
100
AcDbSymbolTableRecord
100
AcDbDimStyleTableRecord
  2
DIMSTYLE_3
 70
0
  3

  4

 40
1.0
 41
3.5
 42
0.0
 43
0.38
 44
1.5
 45
0.0
 46
0.0
 47
0.3
 48
0.3
140
3.5
141
0.09
142
0.0
143
25.4
144
1.0
145
0.0
146
1.0
147
0.875
 71
0.0
 72
0.0
 73
0
 74
0
 75
0
 76
0
 77
1
 78
8
 79
2
170
0
171
1
172
0
173
0
174
0
175
0
176
0
177
0
178
2
270
2
179
2
271
2
272
2
273
2
274
2
275
0
280
0
281
0
282
0
283
1
284
8
285
0
286
0
287
3
288
0
340
11
278
46
341
210
342
210
343
210
344
210
  0
ENDTAB
  0
ENDSEC
  0
SECTION
  2
BLOCKS
  0
BLOCK
  5
20
100
AcDbEntity
  8
0
100
AcDbBlockBegin
  2
*Model_Space
 70
0
 10
0.0
 20
0.0
 30
0.0
  3
*Model_Space
  1

  0
ENDBLK
  5
21
100
AcDbEntity
  8
0
100
AcDbBlockEnd
  0
BLOCK
  5
1C
100
AcDbEntity
  8
0
100
AcDbBlockBegin
  2
*Paper_Space
 70
0
 10
0.0
 20
0.0
 30
0.0
  3
*Paper_Space
  1

  0
ENDBLK
  5
1D
100
AcDbEntity
  8
0
100
AcDbBlockEnd
  0
BLOCK
  5
218
100
AcDbEntity
  8
0
100
AcDbBlockBegin
  2
_FILLED
 70
64
 10
0.0
 20
0.0
  3
_FILLED
  1

  0
SOLID
  5
219
100
AcDbEntity
  8
0
  6
BYBLOCK
 62
0
100
AcDbTrace
 10
0.0
 20
0.0
 11
-1.0
 21
0.125
 12
-1.0
 22
-0.125
 13
-1.0
 23
-0.125
  0
ENDBLK
  5
21A
100
AcDbEntity
  8
0
  6
BYBLOCK
 62
0
100
AcDbBlockEnd
  0
BLOCK
  5
21B
100
AcDbEntity
  8
_03_2D_ZEICHNUNG_BEMASSUNGEN
100
AcDbBlockBegin
 62
7
  6
CONTINUOUS
  2
*D0
 70
65
 10
0.0
 20
0.0
  3
*D0
  1

  0
TEXT
  5
21C
100
AcDbEntity
  8
_03_2D_ZEICHNUNG_BEMASSUNGEN
100
AcDbText
 62
2
  6
CONTINUOUS
 10
-9.875
 20
9.875
  7
STANDARD
 40
3.5
  1
25
 50
90.0
 41
0.75
 72
1
 11
-9.875
 21
12.5
100
AcDbText
  0
LINE
  5
21D
100
AcDbEntity
  8
_03_2D_ZEICHNUNG_BEMASSUNGEN
100
AcDbLine
 62
7
  6
CONTINUOUS
 10
0.0
 20
25.0
 11
-10.5
 21
25.0
  0
LINE
  5
21E
100
AcDbEntity
  8
_03_2D_ZEICHNUNG_BEMASSUNGEN
100
AcDbLine
 62
7
  6
CONTINUOUS
 10
-0.0
 20
-0.0
 11
-10.5
 21
0.0
  0
LINE
  5
21F
100
AcDbEntity
  8
_03_2D_ZEICHNUNG_BEMASSUNGEN
100
AcDbLine
 62
7
  6
CONTINUOUS
 10
-9.0
 20
25.0
 11
-9.0
 21
31.0
  0
LINE
  5
220
100
AcDbEntity
  8
_03_2D_ZEICHNUNG_BEMASSUNGEN
100
AcDbLine
 62
7
  6
CONTINUOUS
 10
-9.0
 20
31.0
 11
-9.0
 21
12.5
  0
LINE
  5
221
100
AcDbEntity
  8
_03_2D_ZEICHNUNG_BEMASSUNGEN
100
AcDbLine
 62
7
  6
CONTINUOUS
 10
-9.0
 20
0.0
 11
-9.0
 21
-6.0
  0
LINE
  5
222
100
AcDbEntity
  8
_03_2D_ZEICHNUNG_BEMASSUNGEN
100
AcDbLine
 62
7
  6
CONTINUOUS
 10
-9.0
 20
-6.0
 11
-9.0
 21
12.5
  0
INSERT
  5
223
100
AcDbEntity
  8
_03_2D_ZEICHNUNG_BEMASSUNGEN
100
AcDbBlockReference
 62
7
  6
CONTINUOUS
  2
_FILLED
 10
-9.0
 20
25.0
 41
3.5
 42
3.5
 43
3.5
 50
270.0
  0
INSERT
  5
224
100
AcDbEntity
  8
_03_2D_ZEICHNUNG_BEMASSUNGEN
100
AcDbBlockReference
 62
7
  6
CONTINUOUS
  2
_FILLED
 10
-9.0
 20
0.0
 41
3.5
 42
3.5
 43
3.5
 50
90.0
  0
ENDBLK
  5
225
100
AcDbEntity
  8
0
  6
BYBLOCK
 62
0
100
AcDbBlockEnd
  0
BLOCK
  5
226
100
AcDbEntity
  8
_03_2D_ZEICHNUNG_BEMASSUNGEN
100
AcDbBlockBegin
 62
7
  6
CONTINUOUS
  2
*D1
 70
65
 10
0.0
 20
0.0
  3
*D1
  1

  0
TEXT
  5
227
100
AcDbEntity
  8
_03_2D_ZEICHNUNG_BEMASSUNGEN
100
AcDbText
 62
2
  6
CONTINUOUS
 10
71.375
 20
41.9347107698
  7
STANDARD
 40
3.5
  1
150
 41
0.6904761905
 72
1
 11
75.0
 21
41.9347107698
100
AcDbText
  0
LINE
  5
228
100
AcDbEntity
  8
_03_2D_ZEICHNUNG_BEMASSUNGEN
100
AcDbLine
 62
7
  6
CONTINUOUS
 10
150.0
 20
0.0
 11
150.0
 21
42.5597107698
  0
LINE
  5
229
100
AcDbEntity
  8
_03_2D_ZEICHNUNG_BEMASSUNGEN
100
AcDbLine
 62
7
  6
CONTINUOUS
 10
0.0
 20
0.0
 11
0.0
 21
42.5597107698
  0
LINE
  5
22A
100
AcDbEntity
  8
_03_2D_ZEICHNUNG_BEMASSUNGEN
100
AcDbLine
 62
7
  6
CONTINUOUS
 10
150.0
 20
41.0597107698
 11
75.0
 21
41.0597107698
  0
LINE
  5
22B
100
AcDbEntity
  8
_03_2D_ZEICHNUNG_BEMASSUNGEN
100
AcDbLine
 62
7
  6
CONTINUOUS
 10
0.0
 20
41.0597107698
 11
75.0
 21
41.0597107698
  0
INSERT
  5
22C
100
AcDbEntity
  8
_03_2D_ZEICHNUNG_BEMASSUNGEN
100
AcDbBlockReference
 62
7
  6
CONTINUOUS
  2
_FILLED
 10
150.0
 20
41.0597107698
 41
3.5
 42
3.5
 43
3.5
  0
INSERT
  5
22D
100
AcDbEntity
  8
_03_2D_ZEICHNUNG_BEMASSUNGEN
100
AcDbBlockReference
 62
7
  6
CONTINUOUS
  2
_FILLED
 10
0.0
 20
41.0597107698
 41
3.5
 42
3.5
 43
3.5
 50
180.0
  0
ENDBLK
  5
22E
100
AcDbEntity
  8
0
  6
BYBLOCK
 62
0
100
AcDbBlockEnd
  0
BLOCK
  5
22F
100
AcDbEntity
  8
_03_2D_ZEICHNUNG_BEMASSUNGEN
100
AcDbBlockBegin
 62
7
  6
CONTINUOUS
  2
*D2
 70
65
 10
0.0
 20
0.0
  3
*D2
  1

  0
TEXT
  5
230
100
AcDbEntity
  8
_03_2D_ZEICHNUNG_BEMASSUNGEN
100
AcDbText
 62
2
  6
CONTINUOUS
 10
158.1842493364
 20
13.375
  7
STANDARD
 40
3.5
  1
32
 50
90.0
 41
0.75
 72
1
 11
158.1842493364
 21
16.0
100
AcDbText
  0
LINE
  5
231
100
AcDbEntity
  8
_03_2D_ZEICHNUNG_BEMASSUNGEN
100
AcDbLine
 62
7
  6
CONTINUOUS
 10
150.0
 20
32.0
 11
160.5592493364
 21
32.0
  0
LINE
  5
232
100
AcDbEntity
  8
_03_2D_ZEICHNUNG_BEMASSUNGEN
100
AcDbLine
 62
7
  6
CONTINUOUS
 10
0.0
 20
0.0
 11
160.5592493364
 21
0.0
  0
LINE
  5
233
100
AcDbEntity
  8
_03_2D_ZEICHNUNG_BEMASSUNGEN
100
AcDbLine
 62
7
  6
CONTINUOUS
 10
159.0592493364
 20
32.0
 11
159.0592493364
 21
16.0
  0
LINE
  5
234
100
AcDbEntity
  8
_03_2D_ZEICHNUNG_BEMASSUNGEN
100
AcDbLine
 62
7
  6
CONTINUOUS
 10
159.0592493364
 20
0.0
 11
159.0592493364
 21
16.0
  0
INSERT
  5
235
100
AcDbEntity
  8
_03_2D_ZEICHNUNG_BEMASSUNGEN
100
AcDbBlockReference
 62
7
  6
CONTINUOUS
  2
_FILLED
 10
159.0592493364
 20
32.0
 41
3.5
 42
3.5
 43
3.5
 50
90.0
  0
INSERT
  5
236
100
AcDbEntity
  8
_03_2D_ZEICHNUNG_BEMASSUNGEN
100
AcDbBlockReference
 62
7
  6
CONTINUOUS
  2
_FILLED
 10
159.0592493364
 20
0.0
 41
3.5
 42
3.5
 43
3.5
 50
270.0
  0
ENDBLK
  5
237
100
AcDbEntity
  8
0
  6
BYBLOCK
 62
0
100
AcDbBlockEnd
  0
ENDSEC
  0
SECTION
  2
ENTITIES
  0
DIMENSION
  5
238
100
AcDbEntity
  8
_03_2D_ZEICHNUNG_BEMASSUNGEN
100
AcDbDimension
 62
7
  6
CONTINUOUS
  2
*D0
 10
-9.0
 20
0.0
 11
-9.0
 21
11.9999997234
 70
160
 71
2
 42
25.0
  3
DIMSTYLE_1
100
AcDbAlignedDimension
 13
0.0
 23
25.0
 14
-0.0
 24
-0.0
 50
270.0
100
AcDbRotatedDimension
  0
DIMENSION
  5
239
100
AcDbEntity
  8
_03_2D_ZEICHNUNG_BEMASSUNGEN
100
AcDbDimension
 62
7
  6
CONTINUOUS
  2
*D1
 10
0.0
 20
41.0597107698
 11
74.4999993896
 21
41.0597107698
 70
160
 71
2
 42
150.0
  3
DIMSTYLE_2
100
AcDbAlignedDimension
 13
150.0
 23
0.0
 14
0.0
 24
0.0
 50
180.0
100
AcDbRotatedDimension
  0
DIMENSION
  5
23A
100
AcDbEntity
  8
_03_2D_ZEICHNUNG_BEMASSUNGEN
100
AcDbDimension
 62
7
  6
CONTINUOUS
  2
*D2
 10
159.0592493364
 20
0.0
 11
159.0592493364
 21
15.4999941329
 70
160
 71
2
 42
32.0
  3
DIMSTYLE_3
100
AcDbAlignedDimension
 13
150.0
 23
32.0
 14
0.0
 24
0.0
 50
270.0
100
AcDbRotatedDimension
  0
LINE
  5
23B
100
AcDbEntity
  8
_30_VOLUMEN
100
AcDbLine
 62
4
  6
CONTINUOUS
 10
-0.0
 20
0.5
 11
0.0
 21
24.5
  0
LINE
  5
23C
100
AcDbEntity
  8
_30_VOLUMEN
100
AcDbLine
 62
4
  6
CONTINUOUS
 10
0.5
 20
-0.0
 11
0.5
 21
25.0
  0
LINE
  5
23D
100
AcDbEntity
  8
_30_VOLUMEN
100
AcDbLine
 62
4
  6
CONTINUOUS
 10
0.5
 20
25.0
 11
0.0
 21
24.5
  0
LINE
  5
23E
100
AcDbEntity
  8
_30_VOLUMEN
100
AcDbLine
 62
4
  6
CONTINUOUS
 10
0.5
 20
-0.0
 11
-0.0
 21
0.5
  0
LINE
  5
23F
100
AcDbEntity
  8
_30_VOLUMEN
100
AcDbLine
 62
4
  6
CONTINUOUS
 10
0.5
 20
-0.0
 11
117.3
 21
0.0
  0
LINE
  5
240
100
AcDbEntity
  8
0
100
AcDbLine
 62
4
  6
CONTINUOUS
 10
117.3
 20
0.0
 11
136.1288036333
 21
0.0
  0
LINE
  5
241
100
AcDbEntity
  8
_30_VOLUMEN
100
AcDbLine
 62
4
  6
CONTINUOUS
 10
147.8115294156
 20
15.9933658309
 11
134.2604243734
 21
14.8077977614
  0
LINE
  5
242
100
AcDbEntity
  8
_21_KURVEN
100
AcDbLine
 62
7
  6
CONTINUOUS
 10
147.8115294156
 20
15.9933658309
 11
134.2604243734
 21
14.8077977614
  0
LINE
  5
243
100
AcDbEntity
  8
_26_BEZUGSACHSEN
100
AcDbLine
 62
4
  6
CONTINUOUS
 10
147.5677548535
 20
15.9720383202
 11
132.8435664903
 21
14.6838387588
  0
LINE
  5
244
100
AcDbEntity
  8
_30_VOLUMEN
100
AcDbLine
 62
4
  6
CONTINUOUS
 10
134.3578632006
 20
30.4088052793
 11
133.7475184637
 21
29.7984605424
  0
LINE
  5
245
100
AcDbEntity
  8
_30_VOLUMEN
100
AcDbLine
 62
7
  6
CONTINUOUS
 10
134.0155804835
 20
29.6644684992
 11
133.9137689264
 21
29.5626569421
  0
LINE
  5
246
100
AcDbEntity
  8
_26_BEZUGSACHSEN
100
AcDbLine
 62
4
  6
CONTINUOUS
 10
134.0082620031
 20
29.5709240151
 11
126.0379307753
 21
28.8736103882
  0
LINE
  5
247
100
AcDbEntity
  8
_30_VOLUMEN
100
AcDbLine
 62
4
  6
CONTINUOUS
 10
135.0912864111
 20
30.7501836978
 11
148.6423914532
 21
31.9357517672
  0
LINE
  5
248
100
AcDbEntity
  8
_21_KURVEN
100
AcDbLine
 62
7
  6
CONTINUOUS
 10
135.0912864111
 20
30.7501836978
 11
148.6423914532
 21
31.9357517672
  0
LINE
  5
249
100
AcDbEntity
  8
_30_VOLUMEN
100
AcDbLine
 62
4
  6
CONTINUOUS
 10
0.5
 20
25.0
 11
117.3
 21
25.0
  0
LINE
  5
24A
100
AcDbEntity
  8
0
100
AcDbLine
 62
4
  6
CONTINUOUS
 10
117.3
 20
25.0
 11
125.0
 21
25.0
  0
LINE
  5
24B
100
AcDbEntity
  8
_28_BEZUGSPUNKTE
100
AcDbLine
 62
1
  6
CONTINUOUS
 10
150.15625
 20
32.15625
 11
149.84375
 21
31.84375
  0
LINE
  5
24C
100
AcDbEntity
  8
0
100
AcDbLine
 62
4
  6
CONTINUOUS
 10
118.3058856567
 20
25.0
 11
118.9393149115
 21
0.0
  0
LINE
  5
24D
100
AcDbEntity
  8
0
100
AcDbLine
 62
4
  6
CONTINUOUS
 10
117.3
 20
25.0
 11
117.3
 21
0.0
  0
LINE
  5
24E
100
AcDbEntity
  8
_30_VOLUMEN
100
AcDbLine
 62
4
  6
CONTINUOUS
 10
125.0
 20
25.0
 11
126.0379307753
 21
28.8736103882
  0
LINE
  5
24F
100
AcDbEntity
  8
_30_VOLUMEN
100
AcDbLine
 62
7
  6
CONTINUOUS
 10
147.8115294156
 20
15.9933658309
 11
147.5464273429
 21
15.7282637582
  0
LINE
  5
250
100
AcDbEntity
  8
_30_VOLUMEN
100
AcDbLine
 62
4
  6
CONTINUOUS
 10
148.5449526261
 20
16.3347442493
 11
147.9346078892
 21
15.7243995124
  0
LINE
  5
251
100
AcDbEntity
  8
_30_VOLUMEN
100
AcDbLine
 62
4
  6
CONTINUOUS
 10
147.1331369851
 20
11.0043333518
 11
136.1288036333
 21
0.0
  0
LINE
  5
252
100
AcDbEntity
  8
_30_VOLUMEN
100
AcDbLine
 62
4
  6
CONTINUOUS
 10
132.954508592
 20
16.1018956746
 11
134.0155804835
 21
29.6644684992
  0
LINE
  5
253
100
AcDbEntity
  8
_21_KURVEN
100
AcDbLine
 62
7
  6
CONTINUOUS
 10
132.954508592
 20
16.1018956746
 11
134.0155804835
 21
29.6644684992
  0
LINE
  5
254
100
AcDbEntity
  8
_26_BEZUGSACHSEN
100
AcDbLine
 62
4
  6
CONTINUOUS
 10
132.8435664903
 20
14.6838387588
 11
134.0082620031
 21
29.5709240151
  0
LINE
  5
255
100
AcDbEntity
  8
_26_BEZUGSACHSEN
100
AcDbLine
 62
4
  6
CONTINUOUS
 10
147.5677548535
 20
15.9720383202
 11
147.1331369851
 21
11.0043333518
  0
LINE
  5
256
100
AcDbEntity
  8
_21_KURVEN
100
AcDbLine
 62
7
  6
CONTINUOUS
 10
149.9483072346
 20
30.641653854
 11
148.8872353432
 21
17.0790810294
  0
LINE
  5
257
100
AcDbEntity
  8
_30_VOLUMEN
100
AcDbLine
 62
4
  6
CONTINUOUS
 10
149.9483072346
 20
30.641653854
 11
148.8872353432
 21
17.0790810294
  0
LINE
  5
258
100
AcDbEntity
  8
_28_BEZUGSPUNKTE
100
AcDbLine
 62
1
  6
CONTINUOUS
 10
150.15625
 20
31.84375
 11
149.84375
 21
32.15625
  0
ARC
  5
259
100
AcDbEntity
  8
_30_VOLUMEN
100
AcDbCircle
 62
4
  6
CONTINUOUS
 10
140.861204081
 20
22.7311846486
 40
3.1403406949
100
AcDbArc
 50
326.2590518574
 51
5.581766932
  0
ARC
  5
25A
100
AcDbEntity
  8
_30_VOLUMEN
100
AcDbCircle
 62
4
  6
CONTINUOUS
 10
140.8868522639
 20
22.7184153555
 40
3.1119286532
100
AcDbArc
 50
320.4417352087
 51
325.3381844172
  0
ARC
  5
25B
100
AcDbEntity
  8
_30_VOLUMEN
100
AcDbCircle
 62
4
  6
CONTINUOUS
 10
140.7933114575
 20
22.8130009046
 40
3.104483372
100
AcDbArc
 50
125.1834265134
 51
129.7424638428
  0
ARC
  5
25C
100
AcDbEntity
  8
_30_VOLUMEN
100
AcDbCircle
 62
4
  6
CONTINUOUS
 10
140.9000618927
 20
22.708914508
 40
3.09566001
100
AcDbArc
 50
325.3437727802
 51
326.202337617
  0
ARC
  5
25D
100
AcDbEntity
  8
_30_VOLUMEN
100
AcDbCircle
 62
4
  6
CONTINUOUS
 10
140.7855097908
 20
22.8235395989
 40
3.0913747013
100
AcDbArc
 50
123.7742914491
 51
125.1777914114
  0
ARC
  5
25E
100
AcDbEntity
  8
_30_VOLUMEN
100
AcDbCircle
 62
4
  6
CONTINUOUS
 10
134.5862643519
 20
28.9610937061
 40
1.1851909905
100
AcDbArc
 50
135.0471411486
 51
151.1320295886
  0
ARC
  5
25F
100
AcDbEntity
  8
_30_VOLUMEN
100
AcDbCircle
 62
4
  6
CONTINUOUS
 10
135.1933345478
 20
29.5724033637
 40
1.1821930204
100
AcDbArc
 50
94.9519944059
 51
175.5768601927
  0
ARC
  5
260
100
AcDbEntity
  8
_30_VOLUMEN
100
AcDbCircle
 62
4
  6
CONTINUOUS
 10
147.7094812788
 20
17.1711461649
 40
1.1821930204
100
AcDbArc
 50
274.9519944059
 51
355.5768601927
  0
ARC
  5
261
100
AcDbEntity
  8
_30_VOLUMEN
100
AcDbCircle
 62
4
  6
CONTINUOUS
 10
147.102123387
 20
16.5565647099
 40
1.1770850284
100
AcDbArc
 50
291.0407152292
 51
315.0109902111
  0
SPLINE
  5
262
100
AcDbEntity
  8
_30_VOLUMEN
100
AcDbSpline
 62
4
  6
CONTINUOUS
 70
0
 71
3
 72
11
 73
7
 74
0
 42
0.0000001
 43
0.0000001
 44
0.0000000001
 40
0.0
 40
0.0
 40
0.0
 40
0.0
 40
0.2496349922
 40
0.5000147789
 40
0.7503855881
 40
1.0
 40
1.0
 40
1.0
 40
1.0
 10
149.9483072346
 20
30.641653854
 30
0.0
 10
149.9617667764
 20
30.8136931073
 30
0.0
 10
149.9118906399
 20
31.1688464828
 30
0.0
 10
149.6209812115
 20
31.6173503108
 30
0.0
 10
149.1698638954
 20
31.9041678007
 30
0.0
 10
148.8142855748
 20
31.9507905542
 30
0.0
 10
148.6423914532
 20
31.9357517672
 30
0.0
  0
SPLINE
  5
263
100
AcDbEntity
  8
_30_VOLUMEN
100
AcDbSpline
 62
4
  6
CONTINUOUS
 70
0
 71
3
 72
9
 73
5
 74
0
 42
0.0000001
 43
0.0000001
 44
0.0000000001
 40
0.0
 40
0.0
 40
0.0
 40
0.0
 40
0.5027090586
 40
1.0
 40
1.0
 40
1.0
 40
1.0
 10
138.1487922543
 20
22.9535197737
 30
0.0
 10
138.1050282624
 20
23.4059336048
 30
0.0
 10
138.2156803774
 20
24.3369881751
 30
0.0
 10
138.718459574
 20
25.1289544855
 30
0.0
 10
139.0363937618
 20
25.4468886733
 30
0.0
  0
SPLINE
  5
264
100
AcDbEntity
  8
_30_VOLUMEN
100
AcDbSpline
 62
4
  6
CONTINUOUS
 70
0
 71
3
 72
15
 73
11
 74
0
 42
0.0000001
 43
0.0000001
 44
0.0000000001
 40
0.0
 40
0.0
 40
0.0
 40
0.0
 40
0.1243464769
 40
0.2489212344
 40
0.3737883632
 40
0.4989405826
 40
0.6242860113
 40
0.7496321182
 40
0.8750137891
 40
1.0
 40
1.0
 40
1.0
 40
1.0
 10
139.0669444272
 20
25.3931953413
 30
0.0
 10
139.2920825945
 20
25.543768588
 30
0.0
 10
139.7846227719
 20
25.7873702259
 30
0.0
 10
140.5914905574
 20
25.9494072145
 30
0.0
 10
141.4151274065
 20
25.8996541538
 30
0.0
 10
142.2003136342
 20
25.6409610092
 30
0.0
 10
142.8946438092
 20
25.1905187475
 30
0.0
 10
143.4529100037
 20
24.5786424683
 30
0.0
 10
143.8366038058
 20
23.8460278861
 30
0.0
 10
143.9604416307
 20
23.3076117614
 30
0.0
 10
143.9866545462
 20
23.0366336124
 30
0.0
  0
SPLINE
  5
265
100
AcDbEntity
  8
_30_VOLUMEN
100
AcDbSpline
 62
4
  6
CONTINUOUS
 70
0
 71
3
 72
15
 73
11
 74
0
 42
0.0000001
 43
0.0000001
 44
0.0000000001
 40
0.0
 40
0.0
 40
0.0
 40
0.0
 40
0.1225261772
 40
0.2457633646
 40
0.3699790939
 40
0.495356917
 40
0.621608894
 40
0.7481914008
 40
0.8745411495
 40
1.0
 40
1.0
 40
1.0
 40
1.0
 10
143.5265218223
 20
20.9567606128
 30
0.0
 10
143.3206344834
 20
20.7508732739
 30
0.0
 10
142.8454688702
 20
20.3953704932
 30
0.0
 10
142.0107962089
 20
20.0844643833
 30
0.0
 10
141.1150493616
 20
20.0200785577
 30
0.0
 10
140.2299839848
 20
20.209081714
 30
0.0
 10
139.4272624564
 20
20.6390524118
 30
0.0
 10
138.772680436
 20
21.2755971387
 30
0.0
 10
138.3208683418
 20
22.0661508093
 30
0.0
 10
138.1774984471
 20
22.6567671685
 30
0.0
 10
138.1487922543
 20
22.9535197737
 30
0.0
  0
SPLINE
  5
266
100
AcDbEntity
  8
_30_VOLUMEN
100
AcDbSpline
 62
4
  6
CONTINUOUS
 70
0
 71
3
 72
21
 73
17
 74
0
 42
0.0000001
 43
0.0000001
 44
0.0000000001
 40
0.0
 40
0.0
 40
0.0
 40
0.0
 40
0.0625202818
 40
0.1250437687
 40
0.187400065
 40
0.2496957674
 40
0.3119808741
 40
0.37428859
 40
0.4366575003
 40
0.499124639
 40
0.561703927
 40
0.6243917155
 40
0.6871766307
 40
0.7500245485
 40
0.8751205082
 40
1.0
 40
1.0
 40
1.0
 40
1.0
 10
145.0527385052
 20
23.6868503647
 30
0.0
 10
145.075482864
 20
23.4517287037
 30
0.0
 10
145.0745045008
 20
22.9757055974
 30
0.0
 10
144.9346654814
 20
22.2771464193
 30
0.0
 10
144.6602443312
 20
21.6202387352
 30
0.0
 10
144.2624011467
 20
21.0310925137
 30
0.0
 10
143.7568213972
 20
20.5315332629
 30
0.0
 10
143.1623111254
 20
20.1414633823
 30
0.0
 10
142.5021364484
 20
19.8756533833
 30
0.0
 10
141.8016912823
 20
19.7439874422
 30
0.0
 10
141.0878387053
 20
19.7521707374
 30
0.0
 10
140.388092644
 20
19.8990755432
 30
0.0
 10
139.7290767129
 20
20.1795948961
 30
0.0
 10
138.9414227565
 20
20.7150306057
 30
0.0
 10
138.1747310419
 20
21.6553818106
 30
0.0
 10
137.8955074424
 20
22.587061589
 30
0.0
 10
137.8500773215
 20
23.0566991639
 30
0.0
  0
SPLINE
  5
267
100
AcDbEntity
  8
_30_VOLUMEN
100
AcDbSpline
 62
7
  6
CONTINUOUS
 70
0
 71
3
 72
11
 73
7
 74
0
 42
0.0000001
 43
0.0000001
 44
0.0000000001
 40
0.0
 40
0.0
 40
0.0
 40
0.0
 40
0.2502216464
 40
0.5008050994
 40
0.7505733056
 40
1.0
 40
1.0
 40
1.0
 40
1.0
 10
144.4270491618
 20
23.477028228
 30
0.0
 10
144.4492096758
 20
23.2479421098
 30
0.0
 10
144.4425281209
 20
22.7830441379
 30
0.0
 10
144.2831350694
 20
22.1057724779
 30
0.0
 10
143.9783281792
 20
21.4809968386
 30
0.0
 10
143.6887322703
 20
21.1190051513
 30
0.0
 10
143.5264029786
 20
20.9568796031
 30
0.0
  0
SPLINE
  5
268
100
AcDbEntity
  8
_30_VOLUMEN
100
AcDbSpline
 62
4
  6
CONTINUOUS
 70
0
 71
3
 72
15
 73
11
 74
0
 42
0.0000001
 43
0.0000001
 44
0.0000000001
 40
0.0
 40
0.0
 40
0.0
 40
0.0
 40
0.1248951824
 40
0.2493889825
 40
0.3738219425
 40
0.498502705
 40
0.6236222837
 40
0.7491143977
 40
0.8746665727
 40
1.0
 40
1.0
 40
1.0
 40
1.0
 10
144.9660789779
 20
23.6512020436
 30
0.0
 10
145.0106469334
 20
23.1904771744
 30
0.0
 10
144.9172139685
 20
22.2424136537
 30
0.0
 10
144.2421946943
 20
20.9923296208
 30
0.0
 10
143.1368727073
 20
20.0982254136
 30
0.0
 10
141.7702215864
 20
19.7001506615
 30
0.0
 10
140.3518877051
 20
19.8562276084
 30
0.0
 10
139.0972884371
 20
20.5424612521
 30
0.0
 10
138.1954792743
 20
21.6509941943
 30
0.0
 10
137.9199461287
 20
22.5684909174
 30
0.0
 10
137.8752217886
 20
23.0308324249
 30
0.0
  0
SPLINE
  5
269
100
AcDbEntity
  8
_30_VOLUMEN
100
AcDbSpline
 62
7
  6
CONTINUOUS
 70
0
 71
3
 72
15
 73
11
 74
0
 42
0.0000001
 43
0.0000001
 44
0.0000000001
 40
0.0
 40
0.0
 40
0.0
 40
0.0
 40
0.1250355958
 40
0.2505386542
 40
0.3759438323
 40
0.5013083731
 40
0.6264127423
 40
0.7511866739
 40
0.8756767747
 40
1.0
 40
1.0
 40
1.0
 40
1.0
 10
144.4270491618
 20
23.477028228
 30
0.0
 10
144.3983996485
 20
23.7731949049
 30
0.0
 10
144.2553828263
 20
24.3615799012
 30
0.0
 10
143.8065854571
 20
25.1485296781
 30
0.0
 10
143.155876311
 20
25.7809211834
 30
0.0
 10
142.3568353373
 20
26.2084962918
 30
0.0
 10
141.4717515324
 20
26.39683497
 30
0.0
 10
140.5712061501
 20
26.3310746762
 30
0.0
 10
139.7270820898
 20
26.0169095306
 30
0.0
 10
139.2458442377
 20
25.6558385779
 30
0.0
 10
139.0365126055
 20
25.446769683
 30
0.0
  0
SPLINE
  5
26A
100
AcDbEntity
  8
_30_VOLUMEN
100
AcDbSpline
 62
4
  6
CONTINUOUS
 70
0
 71
3
 72
15
 73
11
 74
0
 42
0.0000001
 43
0.0000001
 44
0.0000000001
 40
0.0
 40
0.0
 40
0.0
 40
0.0
 40
0.1253334273
 40
0.2508856023
 40
0.3763777163
 40
0.501497295
 40
0.6261780575
 40
0.7506110175
 40
0.8751048176
 40
1.0
 40
1.0
 40
1.0
 40
1.0
 10
144.9660789779
 20
23.6512020436
 30
0.0
 10
144.9213546379
 20
24.1135435511
 30
0.0
 10
144.6458214923
 20
25.0310402743
 30
0.0
 10
143.7440123295
 20
26.1395732165
 30
0.0
 10
142.4894130615
 20
26.8258068602
 30
0.0
 10
141.0710791801
 20
26.9818838071
 30
0.0
 10
139.7044280593
 20
26.5838090549
 30
0.0
 10
138.5991060723
 20
25.6897048478
 30
0.0
 10
137.9240867981
 20
24.4396208148
 30
0.0
 10
137.8306538332
 20
23.4915572942
 30
0.0
 10
137.8752217886
 20
23.0308324249
 30
0.0
  0
SPLINE
  5
26B
100
AcDbEntity
  8
_30_VOLUMEN
100
AcDbSpline
 62
4
  6
CONTINUOUS
 70
0
 71
3
 72
21
 73
17
 74
0
 42
0.0000001
 43
0.0000001
 44
0.0000000001
 40
0.0
 40
0.0
 40
0.0
 40
0.0
 40
0.0625202818
 40
0.1250437687
 40
0.187400065
 40
0.2496957674
 40
0.3119808741
 40
0.37428859
 40
0.4366575003
 40
0.499124639
 40
0.561703927
 40
0.6243917155
 40
0.6871766307
 40
0.7500245485
 40
0.8751205082
 40
1.0
 40
1.0
 40
1.0
 40
1.0
 10
137.8500773215
 20
23.0566991639
 30
0.0
 10
137.8273329627
 20
23.2918208249
 30
0.0
 10
137.8283113258
 20
23.7678439312
 30
0.0
 10
137.9681503453
 20
24.4664031093
 30
0.0
 10
138.2425714954
 20
25.1233107934
 30
0.0
 10
138.64041468
 20
25.712457015
 30
0.0
 10
139.1459944295
 20
26.2120162657
 30
0.0
 10
139.7405047013
 20
26.6020861463
 30
0.0
 10
140.4006793783
 20
26.8678961453
 30
0.0
 10
141.1011245444
 20
26.9995620864
 30
0.0
 10
141.8149771214
 20
26.9913787913
 30
0.0
 10
142.5147231826
 20
26.8444739855
 30
0.0
 10
143.1737391137
 20
26.5639546325
 30
0.0
 10
143.9613930702
 20
26.028518923
 30
0.0
 10
144.7280847848
 20
25.088167718
 30
0.0
 10
145.0073083843
 20
24.1564879397
 30
0.0
 10
145.0527385052
 20
23.6868503647
 30
0.0
  0
SPLINE
  5
26C
100
AcDbEntity
  8
_30_VOLUMEN
100
AcDbSpline
 62
4
  6
CONTINUOUS
 70
0
 71
3
 72
11
 73
7
 74
0
 42
0.0000001
 43
0.0000001
 44
0.0000000001
 40
0.0
 40
0.0
 40
0.0
 40
0.0
 40
0.2496349922
 40
0.5000147789
 40
0.7503855881
 40
1.0
 40
1.0
 40
1.0
 40
1.0
 10
132.954508592
 20
16.1018956746
 30
0.0
 10
132.9410490502
 20
15.9298564214
 30
0.0
 10
132.9909251868
 20
15.5747030458
 30
0.0
 10
133.2818346152
 20
15.1261992178
 30
0.0
 10
133.7329519312
 20
14.839381728
 30
0.0
 10
134.0885302519
 20
14.7927589745
 30
0.0
 10
134.2604243734
 20
14.8077977614
 30
0.0
  0
SPLINE
  5
26D
100
AcDbEntity
  8
_21_KURVEN
100
AcDbSpline
 62
7
  6
CONTINUOUS
 70
0
 71
3
 72
51
 73
47
 74
0
 42
0.0000001
 43
0.0000001
 44
0.0000000001
 40
0.0
 40
0.0
 40
0.0
 40
0.0
 40
0.0625
 40
0.09375
 40
0.109375
 40
0.125
 40
0.140625
 40
0.15625
 40
0.1875
 40
0.21875
 40
0.234375
 40
0.25
 40
0.265625
 40
0.28125
 40
0.3125
 40
0.34375
 40
0.359375
 40
0.375
 40
0.390625
 40
0.40625
 40
0.4375
 40
0.46875
 40
0.484375
 40
0.5
 40
0.515625
 40
0.53125
 40
0.5625
 40
0.59375
 40
0.609375
 40
0.625
 40
0.640625
 40
0.65625
 40
0.6875
 40
0.71875
 40
0.734375
 40
0.75
 40
0.765625
 40
0.78125
 40
0.8125
 40
0.84375
 40
0.859375
 40
0.875
 40
0.890625
 40
0.90625
 40
0.9375
 40
1.0
 40
1.0
 40
1.0
 40
1.0
 10
132.954508592
 20
16.1018956746
 30
0.0
 10
132.9558067379
 20
16.05890531
 30
0.0
 10
132.9579824737
 20
15.9944329112
 30
0.0
 10
132.9597210229
 20
15.9191690943
 30
0.0
 10
132.9618570642
 20
15.8762269393
 30
0.0
 10
132.9602598583
 20
15.8438362499
 30
0.0
 10
132.9708883077
 20
15.8121489827
 30
0.0
 10
132.9807715226
 20
15.7696459149
 30
0.0
 10
132.9947217852
 20
15.7166588611
 30
0.0
 10
133.0076471359
 20
15.6634214063
 30
0.0
 10
133.0191702099
 20
15.6213189801
 30
0.0
 10
133.0248790822
 20
15.5884297882
 30
0.0
 10
133.0417302905
 20
15.5605463165
 30
0.0
 10
133.0602895913
 20
15.5216107349
 30
0.0
 10
133.0849502042
 20
15.473609102
 30
0.0
 10
133.1086510907
 20
15.4251331172
 30
0.0
 10
133.1287459537
 20
15.3869564985
 30
0.0
 10
133.1409904754
 20
15.3567961382
 30
0.0
 10
133.1639744225
 20
15.3324452784
 30
0.0
 10
133.1908557382
 20
15.2979337717
 30
0.0
 10
133.2258384222
 20
15.2555983397
 30
0.0
 10
133.2600018826
 20
15.2126017187
 30
0.0
 10
133.2881939563
 20
15.1791481145
 30
0.0
 10
133.3072456295
 20
15.1516235471
 30
0.0
 10
133.334236178
 20
15.1333645903
 30
0.0
 10
133.3674390787
 20
15.1057673668
 30
0.0
 10
133.4099792467
 20
15.0724964195
 30
0.0
 10
133.4518538678
 20
15.0383880785
 30
0.0
 10
133.4861216435
 20
15.0121306848
 30
0.0
 10
133.509917567
 20
14.9898522384
 30
0.0
 10
133.5409490841
 20
14.9774007571
 30
0.0
 10
133.5797917191
 20
14.9573477305
 30
0.0
 10
133.6292514375
 20
14.9335969209
 30
0.0
 10
133.6782513584
 20
14.9088980309
 30
0.0
 10
133.7178296695
 20
14.890361933
 30
0.0
 10
133.7466541582
 20
14.8733596657
 30
0.0
 10
133.7787264383
 20
14.8681466666
 30
0.0
 10
133.8203512319
 20
14.8570590976
 30
0.0
 10
133.8727995944
 20
14.8447532427
 30
0.0
 10
133.9250012829
 20
14.8314040918
 30
0.0
 10
133.9670207549
 20
14.8219857965
 30
0.0
 10
133.9979089999
 20
14.8117649765
 30
0.0
 10
134.0311736201
 20
14.8135420378
 30
0.0
 10
134.0746973069
 20
14.8117252763
 30
0.0
 10
134.1512524182
 20
14.8105082139
 30
0.0
 10
134.2167378303
 20
14.8087922392
 30
0.0
 10
134.2604243839
 20
14.8077977624
 30
0.0
  0
SPLINE
  5
26E
100
AcDbEntity
  8
_21_KURVEN
100
AcDbSpline
 62
7
  6
CONTINUOUS
 70
0
 71
3
 72
9
 73
5
 74
0
 42
0.0000001
 43
0.0000001
 44
0.0000000001
 40
0.0
 40
0.0
 40
0.0
 40
0.0
 40
0.5
 40
1.0
 40
1.0
 40
1.0
 40
1.0
 10
135.0912864111
 20
30.7501836978
 30
0.0
 10
134.9922067736
 20
30.7373068647
 30
0.0
 10
134.7953493332
 20
30.7037247552
 30
0.0
 10
134.6140505024
 20
30.6029771325
 30
0.0
 10
134.5277749913
 20
30.5495049953
 30
0.0
  0
SPLINE
  5
26F
100
AcDbEntity
  8
_21_KURVEN
100
AcDbSpline
 62
7
  6
CONTINUOUS
 70
0
 71
3
 72
9
 73
5
 74
0
 42
0.0000001
 43
0.0000001
 44
0.0000000001
 40
0.0
 40
0.0
 40
0.0
 40
0.0
 40
0.5
 40
1.0
 40
1.0
 40
1.0
 40
1.0
 10
134.5277749981
 20
30.5495049999
 30
0.0
 10
134.5005942091
 20
30.5304279776
 30
0.0
 10
134.4399719029
 20
30.486586621
 30
0.0
 10
134.3853870978
 20
30.4354482229
 30
0.0
 10
134.3585428091
 20
30.4094843337
 30
0.0
  0
SPLINE
  5
270
100
AcDbEntity
  8
_21_KURVEN
100
AcDbSpline
 62
7
  6
CONTINUOUS
 70
0
 71
3
 72
12
 73
8
 74
0
 42
0.0000001
 43
0.0000001
 44
0.0000000001
 40
0.0
 40
0.0
 40
0.0
 40
0.0
 40
0.25
 40
0.375
 40
0.5
 40
0.75
 40
1.0
 40
1.0
 40
1.0
 40
1.0
 10
134.3585428095
 20
30.4094843342
 30
0.0
 10
134.3455384602
 20
30.3960828258
 30
0.0
 10
134.3261906205
 20
30.3761028289
 30
0.0
 10
134.3010523513
 20
30.3477563502
 30
0.0
 10
134.2728002227
 20
30.3146892825
 30
0.0
 10
134.2468721961
 20
30.2809903777
 30
0.0
 10
134.2229989981
 20
30.2470556749
 30
0.0
 10
134.2110627836
 20
30.2298458275
 30
0.0
  0
SPLINE
  5
271
100
AcDbEntity
  8
_21_KURVEN
100
AcDbSpline
 62
7
  6
CONTINUOUS
 70
0
 71
3
 72
9
 73
5
 74
0
 42
0.0000001
 43
0.0000001
 44
0.0000000001
 40
0.0
 40
0.0
 40
0.0
 40
0.0
 40
0.5
 40
1.0
 40
1.0
 40
1.0
 40
1.0
 10
134.2110627867
 20
30.2298458321
 30
0.0
 10
134.1592997018
 20
30.1447294592
 30
0.0
 10
134.062661268
 20
29.9705142663
 30
0.0
 10
134.0278532915
 20
29.7655378456
 30
0.0
 10
134.0155804828
 20
29.664468491
 30
0.0
  0
SPLINE
  5
272
100
AcDbEntity
  8
_21_KURVEN
100
AcDbSpline
 62
7
  6
CONTINUOUS
 70
0
 71
3
 72
10
 73
6
 74
0
 42
0.0000001
 43
0.0000001
 44
0.0000000001
 40
0.0
 40
0.0
 40
0.0
 40
0.0
 40
0.25
 40
0.5
 40
1.0
 40
1.0
 40
1.0
 40
1.0
 10
149.9483072346
 20
30.641653854
 30
0.0
 10
149.9501037235
 20
30.6832820578
 30
0.0
 10
149.9529738829
 20
30.767483129
 30
0.0
 10
149.9401647779
 20
30.9453891734
 30
0.0
 10
149.9049196943
 20
31.0669691209
 30
0.0
 10
149.8766542123
 20
31.1527427637
 30
0.0
  0
SPLINE
  5
273
100
AcDbEntity
  8
_21_KURVEN
100
AcDbSpline
 62
7
  6
CONTINUOUS
 70
0
 71
3
 72
21
 73
17
 74
0
 42
0.0000001
 43
0.0000001
 44
0.0000000001
 40
0.0
 40
0.0
 40
0.0
 40
0.0
 40
0.125
 40
0.1875
 40
0.25
 40
0.3125
 40
0.375
 40
0.4375
 40
0.5
 40
0.5625
 40
0.625
 40
0.6875
 40
0.75
 40
0.8125
 40
0.875
 40
1.0
 40
1.0
 40
1.0
 40
1.0
 10
149.8766542172
 20
31.1527427506
 30
0.0
 10
149.8589121155
 20
31.1917458474
 30
0.0
 10
149.8331267103
 20
31.2505119787
 30
0.0
 10
149.7954351812
 20
31.3278208761
 30
0.0
 10
149.7574895578
 20
31.382301207
 30
0.0
 10
149.7239984379
 20
31.4390774728
 30
0.0
 10
149.682366281
 20
31.4901713415
 30
0.0
 10
149.6381643006
 20
31.5388242364
 30
0.0
 10
149.597042917
 20
31.5914861098
 30
0.0
 10
149.5461689697
 20
31.630553043
 30
0.0
 10
149.4983399467
 20
31.6736599541
 30
0.0
 10
149.4480837904
 20
31.7142018934
 30
0.0
 10
149.3908746756
 20
31.7478082686
 30
0.0
 10
149.3366713929
 20
31.785410925
 30
0.0
 10
149.2576398561
 20
31.8234817192
 30
0.0
 10
149.1971770523
 20
31.8496843415
 30
0.0
 10
149.1571327723
 20
31.8676750838
 30
0.0
  0
SPLINE
  5
274
100
AcDbEntity
  8
_21_KURVEN
100
AcDbSpline
 62
7
  6
CONTINUOUS
 70
0
 71
3
 72
9
 73
5
 74
0
 42
0.0000001
 43
0.0000001
 44
0.0000000001
 40
0.0
 40
0.0
 40
0.0
 40
0.0
 40
0.5
 40
1.0
 40
1.0
 40
1.0
 40
1.0
 10
149.1571327899
 20
31.8676750774
 30
0.0
 10
149.0776410403
 20
31.8935505284
 30
0.0
 10
148.9076971661
 20
31.9422701304
 30
0.0
 10
148.7313764841
 20
31.940195246
 30
0.0
 10
148.6423914397
 20
31.935751766
 30
0.0
  0
SPLINE
  5
275
100
AcDbEntity
  8
_21_KURVEN
100
AcDbSpline
 62
1
  6
CENTER
 70
0
 71
3
 72
191
 73
187
 74
0
 42
0.0000001
 43
0.0000001
 44
0.0000000001
 40
0.0
 40
0.0
 40
0.0
 40
0.0
 40
0.015625
 40
0.03125
 40
0.0390625
 40
0.046875
 40
0.0546875
 40
0.05859375
 40
0.060546875
 40
0.0625
 40
0.064453125
 40
0.06640625
 40
0.0703125
 40
0.078125
 40
0.0859375
 40
0.09375
 40
0.1015625
 40
0.109375
 40
0.1171875
 40
0.12109375
 40
0.123046875
 40
0.125
 40
0.126953125
 40
0.12890625
 40
0.1328125
 40
0.140625
 40
0.1484375
 40
0.15625
 40
0.1640625
 40
0.171875
 40
0.1796875
 40
0.18359375
 40
0.185546875
 40
0.1875
 40
0.189453125
 40
0.19140625
 40
0.1953125
 40
0.203125
 40
0.2109375
 40
0.21875
 40
0.2265625
 40
0.234375
 40
0.2421875
 40
0.24609375
 40
0.248046875
 40
0.25
 40
0.251953125
 40
0.25390625
 40
0.2578125
 40
0.265625
 40
0.2734375
 40
0.28125
 40
0.2890625
 40
0.296875
 40
0.3046875
 40
0.30859375
 40
0.310546875
 40
0.3125
 40
0.314453125
 40
0.31640625
 40
0.3203125
 40
0.328125
 40
0.3359375
 40
0.34375
 40
0.3515625
 40
0.359375
 40
0.3671875
 40
0.37109375
 40
0.373046875
 40
0.375
 40
0.376953125
 40
0.37890625
 40
0.3828125
 40
0.390625
 40
0.3984375
 40
0.40625
 40
0.4140625
 40
0.421875
 40
0.4296875
 40
0.43359375
 40
0.435546875
 40
0.4375
 40
0.439453125
 40
0.44140625
 40
0.4453125
 40
0.453125
 40
0.4609375
 40
0.46875
 40
0.4765625
 40
0.484375
 40
0.4921875
 40
0.49609375
 40
0.498046875
 40
0.5
 40
0.501953125
 40
0.50390625
 40
0.5078125
 40
0.515625
 40
0.5234375
 40
0.53125
 40
0.5390625
 40
0.546875
 40
0.5546875
 40
0.55859375
 40
0.560546875
 40
0.5625
 40
0.564453125
 40
0.56640625
 40
0.5703125
 40
0.578125
 40
0.5859375
 40
0.59375
 40
0.6015625
 40
0.609375
 40
0.6171875
 40
0.62109375
 40
0.623046875
 40
0.625
 40
0.626953125
 40
0.62890625
 40
0.6328125
 40
0.640625
 40
0.6484375
 40
0.65625
 40
0.6640625
 40
0.671875
 40
0.6796875
 40
0.68359375
 40
0.685546875
 40
0.6875
 40
0.689453125
 40
0.69140625
 40
0.6953125
 40
0.703125
 40
0.7109375
 40
0.71875
 40
0.7265625
 40
0.734375
 40
0.7421875
 40
0.74609375
 40
0.748046875
 40
0.75
 40
0.751953125
 40
0.75390625
 40
0.7578125
 40
0.765625
 40
0.7734375
 40
0.78125
 40
0.7890625
 40
0.796875
 40
0.8046875
 40
0.80859375
 40
0.810546875
 40
0.8125
 40
0.814453125
 40
0.81640625
 40
0.8203125
 40
0.828125
 40
0.8359375
 40
0.84375
 40
0.8515625
 40
0.859375
 40
0.8671875
 40
0.87109375
 40
0.873046875
 40
0.875
 40
0.876953125
 40
0.87890625
 40
0.8828125
 40
0.890625
 40
0.8984375
 40
0.90625
 40
0.9140625
 40
0.921875
 40
0.9296875
 40
0.93359375
 40
0.935546875
 40
0.9375
 40
0.939453125
 40
0.94140625
 40
0.9453125
 40
0.953125
 40
0.9609375
 40
0.96875
 40
0.984375
 40
1.0
 40
1.0
 40
1.0
 40
1.0
 10
149.3129094942
 20
24.0595670309
 30
0.0
 10
149.288112917
 20
24.1858326073
 30
0.0
 10
149.2385145664
 20
24.4383622466
 30
0.0
 10
149.1765426092
 20
24.7540318627
 30
0.0
 10
149.1269104834
 20
25.0065516651
 30
0.0
 10
149.0898344806
 20
25.1959846482
 30
0.0
 10
149.0584669063
 20
25.3537083174
 30
0.0
 10
149.0374337153
 20
25.4643840309
 30
0.0
 10
149.0239718304
 20
25.5272070494
 30
0.0
 10
149.0179401408
 20
25.5755081539
 30
0.0
 10
148.9963710142
 20
25.6192840188
 30
0.0
 10
148.9730318206
 20
25.6792302974
 30
0.0
 10
148.9296630233
 20
25.7834008073
 30
0.0
 10
148.8690285851
 20
25.9326006956
 30
0.0
 10
148.7956984286
 20
26.1114742573
 30
0.0
 10
148.7225300166
 20
26.2903972372
 30
0.0
 10
148.6492834572
 20
26.4692888488
 30
0.0
 10
148.5761877428
 20
26.6482565154
 30
0.0
 10
148.5148369538
 20
26.797168861
 30
0.0
 10
148.4727445635
 20
26.9018517196
 30
0.0
 10
148.4473605137
 20
26.9609771946
 30
0.0
 10
148.4320724817
 20
27.0072742859
 30
0.0
 10
148.402450056
 20
27.0461060878
 30
0.0
 10
148.3679534947
 20
27.1004858061
 30
0.0
 10
148.3052548248
 20
27.1944370116
 30
0.0
 10
148.2169040225
 20
27.3292878122
 30
0.0
 10
148.110358175
 20
27.490835028
 30
0.0
 10
148.0039619044
 20
27.6524615554
 30
0.0
 10
147.897492211
 20
27.8140445812
 30
0.0
 10
147.791166632
 20
27.9757223017
 30
0.0
 10
147.7021427872
 20
28.1101743377
 30
0.0
 10
147.6406433567
 20
28.2048360694
 30
0.0
 10
147.604225565
 20
28.2580774956
 30
0.0
 10
147.5805044979
 20
28.3004057391
 30
0.0
 10
147.5430519544
 20
28.3335707834
 30
0.0
 10
147.4979049295
 20
28.3809870772
 30
0.0
 10
147.4166659567
 20
28.4624763239
 30
0.0
 10
147.3017775856
 20
28.5796688036
 30
0.0
 10
147.1634094608
 20
28.7199633226
 30
0.0
 10
147.0251819667
 20
28.8603568356
 30
0.0
 10
146.8868940294
 20
29.0006908292
 30
0.0
 10
146.7487072345
 20
29.1411639065
 30
0.0
 10
146.6332648
 20
29.2578107914
 30
0.0
 10
146.5530130673
 20
29.3402721887
 30
0.0
 10
146.5062844434
 20
29.3861310575
 30
0.0
 10
146.4736900279
 20
29.424079976
 30
0.0
 10
146.4317226483
 20
29.4484407915
 30
0.0
 10
146.3790355422
 20
29.4856615706
 30
0.0
 10
146.2853097789
 20
29.5485895308
 30
0.0
 10
146.1522126759
 20
29.6396419433
 30
0.0
 10
145.9921531903
 20
29.7484070497
 30
0.0
 10
145.832190601
 20
29.8573147882
 30
0.0
 10
145.6721833886
 20
29.9661497868
 30
0.0
 10
145.5122577723
 20
30.0751331132
 30
0.0
 10
145.3787516243
 20
30.1655187422
 30
0.0
 10
145.2857547047
 20
30.2296347895
 30
0.0
 10
145.2318999613
 20
30.2649522045
 30
0.0
 10
145.1935191621
 20
30.2951594998
 30
0.0
 10
145.1474541526
 20
30.3111500222
 30
0.0
 10
145.0887144822
 20
30.3374296983
 30
0.0
 10
144.9846712015
 20
30.3811085508
 30
0.0
 10
144.8366911526
 20
30.4447157158
 30
0.0
 10
144.6588342206
 20
30.5205233807
 30
0.0
 10
144.4810556473
 20
30.5964806911
 30
0.0
 10
144.3032445124
 20
30.6723603529
 30
0.0
 10
144.125485265
 20
30.7484009633
 30
0.0
 10
143.9772067353
 20
30.8112963503
 30
0.0
 10
143.8736952932
 20
30.8562434618
 30
0.0
 10
143.8141035956
 20
30.8804913353
 30
0.0
 10
143.7706557207
 20
30.9027228565
 30
0.0
 10
143.7224454035
 20
30.9094900085
 30
0.0
 10
143.6598261762
 20
30.9239070337
 30
0.0
 10
143.549468523
 20
30.9466234843
 30
0.0
 10
143.3922195803
 20
30.9803904154
 30
0.0
 10
143.2033467361
 20
31.0203441952
 30
0.0
 10
143.014522588
 20
31.0604603511
 30
0.0
 10
142.825677768
 20
31.1004935399
 30
0.0
 10
142.6368669398
 20
31.1406962212
 30
0.0
 10
142.4794285036
 20
31.1737026201
 30
0.0
 10
142.3694084934
 20
31.1977742008
 30
0.0
 10
142.3062483483
 20
31.2100202522
 30
0.0
 10
142.2596995443
 20
31.2234558887
 30
0.0
 10
142.2100113052
 20
31.2206417023
 30
0.0
 10
142.1448553889
 20
31.2225575847
 30
0.0
 10
142.0303223321
 20
31.2232693837
 30
0.0
 10
141.8669703402
 20
31.2256678497
 30
0.0
 10
141.6708341579
 20
31.2279508404
 30
0.0
 10
141.4747264868
 20
31.2304039285
 30
0.0
 10
141.2786185628
 20
31.2327717957
 30
0.0
 10
141.0824831391
 20
31.2353104488
 30
0.0
 10
140.9191288292
 20
31.2369277244
 30
0.0
 10
140.8045999027
 20
31.2390314625
 30
0.0
 10
140.7394373696
 20
31.2387174017
 30
0.0
 10
140.6897694551
 20
31.2427528338
 30
0.0
 10
140.6431443153
 20
31.2304624537
 30
0.0
 10
140.5799161056
 20
31.2197699168
 30
0.0
 10
140.4697612725
 20
31.1984046361
 30
0.0
 10
140.3121384504
 20
31.1692708426
 30
0.0
 10
140.1231028197
 20
31.1337124971
 30
0.0
 10
139.9340342055
 20
31.0983244672
 30
0.0
 10
139.7449857695
 20
31.0628529681
 30
0.0
 10
139.5558896043
 20
31.0275450304
 30
0.0
 10
139.3984517487
 20
30.997646102
 30
0.0
 10
139.2879673391
 20
30.9776441526
 30
0.0
 10
139.2252671244
 20
30.9647675033
 30
0.0
 10
139.1770201655
 20
30.9591859651
 30
0.0
 10
139.1334435313
 20
30.9380241139
 30
0.0
 10
139.0737122863
 20
30.9152429097
 30
0.0
 10
138.969941665
 20
30.8728436254
 30
0.0
 10
138.821300711
 20
30.8135978525
 30
0.0
 10
138.6431031821
 20
30.7419325187
 30
0.0
 10
138.4648547246
 20
30.6704293972
 30
0.0
 10
138.2866383656
 20
30.5988478325
 30
0.0
 10
138.1083445415
 20
30.5274178285
 30
0.0
 10
137.9599978227
 20
30.4674529921
 30
0.0
 10
137.8557029278
 20
30.4263349481
 30
0.0
 10
137.7968115906
 20
30.4015011447
 30
0.0
 10
137.7506550486
 20
30.3866441723
 30
0.0
 10
137.7120977899
 20
30.3573825685
 30
0.0
 10
137.6580373907
 20
30.3233916027
 30
0.0
 10
137.5646667707
 20
30.2615663097
 30
0.0
 10
137.4306339857
 20
30.1744691611
 30
0.0
 10
137.2700732952
 20
30.0694251225
 30
0.0
 10
137.1094318948
 20
29.964531407
 30
0.0
 10
136.9488346825
 20
29.8595638597
 30
0.0
 10
136.7881414275
 20
29.7547413162
 30
0.0
 10
136.6545137007
 20
29.6669673773
 30
0.0
 10
136.5604213406
 20
29.6063480014
 30
0.0
 10
136.5075171985
 20
29.5704251072
 30
0.0
 10
136.4654083157
 20
29.5470977231
 30
0.0
 10
136.4325910775
 20
29.5099528181
 30
0.0
 10
136.3855937219
 20
29.4652459912
 30
0.0
 10
136.3048584925
 20
29.3847633804
 30
0.0
 10
136.1887322612
 20
29.2709628438
 30
0.0
 10
136.0497219368
 20
29.1338969613
 30
0.0
 10
135.9106113028
 20
28.9969726386
 30
0.0
 10
135.7715607543
 20
28.859987315
 30
0.0
 10
135.632370173
 20
28.7231044353
 30
0.0
 10
135.5167947269
 20
28.6087447236
 30
0.0
 10
135.4350780985
 20
28.5292584612
 30
0.0
 10
135.3896529842
 20
28.4829554434
 30
0.0
 10
135.3520063614
 20
28.4507134876
 30
0.0
 10
135.3280358361
 20
28.4089714499
 30
0.0
 10
135.2913047504
 20
28.3566291401
 30
0.0
 10
135.2292480548
 20
28.2634861102
 30
0.0
 10
135.1394328251
 20
28.1312322918
 30
0.0
 10
135.032155558
 20
27.9721800909
 30
0.0
 10
134.9247347489
 20
27.8132261206
 30
0.0
 10
134.8173870991
 20
27.6542268469
 30
0.0
 10
134.709890354
 20
27.4953105561
 30
0.0
 10
134.6207457513
 20
27.3626414571
 30
0.0
 10
134.5574941204
 20
27.2702383817
 30
0.0
 10
134.5226773699
 20
27.2167106346
 30
0.0
 10
134.4928266654
 20
27.1786098523
 30
0.0
 10
134.4772650078
 20
27.132691953
 30
0.0
 10
134.4515319415
 20
27.0741947888
 30
0.0
 10
134.4088214022
 20
26.9705542935
 30
0.0
 10
134.346591398
 20
26.823160953
 30
0.0
 10
134.2724389679
 20
26.6460032009
 30
0.0
 10
134.1981361552
 20
26.4689252065
 30
0.0
 10
134.123911298
 20
26.291813925
 30
0.0
 10
134.0495250013
 20
26.1147560341
 30
0.0
 10
133.9880095894
 20
25.9670575623
 30
0.0
 10
133.9440257766
 20
25.8639607554
 30
0.0
 10
133.9203325464
 20
25.8045925803
 30
0.0
 10
133.8985052137
 20
25.7613501272
 30
0.0
 10
133.8921873327
 20
25.7132008182
 30
0.0
 10
133.8783536103
 20
25.6507133082
 30
0.0
 10
133.8566652663
 20
25.5405626898
 30
0.0
 10
133.8243632266
 20
25.3836217898
 30
0.0
 10
133.7861689648
 20
25.1951133061
 30
0.0
 10
133.7478118656
 20
25.006655035
 30
0.0
 10
133.70953793
 20
24.8181753172
 30
0.0
 10
133.6710941776
 20
24.6297311735
 30
0.0
 10
133.6395544702
 20
24.4725936788
 30
0.0
 10
133.6165077887
 20
24.3627933563
 30
0.0
 10
133.6048501786
 20
24.2997446581
 30
0.0
 10
133.5918480291
 20
24.2533191265
 30
0.0
 10
133.5951256859
 20
24.2036024551
 30
0.0
 10
133.5938173162
 20
24.1384615463
 30
0.0
 10
133.5941734247
 20
24.0239300877
 30
0.0
 10
133.5932989164
 20
23.8605933543
 30
0.0
 10
133.5928415922
 20
23.6644695776
 30
0.0
 10
133.5920249368
 20
23.4030130336
 30
0.0
 10
133.5910755763
 20
23.0761779075
 30
0.0
 10
133.5902943099
 20
22.8147142093
 30
0.0
 10
133.589906399
 20
22.6839818098
 30
0.0
  0
SPLINE
  5
276
100
AcDbEntity
  8
_21_KURVEN
100
AcDbSpline
 62
1
  6
CENTER
 70
0
 71
3
 72
191
 73
187
 74
0
 42
0.0000001
 43
0.0000001
 44
0.0000000001
 40
0.0
 40
0.0
 40
0.0
 40
0.0
 40
0.015625
 40
0.03125
 40
0.0390625
 40
0.046875
 40
0.0546875
 40
0.05859375
 40
0.060546875
 40
0.0625
 40
0.064453125
 40
0.06640625
 40
0.0703125
 40
0.078125
 40
0.0859375
 40
0.09375
 40
0.1015625
 40
0.109375
 40
0.1171875
 40
0.12109375
 40
0.123046875
 40
0.125
 40
0.126953125
 40
0.12890625
 40
0.1328125
 40
0.140625
 40
0.1484375
 40
0.15625
 40
0.1640625
 40
0.171875
 40
0.1796875
 40
0.18359375
 40
0.185546875
 40
0.1875
 40
0.189453125
 40
0.19140625
 40
0.1953125
 40
0.203125
 40
0.2109375
 40
0.21875
 40
0.2265625
 40
0.234375
 40
0.2421875
 40
0.24609375
 40
0.248046875
 40
0.25
 40
0.251953125
 40
0.25390625
 40
0.2578125
 40
0.265625
 40
0.2734375
 40
0.28125
 40
0.2890625
 40
0.296875
 40
0.3046875
 40
0.30859375
 40
0.310546875
 40
0.3125
 40
0.314453125
 40
0.31640625
 40
0.3203125
 40
0.328125
 40
0.3359375
 40
0.34375
 40
0.3515625
 40
0.359375
 40
0.3671875
 40
0.37109375
 40
0.373046875
 40
0.375
 40
0.376953125
 40
0.37890625
 40
0.3828125
 40
0.390625
 40
0.3984375
 40
0.40625
 40
0.4140625
 40
0.421875
 40
0.4296875
 40
0.43359375
 40
0.435546875
 40
0.4375
 40
0.439453125
 40
0.44140625
 40
0.4453125
 40
0.453125
 40
0.4609375
 40
0.46875
 40
0.4765625
 40
0.484375
 40
0.4921875
 40
0.49609375
 40
0.498046875
 40
0.5
 40
0.501953125
 40
0.50390625
 40
0.5078125
 40
0.515625
 40
0.5234375
 40
0.53125
 40
0.5390625
 40
0.546875
 40
0.5546875
 40
0.55859375
 40
0.560546875
 40
0.5625
 40
0.564453125
 40
0.56640625
 40
0.5703125
 40
0.578125
 40
0.5859375
 40
0.59375
 40
0.6015625
 40
0.609375
 40
0.6171875
 40
0.62109375
 40
0.623046875
 40
0.625
 40
0.626953125
 40
0.62890625
 40
0.6328125
 40
0.640625
 40
0.6484375
 40
0.65625
 40
0.6640625
 40
0.671875
 40
0.6796875
 40
0.68359375
 40
0.685546875
 40
0.6875
 40
0.689453125
 40
0.69140625
 40
0.6953125
 40
0.703125
 40
0.7109375
 40
0.71875
 40
0.7265625
 40
0.734375
 40
0.7421875
 40
0.74609375
 40
0.748046875
 40
0.75
 40
0.751953125
 40
0.75390625
 40
0.7578125
 40
0.765625
 40
0.7734375
 40
0.78125
 40
0.7890625
 40
0.796875
 40
0.8046875
 40
0.80859375
 40
0.810546875
 40
0.8125
 40
0.814453125
 40
0.81640625
 40
0.8203125
 40
0.828125
 40
0.8359375
 40
0.84375
 40
0.8515625
 40
0.859375
 40
0.8671875
 40
0.87109375
 40
0.873046875
 40
0.875
 40
0.876953125
 40
0.87890625
 40
0.8828125
 40
0.890625
 40
0.8984375
 40
0.90625
 40
0.9140625
 40
0.921875
 40
0.9296875
 40
0.93359375
 40
0.935546875
 40
0.9375
 40
0.939453125
 40
0.94140625
 40
0.9453125
 40
0.953125
 40
0.9609375
 40
0.96875
 40
0.984375
 40
1.0
 40
1.0
 40
1.0
 40
1.0
 10
133.5899063325
 20
22.6839824977
 30
0.0
 10
133.6147029097
 20
22.5577169213
 30
0.0
 10
133.6643012602
 20
22.305187282
 30
0.0
 10
133.7262732175
 20
21.9895176659
 30
0.0
 10
133.7759053433
 20
21.7369978635
 30
0.0
 10
133.8129813461
 20
21.5475648805
 30
0.0
 10
133.8443489203
 20
21.3898412112
 30
0.0
 10
133.8653821114
 20
21.2791654977
 30
0.0
 10
133.8788439963
 20
21.2163424793
 30
0.0
 10
133.8848756859
 20
21.1680413748
 30
0.0
 10
133.9064448124
 20
21.1242655098
 30
0.0
 10
133.9297840061
 20
21.0643192312
 30
0.0
 10
133.9731528034
 20
20.9601487214
 30
0.0
 10
134.0337872415
 20
20.8109488331
 30
0.0
 10
134.1071173981
 20
20.6320752713
 30
0.0
 10
134.1802858101
 20
20.4531522915
 30
0.0
 10
134.2535323694
 20
20.2742606799
 30
0.0
 10
134.3266280839
 20
20.0952930133
 30
0.0
 10
134.3879788729
 20
19.9463806676
 30
0.0
 10
134.4300712632
 20
19.841697809
 30
0.0
 10
134.455455313
 20
19.782572334
 30
0.0
 10
134.4707433449
 20
19.7362752428
 30
0.0
 10
134.5003657706
 20
19.6974434408
 30
0.0
 10
134.534862332
 20
19.6430637226
 30
0.0
 10
134.5975610018
 20
19.5491125171
 30
0.0
 10
134.6859118042
 20
19.4142617164
 30
0.0
 10
134.7924576516
 20
19.2527145007
 30
0.0
 10
134.8988539222
 20
19.0910879733
 30
0.0
 10
135.0053236156
 20
18.9295049475
 30
0.0
 10
135.1116491946
 20
18.7678272269
 30
0.0
 10
135.2006730395
 20
18.633375191
 30
0.0
 10
135.26217247
 20
18.5387134592
 30
0.0
 10
135.2985902616
 20
18.485472033
 30
0.0
 10
135.3223113288
 20
18.4431437896
 30
0.0
 10
135.3597638722
 20
18.4099787452
 30
0.0
 10
135.4049108972
 20
18.3625624514
 30
0.0
 10
135.4861498699
 20
18.2810732047
 30
0.0
 10
135.6010382411
 20
18.1638807251
 30
0.0
 10
135.7394063658
 20
18.0235862061
 30
0.0
 10
135.8776338599
 20
17.883192693
 30
0.0
 10
136.0159217973
 20
17.7428586994
 30
0.0
 10
136.1541085922
 20
17.6023856221
 30
0.0
 10
136.2695510267
 20
17.4857387372
 30
0.0
 10
136.3498027593
 20
17.4032773399
 30
0.0
 10
136.3965313832
 20
17.3574184712
 30
0.0
 10
136.4291257987
 20
17.3194695526
 30
0.0
 10
136.4710931784
 20
17.2951087371
 30
0.0
 10
136.5237802844
 20
17.257887958
 30
0.0
 10
136.6175060478
 20
17.1949599979
 30
0.0
 10
136.7506031508
 20
17.1039075853
 30
0.0
 10
136.9106626363
 20
16.9951424789
 30
0.0
 10
137.0706252256
 20
16.8862347404
 30
0.0
 10
137.230632438
 20
16.7773997419
 30
0.0
 10
137.3905580543
 20
16.6684164154
 30
0.0
 10
137.5240642023
 20
16.5780307865
 30
0.0
 10
137.6170611219
 20
16.5139147392
 30
0.0
 10
137.6709158653
 20
16.4785973241
 30
0.0
 10
137.7092966645
 20
16.4483900289
 30
0.0
 10
137.755361674
 20
16.4323995065
 30
0.0
 10
137.8141013445
 20
16.4061198303
 30
0.0
 10
137.9181446252
 20
16.3624409778
 30
0.0
 10
138.066124674
 20
16.2988338128
 30
0.0
 10
138.2439816061
 20
16.2230261479
 30
0.0
 10
138.4217601794
 20
16.1470688376
 30
0.0
 10
138.5995713142
 20
16.0711891758
 30
0.0
 10
138.7773305616
 20
15.9951485653
 30
0.0
 10
138.9256090913
 20
15.9322531783
 30
0.0
 10
139.0291205334
 20
15.8873060668
 30
0.0
 10
139.0887122311
 20
15.8630581933
 30
0.0
 10
139.132160106
 20
15.8408266721
 30
0.0
 10
139.1803704231
 20
15.8340595201
 30
0.0
 10
139.2429896505
 20
15.819642495
 30
0.0
 10
139.3533473036
 20
15.7969260444
 30
0.0
 10
139.5105962463
 20
15.7631591132
 30
0.0
 10
139.6994690906
 20
15.7232053335
 30
0.0
 10
139.8882932386
 20
15.6830891775
 30
0.0
 10
140.0771380586
 20
15.6430559887
 30
0.0
 10
140.2659488869
 20
15.6028533075
 30
0.0
 10
140.423387323
 20
15.5698469085
 30
0.0
 10
140.5334073333
 20
15.5457753278
 30
0.0
 10
140.5965674783
 20
15.5335292764
 30
0.0
 10
140.6431162824
 20
15.5200936399
 30
0.0
 10
140.6928045215
 20
15.5229078264
 30
0.0
 10
140.7579604378
 20
15.520991944
 30
0.0
 10
140.8724934945
 20
15.5202801449
 30
0.0
 10
141.0358454864
 20
15.517881679
 30
0.0
 10
141.2319816688
 20
15.5155986882
 30
0.0
 10
141.4280893399
 20
15.5131456002
 30
0.0
 10
141.6241972638
 20
15.5107777329
 30
0.0
 10
141.8203326875
 20
15.5082390799
 30
0.0
 10
141.9836869975
 20
15.5066218042
 30
0.0
 10
142.0982159239
 20
15.5045180661
 30
0.0
 10
142.1633784571
 20
15.5048321269
 30
0.0
 10
142.2130463716
 20
15.5007966948
 30
0.0
 10
142.2596715114
 20
15.5130870749
 30
0.0
 10
142.3228997211
 20
15.5237796119
 30
0.0
 10
142.4330545542
 20
15.5451448925
 30
0.0
 10
142.5906773763
 20
15.574278686
 30
0.0
 10
142.7797130069
 20
15.6098370315
 30
0.0
 10
142.9687816211
 20
15.6452250614
 30
0.0
 10
143.1578300572
 20
15.6806965605
 30
0.0
 10
143.3469262223
 20
15.7160044983
 30
0.0
 10
143.504364078
 20
15.7459034267
 30
0.0
 10
143.6148484876
 20
15.7659053761
 30
0.0
 10
143.6775487023
 20
15.7787820253
 30
0.0
 10
143.7257956612
 20
15.7843635635
 30
0.0
 10
143.7693722954
 20
15.8055254147
 30
0.0
 10
143.8291035404
 20
15.8283066189
 30
0.0
 10
143.9328741617
 20
15.8707059032
 30
0.0
 10
144.0815151156
 20
15.9299516761
 30
0.0
 10
144.2597126446
 20
16.00161701
 30
0.0
 10
144.437961102
 20
16.0731201314
 30
0.0
 10
144.6161774611
 20
16.1447016962
 30
0.0
 10
144.7944712852
 20
16.2161317002
 30
0.0
 10
144.9428180039
 20
16.2760965365
 30
0.0
 10
145.0471128988
 20
16.3172145805
 30
0.0
 10
145.1060042361
 20
16.3420483839
 30
0.0
 10
145.1521607781
 20
16.3569053563
 30
0.0
 10
145.1907180367
 20
16.3861669602
 30
0.0
 10
145.244778436
 20
16.4201579259
 30
0.0
 10
145.3381490559
 20
16.4819832189
 30
0.0
 10
145.4721818409
 20
16.5690803676
 30
0.0
 10
145.6327425315
 20
16.6741244061
 30
0.0
 10
145.7933839319
 20
16.7790181217
 30
0.0
 10
145.9539811442
 20
16.8839856689
 30
0.0
 10
146.1146743992
 20
16.9888082125
 30
0.0
 10
146.248302126
 20
17.0765821514
 30
0.0
 10
146.3423944861
 20
17.1372015272
 30
0.0
 10
146.3952986282
 20
17.1731244214
 30
0.0
 10
146.437407511
 20
17.1964518055
 30
0.0
 10
146.4702247492
 20
17.2335967105
 30
0.0
 10
146.5172221048
 20
17.2783035375
 30
0.0
 10
146.5979573342
 20
17.3587861482
 30
0.0
 10
146.7140835654
 20
17.4725866848
 30
0.0
 10
146.8530938898
 20
17.6096525674
 30
0.0
 10
146.9922045239
 20
17.74657689
 30
0.0
 10
147.1312550723
 20
17.8835622136
 30
0.0
 10
147.2704456537
 20
18.0204450934
 30
0.0
 10
147.3860210997
 20
18.1348048051
 30
0.0
 10
147.4677377282
 20
18.2142910675
 30
0.0
 10
147.5131628424
 20
18.2605940852
 30
0.0
 10
147.5508094653
 20
18.292836041
 30
0.0
 10
147.5747799906
 20
18.3345780787
 30
0.0
 10
147.6115110763
 20
18.3869203886
 30
0.0
 10
147.6735677718
 20
18.4800634184
 30
0.0
 10
147.7633830015
 20
18.6123172368
 30
0.0
 10
147.8706602687
 20
18.7713694377
 30
0.0
 10
147.9780810778
 20
18.930323408
 30
0.0
 10
148.0854287276
 20
19.0893226817
 30
0.0
 10
148.1929254726
 20
19.2482389726
 30
0.0
 10
148.2820700753
 20
19.3809080715
 30
0.0
 10
148.3453217062
 20
19.4733111469
 30
0.0
 10
148.3801384568
 20
19.526838894
 30
0.0
 10
148.4099891612
 20
19.5649396763
 30
0.0
 10
148.4255508188
 20
19.6108575757
 30
0.0
 10
148.4512838852
 20
19.6693547398
 30
0.0
 10
148.4939944245
 20
19.7729952351
 30
0.0
 10
148.5562244286
 20
19.9203885757
 30
0.0
 10
148.6303768588
 20
20.0975463277
 30
0.0
 10
148.7046796715
 20
20.2746243221
 30
0.0
 10
148.7789045287
 20
20.4517356036
 30
0.0
 10
148.8532908254
 20
20.6287934945
 30
0.0
 10
148.9148062372
 20
20.7764919663
 30
0.0
 10
148.95879005
 20
20.8795887732
 30
0.0
 10
148.9824832802
 20
20.9389569484
 30
0.0
 10
149.004310613
 20
20.9821994015
 30
0.0
 10
149.010628494
 20
21.0303487105
 30
0.0
 10
149.0244622164
 20
21.0928362204
 30
0.0
 10
149.0461505603
 20
21.2029868388
 30
0.0
 10
149.0784526
 20
21.3599277389
 30
0.0
 10
149.1166468618
 20
21.5484362226
 30
0.0
 10
149.155003961
 20
21.7368944937
 30
0.0
 10
149.1932778966
 20
21.9253742115
 30
0.0
 10
149.231721649
 20
22.1138183551
 30
0.0
 10
149.2632613564
 20
22.2709558498
 30
0.0
 10
149.286308038
 20
22.3807561723
 30
0.0
 10
149.2979656481
 20
22.4438048705
 30
0.0
 10
149.3109677975
 20
22.4902304022
 30
0.0
 10
149.3076901407
 20
22.5399470735
 30
0.0
 10
149.3089985105
 20
22.6050879823
 30
0.0
 10
149.3086424019
 20
22.7196194409
 30
0.0
 10
149.3095169102
 20
22.8829561744
 30
0.0
 10
149.3099742345
 20
23.0790799511
 30
0.0
 10
149.3107908898
 20
23.340536495
 30
0.0
 10
149.3117402504
 20
23.6673716211
 30
0.0
 10
149.3125215167
 20
23.9288353194
 30
0.0
 10
149.3129094276
 20
24.0595677188
 30
0.0
  0
SPLINE
  5
277
100
AcDbEntity
  8
_21_KURVEN
100
AcDbSpline
 62
7
  6
CONTINUOUS
 70
0
 71
3
 72
9
 73
5
 74
0
 42
0.0000001
 43
0.0000001
 44
0.0000000001
 40
0.0
 40
0.0
 40
0.0
 40
0.0
 40
0.5
 40
1.0
 40
1.0
 40
1.0
 40
1.0
 10
147.8115294156
 20
15.9933658309
 30
0.0
 10
147.9106090531
 20
16.0062426639
 30
0.0
 10
148.1074664934
 20
16.0398247735
 30
0.0
 10
148.2887653242
 20
16.1405723961
 30
0.0
 10
148.3750408353
 20
16.1940445334
 30
0.0
  0
SPLINE
  5
278
100
AcDbEntity
  8
_21_KURVEN
100
AcDbSpline
 62
7
  6
CONTINUOUS
 70
0
 71
3
 72
9
 73
5
 74
0
 42
0.0000001
 43
0.0000001
 44
0.0000000001
 40
0.0
 40
0.0
 40
0.0
 40
0.0
 40
0.5
 40
1.0
 40
1.0
 40
1.0
 40
1.0
 10
148.3750408285
 20
16.1940445288
 30
0.0
 10
148.4022216176
 20
16.2131215511
 30
0.0
 10
148.4628439238
 20
16.2569629076
 30
0.0
 10
148.5174287288
 20
16.3081013057
 30
0.0
 10
148.5449526299
 20
16.3347442531
 30
0.0
  0
SPLINE
  5
279
100
AcDbEntity
  8
_21_KURVEN
100
AcDbSpline
 62
7
  6
CONTINUOUS
 70
0
 71
3
 72
12
 73
8
 74
0
 42
0.0000001
 43
0.0000001
 44
0.0000000001
 40
0.0
 40
0.0
 40
0.0
 40
0.0
 40
0.25
 40
0.5
 40
0.625
 40
0.75
 40
1.0
 40
1.0
 40
1.0
 40
1.0
 10
148.5449526261
 20
16.3347442493
 30
0.0
 10
148.5579460429
 20
16.3481563636
 30
0.0
 10
148.584306749
 20
16.3757395538
 30
0.0
 10
148.6132306677
 20
16.4084510392
 30
0.0
 10
148.6402210808
 20
16.4425075082
 30
0.0
 10
148.6629874974
 20
16.472251776
 30
0.0
 10
148.6800974675
 20
16.4968838485
 30
0.0
 10
148.6917530405
 20
16.5137036972
 30
0.0
  0
SPLINE
  5
27A
100
AcDbEntity
  8
_21_KURVEN
100
AcDbSpline
 62
7
  6
CONTINUOUS
 70
0
 71
3
 72
9
 73
5
 74
0
 42
0.0000001
 43
0.0000001
 44
0.0000000001
 40
0.0
 40
0.0
 40
0.0
 40
0.0
 40
0.5
 40
1.0
 40
1.0
 40
1.0
 40
1.0
 10
148.69175304
 20
16.5137036965
 30
0.0
 10
148.7435161249
 20
16.5988200695
 30
0.0
 10
148.8401545587
 20
16.7730352623
 30
0.0
 10
148.8749625352
 20
16.978011683
 30
0.0
 10
148.8872353438
 20
17.0790810376
 30
0.0
  0
ENDSEC
  0
SECTION
  2
OBJECTS
  0
DICTIONARY
  5
C
100
AcDbDictionary
280
0
281
1
  3
ACAD_GROUP
350
D
  3
ACAD_MLINESTYLE
350
17
  3
ACAD_LAYOUT
350
1A
  3
ACAD_PLOTSETTINGS
350
19
  3
ACAD_PLOTSTYLENAME
350
E
  0
DICTIONARY
  5
D
102
{ACAD_REACTORS
330
C
102
}
100
AcDbDictionary
280
0
281
1
  0
ACDBDICTIONARYWDFLT
  5
E
102
{ACAD_REACTORS
330
C
102
}
100
AcDbDictionary
281
1
  3
Normal
350
F
100
AcDbDictionaryWithDefault
340
F
  0
DICTIONARY
  5
17
102
{ACAD_REACTORS
330
C
102
}
100
AcDbDictionary
280
0
281
1
  3
Standard
350
18
  0
DICTIONARY
  5
19
102
{ACAD_REACTORS
330
C
102
}
100
AcDbDictionary
281
1
  0
DICTIONARY
  5
1A
102
{ACAD_REACTORS
330
C
102
}
100
AcDbDictionary
281
1
  3
Model
350
27B
  3
Layout1
350
27C
  0
ACDBPLACEHOLDER
  5
F
102
{ACAD_REACTORS
330
E
102
}
  0
MLINESTYLE
  5
18
102
{ACAD_REACTORS
330
17
102
}
100
AcDbMlineStyle
  2
STANDARD
 70
0
  3

 62
256
 51
90.0
 52
90.0
 71
2
 49
0.5
 62
256
  6
BYLAYER
 49
-0.5
 62
256
  6
BYLAYER
  0
LAYOUT
  5
27B
102
{ACAD_REACTORS
330
1A
102
}
100
AcDbPlotSettings
  1

  2
none_device
  4
ISO_A3_(420.00_x_297.00_MM)
  6

 40
0.0
 41
0.0
 42
0.0
 43
0.0
 44
420.0
 45
297.0
 46
0.0
 47
0.0
 48
0.0
 49
0.0
140
0.0
141
0.0
142
1.0
143
1.0
 70
1024
 72
1
 73
0
 74
0
  7

 75
0
147
1.0
148
0.0
149
0.0
100
AcDbLayout
  1
Model
 70
0
 71
0
 10
0.0
 20
0.0
 11
420.0
 21
297.0
 12
0.0
 22
0.0
 32
0.0
 14
0.0
 24
0.0
 34
0.0
 15
0.0
 25
0.0
 35
0.0
146
0.0
 13
0.0
 23
0.0
 33
0.0
 16
1.0
 26
0.0
 36
0.0
 17
0.0
 27
1.0
 37
0.0
 76
0
330
20E
345
0
346
0
  0
LAYOUT
  5
27C
102
{ACAD_REACTORS
330
1A
102
}
100
AcDbPlotSettings
  1

  2
none_device
  4
ISO_A3_(420.00_x_297.00_MM)
  6

 40
0.0
 41
0.0
 42
0.0
 43
0.0
 44
420.0
 45
297.0
 46
0.0
 47
0.0
 48
0.0
 49
0.0
140
0.0
141
0.0
142
1.0
143
1.0
 70
0
 72
1
 73
0
 74
0
  7

 75
0
147
1.0
148
0.0
149
0.0
100
AcDbLayout
  1
Layout1
 70
0
 71
1
 10
0.0
 20
0.0
 11
420.0
 21
297.0
 12
0.0
 22
0.0
 32
0.0
 14
0.0
 24
0.0
 34
0.0
 15
0.0
 25
0.0
 35
0.0
146
0.0
 13
0.0
 23
0.0
 33
0.0
 16
1.0
 26
0.0
 36
0.0
 17
0.0
 27
1.0
 37
0.0
 76
0
330
20F
345
0
346
0
  0
ENDSEC
  0
EOF
