999
DXF file: 70508232.dxf
999
Pro/ENGINEER 2017380 by Parametric Technology Corporation
  0
SECTION
  2
HEADER
  9
$ACADVER
  1
AC1027
  9
$DWGCODEPAGE
  3
ANSI_1252
  9
$EXTMAX
 10
420.0
 20
297.0
 30
0.0
  9
$EXTMIN
 10
0.0
 20
0.0
 30
0.0
  9
$LIMMIN
 10
0.0
 20
0.0
  9
$LIMMAX
 10
420.0
 20
297.0
  9
$VIEWCTR
 10
210.0
 20
148.5
  9
$VIEWSIZE
 40
297.0
  9
$CLAYER
  8
0
  9
$LTSCALE
 40
23.1
  9
$CELTYPE
  6
BYLAYER
  9
$DIMSCALE
 40
1.0
  9
$DIMASZ
 40
3.5
  9
$DIMEXO
 40
0.0
  9
$DIMDLI
 40
15.96
  9
$DIMEXE
 40
1.5
  9
$DIMCEN
 40
3.78
  9
$DIMLFAC
 40
1.0
  9
$DIMBLK
  1
_FILLED
  9
$DIMALT
 70
0
  9
$DIMALTF
 40
25.4
  9
$DIMTXT
 40
3.5
  9
$DIMTOL
 70
1
  9
$DIMLIM
 70
0
  9
$DIMTFAC
 40
1.0
  9
$DIMTP
 40
0.05
  9
$DIMTM
 40
0.05
  9
$DIMGAP
 40
0.625
  9
$DIMDSEP
 70
46
  9
$AUNITS
 70
0
  9
$PDMODE
 70
3
  9
$PDSIZE
 40
0.3125
  9
$HANDSEED
  5
27A
  9
$TILEMODE
 70
1
  9
$MEASUREMENT
 70
1
  9
$INSUNITS
 70
4
  0
ENDSEC
  0
SECTION
  2
CLASSES
  0
CLASS
  1
ACDBDICTIONARYWDFLT
  2
AcDbDictionaryWithDefault
  3
AutoCAD 2000
 90
0
 91
1
280
0
281
0
  0
CLASS
  1
ACDBPLACEHOLDER
  2
AcDbPlaceHolder
  3
AutoCAD 2000
 90
0
 91
1
280
0
281
0
  0
CLASS
  1
LAYOUT
  2
AcDbLayout
  3
AutoCAD 2000
 90
0
 91
0
280
0
281
0
  0
ENDSEC
  0
SECTION
  2
TABLES
  0
TABLE
  2
VPORT
  5
8
100
AcDbSymbolTable
 70
2
  0
VPORT
  5
1F4
100
AcDbSymbolTableRecord
100
AcDbViewportTableRecord
  2
*ACTIVE
 70
0
 10
0.0
 20
0.0
 11
1.0
 21
1.0
 12
210.0
 22
148.5
 13
0.0
 23
0.0
 14
1.0
 24
1.0
 15
0.0
 25
0.0
 16
0.0
 26
0.0
 36
1.0
 17
0.0
 27
0.0
 37
0.0
 40
297.0
 41
1.4141414141
 42
50.0
 43
0.0
 44
0.0
 50
0.0
 51
0.0
 71
0
 72
100
 73
1
 74
1
 75
0
 76
0
 77
0
 78
0
  0
ENDTAB
  0
TABLE
  2
LTYPE
  5
5
100
AcDbSymbolTable
 70
6
  0
LTYPE
  5
14
100
AcDbSymbolTableRecord
100
AcDbLinetypeTableRecord
  2
BYBLOCK
 70
0
  3

 72
65
 73
0
 40
0.0
  0
LTYPE
  5
15
100
AcDbSymbolTableRecord
100
AcDbLinetypeTableRecord
  2
BYLAYER
 70
0
  3

 72
65
 73
0
 40
0.0
  0
LTYPE
  5
16
100
AcDbSymbolTableRecord
100
AcDbLinetypeTableRecord
  2
CONTINUOUS
 70
64
  3
Solid line
 72
65
 73
0
 40
0.0
  0
LTYPE
  5
1F5
100
AcDbSymbolTableRecord
100
AcDbLinetypeTableRecord
  2
CENTER
 70
64
  3
____ _ ____ _ ____ _ ____ _ ____ _ ____ _ ____
 72
65
 73
4
 40
0.6
 49
0.375
 74
0
 49
-0.075
 74
0
 49
0.075
 74
0
 49
-0.075
 74
0
  0
LTYPE
  5
1F6
100
AcDbSymbolTableRecord
100
AcDbLinetypeTableRecord
  2
HIDDEN
 70
64
  3
- - - - - - - - - - - - - - - - - - - -
 72
65
 73
2
 40
0.2
 49
0.1
 74
0
 49
-0.1
 74
0
  0
LTYPE
  5
1F7
100
AcDbSymbolTableRecord
100
AcDbLinetypeTableRecord
  2
PHANTOM
 70
64
  3
_____ _ _ _____ _ _ _____ _ _ _____
 72
65
 73
6
 40
0.8
 49
0.45
 74
0
 49
-0.05
 74
0
 49
0.1
 74
0
 49
-0.05
 74
0
 49
0.1
 74
0
 49
-0.05
 74
0
  0
LTYPE
  5
1F8
100
AcDbSymbolTableRecord
100
AcDbLinetypeTableRecord
  2
DOT
 70
64
  3
. . . . . . . . . . . . . . . . . . . .
 72
65
 73
2
 40
0.2
 49
0.1
 74
0
 49
-0.1
 74
0
  0
LTYPE
  5
1F9
100
AcDbSymbolTableRecord
100
AcDbLinetypeTableRecord
  2
DASHED
 70
64
  3
- - - - - - - - - - - - - - - - - - - -
 72
65
 73
2
 40
0.2
 49
0.1
 74
0
 49
-0.1
 74
0
  0
ENDTAB
  0
TABLE
  2
LAYER
  5
2
100
AcDbSymbolTable
 70
36
  0
LAYER
  5
10
100
AcDbSymbolTableRecord
100
AcDbLayerTableRecord
  2
0
 70
0
 62
7
  6
CONTINUOUS
370
-3
390
F
  0
LAYER
  5
1FA
100
AcDbSymbolTableRecord
100
AcDbLayerTableRecord
  2
DEFAULT_1
 70
0
 62
7
  6
CENTER
370
-3
390
F
  0
LAYER
  5
1FB
100
AcDbSymbolTableRecord
100
AcDbLayerTableRecord
  2
DEFAULT_2
 70
0
 62
1
  6
HIDDEN
370
-3
390
F
  0
LAYER
  5
1FC
100
AcDbSymbolTableRecord
100
AcDbLayerTableRecord
  2
DEFAULT_3
 70
0
 62
7
  6
PHANTOM
370
-3
390
F
  0
LAYER
  5
1FD
100
AcDbSymbolTableRecord
100
AcDbLayerTableRecord
  2
BG_STARTBEZUEGE
 70
0
 62
7
  6
CONTINUOUS
370
-3
390
F
  0
LAYER
  5
1FE
100
AcDbSymbolTableRecord
100
AcDbLayerTableRecord
  2
HILFEN
 70
0
 62
7
  6
CONTINUOUS
370
-3
390
F
  0
LAYER
  5
1FF
100
AcDbSymbolTableRecord
100
AcDbLayerTableRecord
  2
PLATZIERUNG
 70
0
 62
7
  6
CONTINUOUS
370
-3
390
F
  0
LAYER
  5
200
100
AcDbSymbolTableRecord
100
AcDbLayerTableRecord
  2
T_STARTBEZUEGE
 70
0
 62
7
  6
CONTINUOUS
370
-3
390
F
  0
LAYER
  5
201
100
AcDbSymbolTableRecord
100
AcDbLayerTableRecord
  2
_03_2D_ZEICHNUNG_BEMASSUNGEN
 70
0
 62
7
  6
CONTINUOUS
370
-3
390
F
  0
LAYER
  5
202
100
AcDbSymbolTableRecord
100
AcDbLayerTableRecord
  2
_04_NOTIZEN
 70
0
 62
7
  6
CONTINUOUS
370
-3
390
F
  0
LAYER
  5
203
100
AcDbSymbolTableRecord
100
AcDbLayerTableRecord
  2
_05_2D_ELEMENTE
 70
0
 62
7
  6
CONTINUOUS
370
-3
390
F
  0
LAYER
  5
204
100
AcDbSymbolTableRecord
100
AcDbLayerTableRecord
  2
_07_EINRASTLINIEN
 70
0
 62
7
  6
CONTINUOUS
370
-3
390
F
  0
LAYER
  5
205
100
AcDbSymbolTableRecord
100
AcDbLayerTableRecord
  2
_21_KURVEN
 70
0
 62
7
  6
CONTINUOUS
370
-3
390
F
  0
LAYER
  5
206
100
AcDbSymbolTableRecord
100
AcDbLayerTableRecord
  2
_24_IMPORT
 70
0
 62
7
  6
CONTINUOUS
370
-3
390
F
  0
LAYER
  5
207
100
AcDbSymbolTableRecord
100
AcDbLayerTableRecord
  2
_26_BEZUGSACHSEN
 70
0
 62
7
  6
CONTINUOUS
370
-3
390
F
  0
LAYER
  5
208
100
AcDbSymbolTableRecord
100
AcDbLayerTableRecord
  2
_27_BEZUGSEBENEN
 70
0
 62
7
  6
CONTINUOUS
370
-3
390
F
  0
LAYER
  5
209
100
AcDbSymbolTableRecord
100
AcDbLayerTableRecord
  2
_28_BEZUGSPUNKTE
 70
0
 62
7
  6
CONTINUOUS
370
-3
390
F
  0
LAYER
  5
20A
100
AcDbSymbolTableRecord
100
AcDbLayerTableRecord
  2
_29_KOORDINATENSYSTEME
 70
0
 62
7
  6
CONTINUOUS
370
-3
390
F
  0
LAYER
  5
20B
100
AcDbSymbolTableRecord
100
AcDbLayerTableRecord
  2
_30_VOLUMEN
 70
0
 62
7
  6
CONTINUOUS
370
-3
390
F
  0
ENDTAB
  0
TABLE
  2
STYLE
  5
3
100
AcDbSymbolTable
 70
1
  0
STYLE
  5
11
100
AcDbSymbolTableRecord
100
AcDbTextStyleTableRecord
  2
STANDARD
 70
0
 40
0.0
 41
0.7
 50
0.0
 71
0
 42
0.2
  3
SIMPLEX.SHX
  4

  0
STYLE
  5
20C
100
AcDbSymbolTableRecord
100
AcDbTextStyleTableRecord
  2
TEXTSTYLE_1
 70
0
 40
0.0
 41
0.8
 50
0.0
 71
0
 42
0.2
  3
gdt
  4

  0
ENDTAB
  0
TABLE
  2
VIEW
  5
6
100
AcDbSymbolTable
 70
0
  0
ENDTAB
  0
TABLE
  2
UCS
  5
7
100
AcDbSymbolTable
 70
0
  0
ENDTAB
  0
TABLE
  2
APPID
  5
9
100
AcDbSymbolTable
 70
1
  0
APPID
  5
20D
100
AcDbSymbolTableRecord
100
AcDbRegAppTableRecord
  2
ACAD
 70
0
  0
ENDTAB
  0
TABLE
  2
BLOCK_RECORD
  5
1
100
AcDbSymbolTable
 70
0
  0
BLOCK_RECORD
  5
20E
100
AcDbSymbolTableRecord
100
AcDbBlockTableRecord
  2
*Model_Space
  0
BLOCK_RECORD
  5
20F
100
AcDbSymbolTableRecord
100
AcDbBlockTableRecord
  2
*Paper_Space
  0
BLOCK_RECORD
  5
210
100
AcDbSymbolTableRecord
100
AcDbBlockTableRecord
  2
_FILLED
  0
BLOCK_RECORD
  5
211
100
AcDbSymbolTableRecord
100
AcDbBlockTableRecord
  2
*D0
  0
BLOCK_RECORD
  5
212
100
AcDbSymbolTableRecord
100
AcDbBlockTableRecord
  2
*D1
  0
BLOCK_RECORD
  5
213
100
AcDbSymbolTableRecord
100
AcDbBlockTableRecord
  2
*D2
  0
ENDTAB
  0
TABLE
  2
DIMSTYLE
  5
A
100
AcDbSymbolTable
 70
1
100
AcDbDimStyleTable
 71
0
  0
DIMSTYLE
105
214
100
AcDbSymbolTableRecord
100
AcDbDimStyleTableRecord
  2
STANDARD
 70
0
  3

  4

 40
1.0
 41
3.5
 42
0.0
 43
0.38
 44
1.5
 45
0.0
 46
0.0
 47
0.05
 48
0.05
140
3.5
141
0.09
142
0.0
143
25.4
144
1.0
145
0.0
146
1.0
147
0.625
 71
1.0
 72
0.0
 73
0
 74
0
 75
0
 76
0
 77
1
 78
8
 79
2
170
0
171
1
172
0
173
0
174
0
175
0
176
0
177
0
178
2
270
2
179
2
271
2
272
2
273
2
274
2
275
0
280
0
281
0
282
0
283
1
284
8
285
0
286
0
287
3
288
0
340
11
278
46
341
210
342
210
343
210
344
210
  0
DIMSTYLE
105
215
100
AcDbSymbolTableRecord
100
AcDbDimStyleTableRecord
  2
DIMSTYLE_1
 70
0
  3

  4

 40
1.0
 41
3.5
 42
0.0
 43
0.38
 44
1.5
 45
0.0
 46
0.0
 47
0.3
 48
0.3
140
3.5
141
0.09
142
0.0
143
25.4
144
1.0
145
0.0
146
1.0
147
0.875
 71
0.0
 72
0.0
 73
0
 74
0
 75
0
 76
0
 77
1
 78
8
 79
2
170
0
171
1
172
0
173
0
174
0
175
0
176
0
177
0
178
2
270
2
179
2
271
2
272
2
273
2
274
2
275
0
280
0
281
0
282
0
283
1
284
8
285
0
286
0
287
3
288
0
340
11
278
46
341
210
342
210
343
210
344
210
  0
DIMSTYLE
105
216
100
AcDbSymbolTableRecord
100
AcDbDimStyleTableRecord
  2
DIMSTYLE_2
 70
0
  3

  4

 40
1.0
 41
3.5
 42
0.0
 43
0.38
 44
1.5
 45
0.0
 46
0.0
 47
0.5
 48
0.5
140
3.5
141
0.09
142
0.0
143
25.4
144
1.0
145
0.0
146
1.0
147
0.875
 71
0.0
 72
0.0
 73
0
 74
0
 75
0
 76
0
 77
1
 78
8
 79
2
170
0
171
1
172
0
173
0
174
0
175
0
176
0
177
0
178
2
270
2
179
2
271
2
272
2
273
2
274
2
275
0
280
0
281
0
282
0
283
1
284
8
285
0
286
0
287
3
288
0
340
11
278
46
341
210
342
210
343
210
344
210
  0
ENDTAB
  0
ENDSEC
  0
SECTION
  2
BLOCKS
  0
BLOCK
  5
20
100
AcDbEntity
  8
0
100
AcDbBlockBegin
  2
*Model_Space
 70
0
 10
0.0
 20
0.0
 30
0.0
  3
*Model_Space
  1

  0
ENDBLK
  5
21
100
AcDbEntity
  8
0
100
AcDbBlockEnd
  0
BLOCK
  5
1C
100
AcDbEntity
  8
0
100
AcDbBlockBegin
  2
*Paper_Space
 70
0
 10
0.0
 20
0.0
 30
0.0
  3
*Paper_Space
  1

  0
ENDBLK
  5
1D
100
AcDbEntity
  8
0
100
AcDbBlockEnd
  0
BLOCK
  5
217
100
AcDbEntity
  8
0
100
AcDbBlockBegin
  2
_FILLED
 70
64
 10
0.0
 20
0.0
  3
_FILLED
  1

  0
SOLID
  5
218
100
AcDbEntity
  8
0
  6
BYBLOCK
 62
0
100
AcDbTrace
 10
0.0
 20
0.0
 11
-1.0
 21
0.125
 12
-1.0
 22
-0.125
 13
-1.0
 23
-0.125
  0
ENDBLK
  5
219
100
AcDbEntity
  8
0
  6
BYBLOCK
 62
0
100
AcDbBlockEnd
  0
BLOCK
  5
21A
100
AcDbEntity
  8
_03_2D_ZEICHNUNG_BEMASSUNGEN
100
AcDbBlockBegin
 62
7
  6
CONTINUOUS
  2
*D0
 70
65
 10
0.0
 20
0.0
  3
*D0
  1

  0
TEXT
  5
21B
100
AcDbEntity
  8
_03_2D_ZEICHNUNG_BEMASSUNGEN
100
AcDbText
 62
2
  6
CONTINUOUS
 10
-9.875
 20
13.375
  7
STANDARD
 40
3.5
  1
32
 50
90.0
 41
0.75
 72
1
 11
-9.875
 21
16.0
100
AcDbText
  0
LINE
  5
21C
100
AcDbEntity
  8
_03_2D_ZEICHNUNG_BEMASSUNGEN
100
AcDbLine
 62
7
  6
CONTINUOUS
 10
0.0
 20
32.0
 11
-10.5
 21
32.0
  0
LINE
  5
21D
100
AcDbEntity
  8
_03_2D_ZEICHNUNG_BEMASSUNGEN
100
AcDbLine
 62
7
  6
CONTINUOUS
 10
-0.0
 20
-0.0
 11
-10.5
 21
0.0
  0
LINE
  5
21E
100
AcDbEntity
  8
_03_2D_ZEICHNUNG_BEMASSUNGEN
100
AcDbLine
 62
7
  6
CONTINUOUS
 10
-9.0
 20
32.0
 11
-9.0
 21
38.0
  0
LINE
  5
21F
100
AcDbEntity
  8
_03_2D_ZEICHNUNG_BEMASSUNGEN
100
AcDbLine
 62
7
  6
CONTINUOUS
 10
-9.0
 20
38.0
 11
-9.0
 21
16.0
  0
LINE
  5
220
100
AcDbEntity
  8
_03_2D_ZEICHNUNG_BEMASSUNGEN
100
AcDbLine
 62
7
  6
CONTINUOUS
 10
-9.0
 20
0.0
 11
-9.0
 21
-6.0
  0
LINE
  5
221
100
AcDbEntity
  8
_03_2D_ZEICHNUNG_BEMASSUNGEN
100
AcDbLine
 62
7
  6
CONTINUOUS
 10
-9.0
 20
-6.0
 11
-9.0
 21
16.0
  0
INSERT
  5
222
100
AcDbEntity
  8
_03_2D_ZEICHNUNG_BEMASSUNGEN
100
AcDbBlockReference
 62
7
  6
CONTINUOUS
  2
_FILLED
 10
-9.0
 20
32.0
 41
3.5
 42
3.5
 43
3.5
 50
270.0
  0
INSERT
  5
223
100
AcDbEntity
  8
_03_2D_ZEICHNUNG_BEMASSUNGEN
100
AcDbBlockReference
 62
7
  6
CONTINUOUS
  2
_FILLED
 10
-9.0
 20
0.0
 41
3.5
 42
3.5
 43
3.5
 50
90.0
  0
ENDBLK
  5
224
100
AcDbEntity
  8
0
  6
BYBLOCK
 62
0
100
AcDbBlockEnd
  0
BLOCK
  5
225
100
AcDbEntity
  8
_03_2D_ZEICHNUNG_BEMASSUNGEN
100
AcDbBlockBegin
 62
7
  6
CONTINUOUS
  2
*D1
 70
65
 10
0.0
 20
0.0
  3
*D1
  1

  0
TEXT
  5
226
100
AcDbEntity
  8
_03_2D_ZEICHNUNG_BEMASSUNGEN
100
AcDbText
 62
2
  6
CONTINUOUS
 10
81.25
 20
49.9347107698
  7
STANDARD
 40
3.5
  1
170
 41
0.7142857143
 72
1
 11
85.0
 21
49.9347107698
100
AcDbText
  0
LINE
  5
227
100
AcDbEntity
  8
_03_2D_ZEICHNUNG_BEMASSUNGEN
100
AcDbLine
 62
7
  6
CONTINUOUS
 10
170.0
 20
0.0
 11
170.0
 21
50.5597107698
  0
LINE
  5
228
100
AcDbEntity
  8
_03_2D_ZEICHNUNG_BEMASSUNGEN
100
AcDbLine
 62
7
  6
CONTINUOUS
 10
0.0
 20
0.0
 11
0.0
 21
50.5597107698
  0
LINE
  5
229
100
AcDbEntity
  8
_03_2D_ZEICHNUNG_BEMASSUNGEN
100
AcDbLine
 62
7
  6
CONTINUOUS
 10
170.0
 20
49.0597107698
 11
85.0
 21
49.0597107698
  0
LINE
  5
22A
100
AcDbEntity
  8
_03_2D_ZEICHNUNG_BEMASSUNGEN
100
AcDbLine
 62
7
  6
CONTINUOUS
 10
0.0
 20
49.0597107698
 11
85.0
 21
49.0597107698
  0
INSERT
  5
22B
100
AcDbEntity
  8
_03_2D_ZEICHNUNG_BEMASSUNGEN
100
AcDbBlockReference
 62
7
  6
CONTINUOUS
  2
_FILLED
 10
170.0
 20
49.0597107698
 41
3.5
 42
3.5
 43
3.5
  0
INSERT
  5
22C
100
AcDbEntity
  8
_03_2D_ZEICHNUNG_BEMASSUNGEN
100
AcDbBlockReference
 62
7
  6
CONTINUOUS
  2
_FILLED
 10
0.0
 20
49.0597107698
 41
3.5
 42
3.5
 43
3.5
 50
180.0
  0
ENDBLK
  5
22D
100
AcDbEntity
  8
0
  6
BYBLOCK
 62
0
100
AcDbBlockEnd
  0
BLOCK
  5
22E
100
AcDbEntity
  8
_03_2D_ZEICHNUNG_BEMASSUNGEN
100
AcDbBlockBegin
 62
7
  6
CONTINUOUS
  2
*D2
 70
65
 10
0.0
 20
0.0
  3
*D2
  1

  0
TEXT
  5
22F
100
AcDbEntity
  8
_03_2D_ZEICHNUNG_BEMASSUNGEN
100
AcDbText
 62
2
  6
CONTINUOUS
 10
178.1842493364
 20
17.25
  7
STANDARD
 40
3.5
  1
40
 50
90.0
 41
0.7857142857
 72
1
 11
178.1842493364
 21
20.0
100
AcDbText
  0
LINE
  5
230
100
AcDbEntity
  8
_03_2D_ZEICHNUNG_BEMASSUNGEN
100
AcDbLine
 62
7
  6
CONTINUOUS
 10
170.0
 20
40.0
 11
180.5592493364
 21
40.0
  0
LINE
  5
231
100
AcDbEntity
  8
_03_2D_ZEICHNUNG_BEMASSUNGEN
100
AcDbLine
 62
7
  6
CONTINUOUS
 10
0.0
 20
0.0
 11
180.5592493364
 21
0.0
  0
LINE
  5
232
100
AcDbEntity
  8
_03_2D_ZEICHNUNG_BEMASSUNGEN
100
AcDbLine
 62
7
  6
CONTINUOUS
 10
179.0592493364
 20
40.0
 11
179.0592493364
 21
20.0
  0
LINE
  5
233
100
AcDbEntity
  8
_03_2D_ZEICHNUNG_BEMASSUNGEN
100
AcDbLine
 62
7
  6
CONTINUOUS
 10
179.0592493364
 20
0.0
 11
179.0592493364
 21
20.0
  0
INSERT
  5
234
100
AcDbEntity
  8
_03_2D_ZEICHNUNG_BEMASSUNGEN
100
AcDbBlockReference
 62
7
  6
CONTINUOUS
  2
_FILLED
 10
179.0592493364
 20
40.0
 41
3.5
 42
3.5
 43
3.5
 50
90.0
  0
INSERT
  5
235
100
AcDbEntity
  8
_03_2D_ZEICHNUNG_BEMASSUNGEN
100
AcDbBlockReference
 62
7
  6
CONTINUOUS
  2
_FILLED
 10
179.0592493364
 20
0.0
 41
3.5
 42
3.5
 43
3.5
 50
270.0
  0
ENDBLK
  5
236
100
AcDbEntity
  8
0
  6
BYBLOCK
 62
0
100
AcDbBlockEnd
  0
ENDSEC
  0
SECTION
  2
ENTITIES
  0
DIMENSION
  5
237
100
AcDbEntity
  8
_03_2D_ZEICHNUNG_BEMASSUNGEN
100
AcDbDimension
 62
7
  6
CONTINUOUS
  2
*D0
 10
-9.0
 20
0.0
 11
-9.0
 21
15.4999997234
 70
160
 71
2
 42
32.0
  3
DIMSTYLE_1
100
AcDbAlignedDimension
 13
0.0
 23
32.0
 14
-0.0
 24
-0.0
 50
270.0
100
AcDbRotatedDimension
  0
DIMENSION
  5
238
100
AcDbEntity
  8
_03_2D_ZEICHNUNG_BEMASSUNGEN
100
AcDbDimension
 62
7
  6
CONTINUOUS
  2
*D1
 10
0.0
 20
49.0597107698
 11
84.4999996948
 21
49.0597107698
 70
160
 71
2
 42
170.0
  3
DIMSTYLE_2
100
AcDbAlignedDimension
 13
170.0
 23
0.0
 14
0.0
 24
0.0
 50
180.0
100
AcDbRotatedDimension
  0
DIMENSION
  5
239
100
AcDbEntity
  8
_03_2D_ZEICHNUNG_BEMASSUNGEN
100
AcDbDimension
 62
7
  6
CONTINUOUS
  2
*D2
 10
179.0592493364
 20
0.0
 11
179.0592493364
 21
19.4999962691
 70
160
 71
2
 42
40.0
  3
DIMSTYLE_1
100
AcDbAlignedDimension
 13
170.0
 23
40.0
 14
0.0
 24
0.0
 50
270.0
100
AcDbRotatedDimension
  0
LINE
  5
23A
100
AcDbEntity
  8
_30_VOLUMEN
100
AcDbLine
 62
4
  6
CONTINUOUS
 10
-0.0
 20
0.5
 11
0.0
 21
31.5
  0
LINE
  5
23B
100
AcDbEntity
  8
_30_VOLUMEN
100
AcDbLine
 62
4
  6
CONTINUOUS
 10
0.5
 20
-0.0
 11
0.5
 21
32.0
  0
LINE
  5
23C
100
AcDbEntity
  8
_30_VOLUMEN
100
AcDbLine
 62
4
  6
CONTINUOUS
 10
0.5
 20
32.0
 11
0.0
 21
31.5
  0
LINE
  5
23D
100
AcDbEntity
  8
_30_VOLUMEN
100
AcDbLine
 62
4
  6
CONTINUOUS
 10
0.5
 20
-0.0
 11
-0.0
 21
0.5
  0
LINE
  5
23E
100
AcDbEntity
  8
_30_VOLUMEN
100
AcDbLine
 62
4
  6
CONTINUOUS
 10
0.5
 20
-0.0
 11
132.0
 21
0.0
  0
LINE
  5
23F
100
AcDbEntity
  8
0
100
AcDbLine
 62
4
  6
CONTINUOUS
 10
132.0
 20
0.0
 11
157.1955025043
 21
0.0
  0
LINE
  5
240
100
AcDbEntity
  8
_30_VOLUMEN
100
AcDbLine
 62
4
  6
CONTINUOUS
 10
167.5610313744
 20
20.791511222
 11
150.8107790394
 21
19.3260540314
  0
LINE
  5
241
100
AcDbEntity
  8
_21_KURVEN
100
AcDbLine
 62
7
  6
CONTINUOUS
 10
167.5610313744
 20
20.791511222
 11
150.8107790394
 21
19.3260540314
  0
LINE
  5
242
100
AcDbEntity
  8
_26_BEZUGSACHSEN
100
AcDbLine
 62
4
  6
CONTINUOUS
 10
167.0455537994
 20
20.7464127778
 11
149.3939211563
 21
19.2020950288
  0
LINE
  5
243
100
AcDbEntity
  8
_26_BEZUGSACHSEN
100
AcDbLine
 62
4
  6
CONTINUOUS
 10
150.7902091978
 20
37.0493854896
 11
137.9008190192
 21
35.9217099692
  0
LINE
  5
244
100
AcDbEntity
  8
_30_VOLUMEN
100
AcDbLine
 62
4
  6
CONTINUOUS
 10
151.8921391183
 20
38.4702945767
 11
168.6423914532
 21
39.9357517672
  0
LINE
  5
245
100
AcDbEntity
  8
_21_KURVEN
100
AcDbLine
 62
7
  6
CONTINUOUS
 10
151.8921391183
 20
38.4702945767
 11
168.6423914532
 21
39.9357517672
  0
LINE
  5
246
100
AcDbEntity
  8
_30_VOLUMEN
100
AcDbLine
 62
4
  6
CONTINUOUS
 10
0.5
 20
32.0
 11
132.0
 21
32.0
  0
LINE
  5
247
100
AcDbEntity
  8
0
100
AcDbLine
 62
4
  6
CONTINUOUS
 10
132.0
 20
32.0
 11
136.85
 21
32.0
  0
LINE
  5
248
100
AcDbEntity
  8
_30_VOLUMEN
100
AcDbLine
 62
4
  6
CONTINUOUS
 10
151.1587159077
 20
38.1289161582
 11
150.5483711709
 21
37.5185714213
  0
LINE
  5
249
100
AcDbEntity
  8
_30_VOLUMEN
100
AcDbLine
 62
7
  6
CONTINUOUS
 10
150.8164331907
 20
37.3845793781
 11
150.4516162584
 21
37.0197624459
  0
LINE
  5
24A
100
AcDbEntity
  8
0
100
AcDbLine
 62
4
  6
CONTINUOUS
 10
148.1556544453
 20
0.0
 11
133.6076951546
 21
14.5479592907
  0
LINE
  5
24B
100
AcDbEntity
  8
_28_BEZUGSPUNKTE
100
AcDbLine
 62
1
  6
CONTINUOUS
 10
170.15625
 20
40.15625
 11
169.84375
 21
39.84375
  0
LINE
  5
24C
100
AcDbEntity
  8
0
100
AcDbLine
 62
4
  6
CONTINUOUS
 10
132.0
 20
32.0
 11
132.0
 21
0.0
  0
LINE
  5
24D
100
AcDbEntity
  8
0
100
AcDbLine
 62
4
  6
CONTINUOUS
 10
133.6076951546
 20
14.5479592907
 11
133.6076951546
 21
0.0
  0
LINE
  5
24E
100
AcDbEntity
  8
_30_VOLUMEN
100
AcDbLine
 62
4
  6
CONTINUOUS
 10
136.85
 20
32.0
 11
137.9008190192
 21
35.9217099692
  0
LINE
  5
24F
100
AcDbEntity
  8
0
100
AcDbLine
 62
4
  6
CONTINUOUS
 10
133.1655098289
 20
32.0
 11
133.6076951546
 21
14.5479592907
  0
LINE
  5
250
100
AcDbEntity
  8
_30_VOLUMEN
100
AcDbLine
 62
7
  6
CONTINUOUS
 10
167.5610313744
 20
20.791511222
 11
167.0004553553
 21
20.2309352028
  0
LINE
  5
251
100
AcDbEntity
  8
_30_VOLUMEN
100
AcDbLine
 62
4
  6
CONTINUOUS
 10
168.2944545849
 20
21.1328896404
 11
167.684109848
 21
20.5225449035
  0
LINE
  5
252
100
AcDbEntity
  8
_30_VOLUMEN
100
AcDbLine
 62
4
  6
CONTINUOUS
 10
166.0008455691
 20
8.8053430648
 11
157.1955025043
 21
0.0
  0
LINE
  5
253
100
AcDbEntity
  8
_30_VOLUMEN
100
AcDbLine
 62
4
  6
CONTINUOUS
 10
149.504863258
 20
20.6201519447
 11
150.8164331907
 21
37.3845793781
  0
LINE
  5
254
100
AcDbEntity
  8
_21_KURVEN
100
AcDbLine
 62
7
  6
CONTINUOUS
 10
149.504863258
 20
20.6201519447
 11
150.8164331907
 21
37.3845793781
  0
LINE
  5
255
100
AcDbEntity
  8
_26_BEZUGSACHSEN
100
AcDbLine
 62
4
  6
CONTINUOUS
 10
149.3939211563
 20
19.2020950288
 11
150.7902091978
 21
37.0493854896
  0
LINE
  5
256
100
AcDbEntity
  8
_21_KURVEN
100
AcDbLine
 62
7
  6
CONTINUOUS
 10
169.9483072346
 20
38.641653854
 11
168.636737302
 21
21.8772264205
  0
LINE
  5
257
100
AcDbEntity
  8
_30_VOLUMEN
100
AcDbLine
 62
4
  6
CONTINUOUS
 10
169.9483072346
 20
38.641653854
 11
168.636737302
 21
21.8772264205
  0
LINE
  5
258
100
AcDbEntity
  8
_26_BEZUGSACHSEN
100
AcDbLine
 62
4
  6
CONTINUOUS
 10
167.0455537994
 20
20.7464127778
 11
166.0008455691
 21
8.8053430648
  0
LINE
  5
259
100
AcDbEntity
  8
_28_BEZUGSPUNKTE
100
AcDbLine
 62
1
  6
CONTINUOUS
 10
170.15625
 20
39.84375
 11
169.84375
 21
40.15625
  0
ARC
  5
25A
100
AcDbEntity
  8
_30_VOLUMEN
100
AcDbCircle
 62
4
  6
CONTINUOUS
 10
159.1446436888
 20
28.9822566414
 40
3.923505417
100
AcDbArc
 50
324.110052645
 51
5.5933576715
  0
ARC
  5
25B
100
AcDbEntity
  8
_30_VOLUMEN
100
AcDbCircle
 62
4
  6
CONTINUOUS
 10
159.1520355961
 20
28.9819187765
 40
3.9173209409
100
AcDbArc
 50
320.3135455403
 51
324.0506752565
  0
ARC
  5
25C
100
AcDbEntity
  8
_30_VOLUMEN
100
AcDbCircle
 62
4
  6
CONTINUOUS
 10
159.0615766712
 20
29.0748626496
 40
3.892982897
100
AcDbArc
 50
125.8963594108
 51
129.9613732076
  0
ARC
  5
25D
100
AcDbEntity
  8
_30_VOLUMEN
100
AcDbCircle
 62
4
  6
CONTINUOUS
 10
151.994187255
 20
37.2925142426
 40
1.1821930204
100
AcDbArc
 50
94.9519944059
 51
175.5768601927
  0
ARC
  5
25E
100
AcDbEntity
  8
_30_VOLUMEN
100
AcDbCircle
 62
4
  6
CONTINUOUS
 10
167.4589832376
 20
21.969291556
 40
1.1821930204
100
AcDbArc
 50
274.9519944059
 51
355.5768601927
  0
ARC
  5
25F
100
AcDbEntity
  8
_30_VOLUMEN
100
AcDbCircle
 62
4
  6
CONTINUOUS
 10
166.8490197801
 20
21.358333812
 40
1.1814898739
100
AcDbArc
 50
277.2086814782
 51
314.9760362196
  0
ARC
  5
260
100
AcDbEntity
  8
_30_VOLUMEN
100
AcDbCircle
 62
4
  6
CONTINUOUS
 10
151.3819938165
 20
36.6850879174
 40
1.1788219832
100
AcDbArc
 50
135.0047820989
 51
164.3785750226
  0
SPLINE
  5
261
100
AcDbEntity
  8
_30_VOLUMEN
100
AcDbSpline
 62
4
  6
CONTINUOUS
 70
0
 71
3
 72
11
 73
7
 74
0
 42
0.0000001
 43
0.0000001
 44
0.0000000001
 40
0.0
 40
0.0
 40
0.0
 40
0.0
 40
0.249672966
 40
0.5000147757
 40
0.7503476174
 40
1.0
 40
1.0
 40
1.0
 40
1.0
 10
169.9483072346
 20
38.641653854
 30
0.0
 10
169.9617686612
 20
38.8137171987
 30
0.0
 10
169.9119362158
 20
39.1689004247
 30
0.0
 10
169.6208642541
 20
39.6172322832
 30
0.0
 10
169.1699174207
 20
39.9042138638
 30
0.0
 10
168.8143096459
 20
39.9507926601
 30
0.0
 10
168.6423914532
 20
39.9357517672
 30
0.0
  0
SPLINE
  5
262
100
AcDbEntity
  8
_30_VOLUMEN
100
AcDbSpline
 62
4
  6
CONTINUOUS
 70
0
 71
3
 72
11
 73
7
 74
0
 42
0.0000001
 43
0.0000001
 44
0.0000000001
 40
0.0
 40
0.0
 40
0.0
 40
0.0
 40
0.2517383903
 40
0.5022042147
 40
0.7515309705
 40
1.0
 40
1.0
 40
1.0
 40
1.0
 10
155.6363333231
 20
29.1437386646
 30
0.0
 10
155.6087019742
 20
29.4293799839
 30
0.0
 10
155.6162028958
 20
30.0072099363
 30
0.0
 10
155.8145860976
 20
30.847578382
 30
0.0
 10
156.1914708963
 20
31.6203210974
 30
0.0
 10
156.5491348487
 20
32.0678803443
 30
0.0
 10
156.7494212037
 20
32.2681666994
 30
0.0
  0
SPLINE
  5
263
100
AcDbEntity
  8
_30_VOLUMEN
100
AcDbSpline
 62
4
  6
CONTINUOUS
 70
0
 71
3
 72
15
 73
11
 74
0
 42
0.0000001
 43
0.0000001
 44
0.0000000001
 40
0.0
 40
0.0
 40
0.0
 40
0.0
 40
0.1243311538
 40
0.2488917908
 40
0.3737490424
 40
0.4988897756
 40
0.6242340132
 40
0.7496115291
 40
0.8749577498
 40
1.0
 40
1.0
 40
1.0
 40
1.0
 10
156.7790394927
 20
32.228485941
 30
0.0
 10
157.0581714158
 20
32.4305315555
 30
0.0
 10
157.6738632423
 20
32.7623109681
 30
0.0
 10
158.6941320701
 20
32.9995015523
 30
0.0
 10
159.7437356255
 20
32.9625111323
 30
0.0
 10
160.7496259782
 20
32.6537288098
 30
0.0
 10
161.6425931823
 20
32.0946345838
 30
0.0
 10
162.3619364336
 20
31.323882752
 30
0.0
 10
162.857111974
 20
30.3947760173
 30
0.0
 10
163.0161002722
 20
29.7096140786
 30
0.0
 10
163.0494681435
 20
29.3646709915
 30
0.0
  0
SPLINE
  5
264
100
AcDbEntity
  8
_30_VOLUMEN
100
AcDbSpline
 62
4
  6
CONTINUOUS
 70
0
 71
3
 72
17
 73
13
 74
0
 42
0.0000001
 43
0.0000001
 44
0.0000000001
 40
0.0
 40
0.0
 40
0.0
 40
0.0
 40
0.122916535
 40
0.2463523323
 40
0.3706472282
 40
0.4333105037
 40
0.4961896847
 40
0.6221397469
 40
0.7483745722
 40
0.811573132
 40
0.8746842091
 40
1.0
 40
1.0
 40
1.0
 40
1.0
 10
162.3638490464
 20
26.6537388567
 30
0.0
 10
162.105349863
 20
26.3952396733
 30
0.0
 10
161.5092053185
 20
25.9491067772
 30
0.0
 10
160.4628489469
 20
25.5597842018
 30
0.0
 10
159.5284635003
 20
25.49267192
 30
0.0
 10
158.7906372681
 20
25.5968847446
 30
0.0
 10
158.0697425323
 20
25.8043655188
 30
0.0
 10
157.2319524722
 20
26.2527530314
 30
0.0
 10
156.5506548307
 20
26.9163483367
 30
0.0
 10
156.1324222489
 20
27.5429441105
 30
0.0
 10
155.8067515362
 20
28.2186940225
 30
0.0
 10
155.6722195833
 20
28.772761527
 30
0.0
 10
155.6363333231
 20
29.1437386646
 30
0.0
  0
SPLINE
  5
265
100
AcDbEntity
  8
_30_VOLUMEN
100
AcDbSpline
 62
4
  6
CONTINUOUS
 70
0
 71
3
 72
23
 73
19
 74
0
 42
0.0000001
 43
0.0000001
 44
0.0000000001
 40
0.0
 40
0.0
 40
0.0
 40
0.0
 40
0.0624648058
 40
0.1248936852
 40
0.187171963
 40
0.2494016157
 40
0.3116108243
 40
0.3738420702
 40
0.4361398414
 40
0.498531461
 40
0.5610348976
 40
0.6236512224
 40
0.6863591493
 40
0.7491304439
 40
0.8119220044
 40
0.8746764085
 40
0.937423427
 40
1.0
 40
1.0
 40
1.0
 40
1.0
 10
164.1155521024
 20
30.0148877438
 30
0.0
 10
164.1432793083
 20
29.7282554955
 30
0.0
 10
164.1422465181
 20
29.1481176988
 30
0.0
 10
163.9715762667
 20
28.2968331009
 30
0.0
 10
163.6371696338
 20
27.4963574213
 30
0.0
 10
163.1525239695
 20
26.7781724649
 30
0.0
 10
162.536108018
 20
26.1695837554
 30
0.0
 10
161.8117130582
 20
25.6940530084
 30
0.0
 10
161.0071490572
 20
25.3700142222
 30
0.0
 10
160.1534602565
 20
25.2098822462
 30
0.0
 10
159.2834992819
 20
25.2195096232
 30
0.0
 10
158.4306626246
 20
25.3986949377
 30
0.0
 10
157.627739599
 20
25.7405126427
 30
0.0
 10
156.9054503601
 20
26.2316415962
 30
0.0
 10
156.2915409518
 20
26.8532081183
 30
0.0
 10
155.8093184343
 20
27.5817015337
 30
0.0
 10
155.4780846847
 20
28.388676667
 30
0.0
 10
155.3653952079
 20
28.9597729403
 30
0.0
 10
155.3376183902
 20
29.2469180548
 30
0.0
  0
SPLINE
  5
266
100
AcDbEntity
  8
_30_VOLUMEN
100
AcDbSpline
 62
7
  6
CONTINUOUS
 70
0
 71
3
 72
11
 73
7
 74
0
 42
0.0000001
 43
0.0000001
 44
0.0000000001
 40
0.0
 40
0.0
 40
0.0
 40
0.0
 40
0.2503780616
 40
0.5008159742
 40
0.750510978
 40
1.0
 40
1.0
 40
1.0
 40
1.0
 10
163.4898627591
 20
29.8050656071
 30
0.0
 10
163.5175898487
 20
29.5184345596
 30
0.0
 10
163.509643098
 20
28.9370633655
 30
0.0
 10
163.3096570176
 20
28.0904374746
 30
0.0
 10
162.9289893518
 20
27.3091889097
 30
0.0
 10
162.5665832584
 20
26.8568082411
 30
0.0
 10
162.3636950235
 20
26.6538928594
 30
0.0
  0
SPLINE
  5
267
100
AcDbEntity
  8
_30_VOLUMEN
100
AcDbSpline
 62
4
  6
CONTINUOUS
 70
0
 71
3
 72
23
 73
19
 74
0
 42
0.0000001
 43
0.0000001
 44
0.0000000001
 40
0.0
 40
0.0
 40
0.0
 40
0.0
 40
0.0624459707
 40
0.1248951426
 40
0.1871773227
 40
0.2493989809
 40
0.3116100559
 40
0.3738437134
 40
0.4361384925
 40
0.4985313831
 40
0.5610362898
 40
0.6236495681
 40
0.6863598577
 40
0.7491330748
 40
0.8119166015
 40
0.8746749407
 40
0.9374422063
 40
1.0
 40
1.0
 40
1.0
 40
1.0
 10
164.0288925752
 20
29.9792394228
 30
0.0
 10
164.0562582333
 20
29.6963447035
 30
0.0
 10
164.0550810822
 20
29.1236011182
 30
0.0
 10
163.8868289518
 20
28.2831056003
 30
0.0
 10
163.5566497025
 20
27.4927245037
 30
0.0
 10
163.0779709701
 20
26.7838729706
 30
0.0
 10
162.4696653343
 20
26.1828109824
 30
0.0
 10
161.7543596817
 20
25.7134852812
 30
0.0
 10
160.9600483797
 20
25.3936657036
 30
0.0
 10
160.1172814852
 20
25.2352515149
 30
0.0
 10
159.2583933578
 20
25.2450817367
 30
0.0
 10
158.4164392253
 20
25.4218943953
 30
0.0
 10
157.6236358761
 20
25.7591899211
 30
0.0
 10
156.9107587978
 20
26.2443287416
 30
0.0
 10
156.3045019597
 20
26.857760081
 30
0.0
 10
155.8283709932
 20
27.5770666585
 30
0.0
 10
155.501584771
 20
28.3738626198
 30
0.0
 10
155.3901775197
 20
28.9376500122
 30
0.0
 10
155.3627628574
 20
29.2210513158
 30
0.0
  0
SPLINE
  5
268
100
AcDbEntity
  8
_30_VOLUMEN
100
AcDbSpline
 62
7
  6
CONTINUOUS
 70
0
 71
3
 72
17
 73
13
 74
0
 42
0.0000001
 43
0.0000001
 44
0.0000000001
 40
0.0
 40
0.0
 40
0.0
 40
0.0
 40
0.1250120319
 40
0.1878616314
 40
0.2506840518
 40
0.3760275277
 40
0.5013074387
 40
0.5640167909
 40
0.6266457233
 40
0.7513541349
 40
0.8757631226
 40
1.0
 40
1.0
 40
1.0
 40
1.0
 10
163.4898627591
 20
29.8050656071
 30
0.0
 10
163.4540235626
 20
30.1755562189
 30
0.0
 10
163.3195714003
 20
30.7284976791
 30
0.0
 10
162.9952428096
 20
31.402705618
 30
0.0
 10
162.5788015931
 20
32.0260601237
 30
0.0
 10
161.9005497211
 20
32.685869322
 30
0.0
 10
161.0662493119
 20
33.1319739502
 30
0.0
 10
160.3469099041
 20
33.3384493056
 30
0.0
 10
159.6075773504
 20
33.4424497885
 30
0.0
 10
158.6681399479
 20
33.3739777821
 30
0.0
 10
157.6132789258
 20
32.9806305307
 30
0.0
 10
157.0111250227
 20
32.5295974888
 30
0.0
 10
156.7495752266
 20
32.2680126967
 30
0.0
  0
SPLINE
  5
269
100
AcDbEntity
  8
_30_VOLUMEN
100
AcDbSpline
 62
4
  6
CONTINUOUS
 70
0
 71
3
 72
23
 73
19
 74
0
 42
0.0000001
 43
0.0000001
 44
0.0000000001
 40
0.0
 40
0.0
 40
0.0
 40
0.0
 40
0.0625577937
 40
0.1253250593
 40
0.1880833985
 40
0.2508669252
 40
0.3136401423
 40
0.3763504319
 40
0.4389637102
 40
0.5014686169
 40
0.5638615075
 40
0.6261562866
 40
0.6883899441
 40
0.7506010191
 40
0.8128226773
 40
0.8751048574
 40
0.9375540293
 40
1.0
 40
1.0
 40
1.0
 40
1.0
 10
164.0288925752
 20
29.9792394228
 30
0.0
 10
164.0014779129
 20
30.2626407263
 30
0.0
 10
163.8900706616
 20
30.8264281187
 30
0.0
 10
163.5632844394
 20
31.6232240801
 30
0.0
 10
163.0871534729
 20
32.3425306575
 30
0.0
 10
162.4808966347
 20
32.955961997
 30
0.0
 10
161.7680195565
 20
33.4411008175
 30
0.0
 10
160.9752162073
 20
33.7783963433
 30
0.0
 10
160.1332620748
 20
33.9552090019
 30
0.0
 10
159.2743739474
 20
33.9650392237
 30
0.0
 10
158.4316070528
 20
33.8066250349
 30
0.0
 10
157.6372957509
 20
33.4868054573
 30
0.0
 10
156.9219900982
 20
33.0174797561
 30
0.0
 10
156.3136844625
 20
32.416417768
 30
0.0
 10
155.83500573
 20
31.7075662349
 30
0.0
 10
155.5048264807
 20
30.9171851383
 30
0.0
 10
155.3365743504
 20
30.0766896204
 30
0.0
 10
155.3353971993
 20
29.5039460351
 30
0.0
 10
155.3627628574
 20
29.2210513158
 30
0.0
  0
SPLINE
  5
26A
100
AcDbEntity
  8
_30_VOLUMEN
100
AcDbSpline
 62
4
  6
CONTINUOUS
 70
0
 71
3
 72
23
 73
19
 74
0
 42
0.0000001
 43
0.0000001
 44
0.0000000001
 40
0.0
 40
0.0
 40
0.0
 40
0.0
 40
0.0624648058
 40
0.1248936852
 40
0.187171963
 40
0.2494016157
 40
0.3116108243
 40
0.3738420702
 40
0.4361398414
 40
0.498531461
 40
0.5610348976
 40
0.6236512224
 40
0.6863591493
 40
0.7491304439
 40
0.8119220044
 40
0.8746764085
 40
0.937423427
 40
1.0
 40
1.0
 40
1.0
 40
1.0
 10
155.3376183902
 20
29.2469180548
 30
0.0
 10
155.3098911844
 20
29.5335503032
 30
0.0
 10
155.3109239745
 20
30.1136880998
 30
0.0
 10
155.481594226
 20
30.9649726978
 30
0.0
 10
155.8160008589
 20
31.7654483773
 30
0.0
 10
156.3006465231
 20
32.4836333337
 30
0.0
 10
156.9170624747
 20
33.0922220432
 30
0.0
 10
157.6414574345
 20
33.5677527903
 30
0.0
 10
158.4460214354
 20
33.8917915764
 30
0.0
 10
159.2997102361
 20
34.0519235525
 30
0.0
 10
160.1696712108
 20
34.0422961755
 30
0.0
 10
161.0225078681
 20
33.863110861
 30
0.0
 10
161.8254308936
 20
33.5212931559
 30
0.0
 10
162.5477201326
 20
33.0301642025
 30
0.0
 10
163.1616295408
 20
32.4085976803
 30
0.0
 10
163.6438520583
 20
31.680104265
 30
0.0
 10
163.9750858079
 20
30.8731291317
 30
0.0
 10
164.0877752848
 20
30.3020328583
 30
0.0
 10
164.1155521024
 20
30.0148877438
 30
0.0
  0
SPLINE
  5
26B
100
AcDbEntity
  8
_30_VOLUMEN
100
AcDbSpline
 62
4
  6
CONTINUOUS
 70
0
 71
3
 72
11
 73
7
 74
0
 42
0.0000001
 43
0.0000001
 44
0.0000000001
 40
0.0
 40
0.0
 40
0.0
 40
0.0
 40
0.249672966
 40
0.5000147757
 40
0.7503476174
 40
1.0
 40
1.0
 40
1.0
 40
1.0
 10
149.504863258
 20
20.6201519447
 30
0.0
 10
149.4914018314
 20
20.4480885999
 30
0.0
 10
149.5412342769
 20
20.0929053739
 30
0.0
 10
149.8323062386
 20
19.6445735155
 30
0.0
 10
150.283253072
 20
19.3575919348
 30
0.0
 10
150.6388608467
 20
19.3110131385
 30
0.0
 10
150.8107790394
 20
19.3260540314
 30
0.0
  0
SPLINE
  5
26C
100
AcDbEntity
  8
_21_KURVEN
100
AcDbSpline
 62
7
  6
CONTINUOUS
 70
0
 71
3
 72
51
 73
47
 74
0
 42
0.0000001
 43
0.0000001
 44
0.0000000001
 40
0.0
 40
0.0
 40
0.0
 40
0.0
 40
0.0625
 40
0.09375
 40
0.109375
 40
0.125
 40
0.140625
 40
0.15625
 40
0.1875
 40
0.21875
 40
0.234375
 40
0.25
 40
0.265625
 40
0.28125
 40
0.3125
 40
0.34375
 40
0.359375
 40
0.375
 40
0.390625
 40
0.40625
 40
0.4375
 40
0.46875
 40
0.484375
 40
0.5
 40
0.515625
 40
0.53125
 40
0.5625
 40
0.59375
 40
0.609375
 40
0.625
 40
0.640625
 40
0.65625
 40
0.6875
 40
0.71875
 40
0.734375
 40
0.75
 40
0.765625
 40
0.78125
 40
0.8125
 40
0.84375
 40
0.859375
 40
0.875
 40
0.890625
 40
0.90625
 40
0.9375
 40
1.0
 40
1.0
 40
1.0
 40
1.0
 10
149.504863258
 20
20.6201519447
 30
0.0
 10
149.5061614039
 20
20.57716158
 30
0.0
 10
149.5083371397
 20
20.5126891812
 30
0.0
 10
149.5100756889
 20
20.4374253643
 30
0.0
 10
149.5122117302
 20
20.3944832093
 30
0.0
 10
149.5106145243
 20
20.36209252
 30
0.0
 10
149.5212429737
 20
20.3304052527
 30
0.0
 10
149.5311261886
 20
20.287902185
 30
0.0
 10
149.5450764512
 20
20.2349151311
 30
0.0
 10
149.5580018019
 20
20.1816776764
 30
0.0
 10
149.5695248759
 20
20.1395752501
 30
0.0
 10
149.5752337482
 20
20.1066860582
 30
0.0
 10
149.5920849565
 20
20.0788025865
 30
0.0
 10
149.6106442573
 20
20.039867005
 30
0.0
 10
149.6353048702
 20
19.991865372
 30
0.0
 10
149.6590057567
 20
19.9433893872
 30
0.0
 10
149.6791006197
 20
19.9052127685
 30
0.0
 10
149.6913451414
 20
19.8750524083
 30
0.0
 10
149.7143290885
 20
19.8507015485
 30
0.0
 10
149.7412104042
 20
19.8161900417
 30
0.0
 10
149.7761930883
 20
19.7738546098
 30
0.0
 10
149.8103565486
 20
19.7308579888
 30
0.0
 10
149.8385486223
 20
19.6974043845
 30
0.0
 10
149.8576002955
 20
19.6698798171
 30
0.0
 10
149.8845908441
 20
19.6516208603
 30
0.0
 10
149.9177937447
 20
19.6240236368
 30
0.0
 10
149.9603339127
 20
19.5907526895
 30
0.0
 10
150.0022085338
 20
19.5566443485
 30
0.0
 10
150.0364763095
 20
19.5303869548
 30
0.0
 10
150.060272233
 20
19.5081085084
 30
0.0
 10
150.0913037501
 20
19.4956570271
 30
0.0
 10
150.1301463851
 20
19.4756040005
 30
0.0
 10
150.1796061035
 20
19.4518531909
 30
0.0
 10
150.2286060244
 20
19.4271543009
 30
0.0
 10
150.2681843355
 20
19.408618203
 30
0.0
 10
150.2970088242
 20
19.3916159357
 30
0.0
 10
150.3290811043
 20
19.3864029366
 30
0.0
 10
150.3707058979
 20
19.3753153676
 30
0.0
 10
150.4231542604
 20
19.3630095128
 30
0.0
 10
150.4753559489
 20
19.3496603618
 30
0.0
 10
150.5173754209
 20
19.3402420665
 30
0.0
 10
150.5482636659
 20
19.3300212465
 30
0.0
 10
150.5815282861
 20
19.3317983078
 30
0.0
 10
150.6250519729
 20
19.3299815463
 30
0.0
 10
150.7016070842
 20
19.3287644839
 30
0.0
 10
150.7670924963
 20
19.3270485092
 30
0.0
 10
150.8107790499
 20
19.3260540324
 30
0.0
  0
SPLINE
  5
26D
100
AcDbEntity
  8
_21_KURVEN
100
AcDbSpline
 62
7
  6
CONTINUOUS
 70
0
 71
3
 72
9
 73
5
 74
0
 42
0.0000001
 43
0.0000001
 44
0.0000000001
 40
0.0
 40
0.0
 40
0.0
 40
0.0
 40
0.5
 40
1.0
 40
1.0
 40
1.0
 40
1.0
 10
151.8921391183
 20
38.4702945767
 30
0.0
 10
151.7930594808
 20
38.4574177436
 30
0.0
 10
151.5962020404
 20
38.4238356341
 30
0.0
 10
151.4149032096
 20
38.3230880115
 30
0.0
 10
151.3286276985
 20
38.2696158742
 30
0.0
  0
SPLINE
  5
26E
100
AcDbEntity
  8
_21_KURVEN
100
AcDbSpline
 62
7
  6
CONTINUOUS
 70
0
 71
3
 72
9
 73
5
 74
0
 42
0.0000001
 43
0.0000001
 44
0.0000000001
 40
0.0
 40
0.0
 40
0.0
 40
0.0
 40
0.5
 40
1.0
 40
1.0
 40
1.0
 40
1.0
 10
151.3286277053
 20
38.2696158788
 30
0.0
 10
151.3014469163
 20
38.2505388565
 30
0.0
 10
151.2408246101
 20
38.2066975
 30
0.0
 10
151.186239805
 20
38.1555591018
 30
0.0
 10
151.1593955163
 20
38.1295952127
 30
0.0
  0
SPLINE
  5
26F
100
AcDbEntity
  8
_21_KURVEN
100
AcDbSpline
 62
7
  6
CONTINUOUS
 70
0
 71
3
 72
12
 73
8
 74
0
 42
0.0000001
 43
0.0000001
 44
0.0000000001
 40
0.0
 40
0.0
 40
0.0
 40
0.0
 40
0.25
 40
0.375
 40
0.5
 40
0.75
 40
1.0
 40
1.0
 40
1.0
 40
1.0
 10
151.1593955167
 20
38.1295952131
 30
0.0
 10
151.1463911674
 20
38.1161937048
 30
0.0
 10
151.1270433277
 20
38.0962137078
 30
0.0
 10
151.1019050585
 20
38.0678672291
 30
0.0
 10
151.0736529299
 20
38.0348001615
 30
0.0
 10
151.0477249033
 20
38.0011012566
 30
0.0
 10
151.0238517053
 20
37.9671665538
 30
0.0
 10
151.0119154908
 20
37.9499567065
 30
0.0
  0
SPLINE
  5
270
100
AcDbEntity
  8
_21_KURVEN
100
AcDbSpline
 62
7
  6
CONTINUOUS
 70
0
 71
3
 72
9
 73
5
 74
0
 42
0.0000001
 43
0.0000001
 44
0.0000000001
 40
0.0
 40
0.0
 40
0.0
 40
0.0
 40
0.5
 40
1.0
 40
1.0
 40
1.0
 40
1.0
 10
151.0119154939
 20
37.9499567111
 30
0.0
 10
150.960152409
 20
37.8648403381
 30
0.0
 10
150.8635139752
 20
37.6906251452
 30
0.0
 10
150.8287059987
 20
37.4856487246
 30
0.0
 10
150.81643319
 20
37.3845793699
 30
0.0
  0
SPLINE
  5
271
100
AcDbEntity
  8
_21_KURVEN
100
AcDbSpline
 62
7
  6
CONTINUOUS
 70
0
 71
3
 72
51
 73
47
 74
0
 42
0.0000001
 43
0.0000001
 44
0.0000000001
 40
0.0
 40
0.0
 40
0.0
 40
0.0
 40
0.0625
 40
0.09375
 40
0.109375
 40
0.125
 40
0.140625
 40
0.15625
 40
0.1875
 40
0.21875
 40
0.234375
 40
0.25
 40
0.265625
 40
0.28125
 40
0.3125
 40
0.34375
 40
0.359375
 40
0.375
 40
0.390625
 40
0.40625
 40
0.4375
 40
0.46875
 40
0.484375
 40
0.5
 40
0.515625
 40
0.53125
 40
0.5625
 40
0.59375
 40
0.609375
 40
0.625
 40
0.640625
 40
0.65625
 40
0.6875
 40
0.71875
 40
0.734375
 40
0.75
 40
0.765625
 40
0.78125
 40
0.8125
 40
0.84375
 40
0.859375
 40
0.875
 40
0.890625
 40
0.90625
 40
0.9375
 40
1.0
 40
1.0
 40
1.0
 40
1.0
 10
169.9483072346
 20
38.641653854
 30
0.0
 10
169.9470090887
 20
38.6846442186
 30
0.0
 10
169.9448333529
 20
38.7491166175
 30
0.0
 10
169.9430948037
 20
38.8243804344
 30
0.0
 10
169.9409587624
 20
38.8673225894
 30
0.0
 10
169.9425559684
 20
38.8997132787
 30
0.0
 10
169.931927519
 20
38.9314005459
 30
0.0
 10
169.922044304
 20
38.9739036137
 30
0.0
 10
169.9080940414
 20
39.0268906675
 30
0.0
 10
169.8951686908
 20
39.0801281223
 30
0.0
 10
169.8836456168
 20
39.1222305485
 30
0.0
 10
169.8779367445
 20
39.1551197404
 30
0.0
 10
169.8610855362
 20
39.1830032121
 30
0.0
 10
169.8425262354
 20
39.2219387937
 30
0.0
 10
169.8178656225
 20
39.2699404267
 30
0.0
 10
169.794164736
 20
39.3184164114
 30
0.0
 10
169.774069873
 20
39.3565930301
 30
0.0
 10
169.7618253513
 20
39.3867533904
 30
0.0
 10
169.7388414042
 20
39.4111042502
 30
0.0
 10
169.7119600885
 20
39.445615757
 30
0.0
 10
169.6769774044
 20
39.4879511889
 30
0.0
 10
169.6428139441
 20
39.5309478099
 30
0.0
 10
169.6146218704
 20
39.5644014141
 30
0.0
 10
169.5955701971
 20
39.5919259815
 30
0.0
 10
169.5685796486
 20
39.6101849383
 30
0.0
 10
169.5353767479
 20
39.6377821619
 30
0.0
 10
169.49283658
 20
39.6710531092
 30
0.0
 10
169.4509619588
 20
39.7051614502
 30
0.0
 10
169.4166941832
 20
39.7314188438
 30
0.0
 10
169.3928982597
 20
39.7536972902
 30
0.0
 10
169.3618667426
 20
39.7661487716
 30
0.0
 10
169.3230241076
 20
39.7862017982
 30
0.0
 10
169.2735643891
 20
39.8099526078
 30
0.0
 10
169.2245644682
 20
39.8346514977
 30
0.0
 10
169.1849861571
 20
39.8531875957
 30
0.0
 10
169.1561616684
 20
39.870189863
 30
0.0
 10
169.1240893884
 20
39.875402862
 30
0.0
 10
169.0824645948
 20
39.886490431
 30
0.0
 10
169.0300162323
 20
39.8987962859
 30
0.0
 10
168.9778145437
 20
39.9121454368
 30
0.0
 10
168.9357950718
 20
39.9215637322
 30
0.0
 10
168.9049068268
 20
39.9317845522
 30
0.0
 10
168.8716422065
 20
39.9300074908
 30
0.0
 10
168.8281185198
 20
39.9318242524
 30
0.0
 10
168.7515634085
 20
39.9330413147
 30
0.0
 10
168.6860779963
 20
39.9347572895
 30
0.0
 10
168.6423914427
 20
39.9357517663
 30
0.0
  0
SPLINE
  5
272
100
AcDbEntity
  8
_21_KURVEN
100
AcDbSpline
 62
1
  6
CENTER
 70
0
 71
3
 72
191
 73
187
 74
0
 42
0.0000001
 43
0.0000001
 44
0.0000000001
 40
0.0
 40
0.0
 40
0.0
 40
0.0
 40
0.015625
 40
0.03125
 40
0.0390625
 40
0.046875
 40
0.0546875
 40
0.05859375
 40
0.060546875
 40
0.0625
 40
0.064453125
 40
0.06640625
 40
0.0703125
 40
0.078125
 40
0.0859375
 40
0.09375
 40
0.1015625
 40
0.109375
 40
0.1171875
 40
0.12109375
 40
0.123046875
 40
0.125
 40
0.126953125
 40
0.12890625
 40
0.1328125
 40
0.140625
 40
0.1484375
 40
0.15625
 40
0.1640625
 40
0.171875
 40
0.1796875
 40
0.18359375
 40
0.185546875
 40
0.1875
 40
0.189453125
 40
0.19140625
 40
0.1953125
 40
0.203125
 40
0.2109375
 40
0.21875
 40
0.2265625
 40
0.234375
 40
0.2421875
 40
0.24609375
 40
0.248046875
 40
0.25
 40
0.251953125
 40
0.25390625
 40
0.2578125
 40
0.265625
 40
0.2734375
 40
0.28125
 40
0.2890625
 40
0.296875
 40
0.3046875
 40
0.30859375
 40
0.310546875
 40
0.3125
 40
0.314453125
 40
0.31640625
 40
0.3203125
 40
0.328125
 40
0.3359375
 40
0.34375
 40
0.3515625
 40
0.359375
 40
0.3671875
 40
0.37109375
 40
0.373046875
 40
0.375
 40
0.376953125
 40
0.37890625
 40
0.3828125
 40
0.390625
 40
0.3984375
 40
0.40625
 40
0.4140625
 40
0.421875
 40
0.4296875
 40
0.43359375
 40
0.435546875
 40
0.4375
 40
0.439453125
 40
0.44140625
 40
0.4453125
 40
0.453125
 40
0.4609375
 40
0.46875
 40
0.4765625
 40
0.484375
 40
0.4921875
 40
0.49609375
 40
0.498046875
 40
0.5
 40
0.501953125
 40
0.50390625
 40
0.5078125
 40
0.515625
 40
0.5234375
 40
0.53125
 40
0.5390625
 40
0.546875
 40
0.5546875
 40
0.55859375
 40
0.560546875
 40
0.5625
 40
0.564453125
 40
0.56640625
 40
0.5703125
 40
0.578125
 40
0.5859375
 40
0.59375
 40
0.6015625
 40
0.609375
 40
0.6171875
 40
0.62109375
 40
0.623046875
 40
0.625
 40
0.626953125
 40
0.62890625
 40
0.6328125
 40
0.640625
 40
0.6484375
 40
0.65625
 40
0.6640625
 40
0.671875
 40
0.6796875
 40
0.68359375
 40
0.685546875
 40
0.6875
 40
0.689453125
 40
0.69140625
 40
0.6953125
 40
0.703125
 40
0.7109375
 40
0.71875
 40
0.7265625
 40
0.734375
 40
0.7421875
 40
0.74609375
 40
0.748046875
 40
0.75
 40
0.751953125
 40
0.75390625
 40
0.7578125
 40
0.765625
 40
0.7734375
 40
0.78125
 40
0.7890625
 40
0.796875
 40
0.8046875
 40
0.80859375
 40
0.810546875
 40
0.8125
 40
0.814453125
 40
0.81640625
 40
0.8203125
 40
0.828125
 40
0.8359375
 40
0.84375
 40
0.8515625
 40
0.859375
 40
0.8671875
 40
0.87109375
 40
0.873046875
 40
0.875
 40
0.876953125
 40
0.87890625
 40
0.8828125
 40
0.890625
 40
0.8984375
 40
0.90625
 40
0.9140625
 40
0.921875
 40
0.9296875
 40
0.93359375
 40
0.935546875
 40
0.9375
 40
0.939453125
 40
0.94140625
 40
0.9453125
 40
0.953125
 40
0.9609375
 40
0.96875
 40
0.984375
 40
1.0
 40
1.0
 40
1.0
 40
1.0
 10
169.1633593557
 20
30.4565136542
 30
0.0
 10
169.1335940882
 20
30.6080800832
 30
0.0
 10
169.0740573157
 20
30.9112111248
 30
0.0
 10
168.9996675372
 20
31.2901340099
 30
0.0
 10
168.9400902217
 20
31.5932532434
 30
0.0
 10
168.8955850009
 20
31.8206444423
 30
0.0
 10
168.8579320527
 20
32.0099724763
 30
0.0
 10
168.8326842714
 20
32.1428251759
 30
0.0
 10
168.8165249199
 20
32.2182365496
 30
0.0
 10
168.809284612
 20
32.2762161363
 30
0.0
 10
168.7833935055
 20
32.3287637246
 30
0.0
 10
168.7553776491
 20
32.400721923
 30
0.0
 10
168.7033186959
 20
32.5257659188
 30
0.0
 10
168.6305344459
 20
32.704862193
 30
0.0
 10
168.542510534
 20
32.9195780941
 30
0.0
 10
168.4546807767
 20
33.1343533157
 30
0.0
 10
168.366757213
 20
33.3490908835
 30
0.0
 10
168.2790147203
 20
33.563919746
 30
0.0
 10
168.2053705785
 20
33.7426708604
 30
0.0
 10
168.1548437961
 20
33.8683298683
 30
0.0
 10
168.1243733394
 20
33.939302792
 30
0.0
 10
168.1060219211
 20
33.9948768052
 30
0.0
 10
168.0704638108
 20
34.0414896487
 30
0.0
 10
168.029054895
 20
34.10676587
 30
0.0
 10
167.9537927866
 20
34.219542837
 30
0.0
 10
167.8477384208
 20
34.381414781
 30
0.0
 10
167.7198431219
 20
34.5753325164
 30
0.0
 10
167.5921273718
 20
34.7693454557
 30
0.0
 10
167.4643234865
 20
34.9633061767
 30
0.0
 10
167.336692593
 20
35.1573805671
 30
0.0
 10
167.2298303218
 20
35.3187738428
 30
0.0
 10
167.1560077539
 20
35.4324037098
 30
0.0
 10
167.1122926354
 20
35.4963135503
 30
0.0
 10
167.0838183866
 20
35.5471234456
 30
0.0
 10
167.0388611747
 20
35.5869340376
 30
0.0
 10
166.9846676759
 20
35.6438515169
 30
0.0
 10
166.8871501945
 20
35.7416694217
 30
0.0
 10
166.749240713
 20
35.8823447045
 30
0.0
 10
166.5831466502
 20
36.0507511687
 30
0.0
 10
166.4172213974
 20
36.2192764632
 30
0.0
 10
166.2512235898
 20
36.3877303118
 30
0.0
 10
166.0853471914
 20
36.5563511135
 30
0.0
 10
165.9467726245
 20
36.6963714762
 30
0.0
 10
165.8504402044
 20
36.7953563294
 30
0.0
 10
165.7943481889
 20
36.8504043098
 30
0.0
 10
165.7552225673
 20
36.8959573595
 30
0.0
 10
165.704845845
 20
36.9251995482
 30
0.0
 10
165.6416013982
 20
36.9698785553
 30
0.0
 10
165.5290950472
 20
37.0454158988
 30
0.0
 10
165.3693282032
 20
37.1547132182
 30
0.0
 10
165.1771963066
 20
37.2852724668
 30
0.0
 10
164.9851807221
 20
37.416002928
 30
0.0
 10
164.793111573
 20
37.5466460737
 30
0.0
 10
164.6011403701
 20
37.677467269
 30
0.0
 10
164.4408825176
 20
37.785964196
 30
0.0
 10
164.3292510545
 20
37.8629276932
 30
0.0
 10
164.2646050015
 20
37.9053219438
 30
0.0
 10
164.2185335318
 20
37.9415821186
 30
0.0
 10
164.1632381045
 20
37.9607767911
 30
0.0
 10
164.0927282921
 20
37.9923223381
 30
0.0
 10
163.9678370194
 20
38.0447534748
 30
0.0
 10
163.7902050137
 20
38.1211061209
 30
0.0
 10
163.5767094526
 20
38.2121039795
 30
0.0
 10
163.3633079515
 20
38.3032814692
 30
0.0
 10
163.1498673643
 20
38.3943657514
 30
0.0
 10
162.9364890617
 20
38.4856432327
 30
0.0
 10
162.7584987661
 20
38.5611414761
 30
0.0
 10
162.6342459009
 20
38.6150950031
 30
0.0
 10
162.5627133337
 20
38.6442016188
 30
0.0
 10
162.5105594574
 20
38.6708878493
 30
0.0
 10
162.4526888499
 20
38.6790109902
 30
0.0
 10
162.3775221025
 20
38.696316871
 30
0.0
 10
162.2450511956
 20
38.7235852002
 30
0.0
 10
162.056293013
 20
38.7641182839
 30
0.0
 10
161.8295741923
 20
38.812077925
 30
0.0
 10
161.6029138256
 20
38.860232479
 30
0.0
 10
161.3762286447
 20
38.908287441
 30
0.0
 10
161.1495842667
 20
38.9565458579
 30
0.0
 10
160.9605986203
 20
38.9961660154
 30
0.0
 10
160.8285330126
 20
39.025061013
 30
0.0
 10
160.7527169594
 20
39.0397609046
 30
0.0
 10
160.6968407958
 20
39.0558887481
 30
0.0
 10
160.6371961232
 20
39.0525106604
 30
0.0
 10
160.5589843899
 20
39.0548104436
 30
0.0
 10
160.4215014201
 20
39.0556648716
 30
0.0
 10
160.2254172711
 20
39.0585439375
 30
0.0
 10
159.9899796987
 20
39.0612843895
 30
0.0
 10
159.7545763506
 20
39.0642290226
 30
0.0
 10
159.5191726989
 20
39.0670713586
 30
0.0
 10
159.2837360372
 20
39.070118702
 30
0.0
 10
159.0876491057
 20
39.0720600442
 30
0.0
 10
158.9501710937
 20
39.0745853253
 30
0.0
 10
158.8719514178
 20
39.0742083337
 30
0.0
 10
158.8123311424
 20
39.0790523778
 30
0.0
 10
158.756363347
 20
39.0642992751
 30
0.0
 10
158.6804655905
 20
39.0514641882
 30
0.0
 10
158.5482381444
 20
39.0258177738
 30
0.0
 10
158.3590311651
 20
38.9908462069
 30
0.0
 10
158.1321169392
 20
38.9481627487
 30
0.0
 10
157.9051631207
 20
38.9056837336
 30
0.0
 10
157.6782335236
 20
38.8631045239
 30
0.0
 10
157.4512466335
 20
38.8207216497
 30
0.0
 10
157.2622616839
 20
38.7848316317
 30
0.0
 10
157.1296386213
 20
38.7608217302
 30
0.0
 10
157.0543746585
 20
38.7453648828
 30
0.0
 10
156.996460067
 20
38.7386649267
 30
0.0
 10
156.9441516308
 20
38.7132627046
 30
0.0
 10
156.8724515541
 20
38.6859166466
 30
0.0
 10
156.7478875758
 20
38.6350214755
 30
0.0
 10
156.5694622341
 20
38.5639041489
 30
0.0
 10
156.3555578279
 20
38.4778786536
 30
0.0
 10
156.1415922883
 20
38.3920478745
 30
0.0
 10
155.9276652788
 20
38.3061229339
 30
0.0
 10
155.713645282
 20
38.2203799234
 30
0.0
 10
155.5355731338
 20
38.1483994488
 30
0.0
 10
155.4103798289
 20
38.0990422504
 30
0.0
 10
155.3396879591
 20
38.0692322974
 30
0.0
 10
155.2842826582
 20
38.0513983134
 30
0.0
 10
155.2379993704
 20
38.0162733259
 30
0.0
 10
155.1731064526
 20
37.9754713159
 30
0.0
 10
155.0610264079
 20
37.90125759
 30
0.0
 10
154.9001363918
 20
37.7967080826
 30
0.0
 10
154.7074028597
 20
37.6706155221
 30
0.0
 10
154.5145724452
 20
37.5447034061
 30
0.0
 10
154.3217950732
 20
37.4187026641
 30
0.0
 10
154.1289024136
 20
37.2928759814
 30
0.0
 10
153.9684986205
 20
37.1875140699
 30
0.0
 10
153.8555522148
 20
37.1147479004
 30
0.0
 10
153.7920472427
 20
37.0716268459
 30
0.0
 10
153.7415006631
 20
37.0436251655
 30
0.0
 10
153.70210757
 20
36.9990372361
 30
0.0
 10
153.6456929749
 20
36.9453721414
 30
0.0
 10
153.5487801759
 20
36.8487625802
 30
0.0
 10
153.4093847944
 20
36.7121589116
 30
0.0
 10
153.2425198492
 20
36.5476280318
 30
0.0
 10
153.0755344945
 20
36.3832670774
 30
0.0
 10
152.9086212653
 20
36.2188328988
 30
0.0
 10
152.7415399437
 20
36.0545216915
 30
0.0
 10
152.6028057126
 20
35.9172468012
 30
0.0
 10
152.5047148636
 20
35.8218332349
 30
0.0
 10
152.4501875526
 20
35.7662521077
 30
0.0
 10
152.4049973721
 20
35.727549571
 30
0.0
 10
152.3762236791
 20
35.6774433442
 30
0.0
 10
152.3321324893
 20
35.6146127833
 30
0.0
 10
152.2576409927
 20
35.5028059327
 30
0.0
 10
152.1498287605
 20
35.3440513491
 30
0.0
 10
152.0210554814
 20
35.153128575
 30
0.0
 10
151.8921098977
 20
34.9623237145
 30
0.0
 10
151.7632521328
 20
34.771464473
 30
0.0
 10
151.6342153973
 20
34.5807048422
 30
0.0
 10
151.5272081709
 20
34.4214517649
 30
0.0
 10
151.4512823002
 20
34.3105331395
 30
0.0
 10
151.4094890363
 20
34.2462796057
 30
0.0
 10
151.3736569053
 20
34.200544262
 30
0.0
 10
151.3549770328
 20
34.1454254226
 30
0.0
 10
151.3240876241
 20
34.0752067095
 30
0.0
 10
151.2728188294
 20
33.9507989315
 30
0.0
 10
151.198119297
 20
33.7738711976
 30
0.0
 10
151.1091083459
 20
33.5612149168
 30
0.0
 10
151.0199168788
 20
33.3486543753
 30
0.0
 10
150.9308189878
 20
33.1360538767
 30
0.0
 10
150.8415273084
 20
32.9235174671
 30
0.0
 10
150.767685557
 20
32.7462234603
 30
0.0
 10
150.7148883525
 20
32.6224683139
 30
0.0
 10
150.6864475186
 20
32.5512040584
 30
0.0
 10
150.660246467
 20
32.4992967659
 30
0.0
 10
150.6526626212
 20
32.4414993912
 30
0.0
 10
150.6360569241
 20
32.3664907545
 30
0.0
 10
150.6100227117
 20
32.2342683676
 30
0.0
 10
150.5712480515
 20
32.0458799526
 30
0.0
 10
150.5254004972
 20
31.8195985024
 30
0.0
 10
150.4793574764
 20
31.5933773263
 30
0.0
 10
150.4334142834
 20
31.367130406
 30
0.0
 10
150.387267246
 20
31.1409261882
 30
0.0
 10
150.3494076729
 20
30.9523017854
 30
0.0
 10
150.3217429417
 20
30.8204998859
 30
0.0
 10
150.3077494021
 20
30.7448176111
 30
0.0
 10
150.2921419071
 20
30.689089421
 30
0.0
 10
150.2960763344
 20
30.6294106189
 30
0.0
 10
150.2945057961
 20
30.5512169004
 30
0.0
 10
150.294933261
 20
30.413735849
 30
0.0
 10
150.2938835204
 20
30.2176700158
 30
0.0
 10
150.2933345584
 20
29.9822473349
 30
0.0
 10
150.2923542632
 20
29.6684006328
 30
0.0
 10
150.2912146716
 20
29.2760749143
 30
0.0
 10
150.2902768566
 20
28.9622196244
 30
0.0
 10
150.2898112169
 20
28.8052913188
 30
0.0
  0
SPLINE
  5
273
100
AcDbEntity
  8
_21_KURVEN
100
AcDbSpline
 62
1
  6
CENTER
 70
0
 71
3
 72
191
 73
187
 74
0
 42
0.0000001
 43
0.0000001
 44
0.0000000001
 40
0.0
 40
0.0
 40
0.0
 40
0.0
 40
0.015625
 40
0.03125
 40
0.0390625
 40
0.046875
 40
0.0546875
 40
0.05859375
 40
0.060546875
 40
0.0625
 40
0.064453125
 40
0.06640625
 40
0.0703125
 40
0.078125
 40
0.0859375
 40
0.09375
 40
0.1015625
 40
0.109375
 40
0.1171875
 40
0.12109375
 40
0.123046875
 40
0.125
 40
0.126953125
 40
0.12890625
 40
0.1328125
 40
0.140625
 40
0.1484375
 40
0.15625
 40
0.1640625
 40
0.171875
 40
0.1796875
 40
0.18359375
 40
0.185546875
 40
0.1875
 40
0.189453125
 40
0.19140625
 40
0.1953125
 40
0.203125
 40
0.2109375
 40
0.21875
 40
0.2265625
 40
0.234375
 40
0.2421875
 40
0.24609375
 40
0.248046875
 40
0.25
 40
0.251953125
 40
0.25390625
 40
0.2578125
 40
0.265625
 40
0.2734375
 40
0.28125
 40
0.2890625
 40
0.296875
 40
0.3046875
 40
0.30859375
 40
0.310546875
 40
0.3125
 40
0.314453125
 40
0.31640625
 40
0.3203125
 40
0.328125
 40
0.3359375
 40
0.34375
 40
0.3515625
 40
0.359375
 40
0.3671875
 40
0.37109375
 40
0.373046875
 40
0.375
 40
0.376953125
 40
0.37890625
 40
0.3828125
 40
0.390625
 40
0.3984375
 40
0.40625
 40
0.4140625
 40
0.421875
 40
0.4296875
 40
0.43359375
 40
0.435546875
 40
0.4375
 40
0.439453125
 40
0.44140625
 40
0.4453125
 40
0.453125
 40
0.4609375
 40
0.46875
 40
0.4765625
 40
0.484375
 40
0.4921875
 40
0.49609375
 40
0.498046875
 40
0.5
 40
0.501953125
 40
0.50390625
 40
0.5078125
 40
0.515625
 40
0.5234375
 40
0.53125
 40
0.5390625
 40
0.546875
 40
0.5546875
 40
0.55859375
 40
0.560546875
 40
0.5625
 40
0.564453125
 40
0.56640625
 40
0.5703125
 40
0.578125
 40
0.5859375
 40
0.59375
 40
0.6015625
 40
0.609375
 40
0.6171875
 40
0.62109375
 40
0.623046875
 40
0.625
 40
0.626953125
 40
0.62890625
 40
0.6328125
 40
0.640625
 40
0.6484375
 40
0.65625
 40
0.6640625
 40
0.671875
 40
0.6796875
 40
0.68359375
 40
0.685546875
 40
0.6875
 40
0.689453125
 40
0.69140625
 40
0.6953125
 40
0.703125
 40
0.7109375
 40
0.71875
 40
0.7265625
 40
0.734375
 40
0.7421875
 40
0.74609375
 40
0.748046875
 40
0.75
 40
0.751953125
 40
0.75390625
 40
0.7578125
 40
0.765625
 40
0.7734375
 40
0.78125
 40
0.7890625
 40
0.796875
 40
0.8046875
 40
0.80859375
 40
0.810546875
 40
0.8125
 40
0.814453125
 40
0.81640625
 40
0.8203125
 40
0.828125
 40
0.8359375
 40
0.84375
 40
0.8515625
 40
0.859375
 40
0.8671875
 40
0.87109375
 40
0.873046875
 40
0.875
 40
0.876953125
 40
0.87890625
 40
0.8828125
 40
0.890625
 40
0.8984375
 40
0.90625
 40
0.9140625
 40
0.921875
 40
0.9296875
 40
0.93359375
 40
0.935546875
 40
0.9375
 40
0.939453125
 40
0.94140625
 40
0.9453125
 40
0.953125
 40
0.9609375
 40
0.96875
 40
0.984375
 40
1.0
 40
1.0
 40
1.0
 40
1.0
 10
150.289811137
 20
28.8052921445
 30
0.0
 10
150.3195764045
 20
28.6537257154
 30
0.0
 10
150.3791131769
 20
28.3505946739
 30
0.0
 10
150.4535029554
 20
27.9716717888
 30
0.0
 10
150.513080271
 20
27.6685525553
 30
0.0
 10
150.5575854917
 20
27.4411613563
 30
0.0
 10
150.59523844
 20
27.2518333223
 30
0.0
 10
150.6204862213
 20
27.1189806228
 30
0.0
 10
150.6366455727
 20
27.0435692491
 30
0.0
 10
150.6438858807
 20
26.9855896623
 30
0.0
 10
150.6697769872
 20
26.933042074
 30
0.0
 10
150.6977928435
 20
26.8610838757
 30
0.0
 10
150.7498517968
 20
26.7360398799
 30
0.0
 10
150.8226360467
 20
26.5569436057
 30
0.0
 10
150.9106599586
 20
26.3422277045
 30
0.0
 10
150.998489716
 20
26.1274524829
 30
0.0
 10
151.0864132797
 20
25.9127149152
 30
0.0
 10
151.1741557724
 20
25.6978860526
 30
0.0
 10
151.2477999142
 20
25.5191349383
 30
0.0
 10
151.2983266965
 20
25.3934759303
 30
0.0
 10
151.3287971533
 20
25.3225030066
 30
0.0
 10
151.3471485716
 20
25.2669289935
 30
0.0
 10
151.3827066819
 20
25.2203161499
 30
0.0
 10
151.4241155977
 20
25.1550399286
 30
0.0
 10
151.499377706
 20
25.0422629617
 30
0.0
 10
151.6054320719
 20
24.8803910176
 30
0.0
 10
151.7333273708
 20
24.6864732823
 30
0.0
 10
151.8610431209
 20
24.492460343
 30
0.0
 10
151.9888470062
 20
24.298499622
 30
0.0
 10
152.1164778997
 20
24.1044252315
 30
0.0
 10
152.2233401709
 20
23.9430319559
 30
0.0
 10
152.2971627388
 20
23.8294020889
 30
0.0
 10
152.3408778572
 20
23.7654922483
 30
0.0
 10
152.3693521061
 20
23.7146823531
 30
0.0
 10
152.414309318
 20
23.6748717611
 30
0.0
 10
152.4685028167
 20
23.6179542817
 30
0.0
 10
152.5660202982
 20
23.5201363769
 30
0.0
 10
152.7039297797
 20
23.3794610942
 30
0.0
 10
152.8700238424
 20
23.21105463
 30
0.0
 10
153.0359490953
 20
23.0425293355
 30
0.0
 10
153.2019469029
 20
22.8740754869
 30
0.0
 10
153.3678233013
 20
22.7054546852
 30
0.0
 10
153.5063978682
 20
22.5654343224
 30
0.0
 10
153.6027302883
 20
22.4664494692
 30
0.0
 10
153.6588223037
 20
22.4114014888
 30
0.0
 10
153.6979479254
 20
22.3658484392
 30
0.0
 10
153.7483246477
 20
22.3366062504
 30
0.0
 10
153.8115690944
 20
22.2919272434
 30
0.0
 10
153.9240754455
 20
22.2163898999
 30
0.0
 10
154.0838422894
 20
22.1070925805
 30
0.0
 10
154.2759741861
 20
21.9765333318
 30
0.0
 10
154.4679897706
 20
21.8458028706
 30
0.0
 10
154.6600589197
 20
21.7151597249
 30
0.0
 10
154.8520301226
 20
21.5843385297
 30
0.0
 10
155.0122879751
 20
21.4758416027
 30
0.0
 10
155.1239194381
 20
21.3988781054
 30
0.0
 10
155.1885654912
 20
21.3564838549
 30
0.0
 10
155.2346369609
 20
21.32022368
 30
0.0
 10
155.2899323882
 20
21.3010290076
 30
0.0
 10
155.3604422005
 20
21.2694834606
 30
0.0
 10
155.4853334732
 20
21.2170523238
 30
0.0
 10
155.6629654789
 20
21.1406996778
 30
0.0
 10
155.8764610401
 20
21.0497018191
 30
0.0
 10
156.0898625411
 20
20.9585243294
 30
0.0
 10
156.3033031283
 20
20.8674400473
 30
0.0
 10
156.5166814309
 20
20.7761625659
 30
0.0
 10
156.6946717266
 20
20.7006643226
 30
0.0
 10
156.8189245918
 20
20.6467107956
 30
0.0
 10
156.8904571589
 20
20.6176041799
 30
0.0
 10
156.9426110352
 20
20.5909179493
 30
0.0
 10
157.0004816428
 20
20.5827948084
 30
0.0
 10
157.0756483902
 20
20.5654889276
 30
0.0
 10
157.2081192971
 20
20.5382205984
 30
0.0
 10
157.3968774797
 20
20.4976875148
 30
0.0
 10
157.6235963003
 20
20.4497278736
 30
0.0
 10
157.850256667
 20
20.4015733197
 30
0.0
 10
158.076941848
 20
20.3535183577
 30
0.0
 10
158.3035862259
 20
20.3052599407
 30
0.0
 10
158.4925718723
 20
20.2656397832
 30
0.0
 10
158.6246374801
 20
20.2367447856
 30
0.0
 10
158.7004535332
 20
20.222044894
 30
0.0
 10
158.7563296969
 20
20.2059170506
 30
0.0
 10
158.8159743695
 20
20.2092951383
 30
0.0
 10
158.8941861027
 20
20.206995355
 30
0.0
 10
159.0316690725
 20
20.2061409271
 30
0.0
 10
159.2277532216
 20
20.2032618611
 30
0.0
 10
159.463190794
 20
20.2005214091
 30
0.0
 10
159.6985941421
 20
20.197576776
 30
0.0
 10
159.9339977937
 20
20.1947344401
 30
0.0
 10
160.1694344555
 20
20.1916870966
 30
0.0
 10
160.365521387
 20
20.1897457544
 30
0.0
 10
160.502999399
 20
20.1872204733
 30
0.0
 10
160.5812190749
 20
20.187597465
 30
0.0
 10
160.6408393503
 20
20.1827534208
 30
0.0
 10
160.6968071457
 20
20.1975065236
 30
0.0
 10
160.7727049022
 20
20.2103416105
 30
0.0
 10
160.9049323483
 20
20.2359880249
 30
0.0
 10
161.0941393275
 20
20.2709595917
 30
0.0
 10
161.3210535534
 20
20.31364305
 30
0.0
 10
161.548007372
 20
20.356122065
 30
0.0
 10
161.7749369691
 20
20.3987012748
 30
0.0
 10
162.0019238592
 20
20.441084149
 30
0.0
 10
162.1909088088
 20
20.476974167
 30
0.0
 10
162.3235318714
 20
20.5009840684
 30
0.0
 10
162.3987958342
 20
20.5164409158
 30
0.0
 10
162.4567104257
 20
20.5231408719
 30
0.0
 10
162.5090188618
 20
20.548543094
 30
0.0
 10
162.5807189386
 20
20.575889152
 30
0.0
 10
162.7052829169
 20
20.6267843231
 30
0.0
 10
162.8837082586
 20
20.6979016498
 30
0.0
 10
163.0976126647
 20
20.7839271451
 30
0.0
 10
163.3115782044
 20
20.8697579241
 30
0.0
 10
163.5255052139
 20
20.9556828648
 30
0.0
 10
163.7395252106
 20
21.0414258753
 30
0.0
 10
163.9175973588
 20
21.1134063499
 30
0.0
 10
164.0427906637
 20
21.1627635482
 30
0.0
 10
164.1134825336
 20
21.1925735013
 30
0.0
 10
164.1688878344
 20
21.2104074852
 30
0.0
 10
164.2151711223
 20
21.2455324728
 30
0.0
 10
164.28006404
 20
21.2863344827
 30
0.0
 10
164.3921440848
 20
21.3605482087
 30
0.0
 10
164.5530341008
 20
21.4650977161
 30
0.0
 10
164.7457676329
 20
21.5911902765
 30
0.0
 10
164.9385980475
 20
21.7171023926
 30
0.0
 10
165.1313754195
 20
21.8431031345
 30
0.0
 10
165.3242680791
 20
21.9689298172
 30
0.0
 10
165.4846718721
 20
22.0742917288
 30
0.0
 10
165.5976182779
 20
22.1470578983
 30
0.0
 10
165.66112325
 20
22.1901789528
 30
0.0
 10
165.7116698295
 20
22.2181806331
 30
0.0
 10
165.7510629226
 20
22.2627685625
 30
0.0
 10
165.8074775177
 20
22.3164336572
 30
0.0
 10
165.9043903168
 20
22.4130432184
 30
0.0
 10
166.0437856983
 20
22.5496468871
 30
0.0
 10
166.2106506434
 20
22.7141777669
 30
0.0
 10
166.3776359981
 20
22.8785387213
 30
0.0
 10
166.5445492273
 20
23.0429728999
 30
0.0
 10
166.711630549
 20
23.2072841072
 30
0.0
 10
166.8503647801
 20
23.3445589974
 30
0.0
 10
166.948455629
 20
23.4399725638
 30
0.0
 10
167.0029829401
 20
23.495553691
 30
0.0
 10
167.0481731206
 20
23.5342562277
 30
0.0
 10
167.0769468135
 20
23.5843624544
 30
0.0
 10
167.1210380034
 20
23.6471930154
 30
0.0
 10
167.1955294999
 20
23.758999866
 30
0.0
 10
167.3033417322
 20
23.9177544495
 30
0.0
 10
167.4321150113
 20
24.1086772237
 30
0.0
 10
167.561060595
 20
24.2994820841
 30
0.0
 10
167.6899183598
 20
24.4903413257
 30
0.0
 10
167.8189550954
 20
24.6811009565
 30
0.0
 10
167.9259623217
 20
24.8403540337
 30
0.0
 10
168.0018881924
 20
24.9512726592
 30
0.0
 10
168.0436814563
 20
25.015526193
 30
0.0
 10
168.0795135874
 20
25.0612615366
 30
0.0
 10
168.0981934599
 20
25.1163803761
 30
0.0
 10
168.1290828685
 20
25.1865990892
 30
0.0
 10
168.1803516633
 20
25.3110068671
 30
0.0
 10
168.2550511957
 20
25.4879346011
 30
0.0
 10
168.3440621468
 20
25.7005908818
 30
0.0
 10
168.4332536139
 20
25.9131514234
 30
0.0
 10
168.5223515048
 20
26.1257519219
 30
0.0
 10
168.6116431842
 20
26.3382883316
 30
0.0
 10
168.6854849357
 20
26.5155823384
 30
0.0
 10
168.7382821401
 20
26.6393374847
 30
0.0
 10
168.7667229741
 20
26.7106017403
 30
0.0
 10
168.7929240257
 20
26.7625090328
 30
0.0
 10
168.8005078715
 20
26.8203064075
 30
0.0
 10
168.8171135685
 20
26.8953150441
 30
0.0
 10
168.843147781
 20
27.0275374311
 30
0.0
 10
168.8819224411
 20
27.2159258461
 30
0.0
 10
168.9277699955
 20
27.4422072963
 30
0.0
 10
168.9738130162
 20
27.6684284724
 30
0.0
 10
169.0197562093
 20
27.8946753926
 30
0.0
 10
169.0659032467
 20
28.1208796104
 30
0.0
 10
169.1037628198
 20
28.3095040133
 30
0.0
 10
169.1314275509
 20
28.4413059127
 30
0.0
 10
169.1454210905
 20
28.5169881875
 30
0.0
 10
169.1610285856
 20
28.5727163776
 30
0.0
 10
169.1570941583
 20
28.6323951798
 30
0.0
 10
169.1586646966
 20
28.7105888982
 30
0.0
 10
169.1582372317
 20
28.8480699497
 30
0.0
 10
169.1592869723
 20
29.0441357828
 30
0.0
 10
169.1598359343
 20
29.2795584638
 30
0.0
 10
169.1608162295
 20
29.5934051659
 30
0.0
 10
169.1619558211
 20
29.9857308843
 30
0.0
 10
169.162893636
 20
30.2995861743
 30
0.0
 10
169.1633592758
 20
30.4565144798
 30
0.0
  0
SPLINE
  5
274
100
AcDbEntity
  8
_21_KURVEN
100
AcDbSpline
 62
7
  6
CONTINUOUS
 70
0
 71
3
 72
9
 73
5
 74
0
 42
0.0000001
 43
0.0000001
 44
0.0000000001
 40
0.0
 40
0.0
 40
0.0
 40
0.0
 40
0.5
 40
1.0
 40
1.0
 40
1.0
 40
1.0
 10
167.5610313744
 20
20.791511222
 30
0.0
 10
167.6601110119
 20
20.804388055
 30
0.0
 10
167.8569684522
 20
20.8379701645
 30
0.0
 10
168.038267283
 20
20.9387177872
 30
0.0
 10
168.1245427941
 20
20.9921899245
 30
0.0
  0
SPLINE
  5
275
100
AcDbEntity
  8
_21_KURVEN
100
AcDbSpline
 62
7
  6
CONTINUOUS
 70
0
 71
3
 72
9
 73
5
 74
0
 42
0.0000001
 43
0.0000001
 44
0.0000000001
 40
0.0
 40
0.0
 40
0.0
 40
0.0
 40
0.5
 40
1.0
 40
1.0
 40
1.0
 40
1.0
 10
168.1245427873
 20
20.9921899198
 30
0.0
 10
168.1517235764
 20
21.0112669421
 30
0.0
 10
168.2123458826
 20
21.0551082987
 30
0.0
 10
168.2669306877
 20
21.1062466968
 30
0.0
 10
168.2944545887
 20
21.1328896442
 30
0.0
  0
SPLINE
  5
276
100
AcDbEntity
  8
_21_KURVEN
100
AcDbSpline
 62
7
  6
CONTINUOUS
 70
0
 71
3
 72
12
 73
8
 74
0
 42
0.0000001
 43
0.0000001
 44
0.0000000001
 40
0.0
 40
0.0
 40
0.0
 40
0.0
 40
0.25
 40
0.5
 40
0.625
 40
0.75
 40
1.0
 40
1.0
 40
1.0
 40
1.0
 10
168.2944545849
 20
21.1328896404
 30
0.0
 10
168.3074480017
 20
21.1463017547
 30
0.0
 10
168.3338087078
 20
21.1738849449
 30
0.0
 10
168.3627326265
 20
21.2065964303
 30
0.0
 10
168.3897230396
 20
21.2406528993
 30
0.0
 10
168.4124894562
 20
21.2703971671
 30
0.0
 10
168.4295994263
 20
21.2950292396
 30
0.0
 10
168.4412549993
 20
21.3118490883
 30
0.0
  0
SPLINE
  5
277
100
AcDbEntity
  8
_21_KURVEN
100
AcDbSpline
 62
7
  6
CONTINUOUS
 70
0
 71
3
 72
9
 73
5
 74
0
 42
0.0000001
 43
0.0000001
 44
0.0000000001
 40
0.0
 40
0.0
 40
0.0
 40
0.0
 40
0.5
 40
1.0
 40
1.0
 40
1.0
 40
1.0
 10
168.4412549988
 20
21.3118490876
 30
0.0
 10
168.4930180837
 20
21.3969654606
 30
0.0
 10
168.5896565175
 20
21.5711806534
 30
0.0
 10
168.624464494
 20
21.7761570741
 30
0.0
 10
168.6367373026
 20
21.8772264287
 30
0.0
  0
ENDSEC
  0
SECTION
  2
OBJECTS
  0
DICTIONARY
  5
C
100
AcDbDictionary
280
0
281
1
  3
ACAD_GROUP
350
D
  3
ACAD_MLINESTYLE
350
17
  3
ACAD_LAYOUT
350
1A
  3
ACAD_PLOTSETTINGS
350
19
  3
ACAD_PLOTSTYLENAME
350
E
  0
DICTIONARY
  5
D
102
{ACAD_REACTORS
330
C
102
}
100
AcDbDictionary
280
0
281
1
  0
ACDBDICTIONARYWDFLT
  5
E
102
{ACAD_REACTORS
330
C
102
}
100
AcDbDictionary
281
1
  3
Normal
350
F
100
AcDbDictionaryWithDefault
340
F
  0
DICTIONARY
  5
17
102
{ACAD_REACTORS
330
C
102
}
100
AcDbDictionary
280
0
281
1
  3
Standard
350
18
  0
DICTIONARY
  5
19
102
{ACAD_REACTORS
330
C
102
}
100
AcDbDictionary
281
1
  0
DICTIONARY
  5
1A
102
{ACAD_REACTORS
330
C
102
}
100
AcDbDictionary
281
1
  3
Model
350
278
  3
Layout1
350
279
  0
ACDBPLACEHOLDER
  5
F
102
{ACAD_REACTORS
330
E
102
}
  0
MLINESTYLE
  5
18
102
{ACAD_REACTORS
330
17
102
}
100
AcDbMlineStyle
  2
STANDARD
 70
0
  3

 62
256
 51
90.0
 52
90.0
 71
2
 49
0.5
 62
256
  6
BYLAYER
 49
-0.5
 62
256
  6
BYLAYER
  0
LAYOUT
  5
278
102
{ACAD_REACTORS
330
1A
102
}
100
AcDbPlotSettings
  1

  2
none_device
  4
ISO_A3_(420.00_x_297.00_MM)
  6

 40
0.0
 41
0.0
 42
0.0
 43
0.0
 44
420.0
 45
297.0
 46
0.0
 47
0.0
 48
0.0
 49
0.0
140
0.0
141
0.0
142
1.0
143
1.0
 70
1024
 72
1
 73
0
 74
0
  7

 75
0
147
1.0
148
0.0
149
0.0
100
AcDbLayout
  1
Model
 70
0
 71
0
 10
0.0
 20
0.0
 11
420.0
 21
297.0
 12
0.0
 22
0.0
 32
0.0
 14
0.0
 24
0.0
 34
0.0
 15
0.0
 25
0.0
 35
0.0
146
0.0
 13
0.0
 23
0.0
 33
0.0
 16
1.0
 26
0.0
 36
0.0
 17
0.0
 27
1.0
 37
0.0
 76
0
330
20E
345
0
346
0
  0
LAYOUT
  5
279
102
{ACAD_REACTORS
330
1A
102
}
100
AcDbPlotSettings
  1

  2
none_device
  4
ISO_A3_(420.00_x_297.00_MM)
  6

 40
0.0
 41
0.0
 42
0.0
 43
0.0
 44
420.0
 45
297.0
 46
0.0
 47
0.0
 48
0.0
 49
0.0
140
0.0
141
0.0
142
1.0
143
1.0
 70
0
 72
1
 73
0
 74
0
  7

 75
0
147
1.0
148
0.0
149
0.0
100
AcDbLayout
  1
Layout1
 70
0
 71
1
 10
0.0
 20
0.0
 11
420.0
 21
297.0
 12
0.0
 22
0.0
 32
0.0
 14
0.0
 24
0.0
 34
0.0
 15
0.0
 25
0.0
 35
0.0
146
0.0
 13
0.0
 23
0.0
 33
0.0
 16
1.0
 26
0.0
 36
0.0
 17
0.0
 27
1.0
 37
0.0
 76
0
330
20F
345
0
346
0
  0
ENDSEC
  0
EOF
