999
DXF file: 70508516.dxf
999
Pro/ENGINEER 2017380 by Parametric Technology Corporation
  0
SECTION
  2
HEADER
  9
$ACADVER
  1
AC1027
  9
$DWGCODEPAGE
  3
ANSI_1252
  9
$EXTMAX
 10
420.0
 20
297.0
 30
0.0
  9
$EXTMIN
 10
0.0
 20
0.0
 30
0.0
  9
$LIMMIN
 10
0.0
 20
0.0
  9
$LIMMAX
 10
420.0
 20
297.0
  9
$VIEWCTR
 10
210.0
 20
148.5
  9
$VIEWSIZE
 40
297.0
  9
$CLAYER
  8
0
  9
$LTSCALE
 40
23.1
  9
$CELTYPE
  6
BYLAYER
  9
$DIMSCALE
 40
1.0
  9
$DIMASZ
 40
3.5
  9
$DIMEXO
 40
0.0
  9
$DIMDLI
 40
15.96
  9
$DIMEXE
 40
1.5
  9
$DIMCEN
 40
3.78
  9
$DIMLFAC
 40
1.0
  9
$DIMBLK
  1
_FILLED
  9
$DIMALT
 70
0
  9
$DIMALTF
 40
25.4
  9
$DIMTXT
 40
3.5
  9
$DIMTOL
 70
1
  9
$DIMLIM
 70
0
  9
$DIMTFAC
 40
1.0
  9
$DIMTP
 40
0.05
  9
$DIMTM
 40
0.05
  9
$DIMGAP
 40
0.625
  9
$DIMDSEP
 70
46
  9
$AUNITS
 70
0
  9
$PDMODE
 70
3
  9
$PDSIZE
 40
0.3125
  9
$HANDSEED
  5
293
  9
$TILEMODE
 70
1
  9
$MEASUREMENT
 70
1
  9
$INSUNITS
 70
4
  0
ENDSEC
  0
SECTION
  2
CLASSES
  0
CLASS
  1
ACDBDICTIONARYWDFLT
  2
AcDbDictionaryWithDefault
  3
AutoCAD 2000
 90
0
 91
1
280
0
281
0
  0
CLASS
  1
ACDBPLACEHOLDER
  2
AcDbPlaceHolder
  3
AutoCAD 2000
 90
0
 91
1
280
0
281
0
  0
CLASS
  1
LAYOUT
  2
AcDbLayout
  3
AutoCAD 2000
 90
0
 91
0
280
0
281
0
  0
ENDSEC
  0
SECTION
  2
TABLES
  0
TABLE
  2
VPORT
  5
8
100
AcDbSymbolTable
 70
2
  0
VPORT
  5
1F4
100
AcDbSymbolTableRecord
100
AcDbViewportTableRecord
  2
*ACTIVE
 70
0
 10
0.0
 20
0.0
 11
1.0
 21
1.0
 12
210.0
 22
148.5
 13
0.0
 23
0.0
 14
1.0
 24
1.0
 15
0.0
 25
0.0
 16
0.0
 26
0.0
 36
1.0
 17
0.0
 27
0.0
 37
0.0
 40
297.0
 41
1.4141414141
 42
50.0
 43
0.0
 44
0.0
 50
0.0
 51
0.0
 71
0
 72
100
 73
1
 74
1
 75
0
 76
0
 77
0
 78
0
  0
ENDTAB
  0
TABLE
  2
LTYPE
  5
5
100
AcDbSymbolTable
 70
6
  0
LTYPE
  5
14
100
AcDbSymbolTableRecord
100
AcDbLinetypeTableRecord
  2
BYBLOCK
 70
0
  3

 72
65
 73
0
 40
0.0
  0
LTYPE
  5
15
100
AcDbSymbolTableRecord
100
AcDbLinetypeTableRecord
  2
BYLAYER
 70
0
  3

 72
65
 73
0
 40
0.0
  0
LTYPE
  5
16
100
AcDbSymbolTableRecord
100
AcDbLinetypeTableRecord
  2
CONTINUOUS
 70
64
  3
Solid line
 72
65
 73
0
 40
0.0
  0
LTYPE
  5
1F5
100
AcDbSymbolTableRecord
100
AcDbLinetypeTableRecord
  2
CENTER
 70
64
  3
____ _ ____ _ ____ _ ____ _ ____ _ ____ _ ____
 72
65
 73
4
 40
0.6
 49
0.375
 74
0
 49
-0.075
 74
0
 49
0.075
 74
0
 49
-0.075
 74
0
  0
LTYPE
  5
1F6
100
AcDbSymbolTableRecord
100
AcDbLinetypeTableRecord
  2
HIDDEN
 70
64
  3
- - - - - - - - - - - - - - - - - - - -
 72
65
 73
2
 40
0.2
 49
0.1
 74
0
 49
-0.1
 74
0
  0
LTYPE
  5
1F7
100
AcDbSymbolTableRecord
100
AcDbLinetypeTableRecord
  2
PHANTOM
 70
64
  3
_____ _ _ _____ _ _ _____ _ _ _____
 72
65
 73
6
 40
0.8
 49
0.45
 74
0
 49
-0.05
 74
0
 49
0.1
 74
0
 49
-0.05
 74
0
 49
0.1
 74
0
 49
-0.05
 74
0
  0
LTYPE
  5
1F8
100
AcDbSymbolTableRecord
100
AcDbLinetypeTableRecord
  2
DOT
 70
64
  3
. . . . . . . . . . . . . . . . . . . .
 72
65
 73
2
 40
0.2
 49
0.1
 74
0
 49
-0.1
 74
0
  0
LTYPE
  5
1F9
100
AcDbSymbolTableRecord
100
AcDbLinetypeTableRecord
  2
DASHED
 70
64
  3
- - - - - - - - - - - - - - - - - - - -
 72
65
 73
2
 40
0.2
 49
0.1
 74
0
 49
-0.1
 74
0
  0
ENDTAB
  0
TABLE
  2
LAYER
  5
2
100
AcDbSymbolTable
 70
36
  0
LAYER
  5
10
100
AcDbSymbolTableRecord
100
AcDbLayerTableRecord
  2
0
 70
0
 62
7
  6
CONTINUOUS
370
-3
390
F
  0
LAYER
  5
1FA
100
AcDbSymbolTableRecord
100
AcDbLayerTableRecord
  2
DEFAULT_1
 70
0
 62
7
  6
CENTER
370
-3
390
F
  0
LAYER
  5
1FB
100
AcDbSymbolTableRecord
100
AcDbLayerTableRecord
  2
DEFAULT_2
 70
0
 62
1
  6
HIDDEN
370
-3
390
F
  0
LAYER
  5
1FC
100
AcDbSymbolTableRecord
100
AcDbLayerTableRecord
  2
DEFAULT_3
 70
0
 62
7
  6
PHANTOM
370
-3
390
F
  0
LAYER
  5
1FD
100
AcDbSymbolTableRecord
100
AcDbLayerTableRecord
  2
BG_STARTBEZUEGE
 70
0
 62
7
  6
CONTINUOUS
370
-3
390
F
  0
LAYER
  5
1FE
100
AcDbSymbolTableRecord
100
AcDbLayerTableRecord
  2
HILFEN
 70
0
 62
7
  6
CONTINUOUS
370
-3
390
F
  0
LAYER
  5
1FF
100
AcDbSymbolTableRecord
100
AcDbLayerTableRecord
  2
PLATZIERUNG
 70
0
 62
7
  6
CONTINUOUS
370
-3
390
F
  0
LAYER
  5
200
100
AcDbSymbolTableRecord
100
AcDbLayerTableRecord
  2
T_STARTBEZUEGE
 70
0
 62
7
  6
CONTINUOUS
370
-3
390
F
  0
LAYER
  5
201
100
AcDbSymbolTableRecord
100
AcDbLayerTableRecord
  2
_03_2D_ZEICHNUNG_BEMASSUNGEN
 70
0
 62
7
  6
CONTINUOUS
370
-3
390
F
  0
LAYER
  5
202
100
AcDbSymbolTableRecord
100
AcDbLayerTableRecord
  2
_04_NOTIZEN
 70
0
 62
7
  6
CONTINUOUS
370
-3
390
F
  0
LAYER
  5
203
100
AcDbSymbolTableRecord
100
AcDbLayerTableRecord
  2
_05_2D_ELEMENTE
 70
0
 62
7
  6
CONTINUOUS
370
-3
390
F
  0
LAYER
  5
204
100
AcDbSymbolTableRecord
100
AcDbLayerTableRecord
  2
_07_EINRASTLINIEN
 70
0
 62
7
  6
CONTINUOUS
370
-3
390
F
  0
LAYER
  5
205
100
AcDbSymbolTableRecord
100
AcDbLayerTableRecord
  2
_21_KURVEN
 70
0
 62
7
  6
CONTINUOUS
370
-3
390
F
  0
LAYER
  5
206
100
AcDbSymbolTableRecord
100
AcDbLayerTableRecord
  2
_24_IMPORT
 70
0
 62
7
  6
CONTINUOUS
370
-3
390
F
  0
LAYER
  5
207
100
AcDbSymbolTableRecord
100
AcDbLayerTableRecord
  2
_26_BEZUGSACHSEN
 70
0
 62
7
  6
CONTINUOUS
370
-3
390
F
  0
LAYER
  5
208
100
AcDbSymbolTableRecord
100
AcDbLayerTableRecord
  2
_27_BEZUGSEBENEN
 70
0
 62
7
  6
CONTINUOUS
370
-3
390
F
  0
LAYER
  5
209
100
AcDbSymbolTableRecord
100
AcDbLayerTableRecord
  2
_28_BEZUGSPUNKTE
 70
0
 62
7
  6
CONTINUOUS
370
-3
390
F
  0
LAYER
  5
20A
100
AcDbSymbolTableRecord
100
AcDbLayerTableRecord
  2
_29_KOORDINATENSYSTEME
 70
0
 62
7
  6
CONTINUOUS
370
-3
390
F
  0
LAYER
  5
20B
100
AcDbSymbolTableRecord
100
AcDbLayerTableRecord
  2
_30_VOLUMEN
 70
0
 62
7
  6
CONTINUOUS
370
-3
390
F
  0
ENDTAB
  0
TABLE
  2
STYLE
  5
3
100
AcDbSymbolTable
 70
1
  0
STYLE
  5
11
100
AcDbSymbolTableRecord
100
AcDbTextStyleTableRecord
  2
STANDARD
 70
0
 40
0.0
 41
0.7
 50
0.0
 71
0
 42
0.2
  3
SIMPLEX.SHX
  4

  0
STYLE
  5
20C
100
AcDbSymbolTableRecord
100
AcDbTextStyleTableRecord
  2
TEXTSTYLE_1
 70
0
 40
0.0
 41
0.8
 50
0.0
 71
0
 42
0.2
  3
gdt
  4

  0
ENDTAB
  0
TABLE
  2
VIEW
  5
6
100
AcDbSymbolTable
 70
0
  0
ENDTAB
  0
TABLE
  2
UCS
  5
7
100
AcDbSymbolTable
 70
0
  0
ENDTAB
  0
TABLE
  2
APPID
  5
9
100
AcDbSymbolTable
 70
1
  0
APPID
  5
20D
100
AcDbSymbolTableRecord
100
AcDbRegAppTableRecord
  2
ACAD
 70
0
  0
ENDTAB
  0
TABLE
  2
BLOCK_RECORD
  5
1
100
AcDbSymbolTable
 70
0
  0
BLOCK_RECORD
  5
20E
100
AcDbSymbolTableRecord
100
AcDbBlockTableRecord
  2
*Model_Space
  0
BLOCK_RECORD
  5
20F
100
AcDbSymbolTableRecord
100
AcDbBlockTableRecord
  2
*Paper_Space
  0
BLOCK_RECORD
  5
210
100
AcDbSymbolTableRecord
100
AcDbBlockTableRecord
  2
_FILLED
  0
BLOCK_RECORD
  5
211
100
AcDbSymbolTableRecord
100
AcDbBlockTableRecord
  2
*D0
  0
BLOCK_RECORD
  5
212
100
AcDbSymbolTableRecord
100
AcDbBlockTableRecord
  2
*D1
  0
BLOCK_RECORD
  5
213
100
AcDbSymbolTableRecord
100
AcDbBlockTableRecord
  2
*D2
  0
ENDTAB
  0
TABLE
  2
DIMSTYLE
  5
A
100
AcDbSymbolTable
 70
1
100
AcDbDimStyleTable
 71
0
  0
DIMSTYLE
105
214
100
AcDbSymbolTableRecord
100
AcDbDimStyleTableRecord
  2
STANDARD
 70
0
  3

  4

 40
1.0
 41
3.5
 42
0.0
 43
0.38
 44
1.5
 45
0.0
 46
0.0
 47
0.05
 48
0.05
140
3.5
141
0.09
142
0.0
143
25.4
144
1.0
145
0.0
146
1.0
147
0.625
 71
1.0
 72
0.0
 73
0
 74
0
 75
0
 76
0
 77
1
 78
8
 79
2
170
0
171
1
172
0
173
0
174
0
175
0
176
0
177
0
178
2
270
2
179
2
271
2
272
2
273
2
274
2
275
0
280
0
281
0
282
0
283
1
284
8
285
0
286
0
287
3
288
0
340
11
278
46
341
210
342
210
343
210
344
210
  0
DIMSTYLE
105
215
100
AcDbSymbolTableRecord
100
AcDbDimStyleTableRecord
  2
DIMSTYLE_1
 70
0
  3

  4

 40
1.0
 41
3.5
 42
0.0
 43
0.38
 44
1.5
 45
0.0
 46
0.0
 47
0.2
 48
0.2
140
3.5
141
0.09
142
0.0
143
25.4
144
1.0
145
0.0
146
1.0
147
0.875
 71
0.0
 72
0.0
 73
0
 74
0
 75
0
 76
0
 77
1
 78
8
 79
2
170
0
171
1
172
0
173
0
174
0
175
0
176
0
177
0
178
2
270
2
179
2
271
2
272
2
273
2
274
2
275
0
280
0
281
0
282
0
283
1
284
8
285
0
286
0
287
3
288
0
340
11
278
46
341
210
342
210
343
210
344
210
  0
DIMSTYLE
105
216
100
AcDbSymbolTableRecord
100
AcDbDimStyleTableRecord
  2
DIMSTYLE_2
 70
0
  3

  4

 40
1.0
 41
3.5
 42
0.0
 43
0.38
 44
1.5
 45
0.0
 46
0.0
 47
0.3
 48
0.3
140
3.5
141
0.09
142
0.0
143
25.4
144
1.0
145
0.0
146
1.0
147
0.875
 71
0.0
 72
0.0
 73
0
 74
0
 75
0
 76
0
 77
1
 78
8
 79
2
170
0
171
1
172
0
173
0
174
0
175
0
176
0
177
0
178
2
270
2
179
2
271
2
272
2
273
2
274
2
275
0
280
0
281
0
282
0
283
1
284
8
285
0
286
0
287
3
288
0
340
11
278
46
341
210
342
210
343
210
344
210
  0
ENDTAB
  0
ENDSEC
  0
SECTION
  2
BLOCKS
  0
BLOCK
  5
20
100
AcDbEntity
  8
0
100
AcDbBlockBegin
  2
*Model_Space
 70
0
 10
0.0
 20
0.0
 30
0.0
  3
*Model_Space
  1

  0
ENDBLK
  5
21
100
AcDbEntity
  8
0
100
AcDbBlockEnd
  0
BLOCK
  5
1C
100
AcDbEntity
  8
0
100
AcDbBlockBegin
  2
*Paper_Space
 70
0
 10
0.0
 20
0.0
 30
0.0
  3
*Paper_Space
  1

  0
ENDBLK
  5
1D
100
AcDbEntity
  8
0
100
AcDbBlockEnd
  0
BLOCK
  5
217
100
AcDbEntity
  8
0
100
AcDbBlockBegin
  2
_FILLED
 70
64
 10
0.0
 20
0.0
  3
_FILLED
  1

  0
SOLID
  5
218
100
AcDbEntity
  8
0
  6
BYBLOCK
 62
0
100
AcDbTrace
 10
0.0
 20
0.0
 11
-1.0
 21
0.125
 12
-1.0
 22
-0.125
 13
-1.0
 23
-0.125
  0
ENDBLK
  5
219
100
AcDbEntity
  8
0
  6
BYBLOCK
 62
0
100
AcDbBlockEnd
  0
BLOCK
  5
21A
100
AcDbEntity
  8
_03_2D_ZEICHNUNG_BEMASSUNGEN
100
AcDbBlockBegin
 62
7
  6
CONTINUOUS
  2
*D0
 70
65
 10
0.0
 20
0.0
  3
*D0
  1

  0
TEXT
  5
21B
100
AcDbEntity
  8
_03_2D_ZEICHNUNG_BEMASSUNGEN
100
AcDbText
 62
2
  6
CONTINUOUS
 10
-9.875
 20
5.625
  7
STANDARD
 40
3.5
  1
16
 50
90.0
 41
0.6785714286
 72
1
 11
-9.875
 21
8.0
100
AcDbText
  0
LINE
  5
21C
100
AcDbEntity
  8
_03_2D_ZEICHNUNG_BEMASSUNGEN
100
AcDbLine
 62
7
  6
CONTINUOUS
 10
0.0
 20
16.0
 11
-10.5
 21
16.0
  0
LINE
  5
21D
100
AcDbEntity
  8
_03_2D_ZEICHNUNG_BEMASSUNGEN
100
AcDbLine
 62
7
  6
CONTINUOUS
 10
-0.0
 20
-0.0
 11
-10.5
 21
0.0
  0
LINE
  5
21E
100
AcDbEntity
  8
_03_2D_ZEICHNUNG_BEMASSUNGEN
100
AcDbLine
 62
7
  6
CONTINUOUS
 10
-9.0
 20
16.0
 11
-9.0
 21
22.0
  0
LINE
  5
21F
100
AcDbEntity
  8
_03_2D_ZEICHNUNG_BEMASSUNGEN
100
AcDbLine
 62
7
  6
CONTINUOUS
 10
-9.0
 20
22.0
 11
-9.0
 21
8.0
  0
LINE
  5
220
100
AcDbEntity
  8
_03_2D_ZEICHNUNG_BEMASSUNGEN
100
AcDbLine
 62
7
  6
CONTINUOUS
 10
-9.0
 20
0.0
 11
-9.0
 21
-6.0
  0
LINE
  5
221
100
AcDbEntity
  8
_03_2D_ZEICHNUNG_BEMASSUNGEN
100
AcDbLine
 62
7
  6
CONTINUOUS
 10
-9.0
 20
-6.0
 11
-9.0
 21
8.0
  0
INSERT
  5
222
100
AcDbEntity
  8
_03_2D_ZEICHNUNG_BEMASSUNGEN
100
AcDbBlockReference
 62
7
  6
CONTINUOUS
  2
_FILLED
 10
-9.0
 20
16.0
 41
3.5
 42
3.5
 43
3.5
 50
270.0
  0
INSERT
  5
223
100
AcDbEntity
  8
_03_2D_ZEICHNUNG_BEMASSUNGEN
100
AcDbBlockReference
 62
7
  6
CONTINUOUS
  2
_FILLED
 10
-9.0
 20
0.0
 41
3.5
 42
3.5
 43
3.5
 50
90.0
  0
ENDBLK
  5
224
100
AcDbEntity
  8
0
  6
BYBLOCK
 62
0
100
AcDbBlockEnd
  0
BLOCK
  5
225
100
AcDbEntity
  8
_03_2D_ZEICHNUNG_BEMASSUNGEN
100
AcDbBlockBegin
 62
7
  6
CONTINUOUS
  2
*D1
 70
65
 10
0.0
 20
0.0
  3
*D1
  1

  0
TEXT
  5
226
100
AcDbEntity
  8
_03_2D_ZEICHNUNG_BEMASSUNGEN
100
AcDbText
 62
2
  6
CONTINUOUS
 10
46.25
 20
29.9148071799
  7
STANDARD
 40
3.5
  1
100
 41
0.7142857143
 72
1
 11
50.0
 21
29.9148071799
100
AcDbText
  0
LINE
  5
227
100
AcDbEntity
  8
_03_2D_ZEICHNUNG_BEMASSUNGEN
100
AcDbLine
 62
7
  6
CONTINUOUS
 10
100.0
 20
0.0
 11
100.0
 21
30.5398071799
  0
LINE
  5
228
100
AcDbEntity
  8
_03_2D_ZEICHNUNG_BEMASSUNGEN
100
AcDbLine
 62
7
  6
CONTINUOUS
 10
0.0
 20
0.0
 11
0.0
 21
30.5398071799
  0
LINE
  5
229
100
AcDbEntity
  8
_03_2D_ZEICHNUNG_BEMASSUNGEN
100
AcDbLine
 62
7
  6
CONTINUOUS
 10
100.0
 20
29.0398071799
 11
50.0
 21
29.0398071799
  0
LINE
  5
22A
100
AcDbEntity
  8
_03_2D_ZEICHNUNG_BEMASSUNGEN
100
AcDbLine
 62
7
  6
CONTINUOUS
 10
0.0
 20
29.0398071799
 11
50.0
 21
29.0398071799
  0
INSERT
  5
22B
100
AcDbEntity
  8
_03_2D_ZEICHNUNG_BEMASSUNGEN
100
AcDbBlockReference
 62
7
  6
CONTINUOUS
  2
_FILLED
 10
100.0
 20
29.0398071799
 41
3.5
 42
3.5
 43
3.5
  0
INSERT
  5
22C
100
AcDbEntity
  8
_03_2D_ZEICHNUNG_BEMASSUNGEN
100
AcDbBlockReference
 62
7
  6
CONTINUOUS
  2
_FILLED
 10
0.0
 20
29.0398071799
 41
3.5
 42
3.5
 43
3.5
 50
180.0
  0
ENDBLK
  5
22D
100
AcDbEntity
  8
0
  6
BYBLOCK
 62
0
100
AcDbBlockEnd
  0
BLOCK
  5
22E
100
AcDbEntity
  8
_03_2D_ZEICHNUNG_BEMASSUNGEN
100
AcDbBlockBegin
 62
7
  6
CONTINUOUS
  2
*D2
 70
65
 10
0.0
 20
0.0
  3
*D2
  1

  0
TEXT
  5
22F
100
AcDbEntity
  8
_03_2D_ZEICHNUNG_BEMASSUNGEN
100
AcDbText
 62
2
  6
CONTINUOUS
 10
108.1644995576
 20
7.25
  7
STANDARD
 40
3.5
  1
20
 50
90.0
 41
0.7857142857
 72
1
 11
108.1644995576
 21
10.0
100
AcDbText
  0
LINE
  5
230
100
AcDbEntity
  8
_03_2D_ZEICHNUNG_BEMASSUNGEN
100
AcDbLine
 62
7
  6
CONTINUOUS
 10
100.0
 20
20.0
 11
110.5394995576
 21
20.0
  0
LINE
  5
231
100
AcDbEntity
  8
_03_2D_ZEICHNUNG_BEMASSUNGEN
100
AcDbLine
 62
7
  6
CONTINUOUS
 10
0.0
 20
0.0
 11
110.5394995576
 21
0.0
  0
LINE
  5
232
100
AcDbEntity
  8
_03_2D_ZEICHNUNG_BEMASSUNGEN
100
AcDbLine
 62
7
  6
CONTINUOUS
 10
109.0394995576
 20
20.0
 11
109.0394995576
 21
10.0
  0
LINE
  5
233
100
AcDbEntity
  8
_03_2D_ZEICHNUNG_BEMASSUNGEN
100
AcDbLine
 62
7
  6
CONTINUOUS
 10
109.0394995576
 20
0.0
 11
109.0394995576
 21
10.0
  0
INSERT
  5
234
100
AcDbEntity
  8
_03_2D_ZEICHNUNG_BEMASSUNGEN
100
AcDbBlockReference
 62
7
  6
CONTINUOUS
  2
_FILLED
 10
109.0394995576
 20
20.0
 41
3.5
 42
3.5
 43
3.5
 50
90.0
  0
INSERT
  5
235
100
AcDbEntity
  8
_03_2D_ZEICHNUNG_BEMASSUNGEN
100
AcDbBlockReference
 62
7
  6
CONTINUOUS
  2
_FILLED
 10
109.0394995576
 20
0.0
 41
3.5
 42
3.5
 43
3.5
 50
270.0
  0
ENDBLK
  5
236
100
AcDbEntity
  8
0
  6
BYBLOCK
 62
0
100
AcDbBlockEnd
  0
ENDSEC
  0
SECTION
  2
ENTITIES
  0
DIMENSION
  5
237
100
AcDbEntity
  8
_03_2D_ZEICHNUNG_BEMASSUNGEN
100
AcDbDimension
 62
7
  6
CONTINUOUS
  2
*D0
 10
-9.0
 20
0.0
 11
-9.0
 21
7.499999876
 70
160
 71
2
 42
16.0
  3
DIMSTYLE_1
100
AcDbAlignedDimension
 13
0.0
 23
16.0
 14
-0.0
 24
-0.0
 50
270.0
100
AcDbRotatedDimension
  0
DIMENSION
  5
238
100
AcDbEntity
  8
_03_2D_ZEICHNUNG_BEMASSUNGEN
100
AcDbDimension
 62
7
  6
CONTINUOUS
  2
*D1
 10
0.0
 20
29.0398071799
 11
49.5000002289
 21
29.0398071799
 70
160
 71
2
 42
100.0
  3
DIMSTYLE_2
100
AcDbAlignedDimension
 13
100.0
 23
0.0
 14
0.0
 24
0.0
 50
180.0
100
AcDbRotatedDimension
  0
DIMENSION
  5
239
100
AcDbEntity
  8
_03_2D_ZEICHNUNG_BEMASSUNGEN
100
AcDbDimension
 62
7
  6
CONTINUOUS
  2
*D2
 10
109.0394995576
 20
0.0
 11
109.0394995576
 21
9.4999987334
 70
160
 71
2
 42
20.0
  3
DIMSTYLE_1
100
AcDbAlignedDimension
 13
100.0
 23
20.0
 14
0.0
 24
0.0
 50
270.0
100
AcDbRotatedDimension
  0
LINE
  5
23A
100
AcDbEntity
  8
_30_VOLUMEN
100
AcDbLine
 62
4
  6
CONTINUOUS
 10
-0.0
 20
0.5
 11
0.0
 21
15.5
  0
LINE
  5
23B
100
AcDbEntity
  8
_30_VOLUMEN
100
AcDbLine
 62
4
  6
CONTINUOUS
 10
0.5
 20
-0.0
 11
0.5
 21
16.0
  0
LINE
  5
23C
100
AcDbEntity
  8
_30_VOLUMEN
100
AcDbLine
 62
4
  6
CONTINUOUS
 10
0.5
 20
16.0
 11
0.0
 21
15.5
  0
LINE
  5
23D
100
AcDbEntity
  8
_30_VOLUMEN
100
AcDbLine
 62
4
  6
CONTINUOUS
 10
0.5
 20
-0.0
 11
-0.0
 21
0.5
  0
LINE
  5
23E
100
AcDbEntity
  8
_30_VOLUMEN
100
AcDbLine
 62
4
  6
CONTINUOUS
 10
0.5
 20
-0.0
 11
77.0
 21
0.0
  0
LINE
  5
23F
100
AcDbEntity
  8
0
100
AcDbLine
 62
4
  6
CONTINUOUS
 10
77.0
 20
0.0
 11
91.2904700668
 21
0.0
  0
LINE
  5
240
100
AcDbEntity
  8
_30_VOLUMEN
100
AcDbLine
 62
4
  6
CONTINUOUS
 10
89.3689915227
 20
14.075914309
 11
84.2046494556
 21
12.6481669859
  0
LINE
  5
241
100
AcDbEntity
  8
_30_VOLUMEN
100
AcDbLine
 62
4
  6
CONTINUOUS
 10
94.3808229937
 20
16.552610231
 11
83.1547020397
 21
13.4490078877
  0
LINE
  5
242
100
AcDbEntity
  8
_30_VOLUMEN
100
AcDbLine
 62
4
  6
CONTINUOUS
 10
98.5644883858
 20
10.1070317389
 11
98.6510031057
 21
10.1146007961
  0
LINE
  5
243
100
AcDbEntity
  8
_30_VOLUMEN
100
AcDbLine
 62
4
  6
CONTINUOUS
 10
98.9566560606
 20
10.4202537509
 11
93.5388082372
 21
9.9462534857
  0
LINE
  5
244
100
AcDbEntity
  8
_21_KURVEN
100
AcDbLine
 62
7
  6
CONTINUOUS
 10
98.9566560606
 20
10.4202537509
 11
93.5388082372
 21
9.9462534857
  0
LINE
  5
245
100
AcDbEntity
  8
_30_VOLUMEN
100
AcDbLine
 62
4
  6
CONTINUOUS
 10
77.5008951612
 20
10.2964048824
 11
80.0358891392
 21
10.3236365262
  0
LINE
  5
246
100
AcDbEntity
  8
_30_VOLUMEN
100
AcDbLine
 62
4
  6
CONTINUOUS
 10
77.5008951612
 20
10.2964048824
 11
83.1547020397
 21
13.4490078877
  0
LINE
  5
247
100
AcDbEntity
  8
_30_VOLUMEN
100
AcDbLine
 62
4
  6
CONTINUOUS
 10
84.2046494556
 20
12.6481669859
 11
80.0358891392
 21
10.3236365262
  0
LINE
  5
248
100
AcDbEntity
  8
_30_VOLUMEN
100
AcDbLine
 62
4
  6
CONTINUOUS
 10
94.5624749775
 20
16.3799783512
 11
89.3689915227
 21
14.075914309
  0
LINE
  5
249
100
AcDbEntity
  8
_26_BEZUGSACHSEN
100
AcDbLine
 62
4
  6
CONTINUOUS
 10
90.4093838403
 20
18.590940767
 11
87.3207174746
 21
18.3207174746
  0
LINE
  5
24A
100
AcDbEntity
  8
_30_VOLUMEN
100
AcDbLine
 62
4
  6
CONTINUOUS
 10
90.7896789645
 20
19.2305527383
 11
99.5672135965
 21
19.9984875123
  0
LINE
  5
24B
100
AcDbEntity
  8
_21_KURVEN
100
AcDbLine
 62
7
  6
CONTINUOUS
 10
90.7896789645
 20
19.2305527383
 11
99.5672135965
 21
19.9984875123
  0
LINE
  5
24C
100
AcDbEntity
  8
_30_VOLUMEN
100
AcDbLine
 62
4
  6
CONTINUOUS
 10
0.5
 20
16.0
 11
77.0
 21
16.0
  0
LINE
  5
24D
100
AcDbEntity
  8
0
100
AcDbLine
 62
4
  6
CONTINUOUS
 10
77.0
 20
16.0
 11
85.0
 21
16.0
  0
LINE
  5
24E
100
AcDbEntity
  8
_30_VOLUMEN
100
AcDbLine
 62
4
  6
CONTINUOUS
 10
85.0
 20
16.0
 11
87.3207174746
 21
18.3207174746
  0
LINE
  5
24F
100
AcDbEntity
  8
_30_VOLUMEN
100
AcDbLine
 62
4
  6
CONTINUOUS
 10
90.545204561
 20
19.1167599322
 11
90.2395516062
 21
18.8111069773
  0
LINE
  5
250
100
AcDbEntity
  8
_30_VOLUMEN
100
AcDbLine
 62
7
  6
CONTINUOUS
 10
90.431110322
 20
18.8686476721
 11
90.128860834
 21
18.5663981841
  0
LINE
  5
251
100
AcDbEntity
  8
_30_VOLUMEN
100
AcDbLine
 62
4
  6
CONTINUOUS
 10
88.9382133759
 20
5.8440920545
 11
85.2914446383
 21
2.7692453689
  0
LINE
  5
252
100
AcDbEntity
  8
_30_VOLUMEN
100
AcDbLine
 62
4
  6
CONTINUOUS
 10
88.1501620393
 20
0.0
 11
86.3811619342
 21
1.7690001051
  0
LINE
  5
253
100
AcDbEntity
  8
0
100
AcDbLine
 62
4
  6
CONTINUOUS
 10
77.0
 20
16.0
 11
77.0
 21
0.0
  0
LINE
  5
254
100
AcDbEntity
  8
_28_BEZUGSPUNKTE
100
AcDbLine
 62
1
  6
CONTINUOUS
 10
100.15625
 20
20.15625
 11
99.84375
 21
19.84375
  0
LINE
  5
255
100
AcDbEntity
  8
_30_VOLUMEN
100
AcDbLine
 62
4
  6
CONTINUOUS
 10
96.1951263449
 20
14.0331879777
 11
92.0914779885
 21
10.1625834183
  0
LINE
  5
256
100
AcDbEntity
  8
_30_VOLUMEN
100
AcDbLine
 62
4
  6
CONTINUOUS
 10
84.5232208348
 20
0.2024395572
 11
89.4690859381
 21
4.3726455709
  0
LINE
  5
257
100
AcDbEntity
  8
_30_VOLUMEN
100
AcDbLine
 62
4
  6
CONTINUOUS
 10
83.1547020397
 20
13.4490078877
 11
84.2046494556
 21
12.6481669859
  0
LINE
  5
258
100
AcDbEntity
  8
_30_VOLUMEN
100
AcDbLine
 62
4
  6
CONTINUOUS
 10
77.5008951612
 20
10.2964048824
 11
84.5232208348
 21
0.2024395572
  0
LINE
  5
259
100
AcDbEntity
  8
_30_VOLUMEN
100
AcDbLine
 62
4
  6
CONTINUOUS
 10
85.2914446383
 20
2.7692453689
 11
80.0358891392
 21
10.3236365262
  0
LINE
  5
25A
100
AcDbEntity
  8
_30_VOLUMEN
100
AcDbLine
 62
4
  6
CONTINUOUS
 10
79.3878187441
 20
16.0
 11
79.7798485667
 21
11.5671655415
  0
LINE
  5
25B
100
AcDbEntity
  8
_30_VOLUMEN
100
AcDbLine
 62
4
  6
CONTINUOUS
 10
80.09
 20
6.5747981553
 11
80.09
 21
0.0
  0
LINE
  5
25C
100
AcDbEntity
  8
_30_VOLUMEN
100
AcDbLine
 62
4
  6
CONTINUOUS
 10
88.9382133759
 20
5.8440920545
 11
92.0914779885
 21
10.1625834183
  0
LINE
  5
25D
100
AcDbEntity
  8
_30_VOLUMEN
100
AcDbLine
 62
7
  6
CONTINUOUS
 10
98.9566560606
 20
10.4202537509
 11
98.6510031057
 21
10.1146007961
  0
LINE
  5
25E
100
AcDbEntity
  8
_30_VOLUMEN
100
AcDbLine
 62
4
  6
CONTINUOUS
 10
99.2011304641
 20
10.5340465571
 11
98.8954775092
 21
10.2283936022
  0
LINE
  5
25F
100
AcDbEntity
  8
_30_VOLUMEN
100
AcDbLine
 62
4
  6
CONTINUOUS
 10
84.5232208348
 20
0.2024395572
 11
85.2914446383
 21
2.7692453689
  0
LINE
  5
260
100
AcDbEntity
  8
_30_VOLUMEN
100
AcDbLine
 62
4
  6
CONTINUOUS
 10
89.4690859381
 20
4.3726455709
 11
96.3235757221
 21
13.7600768756
  0
LINE
  5
261
100
AcDbEntity
  8
_30_VOLUMEN
100
AcDbLine
 62
4
  6
CONTINUOUS
 10
98.2928681352
 20
7.0023980685
 11
91.2904700668
 21
0.0
  0
LINE
  5
262
100
AcDbEntity
  8
_30_VOLUMEN
100
AcDbLine
 62
7
  6
CONTINUOUS
 10
94.3808229937
 20
16.552610231
 11
94.5624749775
 21
16.3799783512
  0
LINE
  5
263
100
AcDbEntity
  8
_30_VOLUMEN
100
AcDbLine
 62
4
  6
CONTINUOUS
 10
89.3689915227
 20
14.075914309
 11
92.0914779885
 21
10.1625834183
  0
LINE
  5
264
100
AcDbEntity
  8
_21_KURVEN
100
AcDbLine
 62
7
  6
CONTINUOUS
 10
89.3689915227
 20
14.075914309
 11
92.0914779885
 21
10.1625834183
  0
LINE
  5
265
100
AcDbEntity
  8
_30_VOLUMEN
100
AcDbLine
 62
4
  6
CONTINUOUS
 10
89.4690859381
 20
4.3726455709
 11
88.9382133759
 21
5.8440920545
  0
LINE
  5
266
100
AcDbEntity
  8
_30_VOLUMEN
100
AcDbLine
 62
4
  6
CONTINUOUS
 10
90.1585912429
 20
15.385321155
 11
90.431110322
 21
18.8686476721
  0
LINE
  5
267
100
AcDbEntity
  8
_21_KURVEN
100
AcDbLine
 62
7
  6
CONTINUOUS
 10
90.1585912429
 20
15.385321155
 11
90.431110322
 21
18.8686476721
  0
LINE
  5
268
100
AcDbEntity
  8
_21_KURVEN
100
AcDbLine
 62
1
  6
CENTER
 10
90.1629097602
 20
15.4034694821
 11
90.1609710614
 21
15.3861066795
  0
LINE
  5
269
100
AcDbEntity
  8
_30_VOLUMEN
100
AcDbLine
 62
7
  6
CONTINUOUS
 10
96.3235757221
 20
13.7600768756
 11
96.1951263449
 21
14.0331879777
  0
LINE
  5
26A
100
AcDbEntity
  8
_21_KURVEN
100
AcDbLine
 62
7
  6
CONTINUOUS
 10
100.002518857
 20
19.5671215413
 11
99.3152247031
 21
10.7821588171
  0
LINE
  5
26B
100
AcDbEntity
  8
_30_VOLUMEN
100
AcDbLine
 62
4
  6
CONTINUOUS
 10
100.002518857
 20
19.5671215413
 11
99.3152247031
 21
10.7821588171
  0
LINE
  5
26C
100
AcDbEntity
  8
_26_BEZUGSACHSEN
100
AcDbLine
 62
4
  6
CONTINUOUS
 10
98.5890782224
 20
10.3880948571
 11
98.2928681352
 21
7.0023980685
  0
LINE
  5
26D
100
AcDbEntity
  8
_28_BEZUGSPUNKTE
100
AcDbLine
 62
1
  6
CONTINUOUS
 10
100.15625
 20
19.84375
 11
99.84375
 21
20.15625
  0
ARC
  5
26E
100
AcDbEntity
  8
_30_VOLUMEN
100
AcDbCircle
 62
7
  6
CONTINUOUS
 10
94.7178069651
 20
14.6390661249
 40
1.8830329583
100
AcDbArc
 50
315.0386716871
 51
331.2301921428
  0
ARC
  5
26F
100
AcDbEntity
  8
_30_VOLUMEN
100
AcDbCircle
 62
4
  6
CONTINUOUS
 10
94.5820194352
 20
14.5020659865
 40
1.8823937144
100
AcDbArc
 50
320.8858188601
 51
333.3271554992
  0
ARC
  5
270
100
AcDbEntity
  8
_30_VOLUMEN
100
AcDbCircle
 62
4
  6
CONTINUOUS
 10
94.5932235994
 20
14.4936079453
 40
1.8683646743
100
AcDbArc
 50
318.1120961446
 51
320.8703067811
  0
ARC
  5
271
100
AcDbEntity
  8
_30_VOLUMEN
100
AcDbCircle
 62
4
  6
CONTINUOUS
 10
94.5993374437
 20
14.4926903869
 40
1.862710048
100
AcDbArc
 50
333.3457314307
 51
337.0188703192
  0
ARC
  5
272
100
AcDbEntity
  8
_30_VOLUMEN
100
AcDbCircle
 62
7
  6
CONTINUOUS
 10
94.7364626792
 20
14.62390309
 40
1.8595041077
100
AcDbArc
 50
335.5401350619
 51
341.4131451059
  0
ARC
  5
273
100
AcDbEntity
  8
_30_VOLUMEN
100
AcDbCircle
 62
7
  6
CONTINUOUS
 10
94.7568195292
 20
14.6155030916
 40
1.8374963529
100
AcDbArc
 50
331.2887506993
 51
335.5157275143
  0
ARC
  5
274
100
AcDbEntity
  8
_30_VOLUMEN
100
AcDbCircle
 62
4
  6
CONTINUOUS
 10
94.789294308
 20
14.570136643
 40
1.7838066477
100
AcDbArc
 50
309.57038126
 51
314.9827287926
  0
ARC
  5
275
100
AcDbEntity
  8
_30_VOLUMEN
100
AcDbCircle
 62
4
  6
CONTINUOUS
 10
94.853264012
 20
14.8428469398
 40
1.7738351186
100
AcDbArc
 50
100.7934071176
 51
105.4465163942
  0
ARC
  5
276
100
AcDbEntity
  8
_30_VOLUMEN
100
AcDbCircle
 62
4
  6
CONTINUOUS
 10
94.8988792862
 20
14.8000112022
 40
1.7638660205
100
AcDbArc
 50
323.8730239343
 51
329.1818877855
  0
SPLINE
  5
277
100
AcDbEntity
  8
_30_VOLUMEN
100
AcDbSpline
 62
4
  6
CONTINUOUS
 70
0
 71
3
 72
11
 73
7
 74
0
 42
0.0000001
 43
0.0000001
 44
0.0000000001
 40
0.0
 40
0.0
 40
0.0
 40
0.0
 40
0.2493328465
 40
0.500014802
 40
0.7506876982
 40
1.0
 40
1.0
 40
1.0
 40
1.0
 10
100.002518857
 20
19.5671215413
 30
0.0
 10
100.0069989638
 20
19.624386063
 30
0.0
 10
99.9900060034
 20
19.7426054914
 30
0.0
 10
99.8936480372
 20
19.8925937127
 30
0.0
 10
99.7427942501
 20
19.9875832798
 30
0.0
 10
99.6244298126
 20
20.0034932826
 30
0.0
 10
99.5672135965
 20
19.9984875123
 30
0.0
  0
SPLINE
  5
278
100
AcDbEntity
  8
_30_VOLUMEN
100
AcDbSpline
 62
4
  6
CONTINUOUS
 70
0
 71
3
 72
9
 73
5
 74
0
 42
0.0000001
 43
0.0000001
 44
0.0000000001
 40
0.0
 40
0.0
 40
0.0
 40
0.0
 40
0.5000778014
 40
1.0
 40
1.0
 40
1.0
 40
1.0
 10
90.7896789645
 20
19.2305527383
 30
0.0
 10
90.7442125081
 20
19.2265749388
 30
0.0
 10
90.6540405207
 20
19.2024543536
 30
0.0
 10
90.5774419662
 20
19.1490475512
 30
0.0
 10
90.5451795505
 20
19.1167851583
 30
0.0
  0
SPLINE
  5
279
100
AcDbEntity
  8
_30_VOLUMEN
100
AcDbSpline
 62
4
  6
CONTINUOUS
 70
0
 71
3
 72
9
 73
5
 74
0
 42
0.0000001
 43
0.0000001
 44
0.0000000001
 40
0.0
 40
0.0
 40
0.0
 40
0.0
 40
0.5001197338
 40
1.0
 40
1.0
 40
1.0
 40
1.0
 10
90.1254573672
 20
18.5629947173
 30
0.0
 10
90.1290642077
 20
18.6090971899
 30
0.0
 10
90.1528701508
 20
18.7006794895
 30
0.0
 10
90.2068432557
 20
18.7784488867
 30
0.0
 10
90.2395265956
 20
18.8111322035
 30
0.0
  0
SPLINE
  5
27A
100
AcDbEntity
  8
_30_VOLUMEN
100
AcDbSpline
 62
4
  6
CONTINUOUS
 70
0
 71
3
 72
9
 73
5
 74
0
 42
0.0000001
 43
0.0000001
 44
0.0000000001
 40
0.0
 40
0.0
 40
0.0
 40
0.0
 40
0.4998802662
 40
1.0
 40
1.0
 40
1.0
 40
1.0
 10
99.2011554747
 20
10.5340213309
 30
0.0
 10
99.2338388146
 20
10.5667046477
 30
0.0
 10
99.2878119195
 20
10.6444740449
 30
0.0
 10
99.3116178625
 20
10.7360563445
 30
0.0
 10
99.3152247031
 20
10.7821588171
 30
0.0
  0
SPLINE
  5
27B
100
AcDbEntity
  8
_30_VOLUMEN
100
AcDbSpline
 62
4
  6
CONTINUOUS
 70
0
 71
3
 72
9
 73
5
 74
0
 42
0.0000001
 43
0.0000001
 44
0.0000000001
 40
0.0
 40
0.0
 40
0.0
 40
0.0
 40
0.4999221986
 40
1.0
 40
1.0
 40
1.0
 40
1.0
 10
98.8955025198
 20
10.2283683761
 30
0.0
 10
98.8632401041
 20
10.1961059832
 30
0.0
 10
98.7866415495
 20
10.1426991809
 30
0.0
 10
98.6964695622
 20
10.1185785956
 30
0.0
 10
98.6510031057
 20
10.1146007961
 30
0.0
  0
SPLINE
  5
27C
100
AcDbEntity
  8
_30_VOLUMEN
100
AcDbSpline
 62
4
  6
CONTINUOUS
 70
0
 71
3
 72
11
 73
7
 74
0
 42
0.0000001
 43
0.0000001
 44
0.0000000001
 40
0.0
 40
0.0
 40
0.0
 40
0.0
 40
0.2504256256
 40
0.5005854565
 40
0.7500977391
 40
1.0
 40
1.0
 40
1.0
 40
1.0
 10
97.1296020292
 20
14.99474909
 30
0.0
 10
97.1550780811
 20
14.7313883291
 30
0.0
 10
97.1133345897
 20
14.1915148593
 30
0.0
 10
96.7794134067
 20
13.4552660596
 30
0.0
 10
96.2125652635
 20
12.8796557811
 30
0.0
 10
95.7242791454
 20
12.6480418455
 30
0.0
 10
95.4696251966
 20
12.5782781548
 30
0.0
  0
SPLINE
  5
27D
100
AcDbEntity
  8
_30_VOLUMEN
100
AcDbSpline
 62
4
  6
CONTINUOUS
 70
0
 71
3
 72
15
 73
11
 74
0
 42
0.0000001
 43
0.0000001
 44
0.0000000001
 40
0.0
 40
0.0
 40
0.0
 40
0.0
 40
0.1250300426
 40
0.2506677126
 40
0.3761203019
 40
0.5014803433
 40
0.6265352753
 40
0.7512608845
 40
0.8757208217
 40
1.0
 40
1.0
 40
1.0
 40
1.0
 10
97.1296020292
 20
14.99474909
 30
0.0
 10
97.1074694386
 20
15.2235465477
 30
0.0
 10
96.9923121402
 20
15.6781477662
 30
0.0
 10
96.6291359187
 20
16.2781035315
 30
0.0
 10
96.1040742165
 20
16.7450315095
 30
0.0
 10
95.4660789856
 20
17.0362645356
 30
0.0
 10
94.7719124213
 20
17.1268044716
 30
0.0
 10
94.0833814672
 20
17.0076767332
 30
0.0
 10
93.4638452016
 20
16.6889146609
 30
0.0
 10
93.1320825339
 20
16.3622141756
 30
0.0
 10
92.9955481392
 20
16.1790100346
 30
0.0
  0
SPLINE
  5
27E
100
AcDbEntity
  8
_30_VOLUMEN
100
AcDbSpline
 62
4
  6
CONTINUOUS
 70
0
 71
3
 72
16
 73
12
 74
0
 42
0.0000001
 43
0.0000001
 44
0.0000000001
 40
0.0
 40
0.0
 40
0.0
 40
0.0
 40
0.1242756862
 40
0.2486596777
 40
0.3733105058
 40
0.4359512342
 40
0.4986800379
 40
0.6239932951
 40
0.7494085423
 40
0.8749095486
 40
1.0
 40
1.0
 40
1.0
 40
1.0
 10
92.9205590915
 20
16.1584174635
 30
0.0
 10
93.0542904159
 20
16.355820321
 30
0.0
 10
93.3858975742
 20
16.7113372765
 30
0.0
 10
94.0198904719
 20
17.0669983245
 30
0.0
 10
94.615902106
 20
17.1893916586
 30
0.0
 10
95.0969866897
 20
17.1755962546
 30
0.0
 10
95.5718420305
 20
17.0894802787
 30
0.0
 10
96.1327312219
 20
16.8458114586
 30
0.0
 10
96.6871241935
 20
16.3664794167
 30
0.0
 10
97.0720974917
 20
15.743673493
 30
0.0
 10
97.1931531909
 20
15.2692820229
 30
0.0
 10
97.2162615565
 20
15.0303974111
 30
0.0
  0
SPLINE
  5
27F
100
AcDbEntity
  8
_30_VOLUMEN
100
AcDbSpline
 62
4
  6
CONTINUOUS
 70
0
 71
3
 72
9
 73
5
 74
0
 42
0.0000001
 43
0.0000001
 44
0.0000000001
 40
0.0
 40
0.0
 40
0.0
 40
0.0
 40
0.4998802662
 40
1.0
 40
1.0
 40
1.0
 40
1.0
 10
90.5451795505
 20
19.1167851583
 30
0.0
 10
90.5124962105
 20
19.0841018415
 30
0.0
 10
90.4585231056
 20
19.0063324443
 30
0.0
 10
90.4347171626
 20
18.9147501448
 30
0.0
 10
90.431110322
 20
18.8686476721
 30
0.0
  0
SPLINE
  5
280
100
AcDbEntity
  8
_30_VOLUMEN
100
AcDbSpline
 62
4
  6
CONTINUOUS
 70
0
 71
3
 72
11
 73
7
 74
0
 42
0.0000001
 43
0.0000001
 44
0.0000000001
 40
0.0
 40
0.0
 40
0.0
 40
0.0
 40
0.2505448104
 40
0.5004953253
 40
0.7500828241
 40
1.0
 40
1.0
 40
1.0
 40
1.0
 10
97.2162615565
 20
15.0303974111
 30
0.0
 10
97.2430072687
 20
14.7539114327
 30
0.0
 10
97.1972384811
 20
14.1869178892
 30
0.0
 10
96.835919068
 20
13.4185346906
 30
0.0
 10
96.2281680443
 20
12.8264417321
 30
0.0
 10
95.7077135589
 20
12.5993306134
 30
0.0
 10
95.4381751606
 20
12.5351217162
 30
0.0
  0
SPLINE
  5
281
100
AcDbEntity
  8
_30_VOLUMEN
100
AcDbSpline
 62
4
  6
CONTINUOUS
 70
0
 71
3
 72
9
 73
5
 74
0
 42
0.0000001
 43
0.0000001
 44
0.0000000001
 40
0.0
 40
0.0
 40
0.0
 40
0.0
 40
0.5000778014
 40
1.0
 40
1.0
 40
1.0
 40
1.0
 10
98.9566560606
 20
10.4202537509
 30
0.0
 10
99.0021225171
 20
10.4242315504
 30
0.0
 10
99.0922945044
 20
10.4483521357
 30
0.0
 10
99.1688930589
 20
10.5017589381
 30
0.0
 10
99.2011554747
 20
10.5340213309
 30
0.0
  0
SPLINE
  5
282
100
AcDbEntity
  8
_21_KURVEN
100
AcDbSpline
 62
7
  6
CONTINUOUS
 70
0
 71
3
 72
8
 73
4
 74
0
 42
0.0000001
 43
0.0000001
 44
0.0000000001
 40
0.0
 40
0.0
 40
0.0
 40
0.0
 40
1.0
 40
1.0
 40
1.0
 40
1.0
 10
90.7896789645
 20
19.2305527383
 30
0.0
 10
90.7730970426
 20
19.2289265583
 30
0.0
 10
90.7571103999
 20
19.2265389718
 30
0.0
 10
90.7398196908
 20
19.222972604
 30
0.0
  0
SPLINE
  5
283
100
AcDbEntity
  8
_21_KURVEN
100
AcDbSpline
 62
7
  6
CONTINUOUS
 70
0
 71
3
 72
8
 73
4
 74
0
 42
0.0000001
 43
0.0000001
 44
0.0000000001
 40
0.0
 40
0.0
 40
0.0
 40
0.0
 40
1.0
 40
1.0
 40
1.0
 40
1.0
 10
90.7398196915
 20
19.2229726042
 30
0.0
 10
90.696749476
 20
19.2123139628
 30
0.0
 10
90.6562063121
 20
19.1961530954
 30
0.0
 10
90.6162364748
 20
19.1730096821
 30
0.0
  0
SPLINE
  5
284
100
AcDbEntity
  8
_21_KURVEN
100
AcDbSpline
 62
7
  6
CONTINUOUS
 70
0
 71
3
 72
10
 73
6
 74
0
 42
0.0000001
 43
0.0000001
 44
0.0000000001
 40
0.0
 40
0.0
 40
0.0
 40
0.0
 40
0.25
 40
0.5
 40
1.0
 40
1.0
 40
1.0
 40
1.0
 10
90.6162364732
 20
19.1730096811
 30
0.0
 10
90.5948728609
 20
19.1577221359
 30
0.0
 10
90.5530482708
 20
19.1267995255
 30
0.0
 10
90.4800658463
 20
19.046053196
 30
0.0
 10
90.45264371
 20
18.9700543445
 30
0.0
 10
90.438231981
 20
18.9185786714
 30
0.0
  0
SPLINE
  5
285
100
AcDbEntity
  8
_21_KURVEN
100
AcDbSpline
 62
7
  6
CONTINUOUS
 70
0
 71
3
 72
8
 73
4
 74
0
 42
0.0000001
 43
0.0000001
 44
0.0000000001
 40
0.0
 40
0.0
 40
0.0
 40
0.0
 40
1.0
 40
1.0
 40
1.0
 40
1.0
 10
90.4382319802
 20
18.9185786677
 30
0.0
 10
90.4350090347
 20
18.9022465384
 30
0.0
 10
90.4326846393
 20
18.8862500103
 30
0.0
 10
90.431110322
 20
18.8686476715
 30
0.0
  0
SPLINE
  5
286
100
AcDbEntity
  8
_21_KURVEN
100
AcDbSpline
 62
7
  6
CONTINUOUS
 70
0
 71
3
 72
9
 73
5
 74
0
 42
0.0000001
 43
0.0000001
 44
0.0000000001
 40
0.0
 40
0.0
 40
0.0
 40
0.0
 40
0.5
 40
1.0
 40
1.0
 40
1.0
 40
1.0
 10
100.002518857
 20
19.5671215413
 30
0.0
 10
100.003677464
 20
19.604601889
 30
0.0
 10
100.0019798845
 20
19.6840469368
 30
0.0
 10
99.9717251567
 20
19.7548310087
 30
0.0
 10
99.9544502427
 20
19.7904569745
 30
0.0
  0
SPLINE
  5
287
100
AcDbEntity
  8
_21_KURVEN
100
AcDbSpline
 62
7
  6
CONTINUOUS
 70
0
 71
3
 72
9
 73
5
 74
0
 42
0.0000001
 43
0.0000001
 44
0.0000000001
 40
0.0
 40
0.0
 40
0.0
 40
0.0
 40
0.5
 40
1.0
 40
1.0
 40
1.0
 40
1.0
 10
99.9544502385
 20
19.7904569821
 30
0.0
 10
99.9348457238
 20
19.822618298
 30
0.0
 10
99.8898400807
 20
19.8885097144
 30
0.0
 10
99.8258593216
 20
19.9314455775
 30
0.0
 10
99.7915884373
 20
19.9521298009
 30
0.0
  0
SPLINE
  5
288
100
AcDbEntity
  8
_21_KURVEN
100
AcDbSpline
 62
7
  6
CONTINUOUS
 70
0
 71
3
 72
9
 73
5
 74
0
 42
0.0000001
 43
0.0000001
 44
0.0000000001
 40
0.0
 40
0.0
 40
0.0
 40
0.0
 40
0.5
 40
1.0
 40
1.0
 40
1.0
 40
1.0
 10
99.791588444
 20
19.9521297973
 30
0.0
 10
99.7576342206
 20
19.9683881672
 30
0.0
 10
99.684745473
 20
19.9990293128
 30
0.0
 10
99.6059388
 20
19.9999792023
 30
0.0
 10
99.567213592
 20
19.9984875119
 30
0.0
  0
SPLINE
  5
289
100
AcDbEntity
  8
_21_KURVEN
100
AcDbSpline
 62
1
  6
CENTER
 70
0
 71
3
 72
121
 73
117
 74
0
 42
0.0000001
 43
0.0000001
 44
0.0000000001
 40
0.0
 40
0.0
 40
0.0
 40
0.0
 40
0.03125
 40
0.046875
 40
0.0546875
 40
0.0625
 40
0.06640625
 40
0.0703125
 40
0.078125
 40
0.0859375
 40
0.09375
 40
0.109375
 40
0.125
 40
0.1328125
 40
0.13671875
 40
0.140625
 40
0.142578125
 40
0.14453125
 40
0.1484375
 40
0.15625
 40
0.171875
 40
0.1875
 40
0.203125
 40
0.2109375
 40
0.21484375
 40
0.21875
 40
0.2265625
 40
0.234375
 40
0.25
 40
0.265625
 40
0.2734375
 40
0.28125
 40
0.28515625
 40
0.2890625
 40
0.296875
 40
0.3125
 40
0.328125
 40
0.34375
 40
0.3515625
 40
0.35546875
 40
0.357421875
 40
0.359375
 40
0.36328125
 40
0.3671875
 40
0.375
 40
0.390625
 40
0.40625
 40
0.4140625
 40
0.421875
 40
0.4296875
 40
0.43359375
 40
0.4375
 40
0.4453125
 40
0.453125
 40
0.46875
 40
0.484375
 40
0.4921875
 40
0.49609375
 40
0.5
 40
0.50390625
 40
0.5078125
 40
0.515625
 40
0.53125
 40
0.546875
 40
0.5546875
 40
0.5625
 40
0.56640625
 40
0.5703125
 40
0.578125
 40
0.5859375
 40
0.59375
 40
0.609375
 40
0.625
 40
0.6328125
 40
0.63671875
 40
0.640625
 40
0.642578125
 40
0.64453125
 40
0.6484375
 40
0.65625
 40
0.671875
 40
0.6875
 40
0.703125
 40
0.7109375
 40
0.71484375
 40
0.71875
 40
0.7265625
 40
0.734375
 40
0.75
 40
0.765625
 40
0.7734375
 40
0.78125
 40
0.78515625
 40
0.7890625
 40
0.796875
 40
0.8125
 40
0.828125
 40
0.84375
 40
0.8515625
 40
0.85546875
 40
0.857421875
 40
0.859375
 40
0.86328125
 40
0.8671875
 40
0.875
 40
0.890625
 40
0.90625
 40
0.9140625
 40
0.921875
 40
0.9296875
 40
0.93359375
 40
0.9375
 40
0.9453125
 40
0.953125
 40
0.96875
 40
1.0
 40
1.0
 40
1.0
 40
1.0
 10
99.5915545672
 20
15.238208622
 30
0.0
 10
99.5626669011
 20
15.3800796694
 30
0.0
 10
99.5192989143
 20
15.5928750557
 30
0.0
 10
99.4688306365
 20
15.8411754862
 30
0.0
 10
99.4398091822
 20
15.983005523
 30
0.0
 10
99.4220964629
 20
16.0717797842
 30
0.0
 10
99.4069502421
 20
16.1425000024
 30
0.0
 10
99.395367651
 20
16.2143125929
 30
0.0
 10
99.3553822457
 20
16.296259527
 30
0.0
 10
99.3133618831
 20
16.3964231584
 30
0.0
 10
99.2552571771
 20
16.529339262
 30
0.0
 10
99.1833026545
 20
16.6956816516
 30
0.0
 10
99.1112396369
 20
16.8620292571
 30
0.0
 10
99.0605499121
 20
16.9783235454
 30
0.0
 10
99.0320379535
 20
17.0450313492
 30
0.0
 10
99.0131424624
 20
17.0861243995
 30
0.0
 10
99.0004939108
 20
17.1203737434
 30
0.0
 10
98.9788344077
 20
17.1496029342
 30
0.0
 10
98.9425012851
 20
17.2016293795
 30
0.0
 10
98.8687153541
 20
17.3050570144
 30
0.0
 10
98.7639270007
 20
17.4531680481
 30
0.0
 10
98.6377636853
 20
17.630615551
 30
0.0
 10
98.5331917344
 20
17.778964569
 30
0.0
 10
98.4589892286
 20
17.8819340841
 30
0.0
 10
98.4181365077
 20
17.9421306302
 30
0.0
 10
98.3617771457
 20
17.9887387074
 30
0.0
 10
98.2966392562
 20
18.0516539303
 30
0.0
 10
98.1894395118
 20
18.1497024152
 30
0.0
 10
98.0565379888
 20
18.2732615536
 30
0.0
 10
97.9229677372
 20
18.3960964027
 30
0.0
 10
97.8168379585
 20
18.4953037506
 30
0.0
 10
97.7490251546
 20
18.5553218159
 30
0.0
 10
97.6981493672
 20
18.6078690662
 30
0.0
 10
97.6349611105
 20
18.6438743462
 30
0.0
 10
97.5265330854
 20
18.7097747416
 30
0.0
 10
97.3705039823
 20
18.8023913303
 30
0.0
 10
97.1837847552
 20
18.9142516813
 30
0.0
 10
97.0279756429
 20
19.0071029364
 30
0.0
 10
96.9191241355
 20
19.072551599
 30
0.0
 10
96.864431136
 20
19.1046927515
 30
0.0
 10
96.8336054332
 20
19.123994176
 30
0.0
 10
96.7984899799
 20
19.1339099735
 30
0.0
 10
96.7560642474
 20
19.1495177908
 30
0.0
 10
96.6873636385
 20
19.1726979018
 30
0.0
 10
96.5675175898
 20
19.2140900675
 30
0.0
 10
96.396124549
 20
19.2728548923
 30
0.0
 10
96.2247452655
 20
19.3315118954
 30
0.0
 10
96.0877563412
 20
19.3789897423
 30
0.0
 10
95.9846628861
 20
19.4130060871
 30
0.0
 10
95.8998765035
 20
19.4464297406
 30
0.0
 10
95.8274266805
 20
19.4523180936
 30
0.0
 10
95.7557838138
 20
19.4618472774
 30
0.0
 10
95.6659539541
 20
19.4725157379
 30
0.0
 10
95.5223804345
 20
19.4902589367
 30
0.0
 10
95.342861721
 20
19.5123575474
 30
0.0
 10
95.1633574433
 20
19.5339356314
 30
0.0
 10
95.0377104036
 20
19.5501896677
 30
0.0
 10
94.9658975564
 20
19.5576634851
 30
0.0
 10
94.9120798359
 20
19.5683830646
 30
0.0
 10
94.8581017254
 20
19.5595528798
 30
0.0
 10
94.7861869129
 20
19.5545982534
 30
0.0
 10
94.6603093397
 20
19.5427528224
 30
0.0
 10
94.4805026691
 20
19.527472572
 30
0.0
 10
94.3006730271
 20
19.5116724506
 30
0.0
 10
94.1568496977
 20
19.4989666089
 30
0.0
 10
94.0668706421
 20
19.4914497547
 30
0.0
 10
93.9950920408
 20
19.484434395
 30
0.0
 10
93.9225664468
 20
19.4810871031
 30
0.0
 10
93.8372560957
 20
19.4506448252
 30
0.0
 10
93.7336342129
 20
19.4202516899
 30
0.0
 10
93.5959057578
 20
19.3775889602
 30
0.0
 10
93.4236134272
 20
19.3249556718
 30
0.0
 10
93.2513055744
 20
19.272215075
 30
0.0
 10
93.1308149073
 20
19.2350354183
 30
0.0
 10
93.0617537602
 20
19.2142699308
 30
0.0
 10
93.0190841652
 20
19.2001536245
 30
0.0
 10
92.9838161308
 20
19.1914714757
 30
0.0
 10
92.9526826324
 20
19.173256043
 30
0.0
 10
92.8974780517
 20
19.1430411237
 30
0.0
 10
92.7875840927
 20
19.0814265289
 30
0.0
 10
92.6302964642
 20
18.9940630865
 30
0.0
 10
92.4417957456
 20
18.8887794146
 30
0.0
 10
92.2842920394
 20
18.8016582817
 30
0.0
 10
92.1748140299
 20
18.739577241
 30
0.0
 10
92.1110532399
 20
18.7057970643
 30
0.0
 10
92.0593299906
 20
18.6550481218
 30
0.0
 10
91.9905520287
 20
18.5974241553
 30
0.0
 10
91.8828251699
 20
18.5019651861
 30
0.0
 10
91.7472780954
 20
18.3838472993
 30
0.0
 10
91.6123876746
 20
18.2649818923
 30
0.0
 10
91.5036101701
 20
18.1707189552
 30
0.0
 10
91.4374588226
 20
18.1101049084
 30
0.0
 10
91.3803510137
 20
18.0654856306
 30
0.0
 10
91.3385224541
 20
18.0067382831
 30
0.0
 10
91.2626519651
 20
17.906399177
 30
0.0
 10
91.1556762665
 20
17.7617580669
 30
0.0
 10
91.0266380217
 20
17.5887836172
 30
0.0
 10
90.9194498872
 20
17.4443880079
 30
0.0
 10
90.8439883373
 20
17.3435763127
 30
0.0
 10
90.8068121153
 20
17.2928383047
 30
0.0
 10
90.7846793056
 20
17.264376685
 30
0.0
 10
90.7714724955
 20
17.2305805217
 30
0.0
 10
90.7519082642
 20
17.1901615754
 30
0.0
 10
90.7223100944
 20
17.1244722987
 30
0.0
 10
90.6697270185
 20
17.0099881275
 30
0.0
 10
90.5949556198
 20
16.8462141668
 30
0.0
 10
90.5202927704
 20
16.6824416173
 30
0.0
 10
90.4600241476
 20
16.5516003066
 30
0.0
 10
90.4163725806
 20
16.4529382902
 30
0.0
 10
90.3750542507
 20
16.3724164174
 30
0.0
 10
90.3622968271
 20
16.3010304136
 30
0.0
 10
90.3459947208
 20
16.2308613803
 30
0.0
 10
90.3268306579
 20
16.1427334423
 30
0.0
 10
90.2954906751
 20
16.0019613366
 30
0.0
 10
90.2409632751
 20
15.7555011227
 30
0.0
 10
90.1941166225
 20
15.5442868922
 30
0.0
 10
90.1629097166
 20
15.4034690982
 30
0.0
  0
SPLINE
  5
28A
100
AcDbEntity
  8
_21_KURVEN
100
AcDbSpline
 62
1
  6
CENTER
 70
0
 71
3
 72
77
 73
73
 74
0
 42
0.0000001
 43
0.0000001
 44
0.0000000001
 40
0.0
 40
0.0
 40
0.0
 40
0.0
 40
0.0625
 40
0.078125
 40
0.09375
 40
0.1015625
 40
0.109375
 40
0.1171875
 40
0.125
 40
0.140625
 40
0.15625
 40
0.171875
 40
0.1875
 40
0.203125
 40
0.2109375
 40
0.21875
 40
0.234375
 40
0.25
 40
0.28125
 40
0.3125
 40
0.3203125
 40
0.328125
 40
0.33203125
 40
0.3359375
 40
0.34375
 40
0.359375
 40
0.375
 40
0.390625
 40
0.40625
 40
0.421875
 40
0.4296875
 40
0.4375
 40
0.4453125
 40
0.44921875
 40
0.453125
 40
0.46875
 40
0.5
 40
0.53125
 40
0.546875
 40
0.55078125
 40
0.5546875
 40
0.5625
 40
0.5703125
 40
0.578125
 40
0.59375
 40
0.609375
 40
0.625
 40
0.640625
 40
0.65625
 40
0.6640625
 40
0.66796875
 40
0.671875
 40
0.6796875
 40
0.6875
 40
0.71875
 40
0.75
 40
0.765625
 40
0.78125
 40
0.7890625
 40
0.796875
 40
0.8125
 40
0.828125
 40
0.84375
 40
0.859375
 40
0.875
 40
0.8828125
 40
0.890625
 40
0.8984375
 40
0.90625
 40
0.921875
 40
0.9375
 40
1.0
 40
1.0
 40
1.0
 40
1.0
 10
93.747404701
 20
10.2312640741
 30
0.0
 10
93.9315297032
 20
10.2045296582
 30
0.0
 10
94.1616657176
 20
10.1709233967
 30
0.0
 10
94.4378896502
 20
10.1311606078
 30
0.0
 10
94.5529020016
 20
10.1138398126
 30
0.0
 10
94.6451001005
 20
10.1017338235
 30
0.0
 10
94.7137325937
 20
10.0878541702
 30
0.0
 10
94.7843353019
 20
10.0922998393
 30
0.0
 10
94.8785227727
 20
10.0986984122
 30
0.0
 10
94.9962402482
 20
10.1065324227
 30
0.0
 10
95.1375063717
 20
10.1160149009
 30
0.0
 10
95.2787788643
 20
10.125433446
 30
0.0
 10
95.4200207275
 20
10.1350260577
 30
0.0
 10
95.5378190709
 20
10.1424929561
 30
0.0
 10
95.6318407625
 20
10.1496441089
 30
0.0
 10
95.7266529541
 20
10.1525062812
 30
0.0
 10
95.8395106722
 20
10.1867793082
 30
0.0
 10
96.0206895502
 20
10.2382915505
 30
0.0
 10
96.2470189407
 20
10.3036998095
 30
0.0
 10
96.4505521921
 20
10.3626427765
 30
0.0
 10
96.5865851299
 20
10.40130322
 30
0.0
 10
96.6427373481
 20
10.4184488696
 30
0.0
 10
96.6888923264
 20
10.4297397604
 30
0.0
 10
96.7305370278
 20
10.4499034617
 30
0.0
 10
96.8013194056
 20
10.4893130675
 30
0.0
 10
96.9035324429
 20
10.543457497
 30
0.0
 10
97.0257208983
 20
10.6093505543
 30
0.0
 10
97.1480255436
 20
10.6750126555
 30
0.0
 10
97.2703326187
 20
10.7406788394
 30
0.0
 10
97.3721502569
 20
10.7955795139
 30
0.0
 10
97.4538549711
 20
10.839068761
 30
0.0
 10
97.5144446504
 20
10.8728722609
 30
0.0
 10
97.5671278197
 20
10.8972663342
 30
0.0
 10
97.6018625448
 20
10.9295491464
 30
0.0
 10
97.6558695209
 20
10.9746924444
 30
0.0
 10
97.7717593579
 20
11.0744319486
 30
0.0
 10
97.9509141531
 20
11.226475556
 30
0.0
 10
98.1293879099
 20
11.3793779283
 30
0.0
 10
98.2461630968
 20
11.4780010381
 30
0.0
 10
98.299301749
 20
11.5242392614
 30
0.0
 10
98.336590368
 20
11.5533017054
 30
0.0
 10
98.3696085538
 20
11.6024926139
 30
0.0
 10
98.413089061
 20
11.6578701199
 30
0.0
 10
98.4697156992
 20
11.7329820817
 30
0.0
 10
98.5409575712
 20
11.8264363413
 30
0.0
 10
98.6262677182
 20
11.9387598467
 30
0.0
 10
98.7115645441
 20
12.051066885
 30
0.0
 10
98.7970947541
 20
12.1632613981
 30
0.0
 10
98.8676030827
 20
12.2571456322
 30
0.0
 10
98.9184671848
 20
12.322097332
 30
0.0
 10
98.9451768306
 20
12.3604112569
 30
0.0
 10
98.9630156408
 20
12.403239388
 30
0.0
 10
98.9883455748
 20
12.4552318698
 30
0.0
 10
99.046648279
 20
12.5812809551
 30
0.0
 10
99.1350623436
 20
12.7698598338
 30
0.0
 10
99.2331820521
 20
12.9794789252
 30
0.0
 10
99.3109373484
 20
13.1474931214
 30
0.0
 10
99.3614446555
 20
13.2516611843
 30
0.0
 10
99.3792639175
 20
13.3449470119
 30
0.0
 10
99.4010281431
 20
13.4364947475
 30
0.0
 10
99.4268794271
 20
13.5515258858
 30
0.0
 10
99.458482713
 20
13.6893073396
 30
0.0
 10
99.4899254156
 20
13.8271580917
 30
0.0
 10
99.5214287062
 20
13.9649875629
 30
0.0
 10
99.5476133077
 20
14.0798586432
 30
0.0
 10
99.5686942325
 20
14.1717344976
 30
0.0
 10
99.5841460797
 20
14.2406965053
 30
0.0
 10
99.5809813876
 20
14.3125139176
 30
0.0
 10
99.5832637225
 20
14.4072732023
 30
0.0
 10
99.5838935567
 20
14.5260632848
 30
0.0
 10
99.5872409962
 20
14.810877902
 30
0.0
 10
99.5895524465
 20
15.0482967447
 30
0.0
 10
99.5915545932
 20
15.2382083538
 30
0.0
  0
SPLINE
  5
28B
100
AcDbEntity
  8
_21_KURVEN
100
AcDbSpline
 62
7
  6
CONTINUOUS
 70
0
 71
3
 72
8
 73
4
 74
0
 42
0.0000001
 43
0.0000001
 44
0.0000000001
 40
0.0
 40
0.0
 40
0.0
 40
0.0
 40
1.0
 40
1.0
 40
1.0
 40
1.0
 10
98.9566560606
 20
10.4202537509
 30
0.0
 10
98.9732379825
 20
10.421879931
 30
0.0
 10
98.9892246252
 20
10.4242675175
 30
0.0
 10
99.0065153343
 20
10.4278338852
 30
0.0
  0
SPLINE
  5
28C
100
AcDbEntity
  8
_21_KURVEN
100
AcDbSpline
 62
7
  6
CONTINUOUS
 70
0
 71
3
 72
10
 73
6
 74
0
 42
0.0000001
 43
0.0000001
 44
0.0000000001
 40
0.0
 40
0.0
 40
0.0
 40
0.0
 40
0.25
 40
0.5
 40
1.0
 40
1.0
 40
1.0
 40
1.0
 10
99.0065153337
 20
10.4278338851
 30
0.0
 10
99.0318020612
 20
10.4351373788
 30
0.0
 10
99.081596427
 20
10.4503213155
 30
0.0
 10
99.1776635352
 20
10.5023882102
 30
0.0
 10
99.2277187988
 20
10.5634668939
 30
0.0
 10
99.2588986221
 20
10.6075521441
 30
0.0
  0
SPLINE
  5
28D
100
AcDbEntity
  8
_21_KURVEN
100
AcDbSpline
 62
7
  6
CONTINUOUS
 70
0
 71
3
 72
9
 73
5
 74
0
 42
0.0000001
 43
0.0000001
 44
0.0000000001
 40
0.0
 40
0.0
 40
0.0
 40
0.0
 40
0.5
 40
1.0
 40
1.0
 40
1.0
 40
1.0
 10
99.2588986169
 20
10.6075521355
 30
0.0
 10
99.2698762445
 20
10.6267838108
 30
0.0
 10
99.2906378292
 20
10.6653602739
 30
0.0
 10
99.3028938142
 20
10.7103510604
 30
0.0
 10
99.3081030441
 20
10.7322278178
 30
0.0
  0
SPLINE
  5
28E
100
AcDbEntity
  8
_21_KURVEN
100
AcDbSpline
 62
7
  6
CONTINUOUS
 70
0
 71
3
 72
8
 73
4
 74
0
 42
0.0000001
 43
0.0000001
 44
0.0000000001
 40
0.0
 40
0.0
 40
0.0
 40
0.0
 40
1.0
 40
1.0
 40
1.0
 40
1.0
 10
99.3081030449
 20
10.7322278216
 30
0.0
 10
99.3113259905
 20
10.7485599508
 30
0.0
 10
99.3136503858
 20
10.7645564789
 30
0.0
 10
99.3152247032
 20
10.7821588178
 30
0.0
  0
SPLINE
  5
28F
100
AcDbEntity
  8
_30_VOLUMEN
100
AcDbSpline
 62
4
  6
CONTINUOUS
 70
0
 71
3
 72
15
 73
11
 74
0
 42
0.0000001
 43
0.0000001
 44
0.0000000001
 40
0.0
 40
0.0
 40
0.0
 40
0.0
 40
0.1244688222
 40
0.249131531
 40
0.3741460901
 40
0.4994190524
 40
0.6248040419
 40
0.7501192174
 40
0.8751745005
 40
1.0
 40
1.0
 40
1.0
 40
1.0
 10
96.413683876
 20
13.89635729
 30
0.0
 10
96.5012805796
 20
14.0431601992
 30
0.0
 10
96.6347071365
 20
14.364417232
 30
0.0
 10
96.6881550949
 20
14.882416566
 30
0.0
 10
96.5925248056
 20
15.3957358459
 30
0.0
 10
96.3552707835
 20
15.8618549403
 30
0.0
 10
95.9962285277
 20
16.2427155895
 30
0.0
 10
95.5446216903
 20
16.5068916571
 30
0.0
 10
95.0379766979
 20
16.633055636
 30
0.0
 10
94.6894857374
 20
16.6174229885
 30
0.0
 10
94.5210809533
 20
16.5853007967
 30
0.0
  0
ELLIPSE
  5
290
100
AcDbEntity
  8
_30_VOLUMEN
100
AcDbEllipse
 62
4
  6
CONTINUOUS
 10
95.2078464811
 20
15.0930443409
 30
0.0
 11
-0.9534268369
 21
1.0905992042
 31
0.0
 40
0.9139213732
 41
-3.1070508215
 42
-0.276291432
  0
ENDSEC
  0
SECTION
  2
OBJECTS
  0
DICTIONARY
  5
C
100
AcDbDictionary
280
0
281
1
  3
ACAD_GROUP
350
D
  3
ACAD_MLINESTYLE
350
17
  3
ACAD_LAYOUT
350
1A
  3
ACAD_PLOTSETTINGS
350
19
  3
ACAD_PLOTSTYLENAME
350
E
  0
DICTIONARY
  5
D
102
{ACAD_REACTORS
330
C
102
}
100
AcDbDictionary
280
0
281
1
  0
ACDBDICTIONARYWDFLT
  5
E
102
{ACAD_REACTORS
330
C
102
}
100
AcDbDictionary
281
1
  3
Normal
350
F
100
AcDbDictionaryWithDefault
340
F
  0
DICTIONARY
  5
17
102
{ACAD_REACTORS
330
C
102
}
100
AcDbDictionary
280
0
281
1
  3
Standard
350
18
  0
DICTIONARY
  5
19
102
{ACAD_REACTORS
330
C
102
}
100
AcDbDictionary
281
1
  0
DICTIONARY
  5
1A
102
{ACAD_REACTORS
330
C
102
}
100
AcDbDictionary
281
1
  3
Model
350
291
  3
Layout1
350
292
  0
ACDBPLACEHOLDER
  5
F
102
{ACAD_REACTORS
330
E
102
}
  0
MLINESTYLE
  5
18
102
{ACAD_REACTORS
330
17
102
}
100
AcDbMlineStyle
  2
STANDARD
 70
0
  3

 62
256
 51
90.0
 52
90.0
 71
2
 49
0.5
 62
256
  6
BYLAYER
 49
-0.5
 62
256
  6
BYLAYER
  0
LAYOUT
  5
291
102
{ACAD_REACTORS
330
1A
102
}
100
AcDbPlotSettings
  1

  2
none_device
  4
ISO_A3_(420.00_x_297.00_MM)
  6

 40
0.0
 41
0.0
 42
0.0
 43
0.0
 44
420.0
 45
297.0
 46
0.0
 47
0.0
 48
0.0
 49
0.0
140
0.0
141
0.0
142
1.0
143
1.0
 70
1024
 72
1
 73
0
 74
0
  7

 75
0
147
1.0
148
0.0
149
0.0
100
AcDbLayout
  1
Model
 70
0
 71
0
 10
0.0
 20
0.0
 11
420.0
 21
297.0
 12
0.0
 22
0.0
 32
0.0
 14
0.0
 24
0.0
 34
0.0
 15
0.0
 25
0.0
 35
0.0
146
0.0
 13
0.0
 23
0.0
 33
0.0
 16
1.0
 26
0.0
 36
0.0
 17
0.0
 27
1.0
 37
0.0
 76
0
330
20E
345
0
346
0
  0
LAYOUT
  5
292
102
{ACAD_REACTORS
330
1A
102
}
100
AcDbPlotSettings
  1

  2
none_device
  4
ISO_A3_(420.00_x_297.00_MM)
  6

 40
0.0
 41
0.0
 42
0.0
 43
0.0
 44
420.0
 45
297.0
 46
0.0
 47
0.0
 48
0.0
 49
0.0
140
0.0
141
0.0
142
1.0
143
1.0
 70
0
 72
1
 73
0
 74
0
  7

 75
0
147
1.0
148
0.0
149
0.0
100
AcDbLayout
  1
Layout1
 70
0
 71
1
 10
0.0
 20
0.0
 11
420.0
 21
297.0
 12
0.0
 22
0.0
 32
0.0
 14
0.0
 24
0.0
 34
0.0
 15
0.0
 25
0.0
 35
0.0
146
0.0
 13
0.0
 23
0.0
 33
0.0
 16
1.0
 26
0.0
 36
0.0
 17
0.0
 27
1.0
 37
0.0
 76
0
330
20F
345
0
346
0
  0
ENDSEC
  0
EOF
