999
DXF file: 70508620.dxf
999
Pro/ENGINEER 2017380 by Parametric Technology Corporation
  0
SECTION
  2
HEADER
  9
$ACADVER
  1
AC1027
  9
$DWGCODEPAGE
  3
ANSI_1252
  9
$EXTMAX
 10
420.0
 20
297.0
 30
0.0
  9
$EXTMIN
 10
0.0
 20
0.0
 30
0.0
  9
$LIMMIN
 10
0.0
 20
0.0
  9
$LIMMAX
 10
420.0
 20
297.0
  9
$VIEWCTR
 10
210.0
 20
148.5
  9
$VIEWSIZE
 40
297.0
  9
$CLAYER
  8
0
  9
$LTSCALE
 40
23.1
  9
$CELTYPE
  6
BYLAYER
  9
$DIMSCALE
 40
1.0
  9
$DIMASZ
 40
3.5
  9
$DIMEXO
 40
0.0
  9
$DIMDLI
 40
15.96
  9
$DIMEXE
 40
1.5
  9
$DIMCEN
 40
3.78
  9
$DIMLFAC
 40
1.0
  9
$DIMBLK
  1
_FILLED
  9
$DIMALT
 70
0
  9
$DIMALTF
 40
25.4
  9
$DIMTXT
 40
3.5
  9
$DIMTOL
 70
1
  9
$DIMLIM
 70
0
  9
$DIMTFAC
 40
1.0
  9
$DIMTP
 40
0.05
  9
$DIMTM
 40
0.05
  9
$DIMGAP
 40
0.625
  9
$DIMDSEP
 70
46
  9
$AUNITS
 70
0
  9
$PDMODE
 70
3
  9
$PDSIZE
 40
0.3125
  9
$HANDSEED
  5
298
  9
$TILEMODE
 70
1
  9
$MEASUREMENT
 70
1
  9
$INSUNITS
 70
4
  0
ENDSEC
  0
SECTION
  2
CLASSES
  0
CLASS
  1
ACDBDICTIONARYWDFLT
  2
AcDbDictionaryWithDefault
  3
AutoCAD 2000
 90
0
 91
1
280
0
281
0
  0
CLASS
  1
ACDBPLACEHOLDER
  2
AcDbPlaceHolder
  3
AutoCAD 2000
 90
0
 91
1
280
0
281
0
  0
CLASS
  1
LAYOUT
  2
AcDbLayout
  3
AutoCAD 2000
 90
0
 91
0
280
0
281
0
  0
ENDSEC
  0
SECTION
  2
TABLES
  0
TABLE
  2
VPORT
  5
8
100
AcDbSymbolTable
 70
2
  0
VPORT
  5
1F4
100
AcDbSymbolTableRecord
100
AcDbViewportTableRecord
  2
*ACTIVE
 70
0
 10
0.0
 20
0.0
 11
1.0
 21
1.0
 12
210.0
 22
148.5
 13
0.0
 23
0.0
 14
1.0
 24
1.0
 15
0.0
 25
0.0
 16
0.0
 26
0.0
 36
1.0
 17
0.0
 27
0.0
 37
0.0
 40
297.0
 41
1.4141414141
 42
50.0
 43
0.0
 44
0.0
 50
0.0
 51
0.0
 71
0
 72
100
 73
1
 74
1
 75
0
 76
0
 77
0
 78
0
  0
ENDTAB
  0
TABLE
  2
LTYPE
  5
5
100
AcDbSymbolTable
 70
6
  0
LTYPE
  5
14
100
AcDbSymbolTableRecord
100
AcDbLinetypeTableRecord
  2
BYBLOCK
 70
0
  3

 72
65
 73
0
 40
0.0
  0
LTYPE
  5
15
100
AcDbSymbolTableRecord
100
AcDbLinetypeTableRecord
  2
BYLAYER
 70
0
  3

 72
65
 73
0
 40
0.0
  0
LTYPE
  5
16
100
AcDbSymbolTableRecord
100
AcDbLinetypeTableRecord
  2
CONTINUOUS
 70
64
  3
Solid line
 72
65
 73
0
 40
0.0
  0
LTYPE
  5
1F5
100
AcDbSymbolTableRecord
100
AcDbLinetypeTableRecord
  2
CENTER
 70
64
  3
____ _ ____ _ ____ _ ____ _ ____ _ ____ _ ____
 72
65
 73
4
 40
0.6
 49
0.375
 74
0
 49
-0.075
 74
0
 49
0.075
 74
0
 49
-0.075
 74
0
  0
LTYPE
  5
1F6
100
AcDbSymbolTableRecord
100
AcDbLinetypeTableRecord
  2
HIDDEN
 70
64
  3
- - - - - - - - - - - - - - - - - - - -
 72
65
 73
2
 40
0.2
 49
0.1
 74
0
 49
-0.1
 74
0
  0
LTYPE
  5
1F7
100
AcDbSymbolTableRecord
100
AcDbLinetypeTableRecord
  2
PHANTOM
 70
64
  3
_____ _ _ _____ _ _ _____ _ _ _____
 72
65
 73
6
 40
0.8
 49
0.45
 74
0
 49
-0.05
 74
0
 49
0.1
 74
0
 49
-0.05
 74
0
 49
0.1
 74
0
 49
-0.05
 74
0
  0
LTYPE
  5
1F8
100
AcDbSymbolTableRecord
100
AcDbLinetypeTableRecord
  2
DOT
 70
64
  3
. . . . . . . . . . . . . . . . . . . .
 72
65
 73
2
 40
0.2
 49
0.1
 74
0
 49
-0.1
 74
0
  0
LTYPE
  5
1F9
100
AcDbSymbolTableRecord
100
AcDbLinetypeTableRecord
  2
DASHED
 70
64
  3
- - - - - - - - - - - - - - - - - - - -
 72
65
 73
2
 40
0.2
 49
0.1
 74
0
 49
-0.1
 74
0
  0
ENDTAB
  0
TABLE
  2
LAYER
  5
2
100
AcDbSymbolTable
 70
36
  0
LAYER
  5
10
100
AcDbSymbolTableRecord
100
AcDbLayerTableRecord
  2
0
 70
0
 62
7
  6
CONTINUOUS
370
-3
390
F
  0
LAYER
  5
1FA
100
AcDbSymbolTableRecord
100
AcDbLayerTableRecord
  2
DEFAULT_1
 70
0
 62
7
  6
CENTER
370
-3
390
F
  0
LAYER
  5
1FB
100
AcDbSymbolTableRecord
100
AcDbLayerTableRecord
  2
DEFAULT_2
 70
0
 62
1
  6
HIDDEN
370
-3
390
F
  0
LAYER
  5
1FC
100
AcDbSymbolTableRecord
100
AcDbLayerTableRecord
  2
DEFAULT_3
 70
0
 62
7
  6
PHANTOM
370
-3
390
F
  0
LAYER
  5
1FD
100
AcDbSymbolTableRecord
100
AcDbLayerTableRecord
  2
BG_STARTBEZUEGE
 70
0
 62
7
  6
CONTINUOUS
370
-3
390
F
  0
LAYER
  5
1FE
100
AcDbSymbolTableRecord
100
AcDbLayerTableRecord
  2
HILFEN
 70
0
 62
7
  6
CONTINUOUS
370
-3
390
F
  0
LAYER
  5
1FF
100
AcDbSymbolTableRecord
100
AcDbLayerTableRecord
  2
PLATZIERUNG
 70
0
 62
7
  6
CONTINUOUS
370
-3
390
F
  0
LAYER
  5
200
100
AcDbSymbolTableRecord
100
AcDbLayerTableRecord
  2
T_STARTBEZUEGE
 70
0
 62
7
  6
CONTINUOUS
370
-3
390
F
  0
LAYER
  5
201
100
AcDbSymbolTableRecord
100
AcDbLayerTableRecord
  2
_03_2D_ZEICHNUNG_BEMASSUNGEN
 70
0
 62
7
  6
CONTINUOUS
370
-3
390
F
  0
LAYER
  5
202
100
AcDbSymbolTableRecord
100
AcDbLayerTableRecord
  2
_04_NOTIZEN
 70
0
 62
7
  6
CONTINUOUS
370
-3
390
F
  0
LAYER
  5
203
100
AcDbSymbolTableRecord
100
AcDbLayerTableRecord
  2
_05_2D_ELEMENTE
 70
0
 62
7
  6
CONTINUOUS
370
-3
390
F
  0
LAYER
  5
204
100
AcDbSymbolTableRecord
100
AcDbLayerTableRecord
  2
_07_EINRASTLINIEN
 70
0
 62
7
  6
CONTINUOUS
370
-3
390
F
  0
LAYER
  5
205
100
AcDbSymbolTableRecord
100
AcDbLayerTableRecord
  2
_21_KURVEN
 70
0
 62
7
  6
CONTINUOUS
370
-3
390
F
  0
LAYER
  5
206
100
AcDbSymbolTableRecord
100
AcDbLayerTableRecord
  2
_24_IMPORT
 70
0
 62
7
  6
CONTINUOUS
370
-3
390
F
  0
LAYER
  5
207
100
AcDbSymbolTableRecord
100
AcDbLayerTableRecord
  2
_26_BEZUGSACHSEN
 70
0
 62
7
  6
CONTINUOUS
370
-3
390
F
  0
LAYER
  5
208
100
AcDbSymbolTableRecord
100
AcDbLayerTableRecord
  2
_27_BEZUGSEBENEN
 70
0
 62
7
  6
CONTINUOUS
370
-3
390
F
  0
LAYER
  5
209
100
AcDbSymbolTableRecord
100
AcDbLayerTableRecord
  2
_28_BEZUGSPUNKTE
 70
0
 62
7
  6
CONTINUOUS
370
-3
390
F
  0
LAYER
  5
20A
100
AcDbSymbolTableRecord
100
AcDbLayerTableRecord
  2
_29_KOORDINATENSYSTEME
 70
0
 62
7
  6
CONTINUOUS
370
-3
390
F
  0
LAYER
  5
20B
100
AcDbSymbolTableRecord
100
AcDbLayerTableRecord
  2
_30_VOLUMEN
 70
0
 62
7
  6
CONTINUOUS
370
-3
390
F
  0
ENDTAB
  0
TABLE
  2
STYLE
  5
3
100
AcDbSymbolTable
 70
1
  0
STYLE
  5
11
100
AcDbSymbolTableRecord
100
AcDbTextStyleTableRecord
  2
STANDARD
 70
0
 40
0.0
 41
0.7
 50
0.0
 71
0
 42
0.2
  3
SIMPLEX.SHX
  4

  0
STYLE
  5
20C
100
AcDbSymbolTableRecord
100
AcDbTextStyleTableRecord
  2
TEXTSTYLE_1
 70
0
 40
0.0
 41
0.8
 50
0.0
 71
0
 42
0.2
  3
gdt
  4

  0
ENDTAB
  0
TABLE
  2
VIEW
  5
6
100
AcDbSymbolTable
 70
0
  0
ENDTAB
  0
TABLE
  2
UCS
  5
7
100
AcDbSymbolTable
 70
0
  0
ENDTAB
  0
TABLE
  2
APPID
  5
9
100
AcDbSymbolTable
 70
1
  0
APPID
  5
20D
100
AcDbSymbolTableRecord
100
AcDbRegAppTableRecord
  2
ACAD
 70
0
  0
ENDTAB
  0
TABLE
  2
BLOCK_RECORD
  5
1
100
AcDbSymbolTable
 70
0
  0
BLOCK_RECORD
  5
20E
100
AcDbSymbolTableRecord
100
AcDbBlockTableRecord
  2
*Model_Space
  0
BLOCK_RECORD
  5
20F
100
AcDbSymbolTableRecord
100
AcDbBlockTableRecord
  2
*Paper_Space
  0
BLOCK_RECORD
  5
210
100
AcDbSymbolTableRecord
100
AcDbBlockTableRecord
  2
_FILLED
  0
BLOCK_RECORD
  5
211
100
AcDbSymbolTableRecord
100
AcDbBlockTableRecord
  2
*D0
  0
BLOCK_RECORD
  5
212
100
AcDbSymbolTableRecord
100
AcDbBlockTableRecord
  2
*D1
  0
BLOCK_RECORD
  5
213
100
AcDbSymbolTableRecord
100
AcDbBlockTableRecord
  2
*D2
  0
ENDTAB
  0
TABLE
  2
DIMSTYLE
  5
A
100
AcDbSymbolTable
 70
1
100
AcDbDimStyleTable
 71
0
  0
DIMSTYLE
105
214
100
AcDbSymbolTableRecord
100
AcDbDimStyleTableRecord
  2
STANDARD
 70
0
  3

  4

 40
1.0
 41
3.5
 42
0.0
 43
0.38
 44
1.5
 45
0.0
 46
0.0
 47
0.05
 48
0.05
140
3.5
141
0.09
142
0.0
143
25.4
144
1.0
145
0.0
146
1.0
147
0.625
 71
1.0
 72
0.0
 73
0
 74
0
 75
0
 76
0
 77
1
 78
8
 79
2
170
0
171
1
172
0
173
0
174
0
175
0
176
0
177
0
178
2
270
2
179
2
271
2
272
2
273
2
274
2
275
0
280
0
281
0
282
0
283
1
284
8
285
0
286
0
287
3
288
0
340
11
278
46
341
210
342
210
343
210
344
210
  0
DIMSTYLE
105
215
100
AcDbSymbolTableRecord
100
AcDbDimStyleTableRecord
  2
DIMSTYLE_1
 70
0
  3

  4

 40
1.0
 41
3.5
 42
0.0
 43
0.38
 44
1.5
 45
0.0
 46
0.0
 47
0.2
 48
0.2
140
3.5
141
0.09
142
0.0
143
25.4
144
1.0
145
0.0
146
1.0
147
0.875
 71
0.0
 72
0.0
 73
0
 74
0
 75
0
 76
0
 77
1
 78
8
 79
2
170
0
171
1
172
0
173
0
174
0
175
0
176
0
177
0
178
2
270
2
179
2
271
2
272
2
273
2
274
2
275
0
280
0
281
0
282
0
283
1
284
8
285
0
286
0
287
3
288
0
340
11
278
46
341
210
342
210
343
210
344
210
  0
DIMSTYLE
105
216
100
AcDbSymbolTableRecord
100
AcDbDimStyleTableRecord
  2
DIMSTYLE_2
 70
0
  3

  4

 40
1.0
 41
3.5
 42
0.0
 43
0.38
 44
1.5
 45
0.0
 46
0.0
 47
0.5
 48
0.5
140
3.5
141
0.09
142
0.0
143
25.4
144
1.0
145
0.0
146
1.0
147
0.875
 71
0.0
 72
0.0
 73
0
 74
0
 75
0
 76
0
 77
1
 78
8
 79
2
170
0
171
1
172
0
173
0
174
0
175
0
176
0
177
0
178
2
270
2
179
2
271
2
272
2
273
2
274
2
275
0
280
0
281
0
282
0
283
1
284
8
285
0
286
0
287
3
288
0
340
11
278
46
341
210
342
210
343
210
344
210
  0
ENDTAB
  0
ENDSEC
  0
SECTION
  2
BLOCKS
  0
BLOCK
  5
20
100
AcDbEntity
  8
0
100
AcDbBlockBegin
  2
*Model_Space
 70
0
 10
0.0
 20
0.0
 30
0.0
  3
*Model_Space
  1

  0
ENDBLK
  5
21
100
AcDbEntity
  8
0
100
AcDbBlockEnd
  0
BLOCK
  5
1C
100
AcDbEntity
  8
0
100
AcDbBlockBegin
  2
*Paper_Space
 70
0
 10
0.0
 20
0.0
 30
0.0
  3
*Paper_Space
  1

  0
ENDBLK
  5
1D
100
AcDbEntity
  8
0
100
AcDbBlockEnd
  0
BLOCK
  5
217
100
AcDbEntity
  8
0
100
AcDbBlockBegin
  2
_FILLED
 70
64
 10
0.0
 20
0.0
  3
_FILLED
  1

  0
SOLID
  5
218
100
AcDbEntity
  8
0
  6
BYBLOCK
 62
0
100
AcDbTrace
 10
0.0
 20
0.0
 11
-1.0
 21
0.125
 12
-1.0
 22
-0.125
 13
-1.0
 23
-0.125
  0
ENDBLK
  5
219
100
AcDbEntity
  8
0
  6
BYBLOCK
 62
0
100
AcDbBlockEnd
  0
BLOCK
  5
21A
100
AcDbEntity
  8
_03_2D_ZEICHNUNG_BEMASSUNGEN
100
AcDbBlockBegin
 62
7
  6
CONTINUOUS
  2
*D0
 70
65
 10
0.0
 20
0.0
  3
*D0
  1

  0
TEXT
  5
21B
100
AcDbEntity
  8
_03_2D_ZEICHNUNG_BEMASSUNGEN
100
AcDbText
 62
2
  6
CONTINUOUS
 10
-9.875
 20
7.25
  7
STANDARD
 40
3.5
  1
20
 50
90.0
 41
0.7857142857
 72
1
 11
-9.875
 21
10.0
100
AcDbText
  0
LINE
  5
21C
100
AcDbEntity
  8
_03_2D_ZEICHNUNG_BEMASSUNGEN
100
AcDbLine
 62
7
  6
CONTINUOUS
 10
0.0
 20
20.0
 11
-10.5
 21
20.0
  0
LINE
  5
21D
100
AcDbEntity
  8
_03_2D_ZEICHNUNG_BEMASSUNGEN
100
AcDbLine
 62
7
  6
CONTINUOUS
 10
-0.0
 20
-0.0
 11
-10.5
 21
0.0
  0
LINE
  5
21E
100
AcDbEntity
  8
_03_2D_ZEICHNUNG_BEMASSUNGEN
100
AcDbLine
 62
7
  6
CONTINUOUS
 10
-9.0
 20
20.0
 11
-9.0
 21
26.0
  0
LINE
  5
21F
100
AcDbEntity
  8
_03_2D_ZEICHNUNG_BEMASSUNGEN
100
AcDbLine
 62
7
  6
CONTINUOUS
 10
-9.0
 20
26.0
 11
-9.0
 21
10.0
  0
LINE
  5
220
100
AcDbEntity
  8
_03_2D_ZEICHNUNG_BEMASSUNGEN
100
AcDbLine
 62
7
  6
CONTINUOUS
 10
-9.0
 20
0.0
 11
-9.0
 21
-6.0
  0
LINE
  5
221
100
AcDbEntity
  8
_03_2D_ZEICHNUNG_BEMASSUNGEN
100
AcDbLine
 62
7
  6
CONTINUOUS
 10
-9.0
 20
-6.0
 11
-9.0
 21
10.0
  0
INSERT
  5
222
100
AcDbEntity
  8
_03_2D_ZEICHNUNG_BEMASSUNGEN
100
AcDbBlockReference
 62
7
  6
CONTINUOUS
  2
_FILLED
 10
-9.0
 20
20.0
 41
3.5
 42
3.5
 43
3.5
 50
270.0
  0
INSERT
  5
223
100
AcDbEntity
  8
_03_2D_ZEICHNUNG_BEMASSUNGEN
100
AcDbBlockReference
 62
7
  6
CONTINUOUS
  2
_FILLED
 10
-9.0
 20
0.0
 41
3.5
 42
3.5
 43
3.5
 50
90.0
  0
ENDBLK
  5
224
100
AcDbEntity
  8
0
  6
BYBLOCK
 62
0
100
AcDbBlockEnd
  0
BLOCK
  5
225
100
AcDbEntity
  8
_03_2D_ZEICHNUNG_BEMASSUNGEN
100
AcDbBlockBegin
 62
7
  6
CONTINUOUS
  2
*D1
 70
65
 10
0.0
 20
0.0
  3
*D1
  1

  0
TEXT
  5
226
100
AcDbEntity
  8
_03_2D_ZEICHNUNG_BEMASSUNGEN
100
AcDbText
 62
2
  6
CONTINUOUS
 10
58.875
 20
34.9148071799
  7
STANDARD
 40
3.5
  1
125
 41
0.6904761905
 72
1
 11
62.5
 21
34.9148071799
100
AcDbText
  0
LINE
  5
227
100
AcDbEntity
  8
_03_2D_ZEICHNUNG_BEMASSUNGEN
100
AcDbLine
 62
7
  6
CONTINUOUS
 10
125.0
 20
0.0
 11
125.0
 21
35.5398071799
  0
LINE
  5
228
100
AcDbEntity
  8
_03_2D_ZEICHNUNG_BEMASSUNGEN
100
AcDbLine
 62
7
  6
CONTINUOUS
 10
0.0
 20
0.0
 11
0.0
 21
35.5398071799
  0
LINE
  5
229
100
AcDbEntity
  8
_03_2D_ZEICHNUNG_BEMASSUNGEN
100
AcDbLine
 62
7
  6
CONTINUOUS
 10
125.0
 20
34.0398071799
 11
62.5
 21
34.0398071799
  0
LINE
  5
22A
100
AcDbEntity
  8
_03_2D_ZEICHNUNG_BEMASSUNGEN
100
AcDbLine
 62
7
  6
CONTINUOUS
 10
0.0
 20
34.0398071799
 11
62.5
 21
34.0398071799
  0
INSERT
  5
22B
100
AcDbEntity
  8
_03_2D_ZEICHNUNG_BEMASSUNGEN
100
AcDbBlockReference
 62
7
  6
CONTINUOUS
  2
_FILLED
 10
125.0
 20
34.0398071799
 41
3.5
 42
3.5
 43
3.5
  0
INSERT
  5
22C
100
AcDbEntity
  8
_03_2D_ZEICHNUNG_BEMASSUNGEN
100
AcDbBlockReference
 62
7
  6
CONTINUOUS
  2
_FILLED
 10
0.0
 20
34.0398071799
 41
3.5
 42
3.5
 43
3.5
 50
180.0
  0
ENDBLK
  5
22D
100
AcDbEntity
  8
0
  6
BYBLOCK
 62
0
100
AcDbBlockEnd
  0
BLOCK
  5
22E
100
AcDbEntity
  8
_03_2D_ZEICHNUNG_BEMASSUNGEN
100
AcDbBlockBegin
 62
7
  6
CONTINUOUS
  2
*D2
 70
65
 10
0.0
 20
0.0
  3
*D2
  1

  0
TEXT
  5
22F
100
AcDbEntity
  8
_03_2D_ZEICHNUNG_BEMASSUNGEN
100
AcDbText
 62
2
  6
CONTINUOUS
 10
133.1644995576
 20
9.875
  7
STANDARD
 40
3.5
  1
25
 50
90.0
 41
0.75
 72
1
 11
133.1644995576
 21
12.5
100
AcDbText
  0
LINE
  5
230
100
AcDbEntity
  8
_03_2D_ZEICHNUNG_BEMASSUNGEN
100
AcDbLine
 62
7
  6
CONTINUOUS
 10
125.0
 20
25.0
 11
135.5394995576
 21
25.0
  0
LINE
  5
231
100
AcDbEntity
  8
_03_2D_ZEICHNUNG_BEMASSUNGEN
100
AcDbLine
 62
7
  6
CONTINUOUS
 10
0.0
 20
0.0
 11
135.5394995576
 21
0.0
  0
LINE
  5
232
100
AcDbEntity
  8
_03_2D_ZEICHNUNG_BEMASSUNGEN
100
AcDbLine
 62
7
  6
CONTINUOUS
 10
134.0394995576
 20
25.0
 11
134.0394995576
 21
12.5
  0
LINE
  5
233
100
AcDbEntity
  8
_03_2D_ZEICHNUNG_BEMASSUNGEN
100
AcDbLine
 62
7
  6
CONTINUOUS
 10
134.0394995576
 20
0.0
 11
134.0394995576
 21
12.5
  0
INSERT
  5
234
100
AcDbEntity
  8
_03_2D_ZEICHNUNG_BEMASSUNGEN
100
AcDbBlockReference
 62
7
  6
CONTINUOUS
  2
_FILLED
 10
134.0394995576
 20
25.0
 41
3.5
 42
3.5
 43
3.5
 50
90.0
  0
INSERT
  5
235
100
AcDbEntity
  8
_03_2D_ZEICHNUNG_BEMASSUNGEN
100
AcDbBlockReference
 62
7
  6
CONTINUOUS
  2
_FILLED
 10
134.0394995576
 20
0.0
 41
3.5
 42
3.5
 43
3.5
 50
270.0
  0
ENDBLK
  5
236
100
AcDbEntity
  8
0
  6
BYBLOCK
 62
0
100
AcDbBlockEnd
  0
ENDSEC
  0
SECTION
  2
ENTITIES
  0
DIMENSION
  5
237
100
AcDbEntity
  8
_03_2D_ZEICHNUNG_BEMASSUNGEN
100
AcDbDimension
 62
7
  6
CONTINUOUS
  2
*D0
 10
-9.0
 20
0.0
 11
-9.0
 21
9.4999998474
 70
160
 71
2
 42
20.0
  3
DIMSTYLE_1
100
AcDbAlignedDimension
 13
0.0
 23
20.0
 14
-0.0
 24
-0.0
 50
270.0
100
AcDbRotatedDimension
  0
DIMENSION
  5
238
100
AcDbEntity
  8
_03_2D_ZEICHNUNG_BEMASSUNGEN
100
AcDbDimension
 62
7
  6
CONTINUOUS
  2
*D1
 10
0.0
 20
34.0398071799
 11
62.0000006104
 21
34.0398071799
 70
160
 71
2
 42
125.0
  3
DIMSTYLE_2
100
AcDbAlignedDimension
 13
125.0
 23
0.0
 14
0.0
 24
0.0
 50
180.0
100
AcDbRotatedDimension
  0
DIMENSION
  5
239
100
AcDbEntity
  8
_03_2D_ZEICHNUNG_BEMASSUNGEN
100
AcDbDimension
 62
7
  6
CONTINUOUS
  2
*D2
 10
134.0394995576
 20
0.0
 11
134.0394995576
 21
11.9999947662
 70
160
 71
2
 42
25.0
  3
DIMSTYLE_1
100
AcDbAlignedDimension
 13
125.0
 23
25.0
 14
0.0
 24
0.0
 50
270.0
100
AcDbRotatedDimension
  0
LINE
  5
23A
100
AcDbEntity
  8
_30_VOLUMEN
100
AcDbLine
 62
4
  6
CONTINUOUS
 10
-0.0
 20
0.5
 11
0.0
 21
19.5
  0
LINE
  5
23B
100
AcDbEntity
  8
_30_VOLUMEN
100
AcDbLine
 62
4
  6
CONTINUOUS
 10
0.5
 20
-0.0
 11
0.5
 21
20.0
  0
LINE
  5
23C
100
AcDbEntity
  8
_30_VOLUMEN
100
AcDbLine
 62
4
  6
CONTINUOUS
 10
0.5
 20
20.0
 11
0.0
 21
19.5
  0
LINE
  5
23D
100
AcDbEntity
  8
_30_VOLUMEN
100
AcDbLine
 62
4
  6
CONTINUOUS
 10
0.5
 20
-0.0
 11
-0.0
 21
0.5
  0
LINE
  5
23E
100
AcDbEntity
  8
_30_VOLUMEN
100
AcDbLine
 62
4
  6
CONTINUOUS
 10
0.5
 20
-0.0
 11
93.0
 21
0.0
  0
LINE
  5
23F
100
AcDbEntity
  8
0
100
AcDbLine
 62
4
  6
CONTINUOUS
 10
93.0
 20
0.0
 11
115.0609737932
 21
0.0
  0
LINE
  5
240
100
AcDbEntity
  8
_30_VOLUMEN
100
AcDbLine
 62
4
  6
CONTINUOUS
 10
118.0158861915
 20
20.0399607839
 11
111.7834409472
 21
17.8812905693
  0
LINE
  5
241
100
AcDbEntity
  8
_30_VOLUMEN
100
AcDbLine
 62
4
  6
CONTINUOUS
 10
111.7834409472
 20
17.8812905693
 11
104.3259835979
 21
16.3855727387
  0
LINE
  5
242
100
AcDbEntity
  8
_30_VOLUMEN
100
AcDbLine
 62
4
  6
CONTINUOUS
 10
117.6603218959
 20
20.429683294
 11
103.0549338091
 21
17.5003283729
  0
LINE
  5
243
100
AcDbEntity
  8
_21_KURVEN
100
AcDbLine
 62
7
  6
CONTINUOUS
 10
123.3740209163
 20
12.1943408146
 11
115.4341142718
 21
11.4996889938
  0
LINE
  5
244
100
AcDbEntity
  8
_30_VOLUMEN
100
AcDbLine
 62
4
  6
CONTINUOUS
 10
123.4300877936
 20
12.1992460308
 11
115.4341142718
 21
11.4996889938
  0
LINE
  5
245
100
AcDbEntity
  8
_30_VOLUMEN
100
AcDbLine
 62
4
  6
CONTINUOUS
 10
95.3769322603
 20
13.9494792769
 11
103.0549338091
 21
17.5003283729
  0
LINE
  5
246
100
AcDbEntity
  8
_30_VOLUMEN
100
AcDbLine
 62
4
  6
CONTINUOUS
 10
104.3259835979
 20
16.3855727387
 11
98.680697462
 21
13.7747945244
  0
LINE
  5
247
100
AcDbEntity
  8
_26_BEZUGSACHSEN
100
AcDbLine
 62
4
  6
CONTINUOUS
 10
112.2247194095
 20
23.4323164254
 11
107.5207745789
 21
23.0207745789
  0
LINE
  5
248
100
AcDbEntity
  8
_30_VOLUMEN
100
AcDbLine
 62
4
  6
CONTINUOUS
 10
95.3769322603
 20
13.9494792769
 11
98.680697462
 21
13.7747945244
  0
LINE
  5
249
100
AcDbEntity
  8
_30_VOLUMEN
100
AcDbLine
 62
4
  6
CONTINUOUS
 10
112.9280927455
 20
23.9801963845
 11
124.0949276355
 21
24.9571678448
  0
LINE
  5
24A
100
AcDbEntity
  8
_21_KURVEN
100
AcDbLine
 62
7
  6
CONTINUOUS
 10
112.9280927455
 20
23.9801963845
 11
124.0949276355
 21
24.9571678448
  0
LINE
  5
24B
100
AcDbEntity
  8
_30_VOLUMEN
100
AcDbLine
 62
4
  6
CONTINUOUS
 10
0.5
 20
20.0
 11
93.0
 21
20.0
  0
LINE
  5
24C
100
AcDbEntity
  8
0
100
AcDbLine
 62
4
  6
CONTINUOUS
 10
93.0
 20
20.0
 11
104.5
 21
20.0
  0
LINE
  5
24D
100
AcDbEntity
  8
_30_VOLUMEN
100
AcDbLine
 62
4
  6
CONTINUOUS
 10
104.5
 20
20.0
 11
107.5207745789
 21
23.0207745789
  0
LINE
  5
24E
100
AcDbEntity
  8
_30_VOLUMEN
100
AcDbLine
 62
4
  6
CONTINUOUS
 10
112.4391439385
 20
23.7526107722
 11
112.1086991328
 21
23.4221659665
  0
LINE
  5
24F
100
AcDbEntity
  8
_30_VOLUMEN
100
AcDbLine
 62
4
  6
CONTINUOUS
 10
119.6888025652
 20
17.1269111955
 11
114.485707153
 21
13.1758339294
  0
LINE
  5
250
100
AcDbEntity
  8
_30_VOLUMEN
100
AcDbLine
 62
4
  6
CONTINUOUS
 10
109.4013678922
 20
7.5478051359
 11
104.2720362924
 21
4.0385951932
  0
LINE
  5
251
100
AcDbEntity
  8
_30_VOLUMEN
100
AcDbLine
 62
4
  6
CONTINUOUS
 10
102.9964897308
 20
0.6815424557
 11
109.9727554184
 21
5.4543243354
  0
LINE
  5
252
100
AcDbEntity
  8
0
100
AcDbLine
 62
4
  6
CONTINUOUS
 10
93.0
 20
20.0
 11
93.0
 21
0.0
  0
LINE
  5
253
100
AcDbEntity
  8
_28_BEZUGSPUNKTE
100
AcDbLine
 62
1
  6
CONTINUOUS
 10
125.15625
 20
25.15625
 11
124.84375
 21
24.84375
  0
LINE
  5
254
100
AcDbEntity
  8
_30_VOLUMEN
100
AcDbLine
 62
4
  6
CONTINUOUS
 10
107.3274015672
 20
0.0
 11
105.1633862598
 21
2.1640153075
  0
LINE
  5
255
100
AcDbEntity
  8
_30_VOLUMEN
100
AcDbLine
 62
4
  6
CONTINUOUS
 10
98.0735590986
 20
9.2538424686
 11
97.14
 21
10.1874015672
  0
LINE
  5
256
100
AcDbEntity
  8
_30_VOLUMEN
100
AcDbLine
 62
4
  6
CONTINUOUS
 10
96.2721960568
 20
20.0
 11
96.7510876465
 21
14.584985584
  0
LINE
  5
257
100
AcDbEntity
  8
_30_VOLUMEN
100
AcDbLine
 62
4
  6
CONTINUOUS
 10
97.0676561816
 20
11.0054214025
 11
97.14
 21
10.1874015672
  0
LINE
  5
258
100
AcDbEntity
  8
0
100
AcDbLine
 62
4
  6
CONTINUOUS
 10
97.14
 20
10.1874015672
 11
97.14
 21
0.0
  0
LINE
  5
259
100
AcDbEntity
  8
_30_VOLUMEN
100
AcDbLine
 62
4
  6
CONTINUOUS
 10
109.4013678922
 20
7.5478051359
 11
114.485707153
 21
13.1758339294
  0
LINE
  5
25A
100
AcDbEntity
  8
_30_VOLUMEN
100
AcDbLine
 62
4
  6
CONTINUOUS
 10
109.9727554184
 20
5.4543243354
 11
119.9304051361
 21
16.4767869313
  0
LINE
  5
25B
100
AcDbEntity
  8
_30_VOLUMEN
100
AcDbLine
 62
4
  6
CONTINUOUS
 10
95.3769322603
 20
13.9494792769
 11
102.9964897308
 21
0.6815424557
  0
LINE
  5
25C
100
AcDbEntity
  8
_30_VOLUMEN
100
AcDbLine
 62
4
  6
CONTINUOUS
 10
104.2720362924
 20
4.0385951932
 11
98.680697462
 21
13.7747945244
  0
LINE
  5
25D
100
AcDbEntity
  8
_30_VOLUMEN
100
AcDbLine
 62
4
  6
CONTINUOUS
 10
102.9964897308
 20
0.6815424557
 11
104.2720362924
 21
4.0385951932
  0
LINE
  5
25E
100
AcDbEntity
  8
_30_VOLUMEN
100
AcDbLine
 62
4
  6
CONTINUOUS
 10
123.8629697233
 20
12.4219264269
 11
123.409934344
 21
11.9688910476
  0
LINE
  5
25F
100
AcDbEntity
  8
_30_VOLUMEN
100
AcDbLine
 62
4
  6
CONTINUOUS
 10
103.0549338091
 20
17.5003283729
 11
104.3259835979
 21
16.3855727387
  0
LINE
  5
260
100
AcDbEntity
  8
_30_VOLUMEN
100
AcDbLine
 62
4
  6
CONTINUOUS
 10
123.0628670051
 20
8.0018932119
 11
115.0609737932
 21
0.0
  0
LINE
  5
261
100
AcDbEntity
  8
_21_KURVEN
100
AcDbLine
 62
7
  6
CONTINUOUS
 10
111.8994107741
 20
19.2742361916
 11
112.2109554604
 21
23.2563862521
  0
LINE
  5
262
100
AcDbEntity
  8
_30_VOLUMEN
100
AcDbLine
 62
4
  6
CONTINUOUS
 10
111.8994107741
 20
19.2742361916
 11
112.2247194095
 21
23.4323164254
  0
LINE
  5
263
100
AcDbEntity
  8
_30_VOLUMEN
100
AcDbLine
 62
4
  6
CONTINUOUS
 10
109.9727554184
 20
5.4543243354
 11
109.4013678922
 21
7.5478051359
  0
LINE
  5
264
100
AcDbEntity
  8
_30_VOLUMEN
100
AcDbLine
 62
7
  6
CONTINUOUS
 10
117.6603218959
 20
20.429683294
 11
118.0158861915
 21
20.0399607839
  0
LINE
  5
265
100
AcDbEntity
  8
_30_VOLUMEN
100
AcDbLine
 62
4
  6
CONTINUOUS
 10
111.7834409472
 20
17.8812905693
 11
114.485707153
 21
13.1758339294
  0
LINE
  5
266
100
AcDbEntity
  8
_21_KURVEN
100
AcDbLine
 62
7
  6
CONTINUOUS
 10
111.7834409472
 20
17.8812905693
 11
114.485707153
 21
13.1758339294
  0
LINE
  5
267
100
AcDbEntity
  8
_21_KURVEN
100
AcDbLine
 62
7
  6
CONTINUOUS
 10
124.9655381564
 20
24.0944359027
 11
124.0911582013
 21
12.918150947
  0
LINE
  5
268
100
AcDbEntity
  8
_30_VOLUMEN
100
AcDbLine
 62
4
  6
CONTINUOUS
 10
124.9655381564
 20
24.0944359027
 11
124.0911582013
 21
12.918150947
  0
LINE
  5
269
100
AcDbEntity
  8
_26_BEZUGSACHSEN
100
AcDbLine
 62
4
  6
CONTINUOUS
 10
123.4300877936
 20
12.1992460308
 11
123.0628670051
 21
8.0018932119
  0
LINE
  5
26A
100
AcDbEntity
  8
_28_BEZUGSPUNKTE
100
AcDbLine
 62
1
  6
CONTINUOUS
 10
125.15625
 20
24.84375
 11
124.84375
 21
25.15625
  0
LINE
  5
26B
100
AcDbEntity
  8
_30_VOLUMEN
100
AcDbLine
 62
7
  6
CONTINUOUS
 10
119.9304051361
 20
16.4767869313
 11
119.6888025652
 21
17.1269111955
  0
ARC
  5
26C
100
AcDbEntity
  8
_30_VOLUMEN
100
AcDbCircle
 62
7
  6
CONTINUOUS
 10
117.9585593446
 20
17.904621166
 40
2.5805885902
100
AcDbArc
 50
89.9378018512
 51
96.7932998558
  0
ARC
  5
26D
100
AcDbEntity
  8
_30_VOLUMEN
100
AcDbCircle
 62
7
  6
CONTINUOUS
 10
117.9544534644
 20
17.9352388679
 40
2.5497002095
100
AcDbArc
 50
96.7830673771
 51
110.8377293339
  0
ARC
  5
26E
100
AcDbEntity
  8
_30_VOLUMEN
100
AcDbCircle
 62
4
  6
CONTINUOUS
 10
117.715613767
 20
17.6032037291
 40
2.5459929393
100
AcDbArc
 50
331.6541414605
 51
333.1301528984
  0
ARC
  5
26F
100
AcDbEntity
  8
_30_VOLUMEN
100
AcDbCircle
 62
4
  6
CONTINUOUS
 10
117.7187788854
 20
17.601627805
 40
2.5424572784
100
AcDbArc
 50
333.129595288
 51
337.5541104893
  0
ARC
  5
270
100
AcDbEntity
  8
_30_VOLUMEN
100
AcDbCircle
 62
4
  6
CONTINUOUS
 10
117.7187250093
 20
17.6014973831
 40
2.5424445817
100
AcDbArc
 50
324.1006046085
 51
331.6546948399
  0
ARC
  5
271
100
AcDbEntity
  8
_30_VOLUMEN
100
AcDbCircle
 62
7
  6
CONTINUOUS
 10
118.0156530383
 20
17.8824417816
 40
2.5309277828
100
AcDbArc
 50
315.0052883383
 51
323.5541516864
  0
ARC
  5
272
100
AcDbEntity
  8
_30_VOLUMEN
100
AcDbCircle
 62
4
  6
CONTINUOUS
 10
117.7379555189
 20
17.5879600809
 40
2.5189291842
100
AcDbArc
 50
320.7705199454
 51
324.0935484853
  0
ARC
  5
273
100
AcDbEntity
  8
_30_VOLUMEN
100
AcDbCircle
 62
7
  6
CONTINUOUS
 10
118.0374962422
 20
17.8993158563
 40
2.5113645116
100
AcDbArc
 50
2.757615987
 51
5.5212931788
  0
ARC
  5
274
100
AcDbEntity
  8
_30_VOLUMEN
100
AcDbCircle
 62
4
  6
CONTINUOUS
 10
117.7472986421
 20
17.5804661339
 40
2.5069524423
100
AcDbArc
 50
320.2935952954
 51
320.7681454054
  0
ARC
  5
275
100
AcDbEntity
  8
_30_VOLUMEN
100
AcDbCircle
 62
4
  6
CONTINUOUS
 10
118.0449761784
 20
17.8563736095
 40
2.4917437937
100
AcDbArc
 50
297.4487881044
 51
314.9524477821
  0
ARC
  5
276
100
AcDbEntity
  8
_30_VOLUMEN
100
AcDbCircle
 62
4
  6
CONTINUOUS
 10
113.0008277675
 20
23.1935493452
 40
0.792367805
100
AcDbArc
 50
162.7463671853
 51
175.4515139158
  0
ARC
  5
277
100
AcDbEntity
  8
_30_VOLUMEN
100
AcDbCircle
 62
4
  6
CONTINUOUS
 10
123.3063638344
 20
12.9661980403
 40
0.7748167896
100
AcDbArc
 50
275.0094531894
 51
279.1404081032
  0
SPLINE
  5
278
100
AcDbEntity
  8
_30_VOLUMEN
100
AcDbSpline
 62
4
  6
CONTINUOUS
 70
0
 71
3
 72
11
 73
7
 74
0
 42
0.0000001
 43
0.0000001
 44
0.0000000001
 40
0.0
 40
0.0
 40
0.0
 40
0.0
 40
0.2496349922
 40
0.5000147789
 40
0.7503855881
 40
1.0
 40
1.0
 40
1.0
 40
1.0
 10
124.9655381564
 20
24.0944359027
 30
0.0
 10
124.9745111843
 20
24.2091287382
 30
0.0
 10
124.9412604266
 20
24.4458976552
 30
0.0
 10
124.7473208077
 20
24.7449002072
 30
0.0
 10
124.4465759303
 20
24.9361118671
 30
0.0
 10
124.2095237165
 20
24.9671937028
 30
0.0
 10
124.0949276355
 20
24.9571678448
 30
0.0
  0
SPLINE
  5
279
100
AcDbEntity
  8
_30_VOLUMEN
100
AcDbSpline
 62
4
  6
CONTINUOUS
 70
0
 71
3
 72
9
 73
5
 74
0
 42
0.0000001
 43
0.0000001
 44
0.0000000001
 40
0.0
 40
0.0
 40
0.0
 40
0.0
 40
0.5000778014
 40
1.0
 40
1.0
 40
1.0
 40
1.0
 10
112.9280927455
 20
23.9801963845
 30
0.0
 10
112.8371598325
 20
23.9722407854
 30
0.0
 10
112.6568158579
 20
23.9239996149
 30
0.0
 10
112.5036187488
 20
23.8171860102
 30
0.0
 10
112.4390939174
 20
23.7526612245
 30
0.0
  0
SPLINE
  5
27A
100
AcDbEntity
  8
_30_VOLUMEN
100
AcDbSpline
 62
4
  6
CONTINUOUS
 70
0
 71
3
 72
9
 73
5
 74
0
 42
0.0000001
 43
0.0000001
 44
0.0000000001
 40
0.0
 40
0.0
 40
0.0
 40
0.0
 40
0.4998802662
 40
1.0
 40
1.0
 40
1.0
 40
1.0
 10
123.8630197444
 20
12.4218759746
 30
0.0
 10
123.9283864243
 20
12.4872426082
 30
0.0
 10
124.0363326341
 20
12.6427814026
 30
0.0
 10
124.0839445202
 20
12.8259460017
 30
0.0
 10
124.0911582013
 20
12.918150947
 30
0.0
  0
SPLINE
  5
27B
100
AcDbEntity
  8
_30_VOLUMEN
100
AcDbSpline
 62
4
  6
CONTINUOUS
 70
0
 71
3
 72
11
 73
7
 74
0
 42
0.0000001
 43
0.0000001
 44
0.0000000001
 40
0.0
 40
0.0
 40
0.0
 40
0.0
 40
0.2505768451
 40
0.5003931727
 40
0.7500088993
 40
1.0
 40
1.0
 40
1.0
 40
1.0
 10
121.1628986464
 20
18.3507706147
 30
0.0
 10
121.1986633145
 20
17.981050445
 30
0.0
 10
121.1321820759
 20
17.2219449638
 30
0.0
 10
120.6254483351
 20
16.2039572186
 30
0.0
 10
119.7834670773
 20
15.4409159375
 30
0.0
 10
119.0713784793
 20
15.1723763481
 30
0.0
 10
118.7064742906
 20
15.1077794473
 30
0.0
  0
SPLINE
  5
27C
100
AcDbEntity
  8
_30_VOLUMEN
100
AcDbSpline
 62
7
  6
CONTINUOUS
 70
0
 71
3
 72
9
 73
5
 74
0
 42
0.0000001
 43
0.0000001
 44
0.0000000001
 40
0.0
 40
0.0
 40
0.0
 40
0.0
 40
0.5006181733
 40
1.0
 40
1.0
 40
1.0
 40
1.0
 10
120.5459525943
 20
18.0201398608
 30
0.0
 10
120.559936353
 20
17.7301974547
 30
0.0
 10
120.4894448909
 20
17.1418145697
 30
0.0
 10
120.2236178248
 20
16.6118259034
 30
0.0
 10
120.0515786335
 20
16.3789117976
 30
0.0
  0
SPLINE
  5
27D
100
AcDbEntity
  8
_30_VOLUMEN
100
AcDbSpline
 62
4
  6
CONTINUOUS
 70
0
 71
3
 72
11
 73
7
 74
0
 42
0.0000001
 43
0.0000001
 44
0.0000000001
 40
0.0
 40
0.0
 40
0.0
 40
0.0
 40
0.2505404368
 40
0.5004515623
 40
0.7500436636
 40
1.0
 40
1.0
 40
1.0
 40
1.0
 10
121.0762391191
 20
18.3151222937
 30
0.0
 10
121.1106966981
 20
17.9589142645
 30
0.0
 10
121.0489666607
 20
17.2279125954
 30
0.0
 10
120.571544741
 20
16.2426131363
 30
0.0
 10
119.7733264203
 20
15.4942314125
 30
0.0
 10
119.0943162525
 20
15.2196339755
 30
0.0
 10
118.7446324914
 20
15.1475487048
 30
0.0
  0
SPLINE
  5
27E
100
AcDbEntity
  8
_30_VOLUMEN
100
AcDbSpline
 62
4
  6
CONTINUOUS
 70
0
 71
3
 72
15
 73
11
 74
0
 42
0.0000001
 43
0.0000001
 44
0.0000000001
 40
0.0
 40
0.0
 40
0.0
 40
0.0
 40
0.1250542112
 40
0.2505654459
 40
0.3759805772
 40
0.5013466468
 40
0.626443327
 40
0.7512015129
 40
0.8756762761
 40
1.0
 40
1.0
 40
1.0
 40
1.0
 10
121.0762391191
 20
18.3151222937
 30
0.0
 10
121.0489191391
 20
18.5975448113
 30
0.0
 10
120.9113380872
 20
19.1585808369
 30
0.0
 10
120.4785135046
 20
19.9065524513
 30
0.0
 10
119.8515728858
 20
20.5032690264
 30
0.0
 10
119.0836066033
 20
20.900053679
 30
0.0
 10
118.2361941174
 20
21.0637868193
 30
0.0
 10
117.3789765552
 20
20.9812099103
 30
0.0
 10
116.5824502326
 20
20.6595565118
 30
0.0
 10
116.1345012919
 20
20.3008590421
 30
0.0
 10
115.9417665772
 20
20.094887264
 30
0.0
  0
SPLINE
  5
27F
100
AcDbEntity
  8
_30_VOLUMEN
100
AcDbSpline
 62
4
  6
CONTINUOUS
 70
0
 71
3
 72
17
 73
13
 74
0
 42
0.0000001
 43
0.0000001
 44
0.0000000001
 40
0.0
 40
0.0
 40
0.0
 40
0.0
 40
0.1242403414
 40
0.2486204427
 40
0.3732873
 40
0.4359087952
 40
0.4986168071
 40
0.62388963
 40
0.7492532215
 40
0.8120929272
 40
0.8749583999
 40
1.0
 40
1.0
 40
1.0
 40
1.0
 10
115.8525082796
 20
20.07638146
 30
0.0
 10
116.043535835
 20
20.2975692832
 30
0.0
 10
116.4938883215
 20
20.6863077219
 30
0.0
 10
117.3079827964
 20
21.0462652189
 30
0.0
 10
118.0470751745
 20
21.1373006601
 30
0.0
 10
118.6342024993
 20
21.080550561
 30
0.0
 10
119.2084098943
 20
20.9391992141
 30
0.0
 10
119.8790361222
 20
20.6075572563
 30
0.0
 10
120.4270094834
 20
20.097889288
 30
0.0
 10
120.7638361935
 20
19.6104311765
 30
0.0
 10
121.0262696938
 20
19.0805247476
 30
0.0
 10
121.1345769689
 20
18.6435482617
 30
0.0
 10
121.1628986464
 20
18.3507706147
 30
0.0
  0
SPLINE
  5
280
100
AcDbEntity
  8
_30_VOLUMEN
100
AcDbSpline
 62
4
  6
CONTINUOUS
 70
0
 71
3
 72
9
 73
5
 74
0
 42
0.0000001
 43
0.0000001
 44
0.0000000001
 40
0.0
 40
0.0
 40
0.0
 40
0.0
 40
0.4991395601
 40
1.0
 40
1.0
 40
1.0
 40
1.0
 10
112.4390939174
 20
23.7526612245
 30
0.0
 10
112.3942642366
 20
23.7078315754
 30
0.0
 10
112.3150399948
 20
23.6067070824
 30
0.0
 10
112.2629467223
 20
23.4893336774
 30
0.0
 10
112.2441156101
 20
23.4285673216
 30
0.0
  0
SPLINE
  5
281
100
AcDbEntity
  8
_30_VOLUMEN
100
AcDbSpline
 62
4
  6
CONTINUOUS
 70
0
 71
3
 72
9
 73
5
 74
0
 42
0.0000001
 43
0.0000001
 44
0.0000000001
 40
0.0
 40
0.0
 40
0.0
 40
0.0
 40
0.500480823
 40
1.0
 40
1.0
 40
1.0
 40
1.0
 10
123.4294468951
 20
12.2012198591
 30
0.0
 10
123.5105688645
 20
12.2142603997
 30
0.0
 10
123.6696151543
 20
12.265704702
 30
0.0
 10
123.8050330364
 20
12.3638893077
 30
0.0
 10
123.8630197444
 20
12.4218759746
 30
0.0
  0
SPLINE
  5
282
100
AcDbEntity
  8
_21_KURVEN
100
AcDbSpline
 62
7
  6
CONTINUOUS
 70
0
 71
3
 72
9
 73
5
 74
0
 42
0.0000001
 43
0.0000001
 44
0.0000000001
 40
0.0
 40
0.0
 40
0.0
 40
0.0
 40
0.5
 40
1.0
 40
1.0
 40
1.0
 40
1.0
 10
112.9280927455
 20
23.9801963845
 30
0.0
 10
112.8784770329
 20
23.9742769852
 30
0.0
 10
112.7791699443
 20
23.9591937842
 30
0.0
 10
112.6869247384
 20
23.9199428836
 30
0.0
 10
112.6390136167
 20
23.8976006843
 30
0.0
  0
SPLINE
  5
283
100
AcDbEntity
  8
_21_KURVEN
100
AcDbSpline
 62
7
  6
CONTINUOUS
 70
0
 71
3
 72
9
 73
5
 74
0
 42
0.0000001
 43
0.0000001
 44
0.0000000001
 40
0.0
 40
0.0
 40
0.0
 40
0.0
 40
0.5
 40
1.0
 40
1.0
 40
1.0
 40
1.0
 10
112.6390136204
 20
23.8976006862
 30
0.0
 10
112.631627038
 20
23.893800207
 30
0.0
 10
112.6119786458
 20
23.8835592849
 30
0.0
 10
112.5929426812
 20
23.8722323579
 30
0.0
 10
112.5812077633
 20
23.8651102703
 30
0.0
  0
SPLINE
  5
284
100
AcDbEntity
  8
_21_KURVEN
100
AcDbSpline
 62
7
  6
CONTINUOUS
 70
0
 71
3
 72
9
 73
5
 74
0
 42
0.0000001
 43
0.0000001
 44
0.0000000001
 40
0.0
 40
0.0
 40
0.0
 40
0.0
 40
0.5
 40
1.0
 40
1.0
 40
1.0
 40
1.0
 10
112.5812077628
 20
23.8651102701
 30
0.0
 10
112.5579343439
 20
23.8501330237
 30
0.0
 10
112.5072260568
 20
23.8162152335
 30
0.0
 10
112.4623667722
 20
23.7749005509
 30
0.0
 10
112.4391439388
 20
23.7526107725
 30
0.0
  0
SPLINE
  5
285
100
AcDbEntity
  8
_21_KURVEN
100
AcDbSpline
 62
7
  6
CONTINUOUS
 70
0
 71
3
 72
9
 73
5
 74
0
 42
0.0000001
 43
0.0000001
 44
0.0000000001
 40
0.0
 40
0.0
 40
0.0
 40
0.0
 40
0.5
 40
1.0
 40
1.0
 40
1.0
 40
1.0
 10
112.4391439385
 20
23.7526107722
 30
0.0
 10
112.4143032679
 20
23.7266054342
 30
0.0
 10
112.3619394531
 20
23.6691837889
 30
0.0
 10
112.3217903679
 20
23.6025993673
 30
0.0
 10
112.3024369153
 20
23.5686015118
 30
0.0
  0
SPLINE
  5
286
100
AcDbEntity
  8
_21_KURVEN
100
AcDbSpline
 62
7
  6
CONTINUOUS
 70
0
 71
3
 72
9
 73
5
 74
0
 42
0.0000001
 43
0.0000001
 44
0.0000000001
 40
0.0
 40
0.0
 40
0.0
 40
0.0
 40
0.5
 40
1.0
 40
1.0
 40
1.0
 40
1.0
 10
112.3024369105
 20
23.5686015028
 30
0.0
 10
112.2802675051
 20
23.5239663292
 30
0.0
 10
112.2385886794
 20
23.4328106558
 30
0.0
 10
112.2208889183
 20
23.3339601421
 30
0.0
 10
112.2133242086
 20
23.2815197998
 30
0.0
  0
LINE
  5
287
100
AcDbEntity
  8
_21_KURVEN
100
AcDbLine
 62
7
  6
CONTINUOUS
 10
112.2133242091
 20
23.2815198039
 11
112.2109554604
 21
23.2563862518
  0
SPLINE
  5
288
100
AcDbEntity
  8
_21_KURVEN
100
AcDbSpline
 62
7
  6
CONTINUOUS
 70
0
 71
3
 72
9
 73
5
 74
0
 42
0.0000001
 43
0.0000001
 44
0.0000000001
 40
0.0
 40
0.0
 40
0.0
 40
0.0
 40
0.5
 40
1.0
 40
1.0
 40
1.0
 40
1.0
 10
124.9655381564
 20
24.0944359027
 30
0.0
 10
124.9679334749
 20
24.1499401744
 30
0.0
 10
124.9684178433
 20
24.268834928
 30
0.0
 10
124.9366131296
 20
24.377979414
 30
0.0
 10
124.9177694749
 20
24.4351618424
 30
0.0
  0
SPLINE
  5
289
100
AcDbEntity
  8
_21_KURVEN
100
AcDbSpline
 62
7
  6
CONTINUOUS
 70
0
 71
3
 72
21
 73
17
 74
0
 42
0.0000001
 43
0.0000001
 44
0.0000000001
 40
0.0
 40
0.0
 40
0.0
 40
0.0
 40
0.125
 40
0.1875
 40
0.25
 40
0.3125
 40
0.375
 40
0.4375
 40
0.5
 40
0.5625
 40
0.625
 40
0.6875
 40
0.75
 40
0.8125
 40
0.875
 40
1.0
 40
1.0
 40
1.0
 40
1.0
 10
124.9177694781
 20
24.4351618338
 30
0.0
 10
124.9059414104
 20
24.4611638983
 30
0.0
 10
124.8887511402
 20
24.5003413191
 30
0.0
 10
124.8636234541
 20
24.551880584
 30
0.0
 10
124.8383263719
 20
24.5882008047
 30
0.0
 10
124.8159989586
 20
24.6260516485
 30
0.0
 10
124.7882441873
 20
24.6601142277
 30
0.0
 10
124.7587762004
 20
24.6925494909
 30
0.0
 10
124.7313619447
 20
24.7276574066
 30
0.0
 10
124.6974459798
 20
24.7537020286
 30
0.0
 10
124.6655599645
 20
24.7824399694
 30
0.0
 10
124.6320558602
 20
24.809467929
 30
0.0
 10
124.5939164504
 20
24.8318721791
 30
0.0
 10
124.5577809286
 20
24.8569406167
 30
0.0
 10
124.5050932374
 20
24.8823211462
 30
0.0
 10
124.4647847016
 20
24.899789561
 30
0.0
 10
124.4380885149
 20
24.9117833892
 30
0.0
  0
SPLINE
  5
28A
100
AcDbEntity
  8
_21_KURVEN
100
AcDbSpline
 62
7
  6
CONTINUOUS
 70
0
 71
3
 72
9
 73
5
 74
0
 42
0.0000001
 43
0.0000001
 44
0.0000000001
 40
0.0
 40
0.0
 40
0.0
 40
0.0
 40
0.5
 40
1.0
 40
1.0
 40
1.0
 40
1.0
 10
124.4380885266
 20
24.9117833849
 30
0.0
 10
124.3850940269
 20
24.9290336856
 30
0.0
 10
124.2717981107
 20
24.9615134203
 30
0.0
 10
124.1542509894
 20
24.960130164
 30
0.0
 10
124.0949276265
 20
24.957167844
 30
0.0
  0
SPLINE
  5
28B
100
AcDbEntity
  8
_21_KURVEN
100
AcDbSpline
 62
1
  6
CENTER
 70
0
 71
3
 72
135
 73
131
 74
0
 42
0.0000001
 43
0.0000001
 44
0.0000000001
 40
0.0
 40
0.0
 40
0.0
 40
0.0
 40
0.015625
 40
0.03125
 40
0.046875
 40
0.0546875
 40
0.0625
 40
0.06640625
 40
0.0703125
 40
0.078125
 40
0.0859375
 40
0.09375
 40
0.109375
 40
0.125
 40
0.1328125
 40
0.13671875
 40
0.140625
 40
0.142578125
 40
0.14453125
 40
0.1484375
 40
0.15625
 40
0.171875
 40
0.1875
 40
0.203125
 40
0.20703125
 40
0.2109375
 40
0.21484375
 40
0.216796875
 40
0.21875
 40
0.2265625
 40
0.234375
 40
0.25
 40
0.265625
 40
0.2734375
 40
0.28125
 40
0.283203125
 40
0.28515625
 40
0.2890625
 40
0.29296875
 40
0.296875
 40
0.3125
 40
0.328125
 40
0.34375
 40
0.3515625
 40
0.35546875
 40
0.357421875
 40
0.359375
 40
0.36328125
 40
0.3671875
 40
0.375
 40
0.390625
 40
0.40625
 40
0.4140625
 40
0.421875
 40
0.4296875
 40
0.43359375
 40
0.4375
 40
0.4453125
 40
0.453125
 40
0.46875
 40
0.4765625
 40
0.484375
 40
0.4921875
 40
0.49609375
 40
0.498046875
 40
0.5
 40
0.501953125
 40
0.50390625
 40
0.5078125
 40
0.515625
 40
0.5234375
 40
0.53125
 40
0.546875
 40
0.5546875
 40
0.5625
 40
0.56640625
 40
0.5703125
 40
0.578125
 40
0.5859375
 40
0.59375
 40
0.609375
 40
0.625
 40
0.6328125
 40
0.63671875
 40
0.640625
 40
0.642578125
 40
0.64453125
 40
0.6484375
 40
0.65625
 40
0.671875
 40
0.6875
 40
0.703125
 40
0.70703125
 40
0.7109375
 40
0.71484375
 40
0.716796875
 40
0.71875
 40
0.7265625
 40
0.734375
 40
0.75
 40
0.765625
 40
0.7734375
 40
0.78125
 40
0.783203125
 40
0.78515625
 40
0.7890625
 40
0.79296875
 40
0.796875
 40
0.8125
 40
0.828125
 40
0.84375
 40
0.8515625
 40
0.85546875
 40
0.857421875
 40
0.859375
 40
0.86328125
 40
0.8671875
 40
0.875
 40
0.890625
 40
0.90625
 40
0.9140625
 40
0.921875
 40
0.9296875
 40
0.93359375
 40
0.9375
 40
0.9453125
 40
0.953125
 40
0.96875
 40
0.984375
 40
1.0
 40
1.0
 40
1.0
 40
1.0
 10
124.4422395705
 20
18.6376757694
 30
0.0
 10
124.4239395451
 20
18.7291762015
 30
0.0
 10
124.3873454927
 20
18.9121788585
 30
0.0
 10
124.3324184239
 20
19.1866720874
 30
0.0
 10
124.2867508381
 20
19.415447818
 30
0.0
 10
124.2499828329
 20
19.5983984852
 30
0.0
 10
124.2275351853
 20
19.7129017589
 30
0.0
 10
124.2083578977
 20
19.804140001
 30
0.0
 10
124.1936314039
 20
19.896708465
 30
0.0
 10
124.1433662945
 20
20.0028978524
 30
0.0
 10
124.0904945086
 20
20.1325502905
 30
0.0
 10
124.0174040851
 20
20.3046464466
 30
0.0
 10
123.9268855093
 20
20.5200069191
 30
0.0
 10
123.8362325054
 20
20.7353734836
 30
0.0
 10
123.7724665842
 20
20.8859490913
 30
0.0
 10
123.7365986465
 20
20.9723007323
 30
0.0
 10
123.7128303846
 20
21.0255425088
 30
0.0
 10
123.6969152643
 20
21.0698060187
 30
0.0
 10
123.6696828276
 20
21.1079715728
 30
0.0
 10
123.6239984248
 20
21.1758239918
 30
0.0
 10
123.5312320739
 20
21.3107763129
 30
0.0
 10
123.3994170383
 20
21.5039429192
 30
0.0
 10
123.2410334355
 20
21.73565052
 30
0.0
 10
123.1220124265
 20
21.9092551097
 30
0.0
 10
123.0431181694
 20
22.025313873
 30
0.0
 10
123.0028426453
 20
22.0827572179
 30
0.0
 10
122.9719655134
 20
22.1325263996
 30
0.0
 10
122.936211259
 20
22.1645241339
 30
0.0
 10
122.8854224255
 20
22.2145313293
 30
0.0
 10
122.8080480122
 20
22.2886992546
 30
0.0
 10
122.6713838643
 20
22.4211854874
 30
0.0
 10
122.5002288145
 20
22.5865474983
 30
0.0
 10
122.3292602686
 20
22.7521024502
 30
0.0
 10
122.1922977144
 20
22.8842799775
 30
0.0
 10
122.1155947154
 20
22.9591424902
 30
0.0
 10
122.0639246506
 20
23.0082380396
 30
0.0
 10
122.0307534762
 20
23.0429080062
 30
0.0
 10
121.9799903583
 20
23.0721048587
 30
0.0
 10
121.9212439786
 20
23.1104398467
 30
0.0
 10
121.8026358523
 20
23.18541406
 30
0.0
 10
121.6251839544
 20
23.2985710825
 30
0.0
 10
121.3883572695
 20
23.4491282241
 30
0.0
 10
121.1909305839
 20
23.574418666
 30
0.0
 10
121.0529793126
 20
23.6626265587
 30
0.0
 10
120.9836512317
 20
23.7060192637
 30
0.0
 10
120.9446040333
 20
23.7319622827
 30
0.0
 10
120.8998445577
 20
23.7463859058
 30
0.0
 10
120.8458507911
 20
23.7683589775
 30
0.0
 10
120.7583696198
 20
23.8013160104
 30
0.0
 10
120.6057833542
 20
23.8600057368
 30
0.0
 10
120.3875594741
 20
23.9433984557
 30
0.0
 10
120.1693461982
 20
24.0266569854
 30
0.0
 10
119.994944928
 20
24.0939456613
 30
0.0
 10
119.8636295613
 20
24.1424471251
 30
0.0
 10
119.75584424
 20
24.1891310503
 30
0.0
 10
119.662862173
 20
24.2007430419
 30
0.0
 10
119.5710595881
 20
24.2168493779
 30
0.0
 10
119.4559025039
 20
24.2354436509
 30
0.0
 10
119.2718768649
 20
24.2660531398
 30
0.0
 10
119.0877893809
 20
24.2964343862
 30
0.0
 10
118.9037181602
 20
24.3268563711
 30
0.0
 10
118.7656777996
 20
24.3497788866
 30
0.0
 10
118.6505938732
 20
24.3685105858
 30
0.0
 10
118.5701350275
 20
24.3823542223
 30
0.0
 10
118.52400237
 20
24.3891220817
 30
0.0
 10
118.4898428561
 20
24.3974173615
 30
0.0
 10
118.4540015125
 20
24.3934064951
 30
0.0
 10
118.4067996974
 20
24.3923511868
 30
0.0
 10
118.3239231731
 20
24.3885045173
 30
0.0
 10
118.2056712086
 20
24.3840541778
 30
0.0
 10
118.0637069095
 20
24.3782693914
 30
0.0
 10
117.8744463165
 20
24.3706972387
 30
0.0
 10
117.6851587722
 20
24.3631684695
 30
0.0
 10
117.4959332276
 20
24.3554038777
 30
0.0
 10
117.3775347224
 20
24.3511044112
 30
0.0
 10
117.2831185138
 20
24.3463956257
 30
0.0
 10
117.1875979546
 20
24.3463209669
 30
0.0
 10
117.0761016412
 20
24.3130582085
 30
0.0
 10
116.9404586786
 20
24.2808959711
 30
0.0
 10
116.7602441312
 20
24.2353116119
 30
0.0
 10
116.5347738921
 20
24.1792088013
 30
0.0
 10
116.3093084527
 20
24.1229721567
 30
0.0
 10
116.1516140041
 20
24.0832732101
 30
0.0
 10
116.0612762639
 20
24.0611996115
 30
0.0
 10
116.0053504672
 20
24.045954184
 30
0.0
 10
115.9593817882
 20
24.0370835918
 30
0.0
 10
115.9178970431
 20
24.016069543
 30
0.0
 10
115.8445173291
 20
23.981411291
 30
0.0
 10
115.6983111113
 20
23.910595302
 30
0.0
 10
115.4891684841
 20
23.8101889986
 30
0.0
 10
115.2382605391
 20
23.6894837315
 30
0.0
 10
115.0502218796
 20
23.5986966158
 30
0.0
 10
114.9246058555
 20
23.5386701799
 30
0.0
 10
114.862264246
 20
23.5077464013
 30
0.0
 10
114.808801049
 20
23.4849287368
 30
0.0
 10
114.7722519444
 20
23.4545260108
 30
0.0
 10
114.7158282014
 20
23.4120463598
 30
0.0
 10
114.6318634288
 20
23.3470175433
 30
0.0
 10
114.4820891864
 20
23.2323897866
 30
0.0
 10
114.295070077
 20
23.0887455253
 30
0.0
 10
114.1078856127
 20
22.9453157405
 30
0.0
 10
113.9583759382
 20
22.8303448214
 30
0.0
 10
113.873815888
 20
22.7660881203
 30
0.0
 10
113.8181734469
 20
22.7225950677
 30
0.0
 10
113.779334177
 20
22.6951628417
 30
0.0
 10
113.743501945
 20
22.6494766172
 30
0.0
 10
113.6975366422
 20
22.5973116556
 30
0.0
 10
113.6071310338
 20
22.4916149171
 30
0.0
 10
113.4708973465
 20
22.3336332311
 30
0.0
 10
113.2895372342
 20
22.1227196977
 30
0.0
 10
113.1385660599
 20
21.9468610658
 30
0.0
 10
113.0324209056
 20
21.8240831543
 30
0.0
 10
112.9800037355
 20
21.7622350578
 30
0.0
 10
112.948993988
 20
21.7276342253
 30
0.0
 10
112.9285987851
 20
21.6855930961
 30
0.0
 10
112.8994710076
 20
21.6355888162
 30
0.0
 10
112.8548936278
 20
21.5541609196
 30
0.0
 10
112.7759481719
 20
21.4123191766
 30
0.0
 10
112.6635820975
 20
21.2093849675
 30
0.0
 10
112.5513444612
 20
21.0064117755
 30
0.0
 10
112.4609155821
 20
20.8443692991
 30
0.0
 10
112.39493317
 20
20.7218525997
 30
0.0
 10
112.3340831566
 20
20.6228981252
 30
0.0
 10
112.3094897616
 20
20.5308261997
 30
0.0
 10
112.2806898896
 20
20.4410085825
 30
0.0
 10
112.246130357
 20
20.3279646807
 30
0.0
 10
112.1900300918
 20
20.1475258553
 30
0.0
 10
112.1201811292
 20
19.9218292136
 30
0.0
 10
112.0362433228
 20
19.6510570448
 30
0.0
 10
111.9803074617
 20
19.470530113
 30
0.0
 10
111.9523366965
 20
19.3802681662
 30
0.0
  0
SPLINE
  5
28C
100
AcDbEntity
  8
_21_KURVEN
100
AcDbSpline
 62
1
  6
CENTER
 70
0
 71
3
 72
11
 73
7
 74
0
 42
0.0000001
 43
0.0000001
 44
0.0000000001
 40
0.0
 40
0.0
 40
0.0
 40
0.0
 40
0.375
 40
0.5625
 40
0.75
 40
1.0
 40
1.0
 40
1.0
 40
1.0
 10
111.9523365588
 20
19.3802674766
 30
0.0
 10
111.950199525
 20
19.3694653256
 30
0.0
 10
111.9470675101
 20
19.3536480235
 30
0.0
 10
111.942710719
 20
19.3309913526
 30
0.0
 10
111.9398972103
 20
19.3163992812
 30
0.0
 10
111.9355463015
 20
19.2928452413
 30
0.0
 10
111.9334488765
 20
19.2815636822
 30
0.0
  0
SPLINE
  5
28D
100
AcDbEntity
  8
_21_KURVEN
100
AcDbSpline
 62
1
  6
CENTER
 70
0
 71
3
 72
85
 73
81
 74
0
 42
0.0000001
 43
0.0000001
 44
0.0000000001
 40
0.0
 40
0.0
 40
0.0
 40
0.0
 40
0.03125
 40
0.046875
 40
0.0625
 40
0.078125
 40
0.0859375
 40
0.09375
 40
0.1015625
 40
0.10546875
 40
0.109375
 40
0.125
 40
0.15625
 40
0.171875
 40
0.1875
 40
0.203125
 40
0.2109375
 40
0.21875
 40
0.234375
 40
0.25
 40
0.265625
 40
0.28125
 40
0.2890625
 40
0.296875
 40
0.3125
 40
0.328125
 40
0.34375
 40
0.375
 40
0.390625
 40
0.39453125
 40
0.3984375
 40
0.40625
 40
0.4140625
 40
0.421875
 40
0.4375
 40
0.453125
 40
0.46875
 40
0.484375
 40
0.4921875
 40
0.49609375
 40
0.5
 40
0.50390625
 40
0.5078125
 40
0.515625
 40
0.53125
 40
0.546875
 40
0.5625
 40
0.578125
 40
0.5859375
 40
0.59375
 40
0.6015625
 40
0.60546875
 40
0.609375
 40
0.625
 40
0.65625
 40
0.671875
 40
0.6875
 40
0.703125
 40
0.7109375
 40
0.71875
 40
0.734375
 40
0.75
 40
0.765625
 40
0.78125
 40
0.7890625
 40
0.796875
 40
0.8125
 40
0.828125
 40
0.84375
 40
0.875
 40
0.890625
 40
0.89453125
 40
0.8984375
 40
0.90625
 40
0.9140625
 40
0.921875
 40
0.9375
 40
0.953125
 40
0.96875
 40
1.0
 40
1.0
 40
1.0
 40
1.0
 10
116.0258981514
 20
12.1547242327
 30
0.0
 10
116.152825843
 20
12.1220196454
 30
0.0
 10
116.343216532
 20
12.0729591316
 30
0.0
 10
116.5970741776
 20
12.0075596444
 30
0.0
 10
116.7874589277
 20
11.9584737009
 30
0.0
 10
116.9461397526
 20
11.9176837869
 30
0.0
 10
117.0730241749
 20
11.8847939263
 30
0.0
 10
117.1683520847
 20
11.860831296
 30
0.0
 10
117.2472684649
 20
11.8386206907
 30
0.0
 10
117.3142852432
 20
11.8374824685
 30
0.0
 10
117.4138123279
 20
11.8315032793
 30
0.0
 10
117.6300429019
 20
11.8210246633
 30
0.0
 10
117.8958189016
 20
11.8069288513
 30
0.0
 10
118.1617874601
 20
11.792772905
 30
0.0
 10
118.3610401401
 20
11.7835354019
 30
0.0
 10
118.5277496036
 20
11.7712643498
 30
0.0
 10
118.6562167465
 20
11.7953980985
 30
0.0
 10
118.7855401097
 20
11.8136002578
 30
0.0
 10
118.9468981964
 20
11.8384016391
 30
0.0
 10
119.140664933
 20
11.867227006
 30
0.0
 10
119.3343573268
 20
11.8965196443
 30
0.0
 10
119.4959012706
 20
11.9201528471
 30
0.0
 10
119.6248529196
 20
11.9406913635
 30
0.0
 10
119.7548317003
 20
11.9553239268
 30
0.0
 10
119.9099560708
 20
12.0158693359
 30
0.0
 10
120.0970493739
 20
12.0830578746
 30
0.0
 10
120.3462199076
 20
12.1744835353
 30
0.0
 10
120.5952255469
 20
12.2657954458
 30
0.0
 10
120.7981195737
 20
12.3391418147
 30
0.0
 10
120.8911487945
 20
12.3740040224
 30
0.0
 10
120.9546877305
 20
12.3947253037
 30
0.0
 10
121.0230225727
 20
12.4390233153
 30
0.0
 10
121.1064595469
 20
12.4898000666
 30
0.0
 10
121.2172067969
 20
12.5583352004
 30
0.0
 10
121.355818317
 20
12.6437102835
 30
0.0
 10
121.5220534181
 20
12.7463215895
 30
0.0
 10
121.6883994793
 20
12.8487582046
 30
0.0
 10
121.8267335991
 20
12.9345700151
 30
0.0
 10
121.9241228934
 20
12.9937739842
 30
0.0
 10
121.978908066
 20
13.0289520883
 30
0.0
 10
122.0224358148
 20
13.0515408151
 30
0.0
 10
122.0566410125
 20
13.0886353148
 30
0.0
 10
122.1054997754
 20
13.1330348512
 30
0.0
 10
122.1894872975
 20
13.2130916985
 30
0.0
 10
122.3102634961
 20
13.3262243576
 30
0.0
 10
122.4548471911
 20
13.4625190897
 30
0.0
 10
122.5995514208
 20
13.5986464822
 30
0.0
 10
122.7200262825
 20
13.7121974901
 30
0.0
 10
122.8166146959
 20
13.8028543322
 30
0.0
 10
122.8884976314
 20
13.871331948
 30
0.0
 10
122.9501744414
 20
13.9268566657
 30
0.0
 10
122.9863537755
 20
13.9826989055
 30
0.0
 10
123.0440035991
 20
14.0635278163
 30
0.0
 10
123.1669551815
 20
14.2403651617
 30
0.0
 10
123.3192039467
 20
14.4571357124
 30
0.0
 10
123.4715708956
 20
14.6740098598
 30
0.0
 10
123.5845678156
 20
14.837230093
 30
0.0
 10
123.6829436447
 20
14.9713217134
 30
0.0
 10
123.7303906522
 20
15.0929163738
 30
0.0
 10
123.78329809
 20
15.2120089604
 30
0.0
 10
123.8475462295
 20
15.3617385417
 30
0.0
 10
123.9255069089
 20
15.5410206794
 30
0.0
 10
124.0030337929
 20
15.7204940997
 30
0.0
 10
124.0683664207
 20
15.8697454746
 30
0.0
 10
124.1191048818
 20
15.9897944741
 30
0.0
 10
124.1753723944
 20
16.1074997221
 30
0.0
 10
124.2061484509
 20
16.2713995435
 30
0.0
 10
124.2481932604
 20
16.4659060265
 30
0.0
 10
124.3025476013
 20
16.7259995687
 30
0.0
 10
124.3569072892
 20
16.9859303268
 30
0.0
 10
124.4021007337
 20
17.1970628691
 30
0.0
 10
124.4217735008
 20
17.2946301417
 30
0.0
 10
124.4378401652
 20
17.3593635868
 30
0.0
 10
124.4363802213
 20
17.4425551762
 30
0.0
 10
124.4374161543
 20
17.5420907358
 30
0.0
 10
124.4378235591
 20
17.6749076349
 30
0.0
 10
124.4386669449
 20
17.8408934808
 30
0.0
 10
124.4395359438
 20
18.0400916008
 30
0.0
 10
124.4407448069
 20
18.3056837941
 30
0.0
 10
124.4416401598
 20
18.5048791316
 30
0.0
 10
124.4422395715
 20
18.6376757583
 30
0.0
  0
SPLINE
  5
28E
100
AcDbEntity
  8
_21_KURVEN
100
AcDbSpline
 62
7
  6
CONTINUOUS
 70
0
 71
3
 72
8
 73
4
 74
0
 42
0.0000001
 43
0.0000001
 44
0.0000000001
 40
0.0
 40
0.0
 40
0.0
 40
0.0
 40
1.0
 40
1.0
 40
1.0
 40
1.0
 10
123.3740209163
 20
12.1943408146
 30
0.0
 10
123.4237368905
 20
12.199479887
 30
0.0
 10
123.4714962703
 20
12.2081103148
 30
0.0
 10
123.5226328222
 20
12.2217994363
 30
0.0
  0
SPLINE
  5
28F
100
AcDbEntity
  8
_21_KURVEN
100
AcDbSpline
 62
7
  6
CONTINUOUS
 70
0
 71
3
 72
8
 73
4
 74
0
 42
0.0000001
 43
0.0000001
 44
0.0000000001
 40
0.0
 40
0.0
 40
0.0
 40
0.0
 40
1.0
 40
1.0
 40
1.0
 40
1.0
 10
123.5226328202
 20
12.2217994358
 30
0.0
 10
123.5703900059
 20
12.2362639268
 30
0.0
 10
123.6155686363
 20
12.2537925374
 30
0.0
 10
123.6631000432
 20
12.2769365139
 30
0.0
  0
SPLINE
  5
290
100
AcDbEntity
  8
_21_KURVEN
100
AcDbSpline
 62
7
  6
CONTINUOUS
 70
0
 71
3
 72
9
 73
5
 74
0
 42
0.0000001
 43
0.0000001
 44
0.0000000001
 40
0.0
 40
0.0
 40
0.0
 40
0.0
 40
0.5
 40
1.0
 40
1.0
 40
1.0
 40
1.0
 10
123.6631000414
 20
12.2769365129
 30
0.0
 10
123.6972145043
 20
12.2953320208
 30
0.0
 10
123.7695730625
 20
12.3367092333
 30
0.0
 10
123.8316390156
 20
12.3922715887
 30
0.0
 10
123.8629697268
 20
12.4219264304
 30
0.0
  0
SPLINE
  5
291
100
AcDbEntity
  8
_21_KURVEN
100
AcDbSpline
 62
7
  6
CONTINUOUS
 70
0
 71
3
 72
9
 73
5
 74
0
 42
0.0000001
 43
0.0000001
 44
0.0000000001
 40
0.0
 40
0.0
 40
0.0
 40
0.0
 40
0.5
 40
1.0
 40
1.0
 40
1.0
 40
1.0
 10
123.8629697233
 20
12.4219264269
 30
0.0
 10
123.8840666359
 20
12.4438572545
 30
0.0
 10
123.9247118363
 20
12.4874739112
 30
0.0
 10
123.9610520523
 20
12.541555538
 30
0.0
 10
123.9785060293
 20
12.5689375843
 30
0.0
  0
SPLINE
  5
292
100
AcDbEntity
  8
_21_KURVEN
100
AcDbSpline
 62
7
  6
CONTINUOUS
 70
0
 71
3
 72
9
 73
5
 74
0
 42
0.0000001
 43
0.0000001
 44
0.0000000001
 40
0.0
 40
0.0
 40
0.0
 40
0.0
 40
0.25
 40
1.0
 40
1.0
 40
1.0
 40
1.0
 10
123.978506029
 20
12.5689375838
 30
0.0
 10
123.979937055
 20
12.5713070536
 30
0.0
 10
123.9872291841
 20
12.5834490461
 30
0.0
 10
123.9929248587
 20
12.5935359335
 30
0.0
 10
123.9996767517
 20
12.6059356971
 30
0.0
  0
SPLINE
  5
293
100
AcDbEntity
  8
_21_KURVEN
100
AcDbSpline
 62
7
  6
CONTINUOUS
 70
0
 71
3
 72
11
 73
7
 74
0
 42
0.0000001
 43
0.0000001
 44
0.0000000001
 40
0.0
 40
0.0
 40
0.0
 40
0.0
 40
0.25
 40
0.5
 40
0.75
 40
1.0
 40
1.0
 40
1.0
 40
1.0
 10
123.9996767513
 20
12.6059356963
 30
0.0
 10
124.0113357262
 20
12.6295134758
 30
0.0
 10
124.0345072296
 20
12.6772337939
 30
0.0
 10
124.0634777163
 20
12.7576264622
 30
0.0
 10
124.0808735223
 20
12.8337587811
 30
0.0
 10
124.0879894064
 20
12.8903184466
 30
0.0
 10
124.0911582008
 20
12.9181509396
 30
0.0
  0
SPLINE
  5
294
100
AcDbEntity
  8
_30_VOLUMEN
100
AcDbSpline
 62
4
  6
CONTINUOUS
 70
0
 71
3
 72
17
 73
13
 74
0
 42
0.0000001
 43
0.0000001
 44
0.0000000001
 40
0.0
 40
0.0
 40
0.0
 40
0.0
 40
0.1242618642
 40
0.2487404465
 40
0.3735842167
 40
0.4363244647
 40
0.4991340969
 40
0.624485329
 40
0.7498056012
 40
0.8125712052
 40
0.87525716
 40
1.0
 40
1.0
 40
1.0
 40
1.0
 10
119.9304051361
 20
16.4767869313
 30
0.0
 10
120.0963803219
 20
16.6605105336
 30
0.0
 10
120.3720060714
 20
17.0842294968
 30
0.0
 10
120.566471391
 20
17.8148005551
 30
0.0
 10
120.5323594473
 20
18.4468585603
 30
0.0
 10
120.3899964002
 20
18.926832287
 30
0.0
 10
120.1748989426
 20
19.3800792994
 30
0.0
 10
119.777249536
 20
19.8756558038
 30
0.0
 10
119.2468861112
 20
20.2253161147
 30
0.0
 10
118.7757495913
 20
20.397197202
 30
0.0
 10
118.2852218097
 20
20.4939344278
 30
0.0
 10
117.9040196132
 20
20.4785609481
 30
0.0
 10
117.6603218959
 20
20.429683294
 30
0.0
  0
ELLIPSE
  5
295
100
AcDbEntity
  8
_30_VOLUMEN
100
AcDbEllipse
 62
4
  6
CONTINUOUS
 10
118.6519265992
 20
18.4763573602
 30
0.0
 11
-1.0765868283
 21
1.3181679477
 31
0.0
 40
0.9161161474
 41
-3.1740140748
 42
-0.324053802
  0
ENDSEC
  0
SECTION
  2
OBJECTS
  0
DICTIONARY
  5
C
100
AcDbDictionary
280
0
281
1
  3
ACAD_GROUP
350
D
  3
ACAD_MLINESTYLE
350
17
  3
ACAD_LAYOUT
350
1A
  3
ACAD_PLOTSETTINGS
350
19
  3
ACAD_PLOTSTYLENAME
350
E
  0
DICTIONARY
  5
D
102
{ACAD_REACTORS
330
C
102
}
100
AcDbDictionary
280
0
281
1
  0
ACDBDICTIONARYWDFLT
  5
E
102
{ACAD_REACTORS
330
C
102
}
100
AcDbDictionary
281
1
  3
Normal
350
F
100
AcDbDictionaryWithDefault
340
F
  0
DICTIONARY
  5
17
102
{ACAD_REACTORS
330
C
102
}
100
AcDbDictionary
280
0
281
1
  3
Standard
350
18
  0
DICTIONARY
  5
19
102
{ACAD_REACTORS
330
C
102
}
100
AcDbDictionary
281
1
  0
DICTIONARY
  5
1A
102
{ACAD_REACTORS
330
C
102
}
100
AcDbDictionary
281
1
  3
Model
350
296
  3
Layout1
350
297
  0
ACDBPLACEHOLDER
  5
F
102
{ACAD_REACTORS
330
E
102
}
  0
MLINESTYLE
  5
18
102
{ACAD_REACTORS
330
17
102
}
100
AcDbMlineStyle
  2
STANDARD
 70
0
  3

 62
256
 51
90.0
 52
90.0
 71
2
 49
0.5
 62
256
  6
BYLAYER
 49
-0.5
 62
256
  6
BYLAYER
  0
LAYOUT
  5
296
102
{ACAD_REACTORS
330
1A
102
}
100
AcDbPlotSettings
  1

  2
none_device
  4
ISO_A3_(420.00_x_297.00_MM)
  6

 40
0.0
 41
0.0
 42
0.0
 43
0.0
 44
420.0
 45
297.0
 46
0.0
 47
0.0
 48
0.0
 49
0.0
140
0.0
141
0.0
142
1.0
143
1.0
 70
1024
 72
1
 73
0
 74
0
  7

 75
0
147
1.0
148
0.0
149
0.0
100
AcDbLayout
  1
Model
 70
0
 71
0
 10
0.0
 20
0.0
 11
420.0
 21
297.0
 12
0.0
 22
0.0
 32
0.0
 14
0.0
 24
0.0
 34
0.0
 15
0.0
 25
0.0
 35
0.0
146
0.0
 13
0.0
 23
0.0
 33
0.0
 16
1.0
 26
0.0
 36
0.0
 17
0.0
 27
1.0
 37
0.0
 76
0
330
20E
345
0
346
0
  0
LAYOUT
  5
297
102
{ACAD_REACTORS
330
1A
102
}
100
AcDbPlotSettings
  1

  2
none_device
  4
ISO_A3_(420.00_x_297.00_MM)
  6

 40
0.0
 41
0.0
 42
0.0
 43
0.0
 44
420.0
 45
297.0
 46
0.0
 47
0.0
 48
0.0
 49
0.0
140
0.0
141
0.0
142
1.0
143
1.0
 70
0
 72
1
 73
0
 74
0
  7

 75
0
147
1.0
148
0.0
149
0.0
100
AcDbLayout
  1
Layout1
 70
0
 71
1
 10
0.0
 20
0.0
 11
420.0
 21
297.0
 12
0.0
 22
0.0
 32
0.0
 14
0.0
 24
0.0
 34
0.0
 15
0.0
 25
0.0
 35
0.0
146
0.0
 13
0.0
 23
0.0
 33
0.0
 16
1.0
 26
0.0
 36
0.0
 17
0.0
 27
1.0
 37
0.0
 76
0
330
20F
345
0
346
0
  0
ENDSEC
  0
EOF
