999
DXF file: 70508632.dxf
999
Pro/ENGINEER 2017380 by Parametric Technology Corporation
  0
SECTION
  2
HEADER
  9
$ACADVER
  1
AC1027
  9
$DWGCODEPAGE
  3
ANSI_1252
  9
$EXTMAX
 10
420.0
 20
297.0
 30
0.0
  9
$EXTMIN
 10
0.0
 20
0.0
 30
0.0
  9
$LIMMIN
 10
0.0
 20
0.0
  9
$LIMMAX
 10
420.0
 20
297.0
  9
$VIEWCTR
 10
210.0
 20
148.5
  9
$VIEWSIZE
 40
297.0
  9
$CLAYER
  8
0
  9
$LTSCALE
 40
23.1
  9
$CELTYPE
  6
BYLAYER
  9
$DIMSCALE
 40
1.0
  9
$DIMASZ
 40
3.5
  9
$DIMEXO
 40
0.0
  9
$DIMDLI
 40
15.96
  9
$DIMEXE
 40
1.5
  9
$DIMCEN
 40
3.78
  9
$DIMLFAC
 40
1.0
  9
$DIMBLK
  1
_FILLED
  9
$DIMALT
 70
0
  9
$DIMALTF
 40
25.4
  9
$DIMTXT
 40
3.5
  9
$DIMTOL
 70
1
  9
$DIMLIM
 70
0
  9
$DIMTFAC
 40
1.0
  9
$DIMTP
 40
0.05
  9
$DIMTM
 40
0.05
  9
$DIMGAP
 40
0.625
  9
$DIMDSEP
 70
46
  9
$AUNITS
 70
0
  9
$PDMODE
 70
3
  9
$PDSIZE
 40
0.3125
  9
$HANDSEED
  5
299
  9
$TILEMODE
 70
1
  9
$MEASUREMENT
 70
1
  9
$INSUNITS
 70
4
  0
ENDSEC
  0
SECTION
  2
CLASSES
  0
CLASS
  1
ACDBDICTIONARYWDFLT
  2
AcDbDictionaryWithDefault
  3
AutoCAD 2000
 90
0
 91
1
280
0
281
0
  0
CLASS
  1
ACDBPLACEHOLDER
  2
AcDbPlaceHolder
  3
AutoCAD 2000
 90
0
 91
1
280
0
281
0
  0
CLASS
  1
LAYOUT
  2
AcDbLayout
  3
AutoCAD 2000
 90
0
 91
0
280
0
281
0
  0
ENDSEC
  0
SECTION
  2
TABLES
  0
TABLE
  2
VPORT
  5
8
100
AcDbSymbolTable
 70
2
  0
VPORT
  5
1F4
100
AcDbSymbolTableRecord
100
AcDbViewportTableRecord
  2
*ACTIVE
 70
0
 10
0.0
 20
0.0
 11
1.0
 21
1.0
 12
210.0
 22
148.5
 13
0.0
 23
0.0
 14
1.0
 24
1.0
 15
0.0
 25
0.0
 16
0.0
 26
0.0
 36
1.0
 17
0.0
 27
0.0
 37
0.0
 40
297.0
 41
1.4141414141
 42
50.0
 43
0.0
 44
0.0
 50
0.0
 51
0.0
 71
0
 72
100
 73
1
 74
1
 75
0
 76
0
 77
0
 78
0
  0
ENDTAB
  0
TABLE
  2
LTYPE
  5
5
100
AcDbSymbolTable
 70
6
  0
LTYPE
  5
14
100
AcDbSymbolTableRecord
100
AcDbLinetypeTableRecord
  2
BYBLOCK
 70
0
  3

 72
65
 73
0
 40
0.0
  0
LTYPE
  5
15
100
AcDbSymbolTableRecord
100
AcDbLinetypeTableRecord
  2
BYLAYER
 70
0
  3

 72
65
 73
0
 40
0.0
  0
LTYPE
  5
16
100
AcDbSymbolTableRecord
100
AcDbLinetypeTableRecord
  2
CONTINUOUS
 70
64
  3
Solid line
 72
65
 73
0
 40
0.0
  0
LTYPE
  5
1F5
100
AcDbSymbolTableRecord
100
AcDbLinetypeTableRecord
  2
CENTER
 70
64
  3
____ _ ____ _ ____ _ ____ _ ____ _ ____ _ ____
 72
65
 73
4
 40
0.6
 49
0.375
 74
0
 49
-0.075
 74
0
 49
0.075
 74
0
 49
-0.075
 74
0
  0
LTYPE
  5
1F6
100
AcDbSymbolTableRecord
100
AcDbLinetypeTableRecord
  2
HIDDEN
 70
64
  3
- - - - - - - - - - - - - - - - - - - -
 72
65
 73
2
 40
0.2
 49
0.1
 74
0
 49
-0.1
 74
0
  0
LTYPE
  5
1F7
100
AcDbSymbolTableRecord
100
AcDbLinetypeTableRecord
  2
PHANTOM
 70
64
  3
_____ _ _ _____ _ _ _____ _ _ _____
 72
65
 73
6
 40
0.8
 49
0.45
 74
0
 49
-0.05
 74
0
 49
0.1
 74
0
 49
-0.05
 74
0
 49
0.1
 74
0
 49
-0.05
 74
0
  0
LTYPE
  5
1F8
100
AcDbSymbolTableRecord
100
AcDbLinetypeTableRecord
  2
DOT
 70
64
  3
. . . . . . . . . . . . . . . . . . . .
 72
65
 73
2
 40
0.2
 49
0.1
 74
0
 49
-0.1
 74
0
  0
LTYPE
  5
1F9
100
AcDbSymbolTableRecord
100
AcDbLinetypeTableRecord
  2
DASHED
 70
64
  3
- - - - - - - - - - - - - - - - - - - -
 72
65
 73
2
 40
0.2
 49
0.1
 74
0
 49
-0.1
 74
0
  0
ENDTAB
  0
TABLE
  2
LAYER
  5
2
100
AcDbSymbolTable
 70
36
  0
LAYER
  5
10
100
AcDbSymbolTableRecord
100
AcDbLayerTableRecord
  2
0
 70
0
 62
7
  6
CONTINUOUS
370
-3
390
F
  0
LAYER
  5
1FA
100
AcDbSymbolTableRecord
100
AcDbLayerTableRecord
  2
DEFAULT_1
 70
0
 62
7
  6
CENTER
370
-3
390
F
  0
LAYER
  5
1FB
100
AcDbSymbolTableRecord
100
AcDbLayerTableRecord
  2
DEFAULT_2
 70
0
 62
1
  6
HIDDEN
370
-3
390
F
  0
LAYER
  5
1FC
100
AcDbSymbolTableRecord
100
AcDbLayerTableRecord
  2
DEFAULT_3
 70
0
 62
7
  6
PHANTOM
370
-3
390
F
  0
LAYER
  5
1FD
100
AcDbSymbolTableRecord
100
AcDbLayerTableRecord
  2
BG_STARTBEZUEGE
 70
0
 62
7
  6
CONTINUOUS
370
-3
390
F
  0
LAYER
  5
1FE
100
AcDbSymbolTableRecord
100
AcDbLayerTableRecord
  2
HILFEN
 70
0
 62
7
  6
CONTINUOUS
370
-3
390
F
  0
LAYER
  5
1FF
100
AcDbSymbolTableRecord
100
AcDbLayerTableRecord
  2
PLATZIERUNG
 70
0
 62
7
  6
CONTINUOUS
370
-3
390
F
  0
LAYER
  5
200
100
AcDbSymbolTableRecord
100
AcDbLayerTableRecord
  2
T_STARTBEZUEGE
 70
0
 62
7
  6
CONTINUOUS
370
-3
390
F
  0
LAYER
  5
201
100
AcDbSymbolTableRecord
100
AcDbLayerTableRecord
  2
_03_2D_ZEICHNUNG_BEMASSUNGEN
 70
0
 62
7
  6
CONTINUOUS
370
-3
390
F
  0
LAYER
  5
202
100
AcDbSymbolTableRecord
100
AcDbLayerTableRecord
  2
_04_NOTIZEN
 70
0
 62
7
  6
CONTINUOUS
370
-3
390
F
  0
LAYER
  5
203
100
AcDbSymbolTableRecord
100
AcDbLayerTableRecord
  2
_05_2D_ELEMENTE
 70
0
 62
7
  6
CONTINUOUS
370
-3
390
F
  0
LAYER
  5
204
100
AcDbSymbolTableRecord
100
AcDbLayerTableRecord
  2
_07_EINRASTLINIEN
 70
0
 62
7
  6
CONTINUOUS
370
-3
390
F
  0
LAYER
  5
205
100
AcDbSymbolTableRecord
100
AcDbLayerTableRecord
  2
_21_KURVEN
 70
0
 62
7
  6
CONTINUOUS
370
-3
390
F
  0
LAYER
  5
206
100
AcDbSymbolTableRecord
100
AcDbLayerTableRecord
  2
_24_IMPORT
 70
0
 62
7
  6
CONTINUOUS
370
-3
390
F
  0
LAYER
  5
207
100
AcDbSymbolTableRecord
100
AcDbLayerTableRecord
  2
_26_BEZUGSACHSEN
 70
0
 62
7
  6
CONTINUOUS
370
-3
390
F
  0
LAYER
  5
208
100
AcDbSymbolTableRecord
100
AcDbLayerTableRecord
  2
_27_BEZUGSEBENEN
 70
0
 62
7
  6
CONTINUOUS
370
-3
390
F
  0
LAYER
  5
209
100
AcDbSymbolTableRecord
100
AcDbLayerTableRecord
  2
_28_BEZUGSPUNKTE
 70
0
 62
7
  6
CONTINUOUS
370
-3
390
F
  0
LAYER
  5
20A
100
AcDbSymbolTableRecord
100
AcDbLayerTableRecord
  2
_29_KOORDINATENSYSTEME
 70
0
 62
7
  6
CONTINUOUS
370
-3
390
F
  0
LAYER
  5
20B
100
AcDbSymbolTableRecord
100
AcDbLayerTableRecord
  2
_30_VOLUMEN
 70
0
 62
7
  6
CONTINUOUS
370
-3
390
F
  0
ENDTAB
  0
TABLE
  2
STYLE
  5
3
100
AcDbSymbolTable
 70
1
  0
STYLE
  5
11
100
AcDbSymbolTableRecord
100
AcDbTextStyleTableRecord
  2
STANDARD
 70
0
 40
0.0
 41
0.7
 50
0.0
 71
0
 42
0.2
  3
SIMPLEX.SHX
  4

  0
STYLE
  5
20C
100
AcDbSymbolTableRecord
100
AcDbTextStyleTableRecord
  2
TEXTSTYLE_1
 70
0
 40
0.0
 41
0.8
 50
0.0
 71
0
 42
0.2
  3
gdt
  4

  0
ENDTAB
  0
TABLE
  2
VIEW
  5
6
100
AcDbSymbolTable
 70
0
  0
ENDTAB
  0
TABLE
  2
UCS
  5
7
100
AcDbSymbolTable
 70
0
  0
ENDTAB
  0
TABLE
  2
APPID
  5
9
100
AcDbSymbolTable
 70
1
  0
APPID
  5
20D
100
AcDbSymbolTableRecord
100
AcDbRegAppTableRecord
  2
ACAD
 70
0
  0
ENDTAB
  0
TABLE
  2
BLOCK_RECORD
  5
1
100
AcDbSymbolTable
 70
0
  0
BLOCK_RECORD
  5
20E
100
AcDbSymbolTableRecord
100
AcDbBlockTableRecord
  2
*Model_Space
  0
BLOCK_RECORD
  5
20F
100
AcDbSymbolTableRecord
100
AcDbBlockTableRecord
  2
*Paper_Space
  0
BLOCK_RECORD
  5
210
100
AcDbSymbolTableRecord
100
AcDbBlockTableRecord
  2
_FILLED
  0
BLOCK_RECORD
  5
211
100
AcDbSymbolTableRecord
100
AcDbBlockTableRecord
  2
*D0
  0
BLOCK_RECORD
  5
212
100
AcDbSymbolTableRecord
100
AcDbBlockTableRecord
  2
*D1
  0
BLOCK_RECORD
  5
213
100
AcDbSymbolTableRecord
100
AcDbBlockTableRecord
  2
*D2
  0
ENDTAB
  0
TABLE
  2
DIMSTYLE
  5
A
100
AcDbSymbolTable
 70
1
100
AcDbDimStyleTable
 71
0
  0
DIMSTYLE
105
214
100
AcDbSymbolTableRecord
100
AcDbDimStyleTableRecord
  2
STANDARD
 70
0
  3

  4

 40
1.0
 41
3.5
 42
0.0
 43
0.38
 44
1.5
 45
0.0
 46
0.0
 47
0.05
 48
0.05
140
3.5
141
0.09
142
0.0
143
25.4
144
1.0
145
0.0
146
1.0
147
0.625
 71
1.0
 72
0.0
 73
0
 74
0
 75
0
 76
0
 77
1
 78
8
 79
2
170
0
171
1
172
0
173
0
174
0
175
0
176
0
177
0
178
2
270
2
179
2
271
2
272
2
273
2
274
2
275
0
280
0
281
0
282
0
283
1
284
8
285
0
286
0
287
3
288
0
340
11
278
46
341
210
342
210
343
210
344
210
  0
DIMSTYLE
105
215
100
AcDbSymbolTableRecord
100
AcDbDimStyleTableRecord
  2
DIMSTYLE_1
 70
0
  3

  4

 40
1.0
 41
3.5
 42
0.0
 43
0.38
 44
1.5
 45
0.0
 46
0.0
 47
0.2
 48
0.2
140
3.5
141
0.09
142
0.0
143
25.4
144
1.0
145
0.0
146
1.0
147
0.875
 71
0.0
 72
0.0
 73
0
 74
0
 75
0
 76
0
 77
1
 78
8
 79
2
170
0
171
1
172
0
173
0
174
0
175
0
176
0
177
0
178
2
270
2
179
2
271
2
272
2
273
2
274
2
275
0
280
0
281
0
282
0
283
1
284
8
285
0
286
0
287
3
288
0
340
11
278
46
341
210
342
210
343
210
344
210
  0
DIMSTYLE
105
216
100
AcDbSymbolTableRecord
100
AcDbDimStyleTableRecord
  2
DIMSTYLE_2
 70
0
  3

  4

 40
1.0
 41
3.5
 42
0.0
 43
0.38
 44
1.5
 45
0.0
 46
0.0
 47
0.5
 48
0.5
140
3.5
141
0.09
142
0.0
143
25.4
144
1.0
145
0.0
146
1.0
147
0.875
 71
0.0
 72
0.0
 73
0
 74
0
 75
0
 76
0
 77
1
 78
8
 79
2
170
0
171
1
172
0
173
0
174
0
175
0
176
0
177
0
178
2
270
2
179
2
271
2
272
2
273
2
274
2
275
0
280
0
281
0
282
0
283
1
284
8
285
0
286
0
287
3
288
0
340
11
278
46
341
210
342
210
343
210
344
210
  0
DIMSTYLE
105
217
100
AcDbSymbolTableRecord
100
AcDbDimStyleTableRecord
  2
DIMSTYLE_3
 70
0
  3

  4

 40
1.0
 41
3.5
 42
0.0
 43
0.38
 44
1.5
 45
0.0
 46
0.0
 47
0.3
 48
0.3
140
3.5
141
0.09
142
0.0
143
25.4
144
1.0
145
0.0
146
1.0
147
0.875
 71
0.0
 72
0.0
 73
0
 74
0
 75
0
 76
0
 77
1
 78
8
 79
2
170
0
171
1
172
0
173
0
174
0
175
0
176
0
177
0
178
2
270
2
179
2
271
2
272
2
273
2
274
2
275
0
280
0
281
0
282
0
283
1
284
8
285
0
286
0
287
3
288
0
340
11
278
46
341
210
342
210
343
210
344
210
  0
ENDTAB
  0
ENDSEC
  0
SECTION
  2
BLOCKS
  0
BLOCK
  5
20
100
AcDbEntity
  8
0
100
AcDbBlockBegin
  2
*Model_Space
 70
0
 10
0.0
 20
0.0
 30
0.0
  3
*Model_Space
  1

  0
ENDBLK
  5
21
100
AcDbEntity
  8
0
100
AcDbBlockEnd
  0
BLOCK
  5
1C
100
AcDbEntity
  8
0
100
AcDbBlockBegin
  2
*Paper_Space
 70
0
 10
0.0
 20
0.0
 30
0.0
  3
*Paper_Space
  1

  0
ENDBLK
  5
1D
100
AcDbEntity
  8
0
100
AcDbBlockEnd
  0
BLOCK
  5
218
100
AcDbEntity
  8
0
100
AcDbBlockBegin
  2
_FILLED
 70
64
 10
0.0
 20
0.0
  3
_FILLED
  1

  0
SOLID
  5
219
100
AcDbEntity
  8
0
  6
BYBLOCK
 62
0
100
AcDbTrace
 10
0.0
 20
0.0
 11
-1.0
 21
0.125
 12
-1.0
 22
-0.125
 13
-1.0
 23
-0.125
  0
ENDBLK
  5
21A
100
AcDbEntity
  8
0
  6
BYBLOCK
 62
0
100
AcDbBlockEnd
  0
BLOCK
  5
21B
100
AcDbEntity
  8
_03_2D_ZEICHNUNG_BEMASSUNGEN
100
AcDbBlockBegin
 62
7
  6
CONTINUOUS
  2
*D0
 70
65
 10
0.0
 20
0.0
  3
*D0
  1

  0
TEXT
  5
21C
100
AcDbEntity
  8
_03_2D_ZEICHNUNG_BEMASSUNGEN
100
AcDbText
 62
2
  6
CONTINUOUS
 10
-9.875
 20
9.875
  7
STANDARD
 40
3.5
  1
25
 50
90.0
 41
0.75
 72
1
 11
-9.875
 21
12.5
100
AcDbText
  0
LINE
  5
21D
100
AcDbEntity
  8
_03_2D_ZEICHNUNG_BEMASSUNGEN
100
AcDbLine
 62
7
  6
CONTINUOUS
 10
0.0
 20
25.0
 11
-10.5
 21
25.0
  0
LINE
  5
21E
100
AcDbEntity
  8
_03_2D_ZEICHNUNG_BEMASSUNGEN
100
AcDbLine
 62
7
  6
CONTINUOUS
 10
-0.0
 20
-0.0
 11
-10.5
 21
0.0
  0
LINE
  5
21F
100
AcDbEntity
  8
_03_2D_ZEICHNUNG_BEMASSUNGEN
100
AcDbLine
 62
7
  6
CONTINUOUS
 10
-9.0
 20
25.0
 11
-9.0
 21
31.0
  0
LINE
  5
220
100
AcDbEntity
  8
_03_2D_ZEICHNUNG_BEMASSUNGEN
100
AcDbLine
 62
7
  6
CONTINUOUS
 10
-9.0
 20
31.0
 11
-9.0
 21
12.5
  0
LINE
  5
221
100
AcDbEntity
  8
_03_2D_ZEICHNUNG_BEMASSUNGEN
100
AcDbLine
 62
7
  6
CONTINUOUS
 10
-9.0
 20
0.0
 11
-9.0
 21
-6.0
  0
LINE
  5
222
100
AcDbEntity
  8
_03_2D_ZEICHNUNG_BEMASSUNGEN
100
AcDbLine
 62
7
  6
CONTINUOUS
 10
-9.0
 20
-6.0
 11
-9.0
 21
12.5
  0
INSERT
  5
223
100
AcDbEntity
  8
_03_2D_ZEICHNUNG_BEMASSUNGEN
100
AcDbBlockReference
 62
7
  6
CONTINUOUS
  2
_FILLED
 10
-9.0
 20
25.0
 41
3.5
 42
3.5
 43
3.5
 50
270.0
  0
INSERT
  5
224
100
AcDbEntity
  8
_03_2D_ZEICHNUNG_BEMASSUNGEN
100
AcDbBlockReference
 62
7
  6
CONTINUOUS
  2
_FILLED
 10
-9.0
 20
0.0
 41
3.5
 42
3.5
 43
3.5
 50
90.0
  0
ENDBLK
  5
225
100
AcDbEntity
  8
0
  6
BYBLOCK
 62
0
100
AcDbBlockEnd
  0
BLOCK
  5
226
100
AcDbEntity
  8
_03_2D_ZEICHNUNG_BEMASSUNGEN
100
AcDbBlockBegin
 62
7
  6
CONTINUOUS
  2
*D1
 70
65
 10
0.0
 20
0.0
  3
*D1
  1

  0
TEXT
  5
227
100
AcDbEntity
  8
_03_2D_ZEICHNUNG_BEMASSUNGEN
100
AcDbText
 62
2
  6
CONTINUOUS
 10
81.25
 20
41.9148071799
  7
STANDARD
 40
3.5
  1
170
 41
0.7142857143
 72
1
 11
85.0
 21
41.9148071799
100
AcDbText
  0
LINE
  5
228
100
AcDbEntity
  8
_03_2D_ZEICHNUNG_BEMASSUNGEN
100
AcDbLine
 62
7
  6
CONTINUOUS
 10
170.0
 20
0.0
 11
170.0
 21
42.5398071799
  0
LINE
  5
229
100
AcDbEntity
  8
_03_2D_ZEICHNUNG_BEMASSUNGEN
100
AcDbLine
 62
7
  6
CONTINUOUS
 10
0.0
 20
0.0
 11
0.0
 21
42.5398071799
  0
LINE
  5
22A
100
AcDbEntity
  8
_03_2D_ZEICHNUNG_BEMASSUNGEN
100
AcDbLine
 62
7
  6
CONTINUOUS
 10
170.0
 20
41.0398071799
 11
85.0
 21
41.0398071799
  0
LINE
  5
22B
100
AcDbEntity
  8
_03_2D_ZEICHNUNG_BEMASSUNGEN
100
AcDbLine
 62
7
  6
CONTINUOUS
 10
0.0
 20
41.0398071799
 11
85.0
 21
41.0398071799
  0
INSERT
  5
22C
100
AcDbEntity
  8
_03_2D_ZEICHNUNG_BEMASSUNGEN
100
AcDbBlockReference
 62
7
  6
CONTINUOUS
  2
_FILLED
 10
170.0
 20
41.0398071799
 41
3.5
 42
3.5
 43
3.5
  0
INSERT
  5
22D
100
AcDbEntity
  8
_03_2D_ZEICHNUNG_BEMASSUNGEN
100
AcDbBlockReference
 62
7
  6
CONTINUOUS
  2
_FILLED
 10
0.0
 20
41.0398071799
 41
3.5
 42
3.5
 43
3.5
 50
180.0
  0
ENDBLK
  5
22E
100
AcDbEntity
  8
0
  6
BYBLOCK
 62
0
100
AcDbBlockEnd
  0
BLOCK
  5
22F
100
AcDbEntity
  8
_03_2D_ZEICHNUNG_BEMASSUNGEN
100
AcDbBlockBegin
 62
7
  6
CONTINUOUS
  2
*D2
 70
65
 10
0.0
 20
0.0
  3
*D2
  1

  0
TEXT
  5
230
100
AcDbEntity
  8
_03_2D_ZEICHNUNG_BEMASSUNGEN
100
AcDbText
 62
2
  6
CONTINUOUS
 10
178.1644995576
 20
13.375
  7
STANDARD
 40
3.5
  1
32
 50
90.0
 41
0.75
 72
1
 11
178.1644995576
 21
16.0
100
AcDbText
  0
LINE
  5
231
100
AcDbEntity
  8
_03_2D_ZEICHNUNG_BEMASSUNGEN
100
AcDbLine
 62
7
  6
CONTINUOUS
 10
170.0
 20
32.0
 11
180.5394995576
 21
32.0
  0
LINE
  5
232
100
AcDbEntity
  8
_03_2D_ZEICHNUNG_BEMASSUNGEN
100
AcDbLine
 62
7
  6
CONTINUOUS
 10
0.0
 20
0.0
 11
180.5394995576
 21
0.0
  0
LINE
  5
233
100
AcDbEntity
  8
_03_2D_ZEICHNUNG_BEMASSUNGEN
100
AcDbLine
 62
7
  6
CONTINUOUS
 10
179.0394995576
 20
32.0
 11
179.0394995576
 21
16.0
  0
LINE
  5
234
100
AcDbEntity
  8
_03_2D_ZEICHNUNG_BEMASSUNGEN
100
AcDbLine
 62
7
  6
CONTINUOUS
 10
179.0394995576
 20
0.0
 11
179.0394995576
 21
16.0
  0
INSERT
  5
235
100
AcDbEntity
  8
_03_2D_ZEICHNUNG_BEMASSUNGEN
100
AcDbBlockReference
 62
7
  6
CONTINUOUS
  2
_FILLED
 10
179.0394995576
 20
32.0
 41
3.5
 42
3.5
 43
3.5
 50
90.0
  0
INSERT
  5
236
100
AcDbEntity
  8
_03_2D_ZEICHNUNG_BEMASSUNGEN
100
AcDbBlockReference
 62
7
  6
CONTINUOUS
  2
_FILLED
 10
179.0394995576
 20
0.0
 41
3.5
 42
3.5
 43
3.5
 50
270.0
  0
ENDBLK
  5
237
100
AcDbEntity
  8
0
  6
BYBLOCK
 62
0
100
AcDbBlockEnd
  0
ENDSEC
  0
SECTION
  2
ENTITIES
  0
DIMENSION
  5
238
100
AcDbEntity
  8
_03_2D_ZEICHNUNG_BEMASSUNGEN
100
AcDbDimension
 62
7
  6
CONTINUOUS
  2
*D0
 10
-9.0
 20
0.0
 11
-9.0
 21
11.9999997234
 70
160
 71
2
 42
25.0
  3
DIMSTYLE_1
100
AcDbAlignedDimension
 13
0.0
 23
25.0
 14
-0.0
 24
-0.0
 50
270.0
100
AcDbRotatedDimension
  0
DIMENSION
  5
239
100
AcDbEntity
  8
_03_2D_ZEICHNUNG_BEMASSUNGEN
100
AcDbDimension
 62
7
  6
CONTINUOUS
  2
*D1
 10
0.0
 20
41.0398071799
 11
84.4999996948
 21
41.0398071799
 70
160
 71
2
 42
170.0
  3
DIMSTYLE_2
100
AcDbAlignedDimension
 13
170.0
 23
0.0
 14
0.0
 24
0.0
 50
180.0
100
AcDbRotatedDimension
  0
DIMENSION
  5
23A
100
AcDbEntity
  8
_03_2D_ZEICHNUNG_BEMASSUNGEN
100
AcDbDimension
 62
7
  6
CONTINUOUS
  2
*D2
 10
179.0394995576
 20
0.0
 11
179.0394995576
 21
15.5000057525
 70
160
 71
2
 42
32.0
  3
DIMSTYLE_3
100
AcDbAlignedDimension
 13
170.0
 23
32.0
 14
0.0
 24
0.0
 50
270.0
100
AcDbRotatedDimension
  0
LINE
  5
23B
100
AcDbEntity
  8
_30_VOLUMEN
100
AcDbLine
 62
4
  6
CONTINUOUS
 10
-0.0
 20
0.5
 11
0.0
 21
24.5
  0
LINE
  5
23C
100
AcDbEntity
  8
_30_VOLUMEN
100
AcDbLine
 62
4
  6
CONTINUOUS
 10
0.5
 20
-0.0
 11
0.5
 21
25.0
  0
LINE
  5
23D
100
AcDbEntity
  8
_30_VOLUMEN
100
AcDbLine
 62
4
  6
CONTINUOUS
 10
0.5
 20
25.0
 11
0.0
 21
24.5
  0
LINE
  5
23E
100
AcDbEntity
  8
_30_VOLUMEN
100
AcDbLine
 62
4
  6
CONTINUOUS
 10
0.5
 20
-0.0
 11
-0.0
 21
0.5
  0
LINE
  5
23F
100
AcDbEntity
  8
_30_VOLUMEN
100
AcDbLine
 62
4
  6
CONTINUOUS
 10
0.5
 20
-0.0
 11
138.0
 21
0.0
  0
LINE
  5
240
100
AcDbEntity
  8
0
100
AcDbLine
 62
4
  6
CONTINUOUS
 10
138.0
 20
0.0
 11
153.1522249268
 21
0.0
  0
LINE
  5
241
100
AcDbEntity
  8
_30_VOLUMEN
100
AcDbLine
 62
4
  6
CONTINUOUS
 10
156.7834409472
 20
24.8812905693
 11
149.3259835979
 21
23.3855727387
  0
LINE
  5
242
100
AcDbEntity
  8
_30_VOLUMEN
100
AcDbLine
 62
4
  6
CONTINUOUS
 10
162.6603218959
 20
27.429683294
 11
148.0549338091
 21
24.5003283729
  0
LINE
  5
243
100
AcDbEntity
  8
_21_KURVEN
100
AcDbLine
 62
7
  6
CONTINUOUS
 10
168.3740209163
 20
19.1943408146
 11
160.4341142718
 21
18.4996889938
  0
LINE
  5
244
100
AcDbEntity
  8
_30_VOLUMEN
100
AcDbLine
 62
4
  6
CONTINUOUS
 10
168.4300877936
 20
19.1992460308
 11
160.4341142718
 21
18.4996889938
  0
LINE
  5
245
100
AcDbEntity
  8
_30_VOLUMEN
100
AcDbLine
 62
4
  6
CONTINUOUS
 10
163.0158861915
 20
27.0399607839
 11
156.7834409472
 21
24.8812905693
  0
LINE
  5
246
100
AcDbEntity
  8
_30_VOLUMEN
100
AcDbLine
 62
4
  6
CONTINUOUS
 10
140.3769322603
 20
20.9494792769
 11
148.0549338091
 21
24.5003283729
  0
LINE
  5
247
100
AcDbEntity
  8
_30_VOLUMEN
100
AcDbLine
 62
4
  6
CONTINUOUS
 10
149.3259835979
 20
23.3855727387
 11
143.680697462
 21
20.7747945244
  0
LINE
  5
248
100
AcDbEntity
  8
_26_BEZUGSACHSEN
100
AcDbLine
 62
4
  6
CONTINUOUS
 10
157.2247194095
 20
30.4323164254
 11
153.0687129771
 21
30.0687129771
  0
LINE
  5
249
100
AcDbEntity
  8
_30_VOLUMEN
100
AcDbLine
 62
4
  6
CONTINUOUS
 10
157.9280927455
 20
30.9801963845
 11
169.0949276355
 21
31.9571678448
  0
LINE
  5
24A
100
AcDbEntity
  8
_21_KURVEN
100
AcDbLine
 62
7
  6
CONTINUOUS
 10
157.9280927455
 20
30.9801963845
 11
169.0949276355
 21
31.9571678448
  0
LINE
  5
24B
100
AcDbEntity
  8
_30_VOLUMEN
100
AcDbLine
 62
4
  6
CONTINUOUS
 10
0.5
 20
25.0
 11
138.0
 21
25.0
  0
LINE
  5
24C
100
AcDbEntity
  8
0
100
AcDbLine
 62
4
  6
CONTINUOUS
 10
138.0
 20
25.0
 11
148.0
 21
25.0
  0
LINE
  5
24D
100
AcDbEntity
  8
_30_VOLUMEN
100
AcDbLine
 62
4
  6
CONTINUOUS
 10
140.3769322603
 20
20.9494792769
 11
143.680697462
 21
20.7747945244
  0
LINE
  5
24E
100
AcDbEntity
  8
_30_VOLUMEN
100
AcDbLine
 62
4
  6
CONTINUOUS
 10
148.0
 20
25.0
 11
153.068712977
 21
30.0687129771
  0
LINE
  5
24F
100
AcDbEntity
  8
_30_VOLUMEN
100
AcDbLine
 62
4
  6
CONTINUOUS
 10
154.4013678922
 20
14.5478051359
 11
149.2720362924
 21
11.0385951932
  0
LINE
  5
250
100
AcDbEntity
  8
_30_VOLUMEN
100
AcDbLine
 62
4
  6
CONTINUOUS
 10
157.4391439385
 20
30.7526107722
 11
157.1086991328
 21
30.4221659665
  0
LINE
  5
251
100
AcDbEntity
  8
_30_VOLUMEN
100
AcDbLine
 62
4
  6
CONTINUOUS
 10
164.6888025652
 20
24.1269111955
 11
159.485707153
 21
20.1758339294
  0
LINE
  5
252
100
AcDbEntity
  8
_30_VOLUMEN
100
AcDbLine
 62
4
  6
CONTINUOUS
 10
147.9964897308
 20
7.6815424557
 11
154.9727554184
 21
12.4543243354
  0
LINE
  5
253
100
AcDbEntity
  8
0
100
AcDbLine
 62
4
  6
CONTINUOUS
 10
153.3537437878
 20
0.201518861
 11
142.7
 21
10.8552626488
  0
LINE
  5
254
100
AcDbEntity
  8
_28_BEZUGSPUNKTE
100
AcDbLine
 62
1
  6
CONTINUOUS
 10
170.15625
 20
32.15625
 11
169.84375
 21
31.84375
  0
LINE
  5
255
100
AcDbEntity
  8
0
100
AcDbLine
 62
4
  6
CONTINUOUS
 10
138.0
 20
25.0
 11
138.0
 21
0.0
  0
LINE
  5
256
100
AcDbEntity
  8
_30_VOLUMEN
100
AcDbLine
 62
4
  6
CONTINUOUS
 10
154.4013678922
 20
14.5478051359
 11
159.485707153
 21
20.1758339294
  0
LINE
  5
257
100
AcDbEntity
  8
_30_VOLUMEN
100
AcDbLine
 62
4
  6
CONTINUOUS
 10
154.9727554184
 20
12.4543243354
 11
164.9304051361
 21
23.4767869313
  0
LINE
  5
258
100
AcDbEntity
  8
_30_VOLUMEN
100
AcDbLine
 62
4
  6
CONTINUOUS
 10
168.8629697233
 20
19.4219264269
 11
168.409934344
 21
18.9688910476
  0
LINE
  5
259
100
AcDbEntity
  8
_30_VOLUMEN
100
AcDbLine
 62
4
  6
CONTINUOUS
 10
148.0549338091
 20
24.5003283729
 11
149.3259835979
 21
23.3855727387
  0
LINE
  5
25A
100
AcDbEntity
  8
_30_VOLUMEN
100
AcDbLine
 62
4
  6
CONTINUOUS
 10
141.4490715193
 20
25.0
 11
141.7510876465
 21
21.584985584
  0
LINE
  5
25B
100
AcDbEntity
  8
_30_VOLUMEN
100
AcDbLine
 62
4
  6
CONTINUOUS
 10
142.0676561816
 20
18.0054214025
 11
142.7
 21
10.8552626488
  0
LINE
  5
25C
100
AcDbEntity
  8
0
100
AcDbLine
 62
4
  6
CONTINUOUS
 10
142.7
 20
10.8552626488
 11
142.7
 21
0.0
  0
LINE
  5
25D
100
AcDbEntity
  8
_30_VOLUMEN
100
AcDbLine
 62
4
  6
CONTINUOUS
 10
168.0541181387
 20
14.9018932119
 11
153.3537437878
 21
0.201518861
  0
LINE
  5
25E
100
AcDbEntity
  8
0
100
AcDbLine
 62
4
  6
CONTINUOUS
 10
153.3537437878
 20
0.201518861
 11
153.1522249268
 21
0.0
  0
LINE
  5
25F
100
AcDbEntity
  8
_30_VOLUMEN
100
AcDbLine
 62
4
  6
CONTINUOUS
 10
140.3769322603
 20
20.9494792769
 11
147.9964897308
 21
7.6815424557
  0
LINE
  5
260
100
AcDbEntity
  8
_30_VOLUMEN
100
AcDbLine
 62
4
  6
CONTINUOUS
 10
149.2720362924
 20
11.0385951932
 11
143.680697462
 21
20.7747945244
  0
LINE
  5
261
100
AcDbEntity
  8
_30_VOLUMEN
100
AcDbLine
 62
4
  6
CONTINUOUS
 10
147.9964897308
 20
7.6815424557
 11
149.2720362924
 21
11.0385951932
  0
LINE
  5
262
100
AcDbEntity
  8
_21_KURVEN
100
AcDbLine
 62
7
  6
CONTINUOUS
 10
156.8994107741
 20
26.2742361916
 11
157.2109554604
 21
30.2563862521
  0
LINE
  5
263
100
AcDbEntity
  8
_30_VOLUMEN
100
AcDbLine
 62
4
  6
CONTINUOUS
 10
156.8994107741
 20
26.2742361916
 11
157.2247194095
 21
30.4323164254
  0
LINE
  5
264
100
AcDbEntity
  8
_30_VOLUMEN
100
AcDbLine
 62
7
  6
CONTINUOUS
 10
162.6603218959
 20
27.429683294
 11
163.0158861915
 21
27.0399607839
  0
LINE
  5
265
100
AcDbEntity
  8
_30_VOLUMEN
100
AcDbLine
 62
4
  6
CONTINUOUS
 10
156.7834409472
 20
24.8812905693
 11
159.485707153
 21
20.1758339294
  0
LINE
  5
266
100
AcDbEntity
  8
_21_KURVEN
100
AcDbLine
 62
7
  6
CONTINUOUS
 10
156.7834409472
 20
24.8812905693
 11
159.485707153
 21
20.1758339294
  0
LINE
  5
267
100
AcDbEntity
  8
_30_VOLUMEN
100
AcDbLine
 62
4
  6
CONTINUOUS
 10
154.9727554184
 20
12.4543243354
 11
154.4013678922
 21
14.5478051359
  0
LINE
  5
268
100
AcDbEntity
  8
_28_BEZUGSPUNKTE
100
AcDbLine
 62
1
  6
CONTINUOUS
 10
170.15625
 20
31.84375
 11
169.84375
 21
32.15625
  0
LINE
  5
269
100
AcDbEntity
  8
_21_KURVEN
100
AcDbLine
 62
7
  6
CONTINUOUS
 10
169.9655381564
 20
31.0944359027
 11
169.0911582013
 21
19.918150947
  0
LINE
  5
26A
100
AcDbEntity
  8
_30_VOLUMEN
100
AcDbLine
 62
4
  6
CONTINUOUS
 10
169.9655381564
 20
31.0944359027
 11
169.0911582013
 21
19.918150947
  0
LINE
  5
26B
100
AcDbEntity
  8
_26_BEZUGSACHSEN
100
AcDbLine
 62
4
  6
CONTINUOUS
 10
168.4300877936
 20
19.1992460308
 11
168.0541181387
 21
14.9018932119
  0
LINE
  5
26C
100
AcDbEntity
  8
_30_VOLUMEN
100
AcDbLine
 62
7
  6
CONTINUOUS
 10
164.9304051361
 20
23.4767869313
 11
164.6888025652
 21
24.1269111955
  0
ARC
  5
26D
100
AcDbEntity
  8
_30_VOLUMEN
100
AcDbCircle
 62
7
  6
CONTINUOUS
 10
162.9585593446
 20
24.904621166
 40
2.5805885902
100
AcDbArc
 50
89.3837713748
 51
96.7932998558
  0
ARC
  5
26E
100
AcDbEntity
  8
_30_VOLUMEN
100
AcDbCircle
 62
7
  6
CONTINUOUS
 10
162.9544534644
 20
24.9352388679
 40
2.5497002095
100
AcDbArc
 50
96.7830673771
 51
110.8377293339
  0
ARC
  5
26F
100
AcDbEntity
  8
_30_VOLUMEN
100
AcDbCircle
 62
4
  6
CONTINUOUS
 10
162.715613767
 20
24.6032037291
 40
2.5459929393
100
AcDbArc
 50
331.6541414605
 51
333.1301528984
  0
ARC
  5
270
100
AcDbEntity
  8
_30_VOLUMEN
100
AcDbCircle
 62
4
  6
CONTINUOUS
 10
162.718695364
 20
24.6016686898
 40
2.5425502609
100
AcDbArc
 50
333.1296241101
 51
337.452137517
  0
ARC
  5
271
100
AcDbEntity
  8
_30_VOLUMEN
100
AcDbCircle
 62
4
  6
CONTINUOUS
 10
162.7187250093
 20
24.6014973831
 40
2.5424445817
100
AcDbArc
 50
324.1006046085
 51
331.6546948399
  0
ARC
  5
272
100
AcDbEntity
  8
_30_VOLUMEN
100
AcDbCircle
 62
7
  6
CONTINUOUS
 10
163.0103646472
 20
24.8977785737
 40
2.5385375874
100
AcDbArc
 50
0.4872063332
 51
3.8880455502
  0
ARC
  5
273
100
AcDbEntity
  8
_30_VOLUMEN
100
AcDbCircle
 62
7
  6
CONTINUOUS
 10
163.0156530383
 20
24.8824417816
 40
2.5309277828
100
AcDbArc
 50
315.0052883383
 51
323.5541516864
  0
ARC
  5
274
100
AcDbEntity
  8
_30_VOLUMEN
100
AcDbCircle
 62
4
  6
CONTINUOUS
 10
162.7379555189
 20
24.5879600809
 40
2.5189291842
100
AcDbArc
 50
320.7705199454
 51
324.0935484853
  0
ARC
  5
275
100
AcDbEntity
  8
_30_VOLUMEN
100
AcDbCircle
 62
4
  6
CONTINUOUS
 10
162.7472986431
 20
24.580466133
 40
2.506952441
100
AcDbArc
 50
320.2935952953
 51
320.7681454056
  0
ARC
  5
276
100
AcDbEntity
  8
_30_VOLUMEN
100
AcDbCircle
 62
4
  6
CONTINUOUS
 10
163.0449761784
 20
24.8563736095
 40
2.4917437937
100
AcDbArc
 50
297.4487881044
 51
314.9524477821
  0
ARC
  5
277
100
AcDbEntity
  8
_30_VOLUMEN
100
AcDbCircle
 62
4
  6
CONTINUOUS
 10
158.0008277675
 20
30.1935493452
 40
0.792367805
100
AcDbArc
 50
162.7463671853
 51
175.4515139158
  0
ARC
  5
278
100
AcDbEntity
  8
_30_VOLUMEN
100
AcDbCircle
 62
4
  6
CONTINUOUS
 10
168.3063638344
 20
19.9661980403
 40
0.7748167896
100
AcDbArc
 50
275.0094531894
 51
279.1404081032
  0
SPLINE
  5
279
100
AcDbEntity
  8
_30_VOLUMEN
100
AcDbSpline
 62
4
  6
CONTINUOUS
 70
0
 71
3
 72
11
 73
7
 74
0
 42
0.0000001
 43
0.0000001
 44
0.0000000001
 40
0.0
 40
0.0
 40
0.0
 40
0.0
 40
0.2496349922
 40
0.5000147789
 40
0.7503855881
 40
1.0
 40
1.0
 40
1.0
 40
1.0
 10
169.9655381564
 20
31.0944359027
 30
0.0
 10
169.9745111843
 20
31.2091287382
 30
0.0
 10
169.9412604266
 20
31.4458976552
 30
0.0
 10
169.7473208077
 20
31.7449002072
 30
0.0
 10
169.4465759303
 20
31.9361118671
 30
0.0
 10
169.2095237165
 20
31.9671937028
 30
0.0
 10
169.0949276355
 20
31.9571678448
 30
0.0
  0
SPLINE
  5
27A
100
AcDbEntity
  8
_30_VOLUMEN
100
AcDbSpline
 62
4
  6
CONTINUOUS
 70
0
 71
3
 72
9
 73
5
 74
0
 42
0.0000001
 43
0.0000001
 44
0.0000000001
 40
0.0
 40
0.0
 40
0.0
 40
0.0
 40
0.5000778014
 40
1.0
 40
1.0
 40
1.0
 40
1.0
 10
157.9280927455
 20
30.9801963845
 30
0.0
 10
157.8371598325
 20
30.9722407854
 30
0.0
 10
157.6568158579
 20
30.9239996149
 30
0.0
 10
157.5036187488
 20
30.8171860102
 30
0.0
 10
157.4390939174
 20
30.7526612245
 30
0.0
  0
SPLINE
  5
27B
100
AcDbEntity
  8
_30_VOLUMEN
100
AcDbSpline
 62
4
  6
CONTINUOUS
 70
0
 71
3
 72
9
 73
5
 74
0
 42
0.0000001
 43
0.0000001
 44
0.0000000001
 40
0.0
 40
0.0
 40
0.0
 40
0.0
 40
0.4998802662
 40
1.0
 40
1.0
 40
1.0
 40
1.0
 10
168.8630197444
 20
19.4218759746
 30
0.0
 10
168.9283864243
 20
19.4872426082
 30
0.0
 10
169.0363326341
 20
19.6427814026
 30
0.0
 10
169.0839445202
 20
19.8259460017
 30
0.0
 10
169.0911582013
 20
19.918150947
 30
0.0
  0
SPLINE
  5
27C
100
AcDbEntity
  8
_30_VOLUMEN
100
AcDbSpline
 62
4
  6
CONTINUOUS
 70
0
 71
3
 72
11
 73
7
 74
0
 42
0.0000001
 43
0.0000001
 44
0.0000000001
 40
0.0
 40
0.0
 40
0.0
 40
0.0
 40
0.2505768451
 40
0.5003931727
 40
0.7500088993
 40
1.0
 40
1.0
 40
1.0
 40
1.0
 10
166.1628986464
 20
25.3507706147
 30
0.0
 10
166.1986633145
 20
24.981050445
 30
0.0
 10
166.1321820759
 20
24.2219449638
 30
0.0
 10
165.6254483351
 20
23.2039572186
 30
0.0
 10
164.7834670773
 20
22.4409159375
 30
0.0
 10
164.0713784793
 20
22.1723763481
 30
0.0
 10
163.7064742906
 20
22.1077794473
 30
0.0
  0
SPLINE
  5
27D
100
AcDbEntity
  8
_30_VOLUMEN
100
AcDbSpline
 62
7
  6
CONTINUOUS
 70
0
 71
3
 72
9
 73
5
 74
0
 42
0.0000001
 43
0.0000001
 44
0.0000000001
 40
0.0
 40
0.0
 40
0.0
 40
0.0
 40
0.5007668381
 40
1.0
 40
1.0
 40
1.0
 40
1.0
 10
165.5488104581
 20
24.919364399
 30
0.0
 10
165.5511599589
 20
24.6456062971
 30
0.0
 10
165.4688718916
 20
24.0943483698
 30
0.0
 10
165.2137356913
 20
23.5984470432
 30
0.0
 10
165.0515786335
 20
23.3789117976
 30
0.0
  0
SPLINE
  5
27E
100
AcDbEntity
  8
_30_VOLUMEN
100
AcDbSpline
 62
4
  6
CONTINUOUS
 70
0
 71
3
 72
11
 73
7
 74
0
 42
0.0000001
 43
0.0000001
 44
0.0000000001
 40
0.0
 40
0.0
 40
0.0
 40
0.0
 40
0.2505404368
 40
0.5004515623
 40
0.7500436636
 40
1.0
 40
1.0
 40
1.0
 40
1.0
 10
166.0762391191
 20
25.3151222937
 30
0.0
 10
166.1106966981
 20
24.9589142645
 30
0.0
 10
166.0489666607
 20
24.2279125954
 30
0.0
 10
165.571544741
 20
23.2426131363
 30
0.0
 10
164.7733264203
 20
22.4942314125
 30
0.0
 10
164.0943162525
 20
22.2196339755
 30
0.0
 10
163.7446324914
 20
22.1475487048
 30
0.0
  0
SPLINE
  5
27F
100
AcDbEntity
  8
_30_VOLUMEN
100
AcDbSpline
 62
4
  6
CONTINUOUS
 70
0
 71
3
 72
15
 73
11
 74
0
 42
0.0000001
 43
0.0000001
 44
0.0000000001
 40
0.0
 40
0.0
 40
0.0
 40
0.0
 40
0.1250542112
 40
0.2505654459
 40
0.3759805772
 40
0.5013466468
 40
0.626443327
 40
0.7512015129
 40
0.8756762761
 40
1.0
 40
1.0
 40
1.0
 40
1.0
 10
166.0762391191
 20
25.3151222937
 30
0.0
 10
166.0489191391
 20
25.5975448113
 30
0.0
 10
165.9113380872
 20
26.1585808369
 30
0.0
 10
165.4785135046
 20
26.9065524513
 30
0.0
 10
164.8515728858
 20
27.5032690264
 30
0.0
 10
164.0836066034
 20
27.900053679
 30
0.0
 10
163.2361941174
 20
28.0637868193
 30
0.0
 10
162.3789765552
 20
27.9812099103
 30
0.0
 10
161.5824502326
 20
27.6595565118
 30
0.0
 10
161.1345012919
 20
27.3008590421
 30
0.0
 10
160.9417665772
 20
27.094887264
 30
0.0
  0
SPLINE
  5
280
100
AcDbEntity
  8
_30_VOLUMEN
100
AcDbSpline
 62
4
  6
CONTINUOUS
 70
0
 71
3
 72
17
 73
13
 74
0
 42
0.0000001
 43
0.0000001
 44
0.0000000001
 40
0.0
 40
0.0
 40
0.0
 40
0.0
 40
0.1242403414
 40
0.2486204427
 40
0.3732873
 40
0.4359087952
 40
0.4986168071
 40
0.62388963
 40
0.7492532215
 40
0.8120929272
 40
0.8749583999
 40
1.0
 40
1.0
 40
1.0
 40
1.0
 10
160.8525082796
 20
27.07638146
 30
0.0
 10
161.043535835
 20
27.2975692832
 30
0.0
 10
161.4938883215
 20
27.6863077219
 30
0.0
 10
162.3079827964
 20
28.0462652189
 30
0.0
 10
163.0470751745
 20
28.1373006601
 30
0.0
 10
163.6342024993
 20
28.080550561
 30
0.0
 10
164.2084098943
 20
27.9391992141
 30
0.0
 10
164.8790361222
 20
27.6075572563
 30
0.0
 10
165.4270094834
 20
27.097889288
 30
0.0
 10
165.7638361935
 20
26.6104311765
 30
0.0
 10
166.0262696938
 20
26.0805247476
 30
0.0
 10
166.1345769689
 20
25.6435482617
 30
0.0
 10
166.1628986464
 20
25.3507706147
 30
0.0
  0
SPLINE
  5
281
100
AcDbEntity
  8
_30_VOLUMEN
100
AcDbSpline
 62
4
  6
CONTINUOUS
 70
0
 71
3
 72
9
 73
5
 74
0
 42
0.0000001
 43
0.0000001
 44
0.0000000001
 40
0.0
 40
0.0
 40
0.0
 40
0.0
 40
0.4991395601
 40
1.0
 40
1.0
 40
1.0
 40
1.0
 10
157.4390939174
 20
30.7526612245
 30
0.0
 10
157.3942642366
 20
30.7078315754
 30
0.0
 10
157.3150399948
 20
30.6067070824
 30
0.0
 10
157.2629467223
 20
30.4893336774
 30
0.0
 10
157.2441156101
 20
30.4285673216
 30
0.0
  0
SPLINE
  5
282
100
AcDbEntity
  8
_30_VOLUMEN
100
AcDbSpline
 62
4
  6
CONTINUOUS
 70
0
 71
3
 72
9
 73
5
 74
0
 42
0.0000001
 43
0.0000001
 44
0.0000000001
 40
0.0
 40
0.0
 40
0.0
 40
0.0
 40
0.500480823
 40
1.0
 40
1.0
 40
1.0
 40
1.0
 10
168.4294468951
 20
19.2012198591
 30
0.0
 10
168.5105688645
 20
19.2142603997
 30
0.0
 10
168.6696151543
 20
19.265704702
 30
0.0
 10
168.8050330364
 20
19.3638893077
 30
0.0
 10
168.8630197444
 20
19.4218759746
 30
0.0
  0
SPLINE
  5
283
100
AcDbEntity
  8
_21_KURVEN
100
AcDbSpline
 62
7
  6
CONTINUOUS
 70
0
 71
3
 72
9
 73
5
 74
0
 42
0.0000001
 43
0.0000001
 44
0.0000000001
 40
0.0
 40
0.0
 40
0.0
 40
0.0
 40
0.5
 40
1.0
 40
1.0
 40
1.0
 40
1.0
 10
157.9280927455
 20
30.9801963845
 30
0.0
 10
157.8784770329
 20
30.9742769852
 30
0.0
 10
157.7791699443
 20
30.9591937842
 30
0.0
 10
157.6869247384
 20
30.9199428836
 30
0.0
 10
157.6390136167
 20
30.8976006843
 30
0.0
  0
SPLINE
  5
284
100
AcDbEntity
  8
_21_KURVEN
100
AcDbSpline
 62
7
  6
CONTINUOUS
 70
0
 71
3
 72
9
 73
5
 74
0
 42
0.0000001
 43
0.0000001
 44
0.0000000001
 40
0.0
 40
0.0
 40
0.0
 40
0.0
 40
0.5
 40
1.0
 40
1.0
 40
1.0
 40
1.0
 10
157.6390136204
 20
30.8976006862
 30
0.0
 10
157.631627038
 20
30.893800207
 30
0.0
 10
157.6119786458
 20
30.8835592849
 30
0.0
 10
157.5929426812
 20
30.8722323579
 30
0.0
 10
157.5812077633
 20
30.8651102703
 30
0.0
  0
SPLINE
  5
285
100
AcDbEntity
  8
_21_KURVEN
100
AcDbSpline
 62
7
  6
CONTINUOUS
 70
0
 71
3
 72
9
 73
5
 74
0
 42
0.0000001
 43
0.0000001
 44
0.0000000001
 40
0.0
 40
0.0
 40
0.0
 40
0.0
 40
0.5
 40
1.0
 40
1.0
 40
1.0
 40
1.0
 10
157.5812077628
 20
30.8651102701
 30
0.0
 10
157.5579343439
 20
30.8501330237
 30
0.0
 10
157.5072260568
 20
30.8162152335
 30
0.0
 10
157.4623667722
 20
30.774900551
 30
0.0
 10
157.4391439388
 20
30.7526107725
 30
0.0
  0
SPLINE
  5
286
100
AcDbEntity
  8
_21_KURVEN
100
AcDbSpline
 62
7
  6
CONTINUOUS
 70
0
 71
3
 72
9
 73
5
 74
0
 42
0.0000001
 43
0.0000001
 44
0.0000000001
 40
0.0
 40
0.0
 40
0.0
 40
0.0
 40
0.5
 40
1.0
 40
1.0
 40
1.0
 40
1.0
 10
157.4391439385
 20
30.7526107722
 30
0.0
 10
157.4143032679
 20
30.7266054342
 30
0.0
 10
157.3619394531
 20
30.6691837889
 30
0.0
 10
157.3217903679
 20
30.6025993673
 30
0.0
 10
157.3024369153
 20
30.5686015118
 30
0.0
  0
SPLINE
  5
287
100
AcDbEntity
  8
_21_KURVEN
100
AcDbSpline
 62
7
  6
CONTINUOUS
 70
0
 71
3
 72
9
 73
5
 74
0
 42
0.0000001
 43
0.0000001
 44
0.0000000001
 40
0.0
 40
0.0
 40
0.0
 40
0.0
 40
0.5
 40
1.0
 40
1.0
 40
1.0
 40
1.0
 10
157.3024369105
 20
30.5686015028
 30
0.0
 10
157.2802675051
 20
30.5239663292
 30
0.0
 10
157.2385886794
 20
30.4328106558
 30
0.0
 10
157.2208889183
 20
30.3339601421
 30
0.0
 10
157.2133242086
 20
30.2815197998
 30
0.0
  0
LINE
  5
288
100
AcDbEntity
  8
_21_KURVEN
100
AcDbLine
 62
7
  6
CONTINUOUS
 10
157.2133242091
 20
30.2815198039
 11
157.2109554604
 21
30.2563862518
  0
SPLINE
  5
289
100
AcDbEntity
  8
_21_KURVEN
100
AcDbSpline
 62
7
  6
CONTINUOUS
 70
0
 71
3
 72
9
 73
5
 74
0
 42
0.0000001
 43
0.0000001
 44
0.0000000001
 40
0.0
 40
0.0
 40
0.0
 40
0.0
 40
0.5
 40
1.0
 40
1.0
 40
1.0
 40
1.0
 10
169.9655381564
 20
31.0944359027
 30
0.0
 10
169.9679334749
 20
31.1499401744
 30
0.0
 10
169.9684178433
 20
31.268834928
 30
0.0
 10
169.9366131296
 20
31.377979414
 30
0.0
 10
169.9177694749
 20
31.4351618424
 30
0.0
  0
SPLINE
  5
28A
100
AcDbEntity
  8
_21_KURVEN
100
AcDbSpline
 62
7
  6
CONTINUOUS
 70
0
 71
3
 72
21
 73
17
 74
0
 42
0.0000001
 43
0.0000001
 44
0.0000000001
 40
0.0
 40
0.0
 40
0.0
 40
0.0
 40
0.125
 40
0.1875
 40
0.25
 40
0.3125
 40
0.375
 40
0.4375
 40
0.5
 40
0.5625
 40
0.625
 40
0.6875
 40
0.75
 40
0.8125
 40
0.875
 40
1.0
 40
1.0
 40
1.0
 40
1.0
 10
169.9177694781
 20
31.4351618338
 30
0.0
 10
169.9059414104
 20
31.4611638983
 30
0.0
 10
169.8887511402
 20
31.5003413191
 30
0.0
 10
169.8636234541
 20
31.551880584
 30
0.0
 10
169.8383263719
 20
31.5882008047
 30
0.0
 10
169.8159989586
 20
31.6260516485
 30
0.0
 10
169.7882441873
 20
31.6601142277
 30
0.0
 10
169.7587762004
 20
31.6925494909
 30
0.0
 10
169.7313619447
 20
31.7276574066
 30
0.0
 10
169.6974459798
 20
31.7537020286
 30
0.0
 10
169.6655599645
 20
31.7824399694
 30
0.0
 10
169.6320558602
 20
31.809467929
 30
0.0
 10
169.5939164504
 20
31.8318721791
 30
0.0
 10
169.5577809286
 20
31.8569406167
 30
0.0
 10
169.5050932374
 20
31.8823211462
 30
0.0
 10
169.4647847016
 20
31.899789561
 30
0.0
 10
169.4380885149
 20
31.9117833892
 30
0.0
  0
SPLINE
  5
28B
100
AcDbEntity
  8
_21_KURVEN
100
AcDbSpline
 62
7
  6
CONTINUOUS
 70
0
 71
3
 72
9
 73
5
 74
0
 42
0.0000001
 43
0.0000001
 44
0.0000000001
 40
0.0
 40
0.0
 40
0.0
 40
0.0
 40
0.5
 40
1.0
 40
1.0
 40
1.0
 40
1.0
 10
169.4380885266
 20
31.9117833849
 30
0.0
 10
169.3850940269
 20
31.9290336856
 30
0.0
 10
169.2717981107
 20
31.9615134203
 30
0.0
 10
169.1542509894
 20
31.960130164
 30
0.0
 10
169.0949276265
 20
31.957167844
 30
0.0
  0
SPLINE
  5
28C
100
AcDbEntity
  8
_21_KURVEN
100
AcDbSpline
 62
1
  6
CENTER
 70
0
 71
3
 72
135
 73
131
 74
0
 42
0.0000001
 43
0.0000001
 44
0.0000000001
 40
0.0
 40
0.0
 40
0.0
 40
0.0
 40
0.015625
 40
0.03125
 40
0.046875
 40
0.0546875
 40
0.0625
 40
0.06640625
 40
0.0703125
 40
0.078125
 40
0.0859375
 40
0.09375
 40
0.109375
 40
0.125
 40
0.1328125
 40
0.13671875
 40
0.140625
 40
0.142578125
 40
0.14453125
 40
0.1484375
 40
0.15625
 40
0.171875
 40
0.1875
 40
0.203125
 40
0.20703125
 40
0.2109375
 40
0.21484375
 40
0.216796875
 40
0.21875
 40
0.2265625
 40
0.234375
 40
0.25
 40
0.265625
 40
0.2734375
 40
0.28125
 40
0.283203125
 40
0.28515625
 40
0.2890625
 40
0.29296875
 40
0.296875
 40
0.3125
 40
0.328125
 40
0.34375
 40
0.3515625
 40
0.35546875
 40
0.357421875
 40
0.359375
 40
0.36328125
 40
0.3671875
 40
0.375
 40
0.390625
 40
0.40625
 40
0.4140625
 40
0.421875
 40
0.4296875
 40
0.43359375
 40
0.4375
 40
0.4453125
 40
0.453125
 40
0.46875
 40
0.4765625
 40
0.484375
 40
0.4921875
 40
0.49609375
 40
0.498046875
 40
0.5
 40
0.501953125
 40
0.50390625
 40
0.5078125
 40
0.515625
 40
0.5234375
 40
0.53125
 40
0.546875
 40
0.5546875
 40
0.5625
 40
0.56640625
 40
0.5703125
 40
0.578125
 40
0.5859375
 40
0.59375
 40
0.609375
 40
0.625
 40
0.6328125
 40
0.63671875
 40
0.640625
 40
0.642578125
 40
0.64453125
 40
0.6484375
 40
0.65625
 40
0.671875
 40
0.6875
 40
0.703125
 40
0.70703125
 40
0.7109375
 40
0.71484375
 40
0.716796875
 40
0.71875
 40
0.7265625
 40
0.734375
 40
0.75
 40
0.765625
 40
0.7734375
 40
0.78125
 40
0.783203125
 40
0.78515625
 40
0.7890625
 40
0.79296875
 40
0.796875
 40
0.8125
 40
0.828125
 40
0.84375
 40
0.8515625
 40
0.85546875
 40
0.857421875
 40
0.859375
 40
0.86328125
 40
0.8671875
 40
0.875
 40
0.890625
 40
0.90625
 40
0.9140625
 40
0.921875
 40
0.9296875
 40
0.93359375
 40
0.9375
 40
0.9453125
 40
0.953125
 40
0.96875
 40
0.984375
 40
1.0
 40
1.0
 40
1.0
 40
1.0
 10
169.4422395705
 20
25.6376757694
 30
0.0
 10
169.4239395451
 20
25.7291762015
 30
0.0
 10
169.3873454927
 20
25.9121788585
 30
0.0
 10
169.3324184239
 20
26.1866720874
 30
0.0
 10
169.2867508381
 20
26.415447818
 30
0.0
 10
169.2499828329
 20
26.5983984852
 30
0.0
 10
169.2275351853
 20
26.7129017589
 30
0.0
 10
169.2083578977
 20
26.804140001
 30
0.0
 10
169.1936314039
 20
26.896708465
 30
0.0
 10
169.1433662945
 20
27.0028978524
 30
0.0
 10
169.0904945086
 20
27.1325502905
 30
0.0
 10
169.0174040851
 20
27.3046464466
 30
0.0
 10
168.9268855093
 20
27.5200069191
 30
0.0
 10
168.8362325054
 20
27.7353734836
 30
0.0
 10
168.7724665842
 20
27.8859490913
 30
0.0
 10
168.7365986465
 20
27.9723007323
 30
0.0
 10
168.7128303846
 20
28.0255425088
 30
0.0
 10
168.6969152643
 20
28.0698060187
 30
0.0
 10
168.6696828276
 20
28.1079715728
 30
0.0
 10
168.6239984248
 20
28.1758239918
 30
0.0
 10
168.5312320739
 20
28.3107763129
 30
0.0
 10
168.3994170383
 20
28.5039429192
 30
0.0
 10
168.2410334355
 20
28.73565052
 30
0.0
 10
168.1220124265
 20
28.9092551097
 30
0.0
 10
168.0431181694
 20
29.025313873
 30
0.0
 10
168.0028426453
 20
29.0827572179
 30
0.0
 10
167.9719655134
 20
29.1325263996
 30
0.0
 10
167.936211259
 20
29.1645241339
 30
0.0
 10
167.8854224255
 20
29.2145313293
 30
0.0
 10
167.8080480122
 20
29.2886992546
 30
0.0
 10
167.6713838643
 20
29.4211854874
 30
0.0
 10
167.5002288145
 20
29.5865474983
 30
0.0
 10
167.3292602686
 20
29.7521024502
 30
0.0
 10
167.1922977144
 20
29.8842799775
 30
0.0
 10
167.1155947154
 20
29.9591424902
 30
0.0
 10
167.0639246506
 20
30.0082380396
 30
0.0
 10
167.0307534762
 20
30.0429080062
 30
0.0
 10
166.9799903583
 20
30.0721048587
 30
0.0
 10
166.9212439786
 20
30.1104398467
 30
0.0
 10
166.8026358523
 20
30.18541406
 30
0.0
 10
166.6251839544
 20
30.2985710825
 30
0.0
 10
166.3883572695
 20
30.4491282241
 30
0.0
 10
166.1909305839
 20
30.574418666
 30
0.0
 10
166.0529793126
 20
30.6626265587
 30
0.0
 10
165.9836512317
 20
30.7060192637
 30
0.0
 10
165.9446040333
 20
30.7319622827
 30
0.0
 10
165.8998445577
 20
30.7463859058
 30
0.0
 10
165.8458507911
 20
30.7683589775
 30
0.0
 10
165.7583696198
 20
30.8013160104
 30
0.0
 10
165.6057833542
 20
30.8600057368
 30
0.0
 10
165.3875594741
 20
30.9433984557
 30
0.0
 10
165.1693461982
 20
31.0266569854
 30
0.0
 10
164.994944928
 20
31.0939456613
 30
0.0
 10
164.8636295613
 20
31.1424471251
 30
0.0
 10
164.75584424
 20
31.1891310503
 30
0.0
 10
164.662862173
 20
31.2007430419
 30
0.0
 10
164.5710595881
 20
31.2168493779
 30
0.0
 10
164.4559025039
 20
31.2354436509
 30
0.0
 10
164.2718768649
 20
31.2660531398
 30
0.0
 10
164.0877893809
 20
31.2964343862
 30
0.0
 10
163.9037181602
 20
31.3268563711
 30
0.0
 10
163.7656777996
 20
31.3497788866
 30
0.0
 10
163.6505938732
 20
31.3685105858
 30
0.0
 10
163.5701350275
 20
31.3823542223
 30
0.0
 10
163.52400237
 20
31.3891220817
 30
0.0
 10
163.4898428561
 20
31.3974173615
 30
0.0
 10
163.4540015125
 20
31.3934064951
 30
0.0
 10
163.4067996974
 20
31.3923511868
 30
0.0
 10
163.3239231731
 20
31.3885045173
 30
0.0
 10
163.2056712086
 20
31.3840541778
 30
0.0
 10
163.0637069095
 20
31.3782693914
 30
0.0
 10
162.8744463165
 20
31.3706972387
 30
0.0
 10
162.6851587722
 20
31.3631684695
 30
0.0
 10
162.4959332276
 20
31.3554038777
 30
0.0
 10
162.3775347224
 20
31.3511044112
 30
0.0
 10
162.2831185138
 20
31.3463956257
 30
0.0
 10
162.1875979546
 20
31.3463209669
 30
0.0
 10
162.0761016412
 20
31.3130582085
 30
0.0
 10
161.9404586786
 20
31.2808959711
 30
0.0
 10
161.7602441312
 20
31.2353116119
 30
0.0
 10
161.5347738921
 20
31.1792088013
 30
0.0
 10
161.3093084527
 20
31.1229721567
 30
0.0
 10
161.1516140041
 20
31.0832732101
 30
0.0
 10
161.0612762639
 20
31.0611996115
 30
0.0
 10
161.0053504672
 20
31.045954184
 30
0.0
 10
160.9593817882
 20
31.0370835918
 30
0.0
 10
160.9178970431
 20
31.016069543
 30
0.0
 10
160.8445173291
 20
30.981411291
 30
0.0
 10
160.6983111113
 20
30.910595302
 30
0.0
 10
160.4891684841
 20
30.8101889986
 30
0.0
 10
160.2382605391
 20
30.6894837315
 30
0.0
 10
160.0502218796
 20
30.5986966158
 30
0.0
 10
159.9246058555
 20
30.5386701799
 30
0.0
 10
159.862264246
 20
30.5077464013
 30
0.0
 10
159.808801049
 20
30.4849287368
 30
0.0
 10
159.7722519444
 20
30.4545260108
 30
0.0
 10
159.7158282014
 20
30.4120463598
 30
0.0
 10
159.6318634288
 20
30.3470175433
 30
0.0
 10
159.4820891864
 20
30.2323897866
 30
0.0
 10
159.295070077
 20
30.0887455253
 30
0.0
 10
159.1078856127
 20
29.9453157405
 30
0.0
 10
158.9583759382
 20
29.8303448214
 30
0.0
 10
158.873815888
 20
29.7660881203
 30
0.0
 10
158.8181734469
 20
29.7225950677
 30
0.0
 10
158.779334177
 20
29.6951628417
 30
0.0
 10
158.743501945
 20
29.6494766172
 30
0.0
 10
158.6975366422
 20
29.5973116556
 30
0.0
 10
158.6071310338
 20
29.4916149171
 30
0.0
 10
158.4708973465
 20
29.3336332311
 30
0.0
 10
158.2895372342
 20
29.1227196977
 30
0.0
 10
158.1385660599
 20
28.9468610658
 30
0.0
 10
158.0324209056
 20
28.8240831543
 30
0.0
 10
157.9800037355
 20
28.7622350578
 30
0.0
 10
157.948993988
 20
28.7276342253
 30
0.0
 10
157.9285987851
 20
28.6855930961
 30
0.0
 10
157.8994710076
 20
28.6355888162
 30
0.0
 10
157.8548936278
 20
28.5541609196
 30
0.0
 10
157.7759481719
 20
28.4123191766
 30
0.0
 10
157.6635820975
 20
28.2093849675
 30
0.0
 10
157.5513444612
 20
28.0064117755
 30
0.0
 10
157.4609155821
 20
27.8443692991
 30
0.0
 10
157.39493317
 20
27.7218525997
 30
0.0
 10
157.3340831566
 20
27.6228981252
 30
0.0
 10
157.3094897616
 20
27.5308261997
 30
0.0
 10
157.2806898896
 20
27.4410085825
 30
0.0
 10
157.246130357
 20
27.3279646807
 30
0.0
 10
157.1900300918
 20
27.1475258553
 30
0.0
 10
157.1201811292
 20
26.9218292136
 30
0.0
 10
157.0362433228
 20
26.6510570448
 30
0.0
 10
156.9803074617
 20
26.470530113
 30
0.0
 10
156.9523366965
 20
26.3802681662
 30
0.0
  0
SPLINE
  5
28D
100
AcDbEntity
  8
_21_KURVEN
100
AcDbSpline
 62
1
  6
CENTER
 70
0
 71
3
 72
11
 73
7
 74
0
 42
0.0000001
 43
0.0000001
 44
0.0000000001
 40
0.0
 40
0.0
 40
0.0
 40
0.0
 40
0.375
 40
0.5625
 40
0.75
 40
1.0
 40
1.0
 40
1.0
 40
1.0
 10
156.9523365588
 20
26.3802674766
 30
0.0
 10
156.950199525
 20
26.3694653256
 30
0.0
 10
156.9470675101
 20
26.3536480235
 30
0.0
 10
156.942710719
 20
26.3309913526
 30
0.0
 10
156.9398972103
 20
26.3163992812
 30
0.0
 10
156.9355463015
 20
26.2928452413
 30
0.0
 10
156.9334488765
 20
26.2815636822
 30
0.0
  0
SPLINE
  5
28E
100
AcDbEntity
  8
_21_KURVEN
100
AcDbSpline
 62
1
  6
CENTER
 70
0
 71
3
 72
85
 73
81
 74
0
 42
0.0000001
 43
0.0000001
 44
0.0000000001
 40
0.0
 40
0.0
 40
0.0
 40
0.0
 40
0.03125
 40
0.046875
 40
0.0625
 40
0.078125
 40
0.0859375
 40
0.09375
 40
0.1015625
 40
0.10546875
 40
0.109375
 40
0.125
 40
0.15625
 40
0.171875
 40
0.1875
 40
0.203125
 40
0.2109375
 40
0.21875
 40
0.234375
 40
0.25
 40
0.265625
 40
0.28125
 40
0.2890625
 40
0.296875
 40
0.3125
 40
0.328125
 40
0.34375
 40
0.375
 40
0.390625
 40
0.39453125
 40
0.3984375
 40
0.40625
 40
0.4140625
 40
0.421875
 40
0.4375
 40
0.453125
 40
0.46875
 40
0.484375
 40
0.4921875
 40
0.49609375
 40
0.5
 40
0.50390625
 40
0.5078125
 40
0.515625
 40
0.53125
 40
0.546875
 40
0.5625
 40
0.578125
 40
0.5859375
 40
0.59375
 40
0.6015625
 40
0.60546875
 40
0.609375
 40
0.625
 40
0.65625
 40
0.671875
 40
0.6875
 40
0.703125
 40
0.7109375
 40
0.71875
 40
0.734375
 40
0.75
 40
0.765625
 40
0.78125
 40
0.7890625
 40
0.796875
 40
0.8125
 40
0.828125
 40
0.84375
 40
0.875
 40
0.890625
 40
0.89453125
 40
0.8984375
 40
0.90625
 40
0.9140625
 40
0.921875
 40
0.9375
 40
0.953125
 40
0.96875
 40
1.0
 40
1.0
 40
1.0
 40
1.0
 10
161.0258981514
 20
19.1547242327
 30
0.0
 10
161.152825843
 20
19.1220196454
 30
0.0
 10
161.343216532
 20
19.0729591316
 30
0.0
 10
161.5970741776
 20
19.0075596444
 30
0.0
 10
161.7874589277
 20
18.9584737009
 30
0.0
 10
161.9461397526
 20
18.9176837869
 30
0.0
 10
162.0730241749
 20
18.8847939263
 30
0.0
 10
162.1683520847
 20
18.860831296
 30
0.0
 10
162.2472684649
 20
18.8386206907
 30
0.0
 10
162.3142852432
 20
18.8374824685
 30
0.0
 10
162.4138123279
 20
18.8315032793
 30
0.0
 10
162.6300429019
 20
18.8210246633
 30
0.0
 10
162.8958189016
 20
18.8069288513
 30
0.0
 10
163.1617874601
 20
18.792772905
 30
0.0
 10
163.3610401401
 20
18.7835354019
 30
0.0
 10
163.5277496036
 20
18.7712643498
 30
0.0
 10
163.6562167465
 20
18.7953980985
 30
0.0
 10
163.7855401097
 20
18.8136002578
 30
0.0
 10
163.9468981964
 20
18.8384016391
 30
0.0
 10
164.140664933
 20
18.867227006
 30
0.0
 10
164.3343573268
 20
18.8965196443
 30
0.0
 10
164.4959012706
 20
18.9201528471
 30
0.0
 10
164.6248529196
 20
18.9406913635
 30
0.0
 10
164.7548317003
 20
18.9553239268
 30
0.0
 10
164.9099560708
 20
19.0158693359
 30
0.0
 10
165.0970493739
 20
19.0830578746
 30
0.0
 10
165.3462199076
 20
19.1744835353
 30
0.0
 10
165.5952255469
 20
19.2657954458
 30
0.0
 10
165.7981195737
 20
19.3391418147
 30
0.0
 10
165.8911487945
 20
19.3740040224
 30
0.0
 10
165.9546877305
 20
19.3947253037
 30
0.0
 10
166.0230225727
 20
19.4390233153
 30
0.0
 10
166.1064595469
 20
19.4898000666
 30
0.0
 10
166.2172067969
 20
19.5583352004
 30
0.0
 10
166.355818317
 20
19.6437102835
 30
0.0
 10
166.5220534181
 20
19.7463215895
 30
0.0
 10
166.6883994793
 20
19.8487582047
 30
0.0
 10
166.8267335991
 20
19.9345700151
 30
0.0
 10
166.9241228934
 20
19.9937739842
 30
0.0
 10
166.978908066
 20
20.0289520883
 30
0.0
 10
167.0224358148
 20
20.0515408151
 30
0.0
 10
167.0566410125
 20
20.0886353148
 30
0.0
 10
167.1054997754
 20
20.1330348512
 30
0.0
 10
167.1894872975
 20
20.2130916985
 30
0.0
 10
167.3102634961
 20
20.3262243576
 30
0.0
 10
167.4548471911
 20
20.4625190897
 30
0.0
 10
167.5995514208
 20
20.5986464822
 30
0.0
 10
167.7200262825
 20
20.7121974901
 30
0.0
 10
167.8166146959
 20
20.8028543322
 30
0.0
 10
167.8884976314
 20
20.871331948
 30
0.0
 10
167.9501744414
 20
20.9268566657
 30
0.0
 10
167.9863537755
 20
20.9826989056
 30
0.0
 10
168.0440035991
 20
21.0635278163
 30
0.0
 10
168.1669551815
 20
21.2403651617
 30
0.0
 10
168.3192039467
 20
21.4571357124
 30
0.0
 10
168.4715708956
 20
21.6740098598
 30
0.0
 10
168.5845678156
 20
21.837230093
 30
0.0
 10
168.6829436447
 20
21.9713217134
 30
0.0
 10
168.7303906522
 20
22.0929163738
 30
0.0
 10
168.78329809
 20
22.2120089604
 30
0.0
 10
168.8475462295
 20
22.3617385417
 30
0.0
 10
168.9255069089
 20
22.5410206794
 30
0.0
 10
169.0030337929
 20
22.7204940997
 30
0.0
 10
169.0683664207
 20
22.8697454746
 30
0.0
 10
169.1191048818
 20
22.9897944741
 30
0.0
 10
169.1753723944
 20
23.1074997221
 30
0.0
 10
169.2061484509
 20
23.2713995435
 30
0.0
 10
169.2481932604
 20
23.4659060265
 30
0.0
 10
169.3025476013
 20
23.7259995687
 30
0.0
 10
169.3569072892
 20
23.9859303268
 30
0.0
 10
169.4021007337
 20
24.1970628691
 30
0.0
 10
169.4217735008
 20
24.2946301417
 30
0.0
 10
169.4378401652
 20
24.3593635868
 30
0.0
 10
169.4363802213
 20
24.4425551762
 30
0.0
 10
169.4374161543
 20
24.5420907358
 30
0.0
 10
169.4378235591
 20
24.6749076349
 30
0.0
 10
169.4386669449
 20
24.8408934808
 30
0.0
 10
169.4395359438
 20
25.0400916008
 30
0.0
 10
169.4407448069
 20
25.3056837941
 30
0.0
 10
169.4416401598
 20
25.5048791316
 30
0.0
 10
169.4422395715
 20
25.6376757583
 30
0.0
  0
SPLINE
  5
28F
100
AcDbEntity
  8
_21_KURVEN
100
AcDbSpline
 62
7
  6
CONTINUOUS
 70
0
 71
3
 72
8
 73
4
 74
0
 42
0.0000001
 43
0.0000001
 44
0.0000000001
 40
0.0
 40
0.0
 40
0.0
 40
0.0
 40
1.0
 40
1.0
 40
1.0
 40
1.0
 10
168.3740209163
 20
19.1943408146
 30
0.0
 10
168.4237368905
 20
19.199479887
 30
0.0
 10
168.4714962703
 20
19.2081103148
 30
0.0
 10
168.5226328222
 20
19.2217994363
 30
0.0
  0
SPLINE
  5
290
100
AcDbEntity
  8
_21_KURVEN
100
AcDbSpline
 62
7
  6
CONTINUOUS
 70
0
 71
3
 72
8
 73
4
 74
0
 42
0.0000001
 43
0.0000001
 44
0.0000000001
 40
0.0
 40
0.0
 40
0.0
 40
0.0
 40
1.0
 40
1.0
 40
1.0
 40
1.0
 10
168.5226328202
 20
19.2217994358
 30
0.0
 10
168.5703900059
 20
19.2362639268
 30
0.0
 10
168.6155686363
 20
19.2537925374
 30
0.0
 10
168.6631000432
 20
19.2769365139
 30
0.0
  0
SPLINE
  5
291
100
AcDbEntity
  8
_21_KURVEN
100
AcDbSpline
 62
7
  6
CONTINUOUS
 70
0
 71
3
 72
9
 73
5
 74
0
 42
0.0000001
 43
0.0000001
 44
0.0000000001
 40
0.0
 40
0.0
 40
0.0
 40
0.0
 40
0.5
 40
1.0
 40
1.0
 40
1.0
 40
1.0
 10
168.6631000414
 20
19.2769365129
 30
0.0
 10
168.6972145043
 20
19.2953320208
 30
0.0
 10
168.7695730625
 20
19.3367092333
 30
0.0
 10
168.8316390156
 20
19.3922715887
 30
0.0
 10
168.8629697268
 20
19.4219264304
 30
0.0
  0
SPLINE
  5
292
100
AcDbEntity
  8
_21_KURVEN
100
AcDbSpline
 62
7
  6
CONTINUOUS
 70
0
 71
3
 72
9
 73
5
 74
0
 42
0.0000001
 43
0.0000001
 44
0.0000000001
 40
0.0
 40
0.0
 40
0.0
 40
0.0
 40
0.5
 40
1.0
 40
1.0
 40
1.0
 40
1.0
 10
168.8629697233
 20
19.4219264269
 30
0.0
 10
168.8840666359
 20
19.4438572545
 30
0.0
 10
168.9247118363
 20
19.4874739112
 30
0.0
 10
168.9610520523
 20
19.541555538
 30
0.0
 10
168.9785060293
 20
19.5689375843
 30
0.0
  0
SPLINE
  5
293
100
AcDbEntity
  8
_21_KURVEN
100
AcDbSpline
 62
7
  6
CONTINUOUS
 70
0
 71
3
 72
9
 73
5
 74
0
 42
0.0000001
 43
0.0000001
 44
0.0000000001
 40
0.0
 40
0.0
 40
0.0
 40
0.0
 40
0.25
 40
1.0
 40
1.0
 40
1.0
 40
1.0
 10
168.978506029
 20
19.5689375838
 30
0.0
 10
168.979937055
 20
19.5713070536
 30
0.0
 10
168.9872291841
 20
19.5834490461
 30
0.0
 10
168.9929248587
 20
19.5935359335
 30
0.0
 10
168.9996767517
 20
19.6059356971
 30
0.0
  0
SPLINE
  5
294
100
AcDbEntity
  8
_21_KURVEN
100
AcDbSpline
 62
7
  6
CONTINUOUS
 70
0
 71
3
 72
11
 73
7
 74
0
 42
0.0000001
 43
0.0000001
 44
0.0000000001
 40
0.0
 40
0.0
 40
0.0
 40
0.0
 40
0.25
 40
0.5
 40
0.75
 40
1.0
 40
1.0
 40
1.0
 40
1.0
 10
168.9996767513
 20
19.6059356963
 30
0.0
 10
169.0113357262
 20
19.6295134758
 30
0.0
 10
169.0345072296
 20
19.6772337939
 30
0.0
 10
169.0634777163
 20
19.7576264622
 30
0.0
 10
169.0808735223
 20
19.8337587811
 30
0.0
 10
169.0879894064
 20
19.8903184466
 30
0.0
 10
169.0911582008
 20
19.9181509396
 30
0.0
  0
SPLINE
  5
295
100
AcDbEntity
  8
_30_VOLUMEN
100
AcDbSpline
 62
4
  6
CONTINUOUS
 70
0
 71
3
 72
17
 73
13
 74
0
 42
0.0000001
 43
0.0000001
 44
0.0000000001
 40
0.0
 40
0.0
 40
0.0
 40
0.0
 40
0.1242599878
 40
0.2487418061
 40
0.3735837632
 40
0.4363254983
 40
0.499134558
 40
0.6244861373
 40
0.7498045765
 40
0.8125753443
 40
0.8752590411
 40
1.0
 40
1.0
 40
1.0
 40
1.0
 10
164.9304051361
 20
23.4767869313
 30
0.0
 10
165.0963781493
 20
23.6605081287
 30
0.0
 10
165.3719891844
 20
24.0842348399
 30
0.0
 10
165.566512248
 20
24.8147965786
 30
0.0
 10
165.5323522484
 20
25.4468572765
 30
0.0
 10
165.39002524
 20
25.9268423009
 30
0.0
 10
165.1748566956
 20
26.380060626
 30
0.0
 10
164.7772650479
 20
26.8756609647
 30
0.0
 10
164.2468978796
 20
27.225358595
 30
0.0
 10
163.7757388939
 20
27.3971851838
 30
0.0
 10
163.2852129491
 20
27.4939354096
 30
0.0
 10
162.9040164281
 20
27.4785603093
 30
0.0
 10
162.6603218959
 20
27.429683294
 30
0.0
  0
ELLIPSE
  5
296
100
AcDbEntity
  8
_30_VOLUMEN
100
AcDbEllipse
 62
4
  6
CONTINUOUS
 10
163.6519265992
 20
25.4763573602
 30
0.0
 11
-1.0765868283
 21
1.3181679477
 31
0.0
 40
0.9161161474
 41
-3.1740140748
 42
-0.324053802
  0
ENDSEC
  0
SECTION
  2
OBJECTS
  0
DICTIONARY
  5
C
100
AcDbDictionary
280
0
281
1
  3
ACAD_GROUP
350
D
  3
ACAD_MLINESTYLE
350
17
  3
ACAD_LAYOUT
350
1A
  3
ACAD_PLOTSETTINGS
350
19
  3
ACAD_PLOTSTYLENAME
350
E
  0
DICTIONARY
  5
D
102
{ACAD_REACTORS
330
C
102
}
100
AcDbDictionary
280
0
281
1
  0
ACDBDICTIONARYWDFLT
  5
E
102
{ACAD_REACTORS
330
C
102
}
100
AcDbDictionary
281
1
  3
Normal
350
F
100
AcDbDictionaryWithDefault
340
F
  0
DICTIONARY
  5
17
102
{ACAD_REACTORS
330
C
102
}
100
AcDbDictionary
280
0
281
1
  3
Standard
350
18
  0
DICTIONARY
  5
19
102
{ACAD_REACTORS
330
C
102
}
100
AcDbDictionary
281
1
  0
DICTIONARY
  5
1A
102
{ACAD_REACTORS
330
C
102
}
100
AcDbDictionary
281
1
  3
Model
350
297
  3
Layout1
350
298
  0
ACDBPLACEHOLDER
  5
F
102
{ACAD_REACTORS
330
E
102
}
  0
MLINESTYLE
  5
18
102
{ACAD_REACTORS
330
17
102
}
100
AcDbMlineStyle
  2
STANDARD
 70
0
  3

 62
256
 51
90.0
 52
90.0
 71
2
 49
0.5
 62
256
  6
BYLAYER
 49
-0.5
 62
256
  6
BYLAYER
  0
LAYOUT
  5
297
102
{ACAD_REACTORS
330
1A
102
}
100
AcDbPlotSettings
  1

  2
none_device
  4
ISO_A3_(420.00_x_297.00_MM)
  6

 40
0.0
 41
0.0
 42
0.0
 43
0.0
 44
420.0
 45
297.0
 46
0.0
 47
0.0
 48
0.0
 49
0.0
140
0.0
141
0.0
142
1.0
143
1.0
 70
1024
 72
1
 73
0
 74
0
  7

 75
0
147
1.0
148
0.0
149
0.0
100
AcDbLayout
  1
Model
 70
0
 71
0
 10
0.0
 20
0.0
 11
420.0
 21
297.0
 12
0.0
 22
0.0
 32
0.0
 14
0.0
 24
0.0
 34
0.0
 15
0.0
 25
0.0
 35
0.0
146
0.0
 13
0.0
 23
0.0
 33
0.0
 16
1.0
 26
0.0
 36
0.0
 17
0.0
 27
1.0
 37
0.0
 76
0
330
20E
345
0
346
0
  0
LAYOUT
  5
298
102
{ACAD_REACTORS
330
1A
102
}
100
AcDbPlotSettings
  1

  2
none_device
  4
ISO_A3_(420.00_x_297.00_MM)
  6

 40
0.0
 41
0.0
 42
0.0
 43
0.0
 44
420.0
 45
297.0
 46
0.0
 47
0.0
 48
0.0
 49
0.0
140
0.0
141
0.0
142
1.0
143
1.0
 70
0
 72
1
 73
0
 74
0
  7

 75
0
147
1.0
148
0.0
149
0.0
100
AcDbLayout
  1
Layout1
 70
0
 71
1
 10
0.0
 20
0.0
 11
420.0
 21
297.0
 12
0.0
 22
0.0
 32
0.0
 14
0.0
 24
0.0
 34
0.0
 15
0.0
 25
0.0
 35
0.0
146
0.0
 13
0.0
 23
0.0
 33
0.0
 16
1.0
 26
0.0
 36
0.0
 17
0.0
 27
1.0
 37
0.0
 76
0
330
20F
345
0
346
0
  0
ENDSEC
  0
EOF
