999
DXF file: 70509016.dxf
999
Pro/ENGINEER 2017380 by Parametric Technology Corporation
  0
SECTION
  2
HEADER
  9
$ACADVER
  1
AC1027
  9
$DWGCODEPAGE
  3
ANSI_1252
  9
$EXTMAX
 10
420.0
 20
297.0
 30
0.0
  9
$EXTMIN
 10
0.0
 20
0.0
 30
0.0
  9
$LIMMIN
 10
0.0
 20
0.0
  9
$LIMMAX
 10
420.0
 20
297.0
  9
$VIEWCTR
 10
210.0
 20
148.5
  9
$VIEWSIZE
 40
297.0
  9
$CLAYER
  8
0
  9
$LTSCALE
 40
23.1
  9
$CELTYPE
  6
BYLAYER
  9
$DIMSCALE
 40
1.0
  9
$DIMASZ
 40
3.5
  9
$DIMEXO
 40
0.0
  9
$DIMDLI
 40
15.96
  9
$DIMEXE
 40
1.5
  9
$DIMCEN
 40
3.78
  9
$DIMLFAC
 40
1.0
  9
$DIMBLK
  1
_FILLED
  9
$DIMALT
 70
0
  9
$DIMALTF
 40
25.4
  9
$DIMTXT
 40
3.5
  9
$DIMTOL
 70
1
  9
$DIMLIM
 70
0
  9
$DIMTFAC
 40
1.0
  9
$DIMTP
 40
0.05
  9
$DIMTM
 40
0.05
  9
$DIMGAP
 40
0.625
  9
$DIMDSEP
 70
46
  9
$AUNITS
 70
0
  9
$PDMODE
 70
3
  9
$PDSIZE
 40
0.3125
  9
$HANDSEED
  5
28D
  9
$TILEMODE
 70
1
  9
$MEASUREMENT
 70
1
  9
$INSUNITS
 70
4
  0
ENDSEC
  0
SECTION
  2
CLASSES
  0
CLASS
  1
ACDBDICTIONARYWDFLT
  2
AcDbDictionaryWithDefault
  3
AutoCAD 2000
 90
0
 91
1
280
0
281
0
  0
CLASS
  1
ACDBPLACEHOLDER
  2
AcDbPlaceHolder
  3
AutoCAD 2000
 90
0
 91
1
280
0
281
0
  0
CLASS
  1
LAYOUT
  2
AcDbLayout
  3
AutoCAD 2000
 90
0
 91
0
280
0
281
0
  0
ENDSEC
  0
SECTION
  2
TABLES
  0
TABLE
  2
VPORT
  5
8
100
AcDbSymbolTable
 70
2
  0
VPORT
  5
1F4
100
AcDbSymbolTableRecord
100
AcDbViewportTableRecord
  2
*ACTIVE
 70
0
 10
0.0
 20
0.0
 11
1.0
 21
1.0
 12
210.0
 22
148.5
 13
0.0
 23
0.0
 14
1.0
 24
1.0
 15
0.0
 25
0.0
 16
0.0
 26
0.0
 36
1.0
 17
0.0
 27
0.0
 37
0.0
 40
297.0
 41
1.4141414141
 42
50.0
 43
0.0
 44
0.0
 50
0.0
 51
0.0
 71
0
 72
100
 73
1
 74
1
 75
0
 76
0
 77
0
 78
0
  0
ENDTAB
  0
TABLE
  2
LTYPE
  5
5
100
AcDbSymbolTable
 70
6
  0
LTYPE
  5
14
100
AcDbSymbolTableRecord
100
AcDbLinetypeTableRecord
  2
BYBLOCK
 70
0
  3

 72
65
 73
0
 40
0.0
  0
LTYPE
  5
15
100
AcDbSymbolTableRecord
100
AcDbLinetypeTableRecord
  2
BYLAYER
 70
0
  3

 72
65
 73
0
 40
0.0
  0
LTYPE
  5
16
100
AcDbSymbolTableRecord
100
AcDbLinetypeTableRecord
  2
CONTINUOUS
 70
64
  3
Solid line
 72
65
 73
0
 40
0.0
  0
LTYPE
  5
1F5
100
AcDbSymbolTableRecord
100
AcDbLinetypeTableRecord
  2
CENTER
 70
64
  3
____ _ ____ _ ____ _ ____ _ ____ _ ____ _ ____
 72
65
 73
4
 40
0.6
 49
0.375
 74
0
 49
-0.075
 74
0
 49
0.075
 74
0
 49
-0.075
 74
0
  0
LTYPE
  5
1F6
100
AcDbSymbolTableRecord
100
AcDbLinetypeTableRecord
  2
HIDDEN
 70
64
  3
- - - - - - - - - - - - - - - - - - - -
 72
65
 73
2
 40
0.2
 49
0.1
 74
0
 49
-0.1
 74
0
  0
LTYPE
  5
1F7
100
AcDbSymbolTableRecord
100
AcDbLinetypeTableRecord
  2
PHANTOM
 70
64
  3
_____ _ _ _____ _ _ _____ _ _ _____
 72
65
 73
6
 40
0.8
 49
0.45
 74
0
 49
-0.05
 74
0
 49
0.1
 74
0
 49
-0.05
 74
0
 49
0.1
 74
0
 49
-0.05
 74
0
  0
LTYPE
  5
1F8
100
AcDbSymbolTableRecord
100
AcDbLinetypeTableRecord
  2
DOT
 70
64
  3
. . . . . . . . . . . . . . . . . . . .
 72
65
 73
2
 40
0.2
 49
0.1
 74
0
 49
-0.1
 74
0
  0
LTYPE
  5
1F9
100
AcDbSymbolTableRecord
100
AcDbLinetypeTableRecord
  2
DASHED
 70
64
  3
- - - - - - - - - - - - - - - - - - - -
 72
65
 73
2
 40
0.2
 49
0.1
 74
0
 49
-0.1
 74
0
  0
ENDTAB
  0
TABLE
  2
LAYER
  5
2
100
AcDbSymbolTable
 70
36
  0
LAYER
  5
10
100
AcDbSymbolTableRecord
100
AcDbLayerTableRecord
  2
0
 70
0
 62
7
  6
CONTINUOUS
370
-3
390
F
  0
LAYER
  5
1FA
100
AcDbSymbolTableRecord
100
AcDbLayerTableRecord
  2
DEFAULT_1
 70
0
 62
7
  6
CENTER
370
-3
390
F
  0
LAYER
  5
1FB
100
AcDbSymbolTableRecord
100
AcDbLayerTableRecord
  2
DEFAULT_2
 70
0
 62
1
  6
HIDDEN
370
-3
390
F
  0
LAYER
  5
1FC
100
AcDbSymbolTableRecord
100
AcDbLayerTableRecord
  2
DEFAULT_3
 70
0
 62
7
  6
PHANTOM
370
-3
390
F
  0
LAYER
  5
1FD
100
AcDbSymbolTableRecord
100
AcDbLayerTableRecord
  2
BG_STARTBEZUEGE
 70
0
 62
7
  6
CONTINUOUS
370
-3
390
F
  0
LAYER
  5
1FE
100
AcDbSymbolTableRecord
100
AcDbLayerTableRecord
  2
HILFEN
 70
0
 62
7
  6
CONTINUOUS
370
-3
390
F
  0
LAYER
  5
1FF
100
AcDbSymbolTableRecord
100
AcDbLayerTableRecord
  2
PLATZIERUNG
 70
0
 62
7
  6
CONTINUOUS
370
-3
390
F
  0
LAYER
  5
200
100
AcDbSymbolTableRecord
100
AcDbLayerTableRecord
  2
T_STARTBEZUEGE
 70
0
 62
7
  6
CONTINUOUS
370
-3
390
F
  0
LAYER
  5
201
100
AcDbSymbolTableRecord
100
AcDbLayerTableRecord
  2
_03_2D_ZEICHNUNG_BEMASSUNGEN
 70
0
 62
7
  6
CONTINUOUS
370
-3
390
F
  0
LAYER
  5
202
100
AcDbSymbolTableRecord
100
AcDbLayerTableRecord
  2
_04_NOTIZEN
 70
0
 62
7
  6
CONTINUOUS
370
-3
390
F
  0
LAYER
  5
203
100
AcDbSymbolTableRecord
100
AcDbLayerTableRecord
  2
_05_2D_ELEMENTE
 70
0
 62
7
  6
CONTINUOUS
370
-3
390
F
  0
LAYER
  5
204
100
AcDbSymbolTableRecord
100
AcDbLayerTableRecord
  2
_07_EINRASTLINIEN
 70
0
 62
7
  6
CONTINUOUS
370
-3
390
F
  0
LAYER
  5
205
100
AcDbSymbolTableRecord
100
AcDbLayerTableRecord
  2
_21_KURVEN
 70
0
 62
7
  6
CONTINUOUS
370
-3
390
F
  0
LAYER
  5
206
100
AcDbSymbolTableRecord
100
AcDbLayerTableRecord
  2
_26_BEZUGSACHSEN
 70
0
 62
7
  6
CONTINUOUS
370
-3
390
F
  0
LAYER
  5
207
100
AcDbSymbolTableRecord
100
AcDbLayerTableRecord
  2
_27_BEZUGSEBENEN
 70
0
 62
7
  6
CONTINUOUS
370
-3
390
F
  0
LAYER
  5
208
100
AcDbSymbolTableRecord
100
AcDbLayerTableRecord
  2
_28_BEZUGSPUNKTE
 70
0
 62
7
  6
CONTINUOUS
370
-3
390
F
  0
LAYER
  5
209
100
AcDbSymbolTableRecord
100
AcDbLayerTableRecord
  2
_29_KOORDINATENSYSTEME
 70
0
 62
7
  6
CONTINUOUS
370
-3
390
F
  0
LAYER
  5
20A
100
AcDbSymbolTableRecord
100
AcDbLayerTableRecord
  2
_30_VOLUMEN
 70
0
 62
7
  6
CONTINUOUS
370
-3
390
F
  0
ENDTAB
  0
TABLE
  2
STYLE
  5
3
100
AcDbSymbolTable
 70
1
  0
STYLE
  5
11
100
AcDbSymbolTableRecord
100
AcDbTextStyleTableRecord
  2
STANDARD
 70
0
 40
0.0
 41
0.7
 50
0.0
 71
0
 42
0.2
  3
SIMPLEX.SHX
  4

  0
STYLE
  5
20B
100
AcDbSymbolTableRecord
100
AcDbTextStyleTableRecord
  2
TEXTSTYLE_1
 70
0
 40
0.0
 41
0.8
 50
0.0
 71
0
 42
0.2
  3
gdt
  4

  0
ENDTAB
  0
TABLE
  2
VIEW
  5
6
100
AcDbSymbolTable
 70
0
  0
ENDTAB
  0
TABLE
  2
UCS
  5
7
100
AcDbSymbolTable
 70
0
  0
ENDTAB
  0
TABLE
  2
APPID
  5
9
100
AcDbSymbolTable
 70
1
  0
APPID
  5
20C
100
AcDbSymbolTableRecord
100
AcDbRegAppTableRecord
  2
ACAD
 70
0
  0
ENDTAB
  0
TABLE
  2
BLOCK_RECORD
  5
1
100
AcDbSymbolTable
 70
0
  0
BLOCK_RECORD
  5
20D
100
AcDbSymbolTableRecord
100
AcDbBlockTableRecord
  2
*Model_Space
  0
BLOCK_RECORD
  5
20E
100
AcDbSymbolTableRecord
100
AcDbBlockTableRecord
  2
*Paper_Space
  0
BLOCK_RECORD
  5
20F
100
AcDbSymbolTableRecord
100
AcDbBlockTableRecord
  2
_FILLED
  0
BLOCK_RECORD
  5
210
100
AcDbSymbolTableRecord
100
AcDbBlockTableRecord
  2
*D0
  0
BLOCK_RECORD
  5
211
100
AcDbSymbolTableRecord
100
AcDbBlockTableRecord
  2
*D1
  0
BLOCK_RECORD
  5
212
100
AcDbSymbolTableRecord
100
AcDbBlockTableRecord
  2
*D2
  0
BLOCK_RECORD
  5
213
100
AcDbSymbolTableRecord
100
AcDbBlockTableRecord
  2
*D3
  0
ENDTAB
  0
TABLE
  2
DIMSTYLE
  5
A
100
AcDbSymbolTable
 70
1
100
AcDbDimStyleTable
 71
0
  0
DIMSTYLE
105
214
100
AcDbSymbolTableRecord
100
AcDbDimStyleTableRecord
  2
STANDARD
 70
0
  3

  4

 40
1.0
 41
3.5
 42
0.0
 43
0.38
 44
1.5
 45
0.0
 46
0.0
 47
0.05
 48
0.05
140
3.5
141
0.09
142
0.0
143
25.4
144
1.0
145
0.0
146
1.0
147
0.625
 71
1.0
 72
0.0
 73
0
 74
0
 75
0
 76
0
 77
1
 78
8
 79
2
170
0
171
1
172
0
173
0
174
0
175
0
176
0
177
0
178
2
270
2
179
2
271
2
272
2
273
2
274
2
275
0
280
0
281
0
282
0
283
1
284
8
285
0
286
0
287
3
288
0
340
11
278
46
341
20F
342
20F
343
20F
344
20F
  0
DIMSTYLE
105
215
100
AcDbSymbolTableRecord
100
AcDbDimStyleTableRecord
  2
DIMSTYLE_1
 70
0
  3

  4

 40
1.0
 41
3.5
 42
0.0
 43
0.38
 44
1.5
 45
0.0
 46
0.0
 47
0.2
 48
0.2
140
3.5
141
0.09
142
0.0
143
25.4
144
1.0
145
0.0
146
1.0
147
0.875
 71
0.0
 72
0.0
 73
0
 74
0
 75
0
 76
0
 77
1
 78
8
 79
2
170
0
171
1
172
0
173
0
174
0
175
0
176
0
177
0
178
2
270
2
179
2
271
2
272
2
273
2
274
2
275
0
280
0
281
0
282
0
283
1
284
8
285
0
286
0
287
3
288
0
340
11
278
46
341
20F
342
20F
343
20F
344
20F
  0
DIMSTYLE
105
216
100
AcDbSymbolTableRecord
100
AcDbDimStyleTableRecord
  2
DIMSTYLE_2
 70
0
  3

  4

 40
1.0
 41
3.5
 42
0.0
 43
0.38
 44
1.5
 45
0.0
 46
0.0
 47
0.3
 48
0.3
140
3.5
141
0.09
142
0.0
143
25.4
144
1.0
145
0.0
146
1.0
147
0.875
 71
0.0
 72
0.0
 73
0
 74
0
 75
0
 76
0
 77
1
 78
8
 79
2
170
0
171
1
172
0
173
0
174
0
175
0
176
0
177
0
178
2
270
2
179
2
271
2
272
2
273
2
274
2
275
0
280
0
281
0
282
0
283
1
284
8
285
0
286
0
287
3
288
0
340
11
278
46
341
20F
342
20F
343
20F
344
20F
  0
ENDTAB
  0
ENDSEC
  0
SECTION
  2
BLOCKS
  0
BLOCK
  5
20
100
AcDbEntity
  8
0
100
AcDbBlockBegin
  2
*Model_Space
 70
0
 10
0.0
 20
0.0
 30
0.0
  3
*Model_Space
  1

  0
ENDBLK
  5
21
100
AcDbEntity
  8
0
100
AcDbBlockEnd
  0
BLOCK
  5
1C
100
AcDbEntity
  8
0
100
AcDbBlockBegin
  2
*Paper_Space
 70
0
 10
0.0
 20
0.0
 30
0.0
  3
*Paper_Space
  1

  0
ENDBLK
  5
1D
100
AcDbEntity
  8
0
100
AcDbBlockEnd
  0
BLOCK
  5
217
100
AcDbEntity
  8
0
100
AcDbBlockBegin
  2
_FILLED
 70
64
 10
0.0
 20
0.0
  3
_FILLED
  1

  0
SOLID
  5
218
100
AcDbEntity
  8
0
  6
BYBLOCK
 62
0
100
AcDbTrace
 10
0.0
 20
0.0
 11
-1.0
 21
0.125
 12
-1.0
 22
-0.125
 13
-1.0
 23
-0.125
  0
ENDBLK
  5
219
100
AcDbEntity
  8
0
  6
BYBLOCK
 62
0
100
AcDbBlockEnd
  0
BLOCK
  5
21A
100
AcDbEntity
  8
_03_2D_ZEICHNUNG_BEMASSUNGEN
100
AcDbBlockBegin
 62
7
  6
CONTINUOUS
  2
*D0
 70
65
 10
0.0
 20
0.0
  3
*D0
  1

  0
TEXT
  5
21B
100
AcDbEntity
  8
_03_2D_ZEICHNUNG_BEMASSUNGEN
100
AcDbText
 62
2
  6
CONTINUOUS
 10
-9.875
 20
-10.375
  7
STANDARD
 40
3.5
  1
16
 50
90.0
 41
0.6785714286
 72
1
 11
-9.875
 21
-8.0
100
AcDbText
  0
LINE
  5
21C
100
AcDbEntity
  8
_03_2D_ZEICHNUNG_BEMASSUNGEN
100
AcDbLine
 62
7
  6
CONTINUOUS
 10
-0.0
 20
-0.0
 11
-10.5
 21
0.0
  0
LINE
  5
21D
100
AcDbEntity
  8
_03_2D_ZEICHNUNG_BEMASSUNGEN
100
AcDbLine
 62
7
  6
CONTINUOUS
 10
-0.0
 20
-16.0
 11
-10.5
 21
-16.0
  0
LINE
  5
21E
100
AcDbEntity
  8
_03_2D_ZEICHNUNG_BEMASSUNGEN
100
AcDbLine
 62
7
  6
CONTINUOUS
 10
-9.0
 20
0.0
 11
-9.0
 21
6.0
  0
LINE
  5
21F
100
AcDbEntity
  8
_03_2D_ZEICHNUNG_BEMASSUNGEN
100
AcDbLine
 62
7
  6
CONTINUOUS
 10
-9.0
 20
6.0
 11
-9.0
 21
-8.0
  0
LINE
  5
220
100
AcDbEntity
  8
_03_2D_ZEICHNUNG_BEMASSUNGEN
100
AcDbLine
 62
7
  6
CONTINUOUS
 10
-9.0
 20
-16.0
 11
-9.0
 21
-22.0
  0
LINE
  5
221
100
AcDbEntity
  8
_03_2D_ZEICHNUNG_BEMASSUNGEN
100
AcDbLine
 62
7
  6
CONTINUOUS
 10
-9.0
 20
-22.0
 11
-9.0
 21
-8.0
  0
INSERT
  5
222
100
AcDbEntity
  8
_03_2D_ZEICHNUNG_BEMASSUNGEN
100
AcDbBlockReference
 62
7
  6
CONTINUOUS
  2
_FILLED
 10
-9.0
 20
0.0
 41
3.5
 42
3.5
 43
3.5
 50
270.0
  0
INSERT
  5
223
100
AcDbEntity
  8
_03_2D_ZEICHNUNG_BEMASSUNGEN
100
AcDbBlockReference
 62
7
  6
CONTINUOUS
  2
_FILLED
 10
-9.0
 20
-16.0
 41
3.5
 42
3.5
 43
3.5
 50
90.0
  0
ENDBLK
  5
224
100
AcDbEntity
  8
0
  6
BYBLOCK
 62
0
100
AcDbBlockEnd
  0
BLOCK
  5
225
100
AcDbEntity
  8
_03_2D_ZEICHNUNG_BEMASSUNGEN
100
AcDbBlockBegin
 62
7
  6
CONTINUOUS
  2
*D1
 70
65
 10
0.0
 20
0.0
  3
*D1
  1

  0
TEXT
  5
226
100
AcDbEntity
  8
_03_2D_ZEICHNUNG_BEMASSUNGEN
100
AcDbText
 62
2
  6
CONTINUOUS
 10
46.25
 20
18.9744363264
  7
STANDARD
 40
3.5
  1
100
 41
0.7142857143
 72
1
 11
50.0
 21
18.9744363264
100
AcDbText
  0
LINE
  5
227
100
AcDbEntity
  8
_03_2D_ZEICHNUNG_BEMASSUNGEN
100
AcDbLine
 62
7
  6
CONTINUOUS
 10
100.0
 20
0.0
 11
100.0
 21
19.5994363264
  0
LINE
  5
228
100
AcDbEntity
  8
_03_2D_ZEICHNUNG_BEMASSUNGEN
100
AcDbLine
 62
7
  6
CONTINUOUS
 10
0.0
 20
0.0
 11
0.0
 21
19.5994363264
  0
LINE
  5
229
100
AcDbEntity
  8
_03_2D_ZEICHNUNG_BEMASSUNGEN
100
AcDbLine
 62
7
  6
CONTINUOUS
 10
100.0
 20
18.0994363264
 11
50.0
 21
18.0994363264
  0
LINE
  5
22A
100
AcDbEntity
  8
_03_2D_ZEICHNUNG_BEMASSUNGEN
100
AcDbLine
 62
7
  6
CONTINUOUS
 10
0.0
 20
18.0994363264
 11
50.0
 21
18.0994363264
  0
INSERT
  5
22B
100
AcDbEntity
  8
_03_2D_ZEICHNUNG_BEMASSUNGEN
100
AcDbBlockReference
 62
7
  6
CONTINUOUS
  2
_FILLED
 10
100.0
 20
18.0994363264
 41
3.5
 42
3.5
 43
3.5
  0
INSERT
  5
22C
100
AcDbEntity
  8
_03_2D_ZEICHNUNG_BEMASSUNGEN
100
AcDbBlockReference
 62
7
  6
CONTINUOUS
  2
_FILLED
 10
0.0
 20
18.0994363264
 41
3.5
 42
3.5
 43
3.5
 50
180.0
  0
ENDBLK
  5
22D
100
AcDbEntity
  8
0
  6
BYBLOCK
 62
0
100
AcDbBlockEnd
  0
BLOCK
  5
22E
100
AcDbEntity
  8
_03_2D_ZEICHNUNG_BEMASSUNGEN
100
AcDbBlockBegin
 62
7
  6
CONTINUOUS
  2
*D2
 70
65
 10
0.0
 20
0.0
  3
*D2
  1

  0
TEXT
  5
22F
100
AcDbEntity
  8
_03_2D_ZEICHNUNG_BEMASSUNGEN
100
AcDbText
 62
2
  6
CONTINUOUS
 10
108.2285954112
 20
-12.75
  7
STANDARD
 40
3.5
  1
20
 50
90.0
 41
0.7857142857
 72
1
 11
108.2285954112
 21
-10.0
100
AcDbText
  0
LINE
  5
230
100
AcDbEntity
  8
_03_2D_ZEICHNUNG_BEMASSUNGEN
100
AcDbLine
 62
7
  6
CONTINUOUS
 10
100.0
 20
-20.0
 11
110.6035954112
 21
-20.0
  0
LINE
  5
231
100
AcDbEntity
  8
_03_2D_ZEICHNUNG_BEMASSUNGEN
100
AcDbLine
 62
7
  6
CONTINUOUS
 10
0.0
 20
0.0
 11
110.6035954112
 21
0.0
  0
LINE
  5
232
100
AcDbEntity
  8
_03_2D_ZEICHNUNG_BEMASSUNGEN
100
AcDbLine
 62
7
  6
CONTINUOUS
 10
109.1035954112
 20
-20.0
 11
109.1035954112
 21
-10.0
  0
LINE
  5
233
100
AcDbEntity
  8
_03_2D_ZEICHNUNG_BEMASSUNGEN
100
AcDbLine
 62
7
  6
CONTINUOUS
 10
109.1035954112
 20
0.0
 11
109.1035954112
 21
-10.0
  0
INSERT
  5
234
100
AcDbEntity
  8
_03_2D_ZEICHNUNG_BEMASSUNGEN
100
AcDbBlockReference
 62
7
  6
CONTINUOUS
  2
_FILLED
 10
109.1035954112
 20
-20.0
 41
3.5
 42
3.5
 43
3.5
 50
270.0
  0
INSERT
  5
235
100
AcDbEntity
  8
_03_2D_ZEICHNUNG_BEMASSUNGEN
100
AcDbBlockReference
 62
7
  6
CONTINUOUS
  2
_FILLED
 10
109.1035954112
 20
0.0
 41
3.5
 42
3.5
 43
3.5
 50
90.0
  0
ENDBLK
  5
236
100
AcDbEntity
  8
0
  6
BYBLOCK
 62
0
100
AcDbBlockEnd
  0
BLOCK
  5
237
100
AcDbEntity
  8
_03_2D_ZEICHNUNG_BEMASSUNGEN
100
AcDbBlockBegin
 62
7
  6
CONTINUOUS
  2
*D3
 70
65
 10
0.0
 20
0.0
  3
*D3
  1

  0
TEXT
  5
238
100
AcDbEntity
  8
_03_2D_ZEICHNUNG_BEMASSUNGEN
100
AcDbText
 62
2
  6
CONTINUOUS
 10
81.775
 20
9.9744363264
  7
STANDARD
 40
3.5
  1
26.2
 41
0.7321428571
 72
1
 11
86.9
 21
9.9744363264
100
AcDbText
  0
LINE
  5
239
100
AcDbEntity
  8
_03_2D_ZEICHNUNG_BEMASSUNGEN
100
AcDbLine
 62
7
  6
CONTINUOUS
 10
73.8
 20
0.0
 11
73.8
 21
10.5994363264
  0
LINE
  5
23A
100
AcDbEntity
  8
_03_2D_ZEICHNUNG_BEMASSUNGEN
100
AcDbLine
 62
7
  6
CONTINUOUS
 10
100.0
 20
-20.0
 11
100.0
 21
10.5994363264
  0
LINE
  5
23B
100
AcDbEntity
  8
_03_2D_ZEICHNUNG_BEMASSUNGEN
100
AcDbLine
 62
7
  6
CONTINUOUS
 10
73.8
 20
9.0994363264
 11
86.9
 21
9.0994363264
  0
LINE
  5
23C
100
AcDbEntity
  8
_03_2D_ZEICHNUNG_BEMASSUNGEN
100
AcDbLine
 62
7
  6
CONTINUOUS
 10
100.0
 20
9.0994363264
 11
86.9
 21
9.0994363264
  0
INSERT
  5
23D
100
AcDbEntity
  8
_03_2D_ZEICHNUNG_BEMASSUNGEN
100
AcDbBlockReference
 62
7
  6
CONTINUOUS
  2
_FILLED
 10
73.8
 20
9.0994363264
 41
3.5
 42
3.5
 43
3.5
 50
180.0
  0
INSERT
  5
23E
100
AcDbEntity
  8
_03_2D_ZEICHNUNG_BEMASSUNGEN
100
AcDbBlockReference
 62
7
  6
CONTINUOUS
  2
_FILLED
 10
100.0
 20
9.0994363264
 41
3.5
 42
3.5
 43
3.5
 50
360.0
  0
ENDBLK
  5
23F
100
AcDbEntity
  8
0
  6
BYBLOCK
 62
0
100
AcDbBlockEnd
  0
ENDSEC
  0
SECTION
  2
ENTITIES
  0
DIMENSION
  5
240
100
AcDbEntity
  8
_03_2D_ZEICHNUNG_BEMASSUNGEN
100
AcDbDimension
 62
7
  6
CONTINUOUS
  2
*D0
 10
-9.0
 20
-16.0
 11
-9.0
 21
-8.500000124
 70
160
 71
2
 42
16.0
  3
DIMSTYLE_1
100
AcDbAlignedDimension
 13
-0.0
 23
-0.0
 14
-0.0
 24
-16.0
 50
270.0
100
AcDbRotatedDimension
  0
DIMENSION
  5
241
100
AcDbEntity
  8
_03_2D_ZEICHNUNG_BEMASSUNGEN
100
AcDbDimension
 62
7
  6
CONTINUOUS
  2
*D1
 10
0.0
 20
18.0994363264
 11
49.5000002289
 21
18.0994363264
 70
160
 71
2
 42
100.0
  3
DIMSTYLE_2
100
AcDbAlignedDimension
 13
100.0
 23
0.0
 14
0.0
 24
0.0
 50
180.0
100
AcDbRotatedDimension
  0
DIMENSION
  5
242
100
AcDbEntity
  8
_03_2D_ZEICHNUNG_BEMASSUNGEN
100
AcDbDimension
 62
7
  6
CONTINUOUS
  2
*D2
 10
109.1035954112
 20
0.0
 11
109.1035954112
 21
-10.4999973887
 70
160
 71
2
 42
20.0
  3
DIMSTYLE_1
100
AcDbAlignedDimension
 13
100.0
 23
-20.0
 14
0.0
 24
0.0
 50
90.0
100
AcDbRotatedDimension
  0
DIMENSION
  5
243
100
AcDbEntity
  8
_03_2D_ZEICHNUNG_BEMASSUNGEN
100
AcDbDimension
 62
7
  6
CONTINUOUS
  2
*D3
 10
100.0
 20
9.0994363264
 11
86.4000004578
 21
9.0994363264
 70
160
 71
2
 42
26.2
  3
DIMSTYLE_1
100
AcDbAlignedDimension
 13
73.8
 23
0.0
 14
100.0
 24
-20.0
 50
360.0
100
AcDbRotatedDimension
  0
LINE
  5
244
100
AcDbEntity
  8
_30_VOLUMEN
100
AcDbLine
 62
4
  6
CONTINUOUS
 10
-0.0
 20
-15.5
 11
-0.0
 21
-0.5
  0
LINE
  5
245
100
AcDbEntity
  8
_30_VOLUMEN
100
AcDbLine
 62
4
  6
CONTINUOUS
 10
0.5
 20
-16.0
 11
0.5
 21
-0.0
  0
LINE
  5
246
100
AcDbEntity
  8
_30_VOLUMEN
100
AcDbLine
 62
4
  6
CONTINUOUS
 10
0.5
 20
-0.0
 11
-0.0
 21
-0.5
  0
LINE
  5
247
100
AcDbEntity
  8
_30_VOLUMEN
100
AcDbLine
 62
4
  6
CONTINUOUS
 10
0.5
 20
-16.0
 11
-0.0
 21
-15.5
  0
LINE
  5
248
100
AcDbEntity
  8
_30_VOLUMEN
100
AcDbLine
 62
4
  6
CONTINUOUS
 10
0.5
 20
-16.0
 11
73.8
 21
-16.0
  0
LINE
  5
249
100
AcDbEntity
  8
0
100
AcDbLine
 62
4
  6
CONTINUOUS
 10
73.8
 20
-16.0
 11
77.0
 21
-16.0
  0
LINE
  5
24A
100
AcDbEntity
  8
_30_VOLUMEN
100
AcDbLine
 62
4
  6
CONTINUOUS
 10
99.158224134
 20
-19.9017499251
 11
87.9819391783
 21
-19.02736997
  0
LINE
  5
24B
100
AcDbEntity
  8
_21_KURVEN
100
AcDbLine
 62
7
  6
CONTINUOUS
 10
99.158224134
 20
-19.9017499251
 11
87.9819391783
 21
-19.02736997
  0
LINE
  5
24C
100
AcDbEntity
  8
_26_BEZUGSACHSEN
100
AcDbLine
 62
4
  6
CONTINUOUS
 10
87.1774556282
 20
-17.8281929143
 11
77.2573096263
 21
-16.9602925986
  0
LINE
  5
24D
100
AcDbEntity
  8
_30_VOLUMEN
100
AcDbLine
 62
4
  6
CONTINUOUS
 10
87.1438895278
 20
-6.272787274
 11
98.3201744834
 21
-7.1471672291
  0
LINE
  5
24E
100
AcDbEntity
  8
_21_KURVEN
100
AcDbLine
 62
7
  6
CONTINUOUS
 10
87.1438895278
 20
-6.272787274
 11
98.3201744834
 21
-7.1471672291
  0
LINE
  5
24F
100
AcDbEntity
  8
_30_VOLUMEN
100
AcDbLine
 62
4
  6
CONTINUOUS
 10
97.862656224
 20
-6.6896489696
 11
97.7849837166
 21
-6.6835722381
  0
LINE
  5
250
100
AcDbEntity
  8
_26_BEZUGSACHSEN
100
AcDbLine
 62
4
  6
CONTINUOUS
 10
86.2626141042
 20
-6.1347300192
 11
97.8254714329
 21
-7.1463489535
  0
LINE
  5
251
100
AcDbEntity
  8
_30_VOLUMEN
100
AcDbLine
 62
4
  6
CONTINUOUS
 10
0.5
 20
-0.0
 11
73.8
 21
0.0
  0
LINE
  5
252
100
AcDbEntity
  8
0
100
AcDbLine
 62
4
  6
CONTINUOUS
 10
73.8
 20
0.0
 11
97.1049647664
 21
0.0
  0
LINE
  5
253
100
AcDbEntity
  8
_30_VOLUMEN
100
AcDbLine
 62
4
  6
CONTINUOUS
 10
87.4857146583
 20
-18.7991814919
 11
87.0281963988
 21
-18.3416632325
  0
LINE
  5
254
100
AcDbEntity
  8
_30_VOLUMEN
100
AcDbLine
 62
7
  6
CONTINUOUS
 10
87.258129046
 20
-18.3102326849
 11
86.8006107865
 21
-17.8527144255
  0
LINE
  5
255
100
AcDbEntity
  8
0
100
AcDbLine
 62
4
  6
CONTINUOUS
 10
73.8
 20
0.0
 11
73.8
 21
-16.0
  0
LINE
  5
256
100
AcDbEntity
  8
0
100
AcDbLine
 62
4
  6
CONTINUOUS
 10
74.9705772629
 20
0.0
 11
74.5651825398
 21
-16.0
  0
LINE
  5
257
100
AcDbEntity
  8
_30_VOLUMEN
100
AcDbLine
 62
4
  6
CONTINUOUS
 10
77.2573096263
 20
-16.9602925986
 11
77.0
 21
-16.0
  0
LINE
  5
258
100
AcDbEntity
  8
_28_BEZUGSPUNKTE
100
AcDbLine
 62
1
  6
CONTINUOUS
 10
100.15625
 20
-20.15625
 11
99.84375
 21
-19.84375
  0
LINE
  5
259
100
AcDbEntity
  8
_30_VOLUMEN
100
AcDbLine
 62
7
  6
CONTINUOUS
 10
87.1438895278
 20
-6.272787274
 11
87.07708965
 21
-6.2059873962
  0
LINE
  5
25A
100
AcDbEntity
  8
_30_VOLUMEN
100
AcDbLine
 62
4
  6
CONTINUOUS
 10
86.7955421649
 20
-17.7947798158
 11
86.8006107865
 21
-17.8527144255
  0
LINE
  5
25B
100
AcDbEntity
  8
_30_VOLUMEN
100
AcDbLine
 62
4
  6
CONTINUOUS
 10
87.258129046
 20
-18.3102326849
 11
86.2811575856
 21
-7.143397795
  0
LINE
  5
25C
100
AcDbEntity
  8
_21_KURVEN
100
AcDbLine
 62
7
  6
CONTINUOUS
 10
87.258129046
 20
-18.3102326849
 11
86.2811575856
 21
-7.143397795
  0
LINE
  5
25D
100
AcDbEntity
  8
_26_BEZUGSACHSEN
100
AcDbLine
 62
4
  6
CONTINUOUS
 10
87.1774556282
 20
-17.8281929143
 11
86.2626141042
 21
-6.1347300192
  0
LINE
  5
25E
100
AcDbEntity
  8
_30_VOLUMEN
100
AcDbLine
 62
7
  6
CONTINUOUS
 10
98.3201744834
 20
-7.1471672291
 11
97.862656224
 21
-6.6896489696
  0
LINE
  5
25F
100
AcDbEntity
  8
_30_VOLUMEN
100
AcDbLine
 62
4
  6
CONTINUOUS
 10
98.8163990035
 20
-7.3753557072
 11
98.358880744
 21
-6.9178374477
  0
LINE
  5
260
100
AcDbEntity
  8
_30_VOLUMEN
100
AcDbLine
 62
4
  6
CONTINUOUS
 10
97.1049647664
 20
0.0
 11
97.2093822609
 21
-0.1044174945
  0
LINE
  5
261
100
AcDbEntity
  8
_28_BEZUGSPUNKTE
100
AcDbLine
 62
1
  6
CONTINUOUS
 10
100.15625
 20
-19.84375
 11
99.84375
 21
-20.15625
  0
LINE
  5
262
100
AcDbEntity
  8
_26_BEZUGSACHSEN
100
AcDbLine
 62
4
  6
CONTINUOUS
 10
97.8254714329
 20
-7.1463489535
 11
97.2093822609
 21
-0.1044174945
  0
LINE
  5
263
100
AcDbEntity
  8
_30_VOLUMEN
100
AcDbLine
 62
4
  6
CONTINUOUS
 10
99.0439846158
 20
-7.8643045142
 11
100.0209560761
 21
-19.0311394041
  0
LINE
  5
264
100
AcDbEntity
  8
_21_KURVEN
100
AcDbLine
 62
7
  6
CONTINUOUS
 10
99.0439846158
 20
-7.8643045142
 11
100.0209560761
 21
-19.0311394041
  0
ARC
  5
265
100
AcDbEntity
  8
_30_VOLUMEN
100
AcDbCircle
 62
4
  6
CONTINUOUS
 10
92.7115891628
 20
-12.6089270924
 40
2.5523819903
100
AcDbArc
 50
35.9469945549
 51
39.8244965944
  0
ARC
  5
266
100
AcDbEntity
  8
_30_VOLUMEN
100
AcDbCircle
 62
4
  6
CONTINUOUS
 10
92.6690624768
 20
-12.6462325798
 40
2.551710833
100
AcDbArc
 50
234.1465090248
 51
275.5797570465
  0
ARC
  5
267
100
AcDbEntity
  8
_30_VOLUMEN
100
AcDbCircle
 62
4
  6
CONTINUOUS
 10
92.6517483123
 20
-12.6741672876
 40
2.5189291843
100
AcDbArc
 50
230.7705199454
 51
234.0935484853
  0
ARC
  5
268
100
AcDbEntity
  8
_30_VOLUMEN
100
AcDbCircle
 62
4
  6
CONTINUOUS
 10
92.6442543651
 20
-12.6835104108
 40
2.5069524422
100
AcDbArc
 50
230.2935952955
 51
230.7681454055
  0
SPLINE
  5
269
100
AcDbEntity
  8
_30_VOLUMEN
100
AcDbSpline
 62
4
  6
CONTINUOUS
 70
0
 71
3
 72
11
 73
7
 74
0
 42
0.0000001
 43
0.0000001
 44
0.0000000001
 40
0.0
 40
0.0
 40
0.0
 40
0.0
 40
0.2496349922
 40
0.5000147789
 40
0.7503855881
 40
1.0
 40
1.0
 40
1.0
 40
1.0
 10
99.158224134
 20
-19.9017499251
 30
0.0
 10
99.2729169695
 20
-19.910722953
 30
0.0
 10
99.5096858865
 20
-19.8774721953
 30
0.0
 10
99.8086884386
 20
-19.6835325763
 30
0.0
 10
99.9999000985
 20
-19.382787699
 30
0.0
 10
100.0309819341
 20
-19.1457354852
 30
0.0
 10
100.0209560761
 20
-19.0311394041
 30
0.0
  0
SPLINE
  5
26A
100
AcDbEntity
  8
_30_VOLUMEN
100
AcDbSpline
 62
4
  6
CONTINUOUS
 70
0
 71
3
 72
9
 73
5
 74
0
 42
0.0000001
 43
0.0000001
 44
0.0000000001
 40
0.0
 40
0.0
 40
0.0
 40
0.0
 40
0.5000778014
 40
1.0
 40
1.0
 40
1.0
 40
1.0
 10
99.0439846158
 20
-7.8643045142
 30
0.0
 10
99.0360290168
 20
-7.7733716012
 30
0.0
 10
98.9877878462
 20
-7.5930276266
 30
0.0
 10
98.8809742415
 20
-7.4398305175
 30
0.0
 10
98.8164494558
 20
-7.375305686
 30
0.0
  0
SPLINE
  5
26B
100
AcDbEntity
  8
_30_VOLUMEN
100
AcDbSpline
 62
4
  6
CONTINUOUS
 70
0
 71
3
 72
9
 73
5
 74
0
 42
0.0000001
 43
0.0000001
 44
0.0000000001
 40
0.0
 40
0.0
 40
0.0
 40
0.0
 40
0.5001197338
 40
1.0
 40
1.0
 40
1.0
 40
1.0
 10
97.862656224
 20
-6.6896489696
 30
0.0
 10
97.9548611692
 20
-6.6968626508
 30
0.0
 10
98.1380257684
 20
-6.7444745368
 30
0.0
 10
98.2935645627
 20
-6.8524207467
 30
0.0
 10
98.3589311963
 20
-6.9177874266
 30
0.0
  0
SPLINE
  5
26C
100
AcDbEntity
  8
_30_VOLUMEN
100
AcDbSpline
 62
4
  6
CONTINUOUS
 70
0
 71
3
 72
9
 73
5
 74
0
 42
0.0000001
 43
0.0000001
 44
0.0000000001
 40
0.0
 40
0.0
 40
0.0
 40
0.0
 40
0.4998802662
 40
1.0
 40
1.0
 40
1.0
 40
1.0
 10
87.485664206
 20
-18.7992315131
 30
0.0
 10
87.5510308396
 20
-18.864598193
 30
0.0
 10
87.7065696339
 20
-18.9725444028
 30
0.0
 10
87.8897342331
 20
-19.0201562889
 30
0.0
 10
87.9819391783
 20
-19.02736997
 30
0.0
  0
SPLINE
  5
26D
100
AcDbEntity
  8
_30_VOLUMEN
100
AcDbSpline
 62
4
  6
CONTINUOUS
 70
0
 71
3
 72
9
 73
5
 74
0
 42
0.0000001
 43
0.0000001
 44
0.0000000001
 40
0.0
 40
0.0
 40
0.0
 40
0.0
 40
0.4999221986
 40
1.0
 40
1.0
 40
1.0
 40
1.0
 10
87.0281459465
 20
-18.3417132536
 30
0.0
 10
86.9636211608
 20
-18.2771884222
 30
0.0
 10
86.8568075561
 20
-18.1239913131
 30
0.0
 10
86.8085663855
 20
-17.9436473384
 30
0.0
 10
86.8006107865
 20
-17.8527144255
 30
0.0
  0
SPLINE
  5
26E
100
AcDbEntity
  8
_30_VOLUMEN
100
AcDbSpline
 62
4
  6
CONTINUOUS
 70
0
 71
3
 72
9
 73
5
 74
0
 42
0.0000001
 43
0.0000001
 44
0.0000000001
 40
0.0
 40
0.0
 40
0.0
 40
0.0
 40
0.5033241938
 40
1.0
 40
1.0
 40
1.0
 40
1.0
 10
92.7843754255
 20
-10.3741417169
 30
0.0
 10
93.151506675
 20
-10.3386274865
 30
0.0
 10
93.9061789775
 20
-10.4281486268
 30
0.0
 10
94.5480744875
 20
-10.8356152652
 30
0.0
 10
94.8054422051
 20
-11.0929829828
 30
0.0
  0
SPLINE
  5
26F
100
AcDbEntity
  8
_30_VOLUMEN
100
AcDbSpline
 62
4
  6
CONTINUOUS
 70
0
 71
3
 72
15
 73
11
 74
0
 42
0.0000001
 43
0.0000001
 44
0.0000000001
 40
0.0
 40
0.0
 40
0.0
 40
0.0
 40
0.1243289262
 40
0.2488920374
 40
0.3737504144
 40
0.4988891629
 40
0.6242307257
 40
0.7495911685
 40
0.875054414
 40
1.0
 40
1.0
 40
1.0
 40
1.0
 10
94.7778965982
 20
-11.1105855401
 30
0.0
 10
94.9093579188
 20
-11.2918833833
 30
0.0
 10
95.1249217196
 20
-11.6920835459
 30
0.0
 10
95.2793886312
 20
-12.3550804523
 30
0.0
 10
95.2552504859
 20
-13.0372654183
 30
0.0
 10
95.0545682317
 20
-13.6909575431
 30
0.0
 10
94.6915709706
 20
-14.2714798035
 30
0.0
 10
94.1904633187
 20
-14.7391519071
 30
0.0
 10
93.586388569
 20
-15.0604561075
 30
0.0
 10
93.1411778246
 20
-15.1641835271
 30
0.0
 10
92.9171685712
 20
-15.1858529335
 30
0.0
  0
SPLINE
  5
270
100
AcDbEntity
  8
_30_VOLUMEN
100
AcDbSpline
 62
4
  6
CONTINUOUS
 70
0
 71
3
 72
15
 73
11
 74
0
 42
0.0000001
 43
0.0000001
 44
0.0000000001
 40
0.0
 40
0.0
 40
0.0
 40
0.0
 40
0.1218909681
 40
0.2448243991
 40
0.3688250953
 40
0.4942964634
 40
0.6208478577
 40
0.7477612155
 40
0.8744854163
 40
1.0
 40
1.0
 40
1.0
 40
1.0
 10
91.1567712141
 20
-14.7416539737
 30
0.0
 10
90.9903924167
 20
-14.5752751763
 30
0.0
 10
90.7029477683
 20
-14.1906599516
 30
0.0
 10
90.4504497472
 20
-13.5150398214
 30
0.0
 10
90.3980946342
 20
-12.7882358601
 30
0.0
 10
90.5511091063
 20
-12.068819409
 30
0.0
 10
90.9009712861
 20
-11.4154443469
 30
0.0
 10
91.4191463754
 20
-10.8820252798
 30
0.0
 10
92.0627186245
 20
-10.5144301559
 30
0.0
 10
92.5432110668
 20
-10.3974706126
 30
0.0
 10
92.7843754255
 20
-10.3741417169
 30
0.0
  0
SPLINE
  5
271
100
AcDbEntity
  8
_30_VOLUMEN
100
AcDbSpline
 62
4
  6
CONTINUOUS
 70
0
 71
3
 72
15
 73
11
 74
0
 42
0.0000001
 43
0.0000001
 44
0.0000000001
 40
0.0
 40
0.0
 40
0.0
 40
0.0
 40
0.1248951824
 40
0.2493889825
 40
0.3738219425
 40
0.498502705
 40
0.6236222837
 40
0.7491143977
 40
0.8746665727
 40
1.0
 40
1.0
 40
1.0
 40
1.0
 10
93.4145588461
 20
-16.099110415
 30
0.0
 10
93.0231730405
 20
-16.136970896
 30
0.0
 10
92.2177930197
 20
-16.0575995864
 30
0.0
 10
91.1558465546
 20
-15.4841706703
 30
0.0
 10
90.3963049741
 20
-14.5451995724
 30
0.0
 10
90.0581404469
 20
-13.3842293588
 30
0.0
 10
90.1907278232
 20
-12.1793546368
 30
0.0
 10
90.7736833469
 20
-11.1135724792
 30
0.0
 10
91.7153821515
 20
-10.3474855384
 30
0.0
 10
92.4947956759
 20
-10.1134201138
 30
0.0
 10
92.8875548157
 20
-10.0754267841
 30
0.0
  0
SPLINE
  5
272
100
AcDbEntity
  8
_30_VOLUMEN
100
AcDbSpline
 62
7
  6
CONTINUOUS
 70
0
 71
3
 72
9
 73
5
 74
0
 42
0.0000001
 43
0.0000001
 44
0.0000000001
 40
0.0
 40
0.0
 40
0.0
 40
0.0
 40
0.5007365021
 40
1.0
 40
1.0
 40
1.0
 40
1.0
 10
93.2047367093
 20
-15.4734210717
 30
0.0
 10
92.834456821
 20
-15.5092398839
 30
0.0
 10
92.0696398198
 20
-15.4172221557
 30
0.0
 10
91.4189809012
 20
-15.0039958557
 30
0.0
 10
91.1567590041
 20
-14.7416661788
 30
0.0
  0
SPLINE
  5
273
100
AcDbEntity
  8
_30_VOLUMEN
100
AcDbSpline
 62
4
  6
CONTINUOUS
 70
0
 71
3
 72
15
 73
11
 74
0
 42
0.0000001
 43
0.0000001
 44
0.0000000001
 40
0.0
 40
0.0
 40
0.0
 40
0.0
 40
0.1248797068
 40
0.2493907964
 40
0.3738200552
 40
0.4985026973
 40
0.6236242322
 40
0.749112591
 40
0.8746820906
 40
1.0
 40
1.0
 40
1.0
 40
1.0
 10
93.378910525
 20
-16.0124508877
 30
0.0
 10
92.9948293578
 20
-16.0496047587
 30
0.0
 10
92.204413892
 20
-15.9716297464
 30
0.0
 10
91.1620197185
 20
-15.4090741739
 30
0.0
 10
90.416622702
 20
-14.4873857496
 30
0.0
 10
90.0846258894
 20
-13.3479754265
 30
0.0
 10
90.2148615051
 20
-12.1654557235
 30
0.0
 10
90.7869250303
 20
-11.1193212806
 30
0.0
 10
91.7113417076
 20
-10.3676483921
 30
0.0
 10
92.4762591694
 20
-10.1378554951
 30
0.0
 10
92.8616880767
 20
-10.1005712513
 30
0.0
  0
SPLINE
  5
274
100
AcDbEntity
  8
_30_VOLUMEN
100
AcDbSpline
 62
7
  6
CONTINUOUS
 70
0
 71
3
 72
15
 73
11
 74
0
 42
0.0000001
 43
0.0000001
 44
0.0000000001
 40
0.0
 40
0.0
 40
0.0
 40
0.0
 40
0.1249414755
 40
0.250547789
 40
0.3759755021
 40
0.5013082195
 40
0.6264143521
 40
0.7512130035
 40
0.8756960564
 40
1.0
 40
1.0
 40
1.0
 40
1.0
 10
93.2047367093
 20
-15.4734210717
 30
0.0
 10
93.4452127169
 20
-15.4501587633
 30
0.0
 10
93.923184183
 20
-15.3334665533
 30
0.0
 10
94.5630007083
 20
-14.9694506927
 30
0.0
 10
95.0771830761
 20
-14.440537603
 30
0.0
 10
95.4237249715
 20
-13.7908815962
 30
0.0
 10
95.5776349862
 20
-13.0719700292
 30
0.0
 10
95.5240621542
 20
-12.339991944
 30
0.0
 10
95.2679464001
 20
-11.6545619513
 30
0.0
 10
94.9753837262
 20
-11.262969934
 30
0.0
 10
94.8054544151
 20
-11.0929707777
 30
0.0
  0
SPLINE
  5
275
100
AcDbEntity
  8
_30_VOLUMEN
100
AcDbSpline
 62
4
  6
CONTINUOUS
 70
0
 71
3
 72
15
 73
11
 74
0
 42
0.0000001
 43
0.0000001
 44
0.0000000001
 40
0.0
 40
0.0
 40
0.0
 40
0.0
 40
0.1253179094
 40
0.250887409
 40
0.3763757678
 40
0.5014973027
 40
0.6261799448
 40
0.7506092036
 40
0.8751202932
 40
1.0
 40
1.0
 40
1.0
 40
1.0
 10
93.378910525
 20
-16.0124508877
 30
0.0
 10
93.7643394323
 20
-15.9751666439
 30
0.0
 10
94.5292568941
 20
-15.7453737469
 30
0.0
 10
95.4536735713
 20
-14.9937008584
 30
0.0
 10
96.0257370965
 20
-13.9475664155
 30
0.0
 10
96.1559727122
 20
-12.7650467125
 30
0.0
 10
95.8239758997
 20
-11.6256363894
 30
0.0
 10
95.0785788832
 20
-10.7039479651
 30
0.0
 10
94.0361847097
 20
-10.1413923926
 30
0.0
 10
93.2457692438
 20
-10.0634173803
 30
0.0
 10
92.8616880767
 20
-10.1005712513
 30
0.0
  0
SPLINE
  5
276
100
AcDbEntity
  8
_30_VOLUMEN
100
AcDbSpline
 62
4
  6
CONTINUOUS
 70
0
 71
3
 72
15
 73
11
 74
0
 42
0.0000001
 43
0.0000001
 44
0.0000000001
 40
0.0
 40
0.0
 40
0.0
 40
0.0
 40
0.1248951824
 40
0.2493889825
 40
0.3738219425
 40
0.498502705
 40
0.6236222837
 40
0.7491143977
 40
0.8746665727
 40
1.0
 40
1.0
 40
1.0
 40
1.0
 10
92.8875548157
 20
-10.0754267841
 30
0.0
 10
93.2789406213
 20
-10.0375663031
 30
0.0
 10
94.0843206421
 20
-10.1169376127
 30
0.0
 10
95.1462671072
 20
-10.6903665288
 30
0.0
 10
95.9058086877
 20
-11.6293376267
 30
0.0
 10
96.2439732149
 20
-12.7903078403
 30
0.0
 10
96.1113858386
 20
-13.9951825623
 30
0.0
 10
95.5284303148
 20
-15.0609647199
 30
0.0
 10
94.5867315103
 20
-15.8270516607
 30
0.0
 10
93.8073179859
 20
-16.0611170853
 30
0.0
 10
93.4145588461
 20
-16.099110415
 30
0.0
  0
SPLINE
  5
277
100
AcDbEntity
  8
_30_VOLUMEN
100
AcDbSpline
 62
4
  6
CONTINUOUS
 70
0
 71
3
 72
9
 73
5
 74
0
 42
0.0000001
 43
0.0000001
 44
0.0000000001
 40
0.0
 40
0.0
 40
0.0
 40
0.0
 40
0.4998802662
 40
1.0
 40
1.0
 40
1.0
 40
1.0
 10
98.8164494558
 20
-7.375305686
 30
0.0
 10
98.7510828222
 20
-7.3099390061
 30
0.0
 10
98.5955440278
 20
-7.2019927963
 30
0.0
 10
98.4123794287
 20
-7.1543809102
 30
0.0
 10
98.3201744834
 20
-7.1471672291
 30
0.0
  0
SPLINE
  5
278
100
AcDbEntity
  8
_30_VOLUMEN
100
AcDbSpline
 62
4
  6
CONTINUOUS
 70
0
 71
3
 72
11
 73
7
 74
0
 42
0.0000001
 43
0.0000001
 44
0.0000000001
 40
0.0
 40
0.0
 40
0.0
 40
0.0
 40
0.2492274047
 40
0.4995420259
 40
0.7497242318
 40
1.0
 40
1.0
 40
1.0
 40
1.0
 10
87.1438895278
 20
-6.272787274
 30
0.0
 10
87.0546896763
 20
-6.2658086973
 30
0.0
 10
86.8720921398
 20
-6.282639073
 30
0.0
 10
86.6227990333
 20
-6.3965860538
 30
0.0
 10
86.4246307451
 20
-6.5864276923
 30
0.0
 10
86.3411869159
 20
-6.7500879163
 30
0.0
 10
86.3145315084
 20
-6.835891721
 30
0.0
  0
SPLINE
  5
279
100
AcDbEntity
  8
_30_VOLUMEN
100
AcDbSpline
 62
4
  6
CONTINUOUS
 70
0
 71
3
 72
9
 73
5
 74
0
 42
0.0000001
 43
0.0000001
 44
0.0000000001
 40
0.0
 40
0.0
 40
0.0
 40
0.0
 40
0.2516325258
 40
1.0
 40
1.0
 40
1.0
 40
1.0
 10
86.3145315084
 20
-6.835891721
 30
0.0
 10
86.3068076118
 20
-6.8607549579
 30
0.0
 10
86.2809458898
 20
-6.960994503
 30
0.0
 10
86.2744090825
 20
-7.0662620514
 30
0.0
 10
86.2811575856
 20
-7.143397795
 30
0.0
  0
SPLINE
  5
27A
100
AcDbEntity
  8
_30_VOLUMEN
100
AcDbSpline
 62
4
  6
CONTINUOUS
 70
0
 71
3
 72
9
 73
5
 74
0
 42
0.0000001
 43
0.0000001
 44
0.0000000001
 40
0.0
 40
0.0
 40
0.0
 40
0.0
 40
0.5000778014
 40
1.0
 40
1.0
 40
1.0
 40
1.0
 10
87.258129046
 20
-18.3102326849
 30
0.0
 10
87.266084645
 20
-18.4011655979
 30
0.0
 10
87.3143258155
 20
-18.5815095725
 30
0.0
 10
87.4211394202
 20
-18.7347066816
 30
0.0
 10
87.485664206
 20
-18.7992315131
 30
0.0
  0
SPLINE
  5
27B
100
AcDbEntity
  8
_21_KURVEN
100
AcDbSpline
 62
7
  6
CONTINUOUS
 70
0
 71
3
 72
27
 73
23
 74
0
 42
0.0000001
 43
0.0000001
 44
0.0000000001
 40
0.0
 40
0.0
 40
0.0
 40
0.0
 40
0.125
 40
0.15625
 40
0.1875
 40
0.25
 40
0.3125
 40
0.34375
 40
0.375
 40
0.4375
 40
0.46875
 40
0.5
 40
0.53125
 40
0.5625
 40
0.625
 40
0.65625
 40
0.6875
 40
0.75
 40
0.8125
 40
0.84375
 40
0.875
 40
1.0
 40
1.0
 40
1.0
 40
1.0
 10
87.1438895278
 20
-6.272787274
 30
0.0
 10
87.0995215622
 20
-6.2742819643
 30
0.0
 10
87.0442655642
 20
-6.2776493328
 30
0.0
 10
86.9773464895
 20
-6.2771931582
 30
0.0
 10
86.9340391109
 20
-6.2864826777
 30
0.0
 10
86.8804863254
 20
-6.3018147023
 30
0.0
 10
86.8263312938
 20
-6.3147488099
 30
0.0
 10
86.783987509
 20
-6.3278749965
 30
0.0
 10
86.745165586
 20
-6.3502619051
 30
0.0
 10
86.7051153332
 20
-6.3696795523
 30
0.0
 10
86.6661086735
 20
-6.3910594423
 30
0.0
 10
86.6349512294
 20
-6.404176893
 30
0.0
 10
86.6108817859
 20
-6.4279830892
 30
0.0
 10
86.5761989439
 20
-6.4558646729
 30
0.0
 10
86.5428816048
 20
-6.4855288328
 30
0.0
 10
86.507410445
 20
-6.5127402726
 30
0.0
 10
86.4787338974
 20
-6.5473858246
 30
0.0
 10
86.4454997804
 20
-6.5933634771
 30
0.0
 10
86.4102857561
 20
-6.6378191904
 30
0.0
 10
86.38477706
 20
-6.6748998452
 30
0.0
 10
86.3595998721
 20
-6.7374671059
 30
0.0
 10
86.3352111071
 20
-6.7877975632
 30
0.0
 10
86.3167905832
 20
-6.8286407855
 30
0.0
  0
SPLINE
  5
27C
100
AcDbEntity
  8
_21_KURVEN
100
AcDbSpline
 62
7
  6
CONTINUOUS
 70
0
 71
3
 72
9
 73
5
 74
0
 42
0.0000001
 43
0.0000001
 44
0.0000000001
 40
0.0
 40
0.0
 40
0.0
 40
0.0
 40
0.5
 40
1.0
 40
1.0
 40
1.0
 40
1.0
 10
86.3167905861
 20
-6.8286407764
 30
0.0
 10
86.3022128236
 20
-6.8795249816
 30
0.0
 10
86.2763432134
 20
-6.9828043597
 30
0.0
 10
86.2782724024
 20
-7.0890046267
 30
0.0
 10
86.2811575854
 20
-7.1433977925
 30
0.0
  0
SPLINE
  5
27D
100
AcDbEntity
  8
_21_KURVEN
100
AcDbSpline
 62
7
  6
CONTINUOUS
 70
0
 71
3
 72
9
 73
5
 74
0
 42
0.0000001
 43
0.0000001
 44
0.0000000001
 40
0.0
 40
0.0
 40
0.0
 40
0.0
 40
0.5
 40
1.0
 40
1.0
 40
1.0
 40
1.0
 10
99.0439846158
 20
-7.8643045142
 30
0.0
 10
99.0380652165
 20
-7.8146888015
 30
0.0
 10
99.0229820155
 20
-7.715381713
 30
0.0
 10
98.9837311149
 20
-7.623136507
 30
0.0
 10
98.9613889156
 20
-7.5752253854
 30
0.0
  0
SPLINE
  5
27E
100
AcDbEntity
  8
_21_KURVEN
100
AcDbSpline
 62
7
  6
CONTINUOUS
 70
0
 71
3
 72
9
 73
5
 74
0
 42
0.0000001
 43
0.0000001
 44
0.0000000001
 40
0.0
 40
0.0
 40
0.0
 40
0.0
 40
0.5
 40
1.0
 40
1.0
 40
1.0
 40
1.0
 10
98.9613889175
 20
-7.575225389
 30
0.0
 10
98.9575884383
 20
-7.5678388067
 30
0.0
 10
98.9473475163
 20
-7.5481904145
 30
0.0
 10
98.9360205893
 20
-7.5291544498
 30
0.0
 10
98.9288985017
 20
-7.5174195319
 30
0.0
  0
SPLINE
  5
27F
100
AcDbEntity
  8
_21_KURVEN
100
AcDbSpline
 62
7
  6
CONTINUOUS
 70
0
 71
3
 72
9
 73
5
 74
0
 42
0.0000001
 43
0.0000001
 44
0.0000000001
 40
0.0
 40
0.0
 40
0.0
 40
0.0
 40
0.5
 40
1.0
 40
1.0
 40
1.0
 40
1.0
 10
98.9288985014
 20
-7.5174195315
 30
0.0
 10
98.913921255
 20
-7.4941461125
 30
0.0
 10
98.8800034649
 20
-7.4434378255
 30
0.0
 10
98.8386887823
 20
-7.3985785409
 30
0.0
 10
98.8163990038
 20
-7.3753557075
 30
0.0
  0
SPLINE
  5
280
100
AcDbEntity
  8
_21_KURVEN
100
AcDbSpline
 62
7
  6
CONTINUOUS
 70
0
 71
3
 72
9
 73
5
 74
0
 42
0.0000001
 43
0.0000001
 44
0.0000000001
 40
0.0
 40
0.0
 40
0.0
 40
0.0
 40
0.5
 40
1.0
 40
1.0
 40
1.0
 40
1.0
 10
98.8163990035
 20
-7.3753557072
 30
0.0
 10
98.7903936656
 20
-7.3505150366
 30
0.0
 10
98.7329720203
 20
-7.2981512218
 30
0.0
 10
98.6663875986
 20
-7.2580021365
 30
0.0
 10
98.6323897432
 20
-7.238648684
 30
0.0
  0
SPLINE
  5
281
100
AcDbEntity
  8
_21_KURVEN
100
AcDbSpline
 62
7
  6
CONTINUOUS
 70
0
 71
3
 72
11
 73
7
 74
0
 42
0.0000001
 43
0.0000001
 44
0.0000000001
 40
0.0
 40
0.0
 40
0.0
 40
0.0
 40
0.25
 40
0.5
 40
0.75
 40
1.0
 40
1.0
 40
1.0
 40
1.0
 10
98.6323897341
 20
-7.2386486791
 30
0.0
 10
98.6088119547
 20
-7.2269897042
 30
0.0
 10
98.5610916365
 20
-7.2038182009
 30
0.0
 10
98.4806989682
 20
-7.1748477142
 30
0.0
 10
98.4045666493
 20
-7.1574519081
 30
0.0
 10
98.3480069838
 20
-7.1503360241
 30
0.0
 10
98.3201744908
 20
-7.1471672297
 30
0.0
  0
SPLINE
  5
282
100
AcDbEntity
  8
_21_KURVEN
100
AcDbSpline
 62
7
  6
CONTINUOUS
 70
0
 71
3
 72
9
 73
5
 74
0
 42
0.0000001
 43
0.0000001
 44
0.0000000001
 40
0.0
 40
0.0
 40
0.0
 40
0.0
 40
0.5
 40
1.0
 40
1.0
 40
1.0
 40
1.0
 10
99.158224134
 20
-19.9017499251
 30
0.0
 10
99.2137284058
 20
-19.9041452436
 30
0.0
 10
99.3326231594
 20
-19.904629612
 30
0.0
 10
99.4417676453
 20
-19.8728248982
 30
0.0
 10
99.4989500738
 20
-19.8539812436
 30
0.0
  0
SPLINE
  5
283
100
AcDbEntity
  8
_21_KURVEN
100
AcDbSpline
 62
7
  6
CONTINUOUS
 70
0
 71
3
 72
21
 73
17
 74
0
 42
0.0000001
 43
0.0000001
 44
0.0000000001
 40
0.0
 40
0.0
 40
0.0
 40
0.0
 40
0.125
 40
0.1875
 40
0.25
 40
0.3125
 40
0.375
 40
0.4375
 40
0.5
 40
0.5625
 40
0.625
 40
0.6875
 40
0.75
 40
0.8125
 40
0.875
 40
1.0
 40
1.0
 40
1.0
 40
1.0
 10
99.4989500651
 20
-19.8539812468
 30
0.0
 10
99.5249521296
 20
-19.842153179
 30
0.0
 10
99.5641295505
 20
-19.8249629089
 30
0.0
 10
99.6156688154
 20
-19.7998352228
 30
0.0
 10
99.651989036
 20
-19.7745381406
 30
0.0
 10
99.6898398799
 20
-19.7522107273
 30
0.0
 10
99.723902459
 20
-19.724455956
 30
0.0
 10
99.7563377223
 20
-19.6949879691
 30
0.0
 10
99.7914456379
 20
-19.6675737133
 30
0.0
 10
99.81749026
 20
-19.6336577485
 30
0.0
 10
99.8462282008
 20
-19.6017717331
 30
0.0
 10
99.8732561603
 20
-19.5682676289
 30
0.0
 10
99.8956604104
 20
-19.530128219
 30
0.0
 10
99.920728848
 20
-19.4939926972
 30
0.0
 10
99.9461093775
 20
-19.4413050061
 30
0.0
 10
99.9635777924
 20
-19.4009964702
 30
0.0
 10
99.9755716205
 20
-19.3743002835
 30
0.0
  0
SPLINE
  5
284
100
AcDbEntity
  8
_21_KURVEN
100
AcDbSpline
 62
7
  6
CONTINUOUS
 70
0
 71
3
 72
9
 73
5
 74
0
 42
0.0000001
 43
0.0000001
 44
0.0000000001
 40
0.0
 40
0.0
 40
0.0
 40
0.0
 40
0.5
 40
1.0
 40
1.0
 40
1.0
 40
1.0
 10
99.9755716163
 20
-19.3743002953
 30
0.0
 10
99.9928219169
 20
-19.3213057955
 30
0.0
 10
100.0253016516
 20
-19.2080098794
 30
0.0
 10
100.0239183954
 20
-19.0904627581
 30
0.0
 10
100.0209560753
 20
-19.0311393951
 30
0.0
  0
SPLINE
  5
285
100
AcDbEntity
  8
_21_KURVEN
100
AcDbSpline
 62
1
  6
CENTER
 70
0
 71
3
 72
163
 73
159
 74
0
 42
0.0000001
 43
0.0000001
 44
0.0000000001
 40
0.0
 40
0.0
 40
0.0
 40
0.0
 40
0.015625
 40
0.03125
 40
0.0390625
 40
0.046875
 40
0.0546875
 40
0.05859375
 40
0.060546875
 40
0.0625
 40
0.064453125
 40
0.06640625
 40
0.0703125
 40
0.078125
 40
0.09375
 40
0.109375
 40
0.1171875
 40
0.12109375
 40
0.123046875
 40
0.125
 40
0.126953125
 40
0.12890625
 40
0.1328125
 40
0.140625
 40
0.15625
 40
0.171875
 40
0.1796875
 40
0.18359375
 40
0.185546875
 40
0.1875
 40
0.189453125
 40
0.19140625
 40
0.1953125
 40
0.203125
 40
0.21875
 40
0.234375
 40
0.2421875
 40
0.24609375
 40
0.248046875
 40
0.25
 40
0.251953125
 40
0.25390625
 40
0.2578125
 40
0.265625
 40
0.28125
 40
0.296875
 40
0.3046875
 40
0.30859375
 40
0.310546875
 40
0.3125
 40
0.314453125
 40
0.31640625
 40
0.3203125
 40
0.328125
 40
0.34375
 40
0.359375
 40
0.3671875
 40
0.37109375
 40
0.373046875
 40
0.375
 40
0.376953125
 40
0.37890625
 40
0.3828125
 40
0.390625
 40
0.40625
 40
0.421875
 40
0.4296875
 40
0.43359375
 40
0.435546875
 40
0.4375
 40
0.439453125
 40
0.44140625
 40
0.4453125
 40
0.453125
 40
0.46875
 40
0.484375
 40
0.4921875
 40
0.49609375
 40
0.498046875
 40
0.5
 40
0.501953125
 40
0.50390625
 40
0.5078125
 40
0.515625
 40
0.53125
 40
0.546875
 40
0.5546875
 40
0.55859375
 40
0.560546875
 40
0.5625
 40
0.564453125
 40
0.56640625
 40
0.5703125
 40
0.578125
 40
0.59375
 40
0.609375
 40
0.6171875
 40
0.62109375
 40
0.623046875
 40
0.625
 40
0.626953125
 40
0.62890625
 40
0.6328125
 40
0.640625
 40
0.65625
 40
0.671875
 40
0.6796875
 40
0.68359375
 40
0.685546875
 40
0.6875
 40
0.689453125
 40
0.69140625
 40
0.6953125
 40
0.703125
 40
0.71875
 40
0.734375
 40
0.7421875
 40
0.74609375
 40
0.748046875
 40
0.75
 40
0.751953125
 40
0.75390625
 40
0.7578125
 40
0.765625
 40
0.78125
 40
0.796875
 40
0.8046875
 40
0.80859375
 40
0.810546875
 40
0.8125
 40
0.814453125
 40
0.81640625
 40
0.8203125
 40
0.828125
 40
0.84375
 40
0.859375
 40
0.8671875
 40
0.87109375
 40
0.873046875
 40
0.875
 40
0.876953125
 40
0.87890625
 40
0.8828125
 40
0.890625
 40
0.90625
 40
0.921875
 40
0.9296875
 40
0.93359375
 40
0.935546875
 40
0.9375
 40
0.939453125
 40
0.94140625
 40
0.9453125
 40
0.953125
 40
0.9609375
 40
0.96875
 40
0.984375
 40
1.0
 40
1.0
 40
1.0
 40
1.0
 10
93.7014640008
 20
-19.3784513391
 30
0.0
 10
93.8025082868
 20
-19.3586078274
 30
0.0
 10
94.0045956479
 20
-19.3189166459
 30
0.0
 10
94.2572109046
 20
-19.2693234601
 30
0.0
 10
94.4592903936
 20
-19.2296052499
 30
0.0
 10
94.6108845261
 20
-19.1999351022
 30
0.0
 10
94.7371032159
 20
-19.1748331384
 30
0.0
 10
94.8256716815
 20
-19.1580012811
 30
0.0
 10
94.8759459318
 20
-19.147228385
 30
0.0
 10
94.914598986
 20
-19.1424014982
 30
0.0
 10
94.9496307253
 20
-19.1251408165
 30
0.0
 10
94.9976027888
 20
-19.1064633003
 30
0.0
 10
95.0809661868
 20
-19.0717603042
 30
0.0
 10
95.2481143806
 20
-19.0037946153
 30
0.0
 10
95.4866438944
 20
-18.9058829903
 30
0.0
 10
95.7253852264
 20
-18.8084990649
 30
0.0
 10
95.8922368748
 20
-18.7397945965
 30
0.0
 10
95.9760080227
 20
-18.7061074222
 30
0.0
 10
96.02332345
 20
-18.6857940371
 30
0.0
 10
96.0603727567
 20
-18.6735596947
 30
0.0
 10
96.0914480186
 20
-18.6498543524
 30
0.0
 10
96.1349653717
 20
-18.6222481491
 30
0.0
 10
96.2101513551
 20
-18.5720761351
 30
0.0
 10
96.361216665
 20
-18.4730611772
 30
0.0
 10
96.5766206499
 20
-18.330854398
 30
0.0
 10
96.792318384
 20
-18.1891434139
 30
0.0
 10
96.9429724451
 20
-18.089434343
 30
0.0
 10
97.0187238956
 20
-18.0402167344
 30
0.0
 10
97.0613306265
 20
-18.0110735665
 30
0.0
 10
97.0952038485
 20
-17.9920906719
 30
0.0
 10
97.1217442812
 20
-17.9621192621
 30
0.0
 10
97.1596891195
 20
-17.9259900002
 30
0.0
 10
97.2249026057
 20
-17.8609811074
 30
0.0
 10
97.3561819764
 20
-17.732234292
 30
0.0
 10
97.5432175528
 20
-17.5476030087
 30
0.0
 10
97.7306550403
 20
-17.3633798749
 30
0.0
 10
97.8613717355
 20
-17.2340616503
 30
0.0
 10
97.9273589005
 20
-17.1698384451
 30
0.0
 10
97.9640578145
 20
-17.1324439201
 30
0.0
 10
97.9944264501
 20
-17.1063601333
 30
0.0
 10
98.0139213039
 20
-17.0727756942
 30
0.0
 10
98.0437070669
 20
-17.0306125554
 30
0.0
 10
98.0940678311
 20
-16.9556101548
 30
0.0
 10
98.1960499316
 20
-16.8064736528
 30
0.0
 10
98.3410155781
 20
-16.5929327007
 30
0.0
 10
98.486472409
 20
-16.3796930706
 30
0.0
 10
98.5877668512
 20
-16.2301347178
 30
0.0
 10
98.6390731456
 20
-16.155712362
 30
0.0
 10
98.6673362367
 20
-16.1126151251
 30
0.0
 10
98.6915096226
 20
-16.0819007781
 30
0.0
 10
98.7043061339
 20
-16.0450371963
 30
0.0
 10
98.725336248
 20
-15.998030506
 30
0.0
 10
98.760292968
 20
-15.9147712221
 30
0.0
 10
98.8315256451
 20
-15.7489636159
 30
0.0
 10
98.9325273219
 20
-15.5117020851
 30
0.0
 10
99.0340533281
 20
-15.2746604295
 30
0.0
 10
99.1045519439
 20
-15.1085449979
 30
0.0
 10
99.1405179982
 20
-15.0257089739
 30
0.0
 10
99.1599226908
 20
-14.9780206704
 30
0.0
 10
99.177713441
 20
-14.9432514
 30
0.0
 10
99.1831289373
 20
-14.904671017
 30
0.0
 10
99.1946659166
 20
-14.8545597607
 30
0.0
 10
99.2128476851
 20
-14.7662467849
 30
0.0
 10
99.2506458968
 20
-14.5900615752
 30
0.0
 10
99.3038201027
 20
-14.338123644
 30
0.0
 10
99.3575545528
 20
-14.0863253026
 30
0.0
 10
99.3945684227
 20
-13.9099446671
 30
0.0
 10
99.4138286612
 20
-13.8219004017
 30
0.0
 10
99.4236288835
 20
-13.771356417
 30
0.0
 10
99.4343807056
 20
-13.7341056271
 30
0.0
 10
99.4321287202
 20
-13.6943425304
 30
0.0
 10
99.4336616176
 20
-13.6422012955
 30
0.0
 10
99.434234295
 20
-13.550546821
 30
0.0
 10
99.4368867578
 20
-13.3675254401
 30
0.0
 10
99.4398144544
 20
-13.1059289605
 30
0.0
 10
99.4433176128
 20
-12.8443341884
 30
0.0
 10
99.4451644289
 20
-12.6613104169
 30
0.0
 10
99.4468448705
 20
-12.5696592294
 30
0.0
 10
99.446593836
 20
-12.5175127012
 30
0.0
 10
99.4498231253
 20
-12.4777658688
 30
0.0
 10
99.4399877973
 20
-12.4404539916
 30
0.0
 10
99.431430777
 20
-12.3898555362
 30
0.0
 10
99.4143362733
 20
-12.3017033969
 30
0.0
 10
99.3816609438
 20
-12.1251159757
 30
0.0
 10
99.3341201941
 20
-11.8730171247
 30
0.0
 10
99.2871430791
 20
-11.6207820188
 30
0.0
 10
99.253678661
 20
-11.4443853545
 30
0.0
 10
99.2376691542
 20
-11.3559709244
 30
0.0
 10
99.2273648661
 20
-11.3057948595
 30
0.0
 10
99.2228981591
 20
-11.2671851534
 30
0.0
 10
99.205963415
 20
-11.2323128436
 30
0.0
 10
99.1877324257
 20
-11.1845128654
 30
0.0
 10
99.1538052943
 20
-11.1014694503
 30
0.0
 10
99.0873953192
 20
-10.9349477757
 30
0.0
 10
98.991703746
 20
-10.6973209248
 30
0.0
 10
98.8965418692
 20
-10.4594773263
 30
0.0
 10
98.8293903193
 20
-10.2932590985
 30
0.0
 10
98.7964828532
 20
-10.2097984441
 30
0.0
 10
98.7766098053
 20
-10.1626703836
 30
0.0
 10
98.7647204189
 20
-10.1257335524
 30
0.0
 10
98.7413038253
 20
-10.0948779937
 30
0.0
 10
98.7141022247
 20
-10.0516161788
 30
0.0
 10
98.6646291449
 20
-9.9768947847
 30
0.0
 10
98.5670185787
 20
-9.8267462296
 30
0.0
 10
98.4268142769
 20
-9.6126589695
 30
0.0
 10
98.2871085309
 20
-9.3982733242
 30
0.0
 10
98.1887999865
 20
-9.2485425083
 30
0.0
 10
98.1402866267
 20
-9.1732467227
 30
0.0
 10
98.1115395031
 20
-9.1309099019
 30
0.0
 10
98.0928716538
 20
-9.0972122242
 30
0.0
 10
98.0631464326
 20
-9.0709501234
 30
0.0
 10
98.0273694387
 20
-9.0333405438
 30
0.0
 10
97.9629658407
 20
-8.9687304356
 30
0.0
 10
97.8354376188
 20
-8.838645932
 30
0.0
 10
97.6525424306
 20
-8.6533239259
 30
0.0
 10
97.4700591573
 20
-8.4675961852
 30
0.0
 10
97.3419542544
 20
-8.3380797099
 30
0.0
 10
97.2783435928
 20
-8.2726885627
 30
0.0
 10
97.2412896624
 20
-8.2363367602
 30
0.0
 10
97.2154879315
 20
-8.2062100378
 30
0.0
 10
97.1820838234
 20
-8.187027514
 30
0.0
 10
97.1401966062
 20
-8.1576336309
 30
0.0
 10
97.065660563
 20
-8.1079700807
 30
0.0
 10
96.9174685685
 20
-8.0073742566
 30
0.0
 10
96.7052701489
 20
-7.8643935946
 30
0.0
 10
96.4933776448
 20
-7.7209189169
 30
0.0
 10
96.3447573687
 20
-7.6210147148
 30
0.0
 10
96.2708102127
 20
-7.5704001844
 30
0.0
 10
96.2279746576
 20
-7.5425377498
 30
0.0
 10
96.1974843941
 20
-7.5186497268
 30
0.0
 10
96.1607385381
 20
-7.5061964151
 30
0.0
 10
96.1139259116
 20
-7.4856037279
 30
0.0
 10
96.0309889822
 20
-7.4514218879
 30
0.0
 10
95.8658384177
 20
-7.3817322835
 30
0.0
 10
95.6295084204
 20
-7.2829386991
 30
0.0
 10
95.3934031972
 20
-7.1836187119
 30
0.0
 10
95.2279379488
 20
-7.1146660714
 30
0.0
 10
95.1454337097
 20
-7.0794709061
 30
0.0
 10
95.0979242833
 20
-7.0605100673
 30
0.0
 10
95.0633194015
 20
-7.0430427699
 30
0.0
 10
95.024787841
 20
-7.0379868035
 30
0.0
 10
94.9747819893
 20
-7.0269166143
 30
0.0
 10
94.8866347203
 20
-7.0095575811
 30
0.0
 10
94.7107943221
 20
-6.9734006678
 30
0.0
 10
94.4593412908
 20
-6.9225734926
 30
0.0
 10
94.2080330809
 20
-6.8711847456
 30
0.0
 10
94.0319899327
 20
-6.8358140328
 30
0.0
 10
93.9441214449
 20
-6.8173739739
 30
0.0
 10
93.893666647
 20
-6.8080446575
 30
0.0
 10
93.8565145098
 20
-6.797639719
 30
0.0
 10
93.8167286445
 20
-6.8002626551
 30
0.0
 10
93.764599498
 20
-6.7992156345
 30
0.0
 10
93.6729454642
 20
-6.799500608
 30
0.0
 10
93.5422349085
 20
-6.7988007827
 30
0.0
 10
93.3852864546
 20
-6.7984348075
 30
0.0
 10
93.1760553198
 20
-6.7977812775
 30
0.0
 10
92.9145048409
 20
-6.7970215497
 30
0.0
 10
92.7052679809
 20
-6.7963963397
 30
0.0
 10
92.6006491105
 20
-6.7960859132
 30
0.0
  0
SPLINE
  5
286
100
AcDbEntity
  8
_21_KURVEN
100
AcDbSpline
 62
1
  6
CENTER
 70
0
 71
3
 72
163
 73
159
 74
0
 42
0.0000001
 43
0.0000001
 44
0.0000000001
 40
0.0
 40
0.0
 40
0.0
 40
0.0
 40
0.015625
 40
0.03125
 40
0.0390625
 40
0.046875
 40
0.0546875
 40
0.05859375
 40
0.060546875
 40
0.0625
 40
0.064453125
 40
0.06640625
 40
0.0703125
 40
0.078125
 40
0.09375
 40
0.109375
 40
0.1171875
 40
0.12109375
 40
0.123046875
 40
0.125
 40
0.126953125
 40
0.12890625
 40
0.1328125
 40
0.140625
 40
0.15625
 40
0.171875
 40
0.1796875
 40
0.18359375
 40
0.185546875
 40
0.1875
 40
0.189453125
 40
0.19140625
 40
0.1953125
 40
0.203125
 40
0.21875
 40
0.234375
 40
0.2421875
 40
0.24609375
 40
0.248046875
 40
0.25
 40
0.251953125
 40
0.25390625
 40
0.2578125
 40
0.265625
 40
0.28125
 40
0.296875
 40
0.3046875
 40
0.30859375
 40
0.310546875
 40
0.3125
 40
0.314453125
 40
0.31640625
 40
0.3203125
 40
0.328125
 40
0.34375
 40
0.359375
 40
0.3671875
 40
0.37109375
 40
0.373046875
 40
0.375
 40
0.376953125
 40
0.37890625
 40
0.3828125
 40
0.390625
 40
0.40625
 40
0.421875
 40
0.4296875
 40
0.43359375
 40
0.435546875
 40
0.4375
 40
0.439453125
 40
0.44140625
 40
0.4453125
 40
0.453125
 40
0.46875
 40
0.484375
 40
0.4921875
 40
0.49609375
 40
0.498046875
 40
0.5
 40
0.501953125
 40
0.50390625
 40
0.5078125
 40
0.515625
 40
0.53125
 40
0.546875
 40
0.5546875
 40
0.55859375
 40
0.560546875
 40
0.5625
 40
0.564453125
 40
0.56640625
 40
0.5703125
 40
0.578125
 40
0.59375
 40
0.609375
 40
0.6171875
 40
0.62109375
 40
0.623046875
 40
0.625
 40
0.626953125
 40
0.62890625
 40
0.6328125
 40
0.640625
 40
0.65625
 40
0.671875
 40
0.6796875
 40
0.68359375
 40
0.685546875
 40
0.6875
 40
0.689453125
 40
0.69140625
 40
0.6953125
 40
0.703125
 40
0.71875
 40
0.734375
 40
0.7421875
 40
0.74609375
 40
0.748046875
 40
0.75
 40
0.751953125
 40
0.75390625
 40
0.7578125
 40
0.765625
 40
0.78125
 40
0.796875
 40
0.8046875
 40
0.80859375
 40
0.810546875
 40
0.8125
 40
0.814453125
 40
0.81640625
 40
0.8203125
 40
0.828125
 40
0.84375
 40
0.859375
 40
0.8671875
 40
0.87109375
 40
0.873046875
 40
0.875
 40
0.876953125
 40
0.87890625
 40
0.8828125
 40
0.890625
 40
0.90625
 40
0.921875
 40
0.9296875
 40
0.93359375
 40
0.935546875
 40
0.9375
 40
0.939453125
 40
0.94140625
 40
0.9453125
 40
0.953125
 40
0.9609375
 40
0.96875
 40
0.984375
 40
1.0
 40
1.0
 40
1.0
 40
1.0
 10
92.600649661
 20
-6.79608586
 30
0.0
 10
92.4996053749
 20
-6.8159293717
 30
0.0
 10
92.2975180139
 20
-6.8556205532
 30
0.0
 10
92.0449027572
 20
-6.905213739
 30
0.0
 10
91.8428232682
 20
-6.9449319492
 30
0.0
 10
91.6912291357
 20
-6.9746020969
 30
0.0
 10
91.5650104459
 20
-6.9997040607
 30
0.0
 10
91.4764419803
 20
-7.016535918
 30
0.0
 10
91.4261677299
 20
-7.0273088141
 30
0.0
 10
91.3875146758
 20
-7.0321357009
 30
0.0
 10
91.3524829364
 20
-7.0493963826
 30
0.0
 10
91.304510873
 20
-7.0680738987
 30
0.0
 10
91.221147475
 20
-7.1027768949
 30
0.0
 10
91.0539992812
 20
-7.1707425838
 30
0.0
 10
90.8154697673
 20
-7.2686542088
 30
0.0
 10
90.5767284354
 20
-7.3660381342
 30
0.0
 10
90.409876787
 20
-7.4347426026
 30
0.0
 10
90.3261056391
 20
-7.4684297769
 30
0.0
 10
90.2787902117
 20
-7.488743162
 30
0.0
 10
90.241740905
 20
-7.5009775044
 30
0.0
 10
90.2106656432
 20
-7.5246828467
 30
0.0
 10
90.1671482901
 20
-7.55228905
 30
0.0
 10
90.0919623067
 20
-7.602461064
 30
0.0
 10
89.9408969968
 20
-7.7014760219
 30
0.0
 10
89.7254930118
 20
-7.8436828011
 30
0.0
 10
89.5097952778
 20
-7.9853937852
 30
0.0
 10
89.3591412166
 20
-8.0851028561
 30
0.0
 10
89.2833897662
 20
-8.1343204647
 30
0.0
 10
89.2407830353
 20
-8.1634636326
 30
0.0
 10
89.2069098133
 20
-8.1824465272
 30
0.0
 10
89.1803693805
 20
-8.212417937
 30
0.0
 10
89.1424245423
 20
-8.2485471989
 30
0.0
 10
89.0772110561
 20
-8.3135560917
 30
0.0
 10
88.9459316854
 20
-8.4423029071
 30
0.0
 10
88.758896109
 20
-8.6269341903
 30
0.0
 10
88.5714586215
 20
-8.8111573242
 30
0.0
 10
88.4407419262
 20
-8.9404755488
 30
0.0
 10
88.3747547613
 20
-9.004698754
 30
0.0
 10
88.3380558473
 20
-9.042093279
 30
0.0
 10
88.3076872117
 20
-9.0681770658
 30
0.0
 10
88.2881923579
 20
-9.1017615049
 30
0.0
 10
88.2584065949
 20
-9.1439246437
 30
0.0
 10
88.2080458306
 20
-9.2189270443
 30
0.0
 10
88.1060637302
 20
-9.3680635463
 30
0.0
 10
87.9610980837
 20
-9.5816044984
 30
0.0
 10
87.8156412527
 20
-9.7948441285
 30
0.0
 10
87.7143468106
 20
-9.9444024813
 30
0.0
 10
87.6630405162
 20
-10.0188248371
 30
0.0
 10
87.6347774251
 20
-10.061922074
 30
0.0
 10
87.6106040392
 20
-10.092636421
 30
0.0
 10
87.5978075279
 20
-10.1295000028
 30
0.0
 10
87.5767774137
 20
-10.1765066931
 30
0.0
 10
87.5418206937
 20
-10.259765977
 30
0.0
 10
87.4705880167
 20
-10.4255735832
 30
0.0
 10
87.3695863399
 20
-10.662835114
 30
0.0
 10
87.2680603336
 20
-10.8998767696
 30
0.0
 10
87.1975617179
 20
-11.0659922012
 30
0.0
 10
87.1615956635
 20
-11.1488282252
 30
0.0
 10
87.142190971
 20
-11.1965165287
 30
0.0
 10
87.1244002208
 20
-11.2312857991
 30
0.0
 10
87.1189847245
 20
-11.2698661821
 30
0.0
 10
87.1074477452
 20
-11.3199774384
 30
0.0
 10
87.0892659767
 20
-11.4082904142
 30
0.0
 10
87.051467765
 20
-11.5844756239
 30
0.0
 10
86.9982935591
 20
-11.8364135551
 30
0.0
 10
86.944559109
 20
-12.0882118965
 30
0.0
 10
86.9075452391
 20
-12.264592532
 30
0.0
 10
86.8882850005
 20
-12.3526367974
 30
0.0
 10
86.8784847783
 20
-12.4031807821
 30
0.0
 10
86.8677329561
 20
-12.440431572
 30
0.0
 10
86.8699849416
 20
-12.4801946687
 30
0.0
 10
86.8684520441
 20
-12.5323359035
 30
0.0
 10
86.8678793667
 20
-12.6239903781
 30
0.0
 10
86.865226904
 20
-12.807011759
 30
0.0
 10
86.8622992074
 20
-13.0686082386
 30
0.0
 10
86.8587960489
 20
-13.3302030107
 30
0.0
 10
86.8569492329
 20
-13.5132267822
 30
0.0
 10
86.8552687913
 20
-13.6048779697
 30
0.0
 10
86.8555198258
 20
-13.6570244979
 30
0.0
 10
86.8522905364
 20
-13.6967713303
 30
0.0
 10
86.8621258645
 20
-13.7340832075
 30
0.0
 10
86.8706828848
 20
-13.7846816629
 30
0.0
 10
86.8877773885
 20
-13.8728338022
 30
0.0
 10
86.9204527179
 20
-14.0494212234
 30
0.0
 10
86.9679934677
 20
-14.3015200744
 30
0.0
 10
87.0149705827
 20
-14.5537551803
 30
0.0
 10
87.0484350008
 20
-14.7301518446
 30
0.0
 10
87.0644445076
 20
-14.8185662747
 30
0.0
 10
87.0747487957
 20
-14.8687423396
 30
0.0
 10
87.0792155027
 20
-14.9073520457
 30
0.0
 10
87.0961502468
 20
-14.9422243555
 30
0.0
 10
87.114381236
 20
-14.9900243337
 30
0.0
 10
87.1483083675
 20
-15.0730677488
 30
0.0
 10
87.2147183426
 20
-15.2395894234
 30
0.0
 10
87.3104099157
 20
-15.4772162743
 30
0.0
 10
87.4055717926
 20
-15.7150598728
 30
0.0
 10
87.4727233425
 20
-15.8812781006
 30
0.0
 10
87.5056308085
 20
-15.964738755
 30
0.0
 10
87.5255038565
 20
-16.0118668155
 30
0.0
 10
87.5373932429
 20
-16.0488036467
 30
0.0
 10
87.5608098365
 20
-16.0796592054
 30
0.0
 10
87.5880114371
 20
-16.1229210203
 30
0.0
 10
87.6374845168
 20
-16.1976424144
 30
0.0
 10
87.7350950831
 20
-16.3477909695
 30
0.0
 10
87.8752993849
 20
-16.5618782296
 30
0.0
 10
88.0150051309
 20
-16.7762638749
 30
0.0
 10
88.1133136752
 20
-16.9259946908
 30
0.0
 10
88.1618270351
 20
-17.0012904764
 30
0.0
 10
88.1905741587
 20
-17.0436272972
 30
0.0
 10
88.209242008
 20
-17.0773249749
 30
0.0
 10
88.2389672292
 20
-17.1035870757
 30
0.0
 10
88.2747442231
 20
-17.1411966553
 30
0.0
 10
88.3391478211
 20
-17.2058067634
 30
0.0
 10
88.466676043
 20
-17.3358912671
 30
0.0
 10
88.6495712312
 20
-17.5212132732
 30
0.0
 10
88.8320545044
 20
-17.7069410139
 30
0.0
 10
88.9601594074
 20
-17.8364574892
 30
0.0
 10
89.023770069
 20
-17.9018486364
 30
0.0
 10
89.0608239994
 20
-17.9382004389
 30
0.0
 10
89.0866257303
 20
-17.9683271613
 30
0.0
 10
89.1200298384
 20
-17.9875096851
 30
0.0
 10
89.1619170555
 20
-18.0169035682
 30
0.0
 10
89.2364530988
 20
-18.0665671184
 30
0.0
 10
89.3846450933
 20
-18.1671629425
 30
0.0
 10
89.5968435129
 20
-18.3101436045
 30
0.0
 10
89.808736017
 20
-18.4536182822
 30
0.0
 10
89.9573562931
 20
-18.5535224843
 30
0.0
 10
90.0313034491
 20
-18.6041370147
 30
0.0
 10
90.0741390042
 20
-18.6319994493
 30
0.0
 10
90.1046292676
 20
-18.6558874723
 30
0.0
 10
90.1413751237
 20
-18.668340784
 30
0.0
 10
90.1881877501
 20
-18.6889334712
 30
0.0
 10
90.2711246796
 20
-18.7231153112
 30
0.0
 10
90.4362752441
 20
-18.7928049156
 30
0.0
 10
90.6726052414
 20
-18.8915985
 30
0.0
 10
90.9087104645
 20
-18.9909184872
 30
0.0
 10
91.0741757129
 20
-19.0598711277
 30
0.0
 10
91.156679952
 20
-19.095066293
 30
0.0
 10
91.2041893785
 20
-19.1140271318
 30
0.0
 10
91.2387942603
 20
-19.1314944292
 30
0.0
 10
91.2773258208
 20
-19.1365503956
 30
0.0
 10
91.3273316725
 20
-19.1476205848
 30
0.0
 10
91.4154789414
 20
-19.164979618
 30
0.0
 10
91.5913193397
 20
-19.2011365313
 30
0.0
 10
91.842772371
 20
-19.2519637065
 30
0.0
 10
92.0940805809
 20
-19.3033524535
 30
0.0
 10
92.2701237291
 20
-19.3387231662
 30
0.0
 10
92.3579922169
 20
-19.3571632252
 30
0.0
 10
92.4084470148
 20
-19.3664925416
 30
0.0
 10
92.445599152
 20
-19.3768974801
 30
0.0
 10
92.4853850173
 20
-19.374274544
 30
0.0
 10
92.5375141638
 20
-19.3753215646
 30
0.0
 10
92.6291681975
 20
-19.3750365911
 30
0.0
 10
92.7598787533
 20
-19.3757364164
 30
0.0
 10
92.9168272072
 20
-19.3761023916
 30
0.0
 10
93.1260583419
 20
-19.3767559216
 30
0.0
 10
93.3876088209
 20
-19.3775156494
 30
0.0
 10
93.5968456809
 20
-19.3781408594
 30
0.0
 10
93.7014645512
 20
-19.3784512859
 30
0.0
  0
SPLINE
  5
287
100
AcDbEntity
  8
_21_KURVEN
100
AcDbSpline
 62
7
  6
CONTINUOUS
 70
0
 71
3
 72
9
 73
5
 74
0
 42
0.0000001
 43
0.0000001
 44
0.0000000001
 40
0.0
 40
0.0
 40
0.0
 40
0.0
 40
0.5
 40
1.0
 40
1.0
 40
1.0
 40
1.0
 10
87.258129046
 20
-18.3102326849
 30
0.0
 10
87.2640484453
 20
-18.3598483976
 30
0.0
 10
87.2791316463
 20
-18.4591554861
 30
0.0
 10
87.3183825469
 20
-18.5514006921
 30
0.0
 10
87.3407247461
 20
-18.5993118137
 30
0.0
  0
SPLINE
  5
288
100
AcDbEntity
  8
_21_KURVEN
100
AcDbSpline
 62
7
  6
CONTINUOUS
 70
0
 71
3
 72
9
 73
5
 74
0
 42
0.0000001
 43
0.0000001
 44
0.0000000001
 40
0.0
 40
0.0
 40
0.0
 40
0.0
 40
0.5
 40
1.0
 40
1.0
 40
1.0
 40
1.0
 10
87.3407247443
 20
-18.5993118101
 30
0.0
 10
87.376205235
 20
-18.6619102268
 30
0.0
 10
87.4527344259
 20
-18.7841272687
 30
0.0
 10
87.5723315944
 20
-18.8740021754
 30
0.0
 10
87.6327258299
 20
-18.9147178066
 30
0.0
  0
SPLINE
  5
289
100
AcDbEntity
  8
_21_KURVEN
100
AcDbSpline
 62
7
  6
CONTINUOUS
 70
0
 71
3
 72
9
 73
5
 74
0
 42
0.0000001
 43
0.0000001
 44
0.0000000001
 40
0.0
 40
0.0
 40
0.0
 40
0.0
 40
0.25
 40
1.0
 40
1.0
 40
1.0
 40
1.0
 10
87.6327258151
 20
-18.9147177976
 30
0.0
 10
87.635095285
 20
-18.9161488237
 30
0.0
 10
87.6472372775
 20
-18.9234409528
 30
0.0
 10
87.6573241648
 20
-18.9291366274
 30
0.0
 10
87.6697239285
 20
-18.9358885204
 30
0.0
  0
SPLINE
  5
28A
100
AcDbEntity
  8
_21_KURVEN
100
AcDbSpline
 62
7
  6
CONTINUOUS
 70
0
 71
3
 72
11
 73
7
 74
0
 42
0.0000001
 43
0.0000001
 44
0.0000000001
 40
0.0
 40
0.0
 40
0.0
 40
0.0
 40
0.25
 40
0.5
 40
0.75
 40
1.0
 40
1.0
 40
1.0
 40
1.0
 10
87.6697239276
 20
-18.93588852
 30
0.0
 10
87.6933017071
 20
-18.9475474949
 30
0.0
 10
87.7410220253
 20
-18.9707189982
 30
0.0
 10
87.8214146935
 20
-18.9996894849
 30
0.0
 10
87.8975470125
 20
-19.017085291
 30
0.0
 10
87.9541066779
 20
-19.024201175
 30
0.0
 10
87.981939171
 20
-19.0273699694
 30
0.0
  0
ENDSEC
  0
SECTION
  2
OBJECTS
  0
DICTIONARY
  5
C
100
AcDbDictionary
280
0
281
1
  3
ACAD_GROUP
350
D
  3
ACAD_MLINESTYLE
350
17
  3
ACAD_LAYOUT
350
1A
  3
ACAD_PLOTSETTINGS
350
19
  3
ACAD_PLOTSTYLENAME
350
E
  0
DICTIONARY
  5
D
102
{ACAD_REACTORS
330
C
102
}
100
AcDbDictionary
280
0
281
1
  0
ACDBDICTIONARYWDFLT
  5
E
102
{ACAD_REACTORS
330
C
102
}
100
AcDbDictionary
281
1
  3
Normal
350
F
100
AcDbDictionaryWithDefault
340
F
  0
DICTIONARY
  5
17
102
{ACAD_REACTORS
330
C
102
}
100
AcDbDictionary
280
0
281
1
  3
Standard
350
18
  0
DICTIONARY
  5
19
102
{ACAD_REACTORS
330
C
102
}
100
AcDbDictionary
281
1
  0
DICTIONARY
  5
1A
102
{ACAD_REACTORS
330
C
102
}
100
AcDbDictionary
281
1
  3
Model
350
28B
  3
Layout1
350
28C
  0
ACDBPLACEHOLDER
  5
F
102
{ACAD_REACTORS
330
E
102
}
  0
MLINESTYLE
  5
18
102
{ACAD_REACTORS
330
17
102
}
100
AcDbMlineStyle
  2
STANDARD
 70
0
  3

 62
256
 51
90.0
 52
90.0
 71
2
 49
0.5
 62
256
  6
BYLAYER
 49
-0.5
 62
256
  6
BYLAYER
  0
LAYOUT
  5
28B
102
{ACAD_REACTORS
330
1A
102
}
100
AcDbPlotSettings
  1

  2
none_device
  4
ISO_A3_(420.00_x_297.00_MM)
  6

 40
0.0
 41
0.0
 42
0.0
 43
0.0
 44
420.0
 45
297.0
 46
0.0
 47
0.0
 48
0.0
 49
0.0
140
0.0
141
0.0
142
1.0
143
1.0
 70
1024
 72
1
 73
0
 74
0
  7

 75
0
147
1.0
148
0.0
149
0.0
100
AcDbLayout
  1
Model
 70
0
 71
0
 10
0.0
 20
0.0
 11
420.0
 21
297.0
 12
0.0
 22
0.0
 32
0.0
 14
0.0
 24
0.0
 34
0.0
 15
0.0
 25
0.0
 35
0.0
146
0.0
 13
0.0
 23
0.0
 33
0.0
 16
1.0
 26
0.0
 36
0.0
 17
0.0
 27
1.0
 37
0.0
 76
0
330
20D
345
0
346
0
  0
LAYOUT
  5
28C
102
{ACAD_REACTORS
330
1A
102
}
100
AcDbPlotSettings
  1

  2
none_device
  4
ISO_A3_(420.00_x_297.00_MM)
  6

 40
0.0
 41
0.0
 42
0.0
 43
0.0
 44
420.0
 45
297.0
 46
0.0
 47
0.0
 48
0.0
 49
0.0
140
0.0
141
0.0
142
1.0
143
1.0
 70
0
 72
1
 73
0
 74
0
  7

 75
0
147
1.0
148
0.0
149
0.0
100
AcDbLayout
  1
Layout1
 70
0
 71
1
 10
0.0
 20
0.0
 11
420.0
 21
297.0
 12
0.0
 22
0.0
 32
0.0
 14
0.0
 24
0.0
 34
0.0
 15
0.0
 25
0.0
 35
0.0
146
0.0
 13
0.0
 23
0.0
 33
0.0
 16
1.0
 26
0.0
 36
0.0
 17
0.0
 27
1.0
 37
0.0
 76
0
330
20E
345
0
346
0
  0
ENDSEC
  0
EOF
