999
DXF file: 70509032.dxf
999
Pro/ENGINEER 2017380 by Parametric Technology Corporation
  0
SECTION
  2
HEADER
  9
$ACADVER
  1
AC1027
  9
$DWGCODEPAGE
  3
ANSI_1252
  9
$EXTMAX
 10
420.0
 20
297.0
 30
0.0
  9
$EXTMIN
 10
0.0
 20
0.0
 30
0.0
  9
$LIMMIN
 10
0.0
 20
0.0
  9
$LIMMAX
 10
420.0
 20
297.0
  9
$VIEWCTR
 10
210.0
 20
148.5
  9
$VIEWSIZE
 40
297.0
  9
$CLAYER
  8
0
  9
$LTSCALE
 40
23.1
  9
$CELTYPE
  6
BYLAYER
  9
$DIMSCALE
 40
1.0
  9
$DIMASZ
 40
3.5
  9
$DIMEXO
 40
0.0
  9
$DIMDLI
 40
15.96
  9
$DIMEXE
 40
1.5
  9
$DIMCEN
 40
3.78
  9
$DIMLFAC
 40
1.0
  9
$DIMBLK
  1
_FILLED
  9
$DIMALT
 70
0
  9
$DIMALTF
 40
25.4
  9
$DIMTXT
 40
3.5
  9
$DIMTOL
 70
1
  9
$DIMLIM
 70
0
  9
$DIMTFAC
 40
1.0
  9
$DIMTP
 40
0.05
  9
$DIMTM
 40
0.05
  9
$DIMGAP
 40
0.625
  9
$DIMDSEP
 70
46
  9
$AUNITS
 70
0
  9
$PDMODE
 70
3
  9
$PDSIZE
 40
0.3125
  9
$HANDSEED
  5
290
  9
$TILEMODE
 70
1
  9
$MEASUREMENT
 70
1
  9
$INSUNITS
 70
4
  0
ENDSEC
  0
SECTION
  2
CLASSES
  0
CLASS
  1
ACDBDICTIONARYWDFLT
  2
AcDbDictionaryWithDefault
  3
AutoCAD 2000
 90
0
 91
1
280
0
281
0
  0
CLASS
  1
ACDBPLACEHOLDER
  2
AcDbPlaceHolder
  3
AutoCAD 2000
 90
0
 91
1
280
0
281
0
  0
CLASS
  1
LAYOUT
  2
AcDbLayout
  3
AutoCAD 2000
 90
0
 91
0
280
0
281
0
  0
ENDSEC
  0
SECTION
  2
TABLES
  0
TABLE
  2
VPORT
  5
8
100
AcDbSymbolTable
 70
2
  0
VPORT
  5
1F4
100
AcDbSymbolTableRecord
100
AcDbViewportTableRecord
  2
*ACTIVE
 70
0
 10
0.0
 20
0.0
 11
1.0
 21
1.0
 12
210.0
 22
148.5
 13
0.0
 23
0.0
 14
1.0
 24
1.0
 15
0.0
 25
0.0
 16
0.0
 26
0.0
 36
1.0
 17
0.0
 27
0.0
 37
0.0
 40
297.0
 41
1.4141414141
 42
50.0
 43
0.0
 44
0.0
 50
0.0
 51
0.0
 71
0
 72
100
 73
1
 74
1
 75
0
 76
0
 77
0
 78
0
  0
ENDTAB
  0
TABLE
  2
LTYPE
  5
5
100
AcDbSymbolTable
 70
6
  0
LTYPE
  5
14
100
AcDbSymbolTableRecord
100
AcDbLinetypeTableRecord
  2
BYBLOCK
 70
0
  3

 72
65
 73
0
 40
0.0
  0
LTYPE
  5
15
100
AcDbSymbolTableRecord
100
AcDbLinetypeTableRecord
  2
BYLAYER
 70
0
  3

 72
65
 73
0
 40
0.0
  0
LTYPE
  5
16
100
AcDbSymbolTableRecord
100
AcDbLinetypeTableRecord
  2
CONTINUOUS
 70
64
  3
Solid line
 72
65
 73
0
 40
0.0
  0
LTYPE
  5
1F5
100
AcDbSymbolTableRecord
100
AcDbLinetypeTableRecord
  2
CENTER
 70
64
  3
____ _ ____ _ ____ _ ____ _ ____ _ ____ _ ____
 72
65
 73
4
 40
0.6
 49
0.375
 74
0
 49
-0.075
 74
0
 49
0.075
 74
0
 49
-0.075
 74
0
  0
LTYPE
  5
1F6
100
AcDbSymbolTableRecord
100
AcDbLinetypeTableRecord
  2
HIDDEN
 70
64
  3
- - - - - - - - - - - - - - - - - - - -
 72
65
 73
2
 40
0.2
 49
0.1
 74
0
 49
-0.1
 74
0
  0
LTYPE
  5
1F7
100
AcDbSymbolTableRecord
100
AcDbLinetypeTableRecord
  2
PHANTOM
 70
64
  3
_____ _ _ _____ _ _ _____ _ _ _____
 72
65
 73
6
 40
0.8
 49
0.45
 74
0
 49
-0.05
 74
0
 49
0.1
 74
0
 49
-0.05
 74
0
 49
0.1
 74
0
 49
-0.05
 74
0
  0
LTYPE
  5
1F8
100
AcDbSymbolTableRecord
100
AcDbLinetypeTableRecord
  2
DOT
 70
64
  3
. . . . . . . . . . . . . . . . . . . .
 72
65
 73
2
 40
0.2
 49
0.1
 74
0
 49
-0.1
 74
0
  0
LTYPE
  5
1F9
100
AcDbSymbolTableRecord
100
AcDbLinetypeTableRecord
  2
DASHED
 70
64
  3
- - - - - - - - - - - - - - - - - - - -
 72
65
 73
2
 40
0.2
 49
0.1
 74
0
 49
-0.1
 74
0
  0
ENDTAB
  0
TABLE
  2
LAYER
  5
2
100
AcDbSymbolTable
 70
36
  0
LAYER
  5
10
100
AcDbSymbolTableRecord
100
AcDbLayerTableRecord
  2
0
 70
0
 62
7
  6
CONTINUOUS
370
-3
390
F
  0
LAYER
  5
1FA
100
AcDbSymbolTableRecord
100
AcDbLayerTableRecord
  2
DEFAULT_1
 70
0
 62
7
  6
CENTER
370
-3
390
F
  0
LAYER
  5
1FB
100
AcDbSymbolTableRecord
100
AcDbLayerTableRecord
  2
DEFAULT_2
 70
0
 62
1
  6
HIDDEN
370
-3
390
F
  0
LAYER
  5
1FC
100
AcDbSymbolTableRecord
100
AcDbLayerTableRecord
  2
DEFAULT_3
 70
0
 62
7
  6
PHANTOM
370
-3
390
F
  0
LAYER
  5
1FD
100
AcDbSymbolTableRecord
100
AcDbLayerTableRecord
  2
BG_STARTBEZUEGE
 70
0
 62
7
  6
CONTINUOUS
370
-3
390
F
  0
LAYER
  5
1FE
100
AcDbSymbolTableRecord
100
AcDbLayerTableRecord
  2
HILFEN
 70
0
 62
7
  6
CONTINUOUS
370
-3
390
F
  0
LAYER
  5
1FF
100
AcDbSymbolTableRecord
100
AcDbLayerTableRecord
  2
PLATZIERUNG
 70
0
 62
7
  6
CONTINUOUS
370
-3
390
F
  0
LAYER
  5
200
100
AcDbSymbolTableRecord
100
AcDbLayerTableRecord
  2
T_STARTBEZUEGE
 70
0
 62
7
  6
CONTINUOUS
370
-3
390
F
  0
LAYER
  5
201
100
AcDbSymbolTableRecord
100
AcDbLayerTableRecord
  2
_03_2D_ZEICHNUNG_BEMASSUNGEN
 70
0
 62
7
  6
CONTINUOUS
370
-3
390
F
  0
LAYER
  5
202
100
AcDbSymbolTableRecord
100
AcDbLayerTableRecord
  2
_04_NOTIZEN
 70
0
 62
7
  6
CONTINUOUS
370
-3
390
F
  0
LAYER
  5
203
100
AcDbSymbolTableRecord
100
AcDbLayerTableRecord
  2
_05_2D_ELEMENTE
 70
0
 62
7
  6
CONTINUOUS
370
-3
390
F
  0
LAYER
  5
204
100
AcDbSymbolTableRecord
100
AcDbLayerTableRecord
  2
_07_EINRASTLINIEN
 70
0
 62
7
  6
CONTINUOUS
370
-3
390
F
  0
LAYER
  5
205
100
AcDbSymbolTableRecord
100
AcDbLayerTableRecord
  2
_21_KURVEN
 70
0
 62
7
  6
CONTINUOUS
370
-3
390
F
  0
LAYER
  5
206
100
AcDbSymbolTableRecord
100
AcDbLayerTableRecord
  2
_26_BEZUGSACHSEN
 70
0
 62
7
  6
CONTINUOUS
370
-3
390
F
  0
LAYER
  5
207
100
AcDbSymbolTableRecord
100
AcDbLayerTableRecord
  2
_27_BEZUGSEBENEN
 70
0
 62
7
  6
CONTINUOUS
370
-3
390
F
  0
LAYER
  5
208
100
AcDbSymbolTableRecord
100
AcDbLayerTableRecord
  2
_28_BEZUGSPUNKTE
 70
0
 62
7
  6
CONTINUOUS
370
-3
390
F
  0
LAYER
  5
209
100
AcDbSymbolTableRecord
100
AcDbLayerTableRecord
  2
_29_KOORDINATENSYSTEME
 70
0
 62
7
  6
CONTINUOUS
370
-3
390
F
  0
LAYER
  5
20A
100
AcDbSymbolTableRecord
100
AcDbLayerTableRecord
  2
_30_VOLUMEN
 70
0
 62
7
  6
CONTINUOUS
370
-3
390
F
  0
ENDTAB
  0
TABLE
  2
STYLE
  5
3
100
AcDbSymbolTable
 70
1
  0
STYLE
  5
11
100
AcDbSymbolTableRecord
100
AcDbTextStyleTableRecord
  2
STANDARD
 70
0
 40
0.0
 41
0.7
 50
0.0
 71
0
 42
0.2
  3
SIMPLEX.SHX
  4

  0
STYLE
  5
20B
100
AcDbSymbolTableRecord
100
AcDbTextStyleTableRecord
  2
TEXTSTYLE_1
 70
0
 40
0.0
 41
0.8
 50
0.0
 71
0
 42
0.2
  3
gdt
  4

  0
ENDTAB
  0
TABLE
  2
VIEW
  5
6
100
AcDbSymbolTable
 70
0
  0
ENDTAB
  0
TABLE
  2
UCS
  5
7
100
AcDbSymbolTable
 70
0
  0
ENDTAB
  0
TABLE
  2
APPID
  5
9
100
AcDbSymbolTable
 70
1
  0
APPID
  5
20C
100
AcDbSymbolTableRecord
100
AcDbRegAppTableRecord
  2
ACAD
 70
0
  0
ENDTAB
  0
TABLE
  2
BLOCK_RECORD
  5
1
100
AcDbSymbolTable
 70
0
  0
BLOCK_RECORD
  5
20D
100
AcDbSymbolTableRecord
100
AcDbBlockTableRecord
  2
*Model_Space
  0
BLOCK_RECORD
  5
20E
100
AcDbSymbolTableRecord
100
AcDbBlockTableRecord
  2
*Paper_Space
  0
BLOCK_RECORD
  5
20F
100
AcDbSymbolTableRecord
100
AcDbBlockTableRecord
  2
_FILLED
  0
BLOCK_RECORD
  5
210
100
AcDbSymbolTableRecord
100
AcDbBlockTableRecord
  2
*D0
  0
BLOCK_RECORD
  5
211
100
AcDbSymbolTableRecord
100
AcDbBlockTableRecord
  2
*D1
  0
BLOCK_RECORD
  5
212
100
AcDbSymbolTableRecord
100
AcDbBlockTableRecord
  2
*D2
  0
BLOCK_RECORD
  5
213
100
AcDbSymbolTableRecord
100
AcDbBlockTableRecord
  2
*D3
  0
ENDTAB
  0
TABLE
  2
DIMSTYLE
  5
A
100
AcDbSymbolTable
 70
1
100
AcDbDimStyleTable
 71
0
  0
DIMSTYLE
105
214
100
AcDbSymbolTableRecord
100
AcDbDimStyleTableRecord
  2
STANDARD
 70
0
  3

  4

 40
1.0
 41
3.5
 42
0.0
 43
0.38
 44
1.5
 45
0.0
 46
0.0
 47
0.05
 48
0.05
140
3.5
141
0.09
142
0.0
143
25.4
144
1.0
145
0.0
146
1.0
147
0.625
 71
1.0
 72
0.0
 73
0
 74
0
 75
0
 76
0
 77
1
 78
8
 79
2
170
0
171
1
172
0
173
0
174
0
175
0
176
0
177
0
178
2
270
2
179
2
271
2
272
2
273
2
274
2
275
0
280
0
281
0
282
0
283
1
284
8
285
0
286
0
287
3
288
0
340
11
278
46
341
20F
342
20F
343
20F
344
20F
  0
DIMSTYLE
105
215
100
AcDbSymbolTableRecord
100
AcDbDimStyleTableRecord
  2
DIMSTYLE_1
 70
0
  3

  4

 40
1.0
 41
3.5
 42
0.0
 43
0.38
 44
1.5
 45
0.0
 46
0.0
 47
0.2
 48
0.2
140
3.5
141
0.09
142
0.0
143
25.4
144
1.0
145
0.0
146
1.0
147
0.875
 71
0.0
 72
0.0
 73
0
 74
0
 75
0
 76
0
 77
1
 78
8
 79
2
170
0
171
1
172
0
173
0
174
0
175
0
176
0
177
0
178
2
270
2
179
2
271
2
272
2
273
2
274
2
275
0
280
0
281
0
282
0
283
1
284
8
285
0
286
0
287
3
288
0
340
11
278
46
341
20F
342
20F
343
20F
344
20F
  0
DIMSTYLE
105
216
100
AcDbSymbolTableRecord
100
AcDbDimStyleTableRecord
  2
DIMSTYLE_2
 70
0
  3

  4

 40
1.0
 41
3.5
 42
0.0
 43
0.38
 44
1.5
 45
0.0
 46
0.0
 47
0.5
 48
0.5
140
3.5
141
0.09
142
0.0
143
25.4
144
1.0
145
0.0
146
1.0
147
0.875
 71
0.0
 72
0.0
 73
0
 74
0
 75
0
 76
0
 77
1
 78
8
 79
2
170
0
171
1
172
0
173
0
174
0
175
0
176
0
177
0
178
2
270
2
179
2
271
2
272
2
273
2
274
2
275
0
280
0
281
0
282
0
283
1
284
8
285
0
286
0
287
3
288
0
340
11
278
46
341
20F
342
20F
343
20F
344
20F
  0
DIMSTYLE
105
217
100
AcDbSymbolTableRecord
100
AcDbDimStyleTableRecord
  2
DIMSTYLE_3
 70
0
  3

  4

 40
1.0
 41
3.5
 42
0.0
 43
0.38
 44
1.5
 45
0.0
 46
0.0
 47
0.3
 48
0.3
140
3.5
141
0.09
142
0.0
143
25.4
144
1.0
145
0.0
146
1.0
147
0.875
 71
0.0
 72
0.0
 73
0
 74
0
 75
0
 76
0
 77
1
 78
8
 79
2
170
0
171
1
172
0
173
0
174
0
175
0
176
0
177
0
178
2
270
2
179
2
271
2
272
2
273
2
274
2
275
0
280
0
281
0
282
0
283
1
284
8
285
0
286
0
287
3
288
0
340
11
278
46
341
20F
342
20F
343
20F
344
20F
  0
ENDTAB
  0
ENDSEC
  0
SECTION
  2
BLOCKS
  0
BLOCK
  5
20
100
AcDbEntity
  8
0
100
AcDbBlockBegin
  2
*Model_Space
 70
0
 10
0.0
 20
0.0
 30
0.0
  3
*Model_Space
  1

  0
ENDBLK
  5
21
100
AcDbEntity
  8
0
100
AcDbBlockEnd
  0
BLOCK
  5
1C
100
AcDbEntity
  8
0
100
AcDbBlockBegin
  2
*Paper_Space
 70
0
 10
0.0
 20
0.0
 30
0.0
  3
*Paper_Space
  1

  0
ENDBLK
  5
1D
100
AcDbEntity
  8
0
100
AcDbBlockEnd
  0
BLOCK
  5
218
100
AcDbEntity
  8
0
100
AcDbBlockBegin
  2
_FILLED
 70
64
 10
0.0
 20
0.0
  3
_FILLED
  1

  0
SOLID
  5
219
100
AcDbEntity
  8
0
  6
BYBLOCK
 62
0
100
AcDbTrace
 10
0.0
 20
0.0
 11
-1.0
 21
0.125
 12
-1.0
 22
-0.125
 13
-1.0
 23
-0.125
  0
ENDBLK
  5
21A
100
AcDbEntity
  8
0
  6
BYBLOCK
 62
0
100
AcDbBlockEnd
  0
BLOCK
  5
21B
100
AcDbEntity
  8
_03_2D_ZEICHNUNG_BEMASSUNGEN
100
AcDbBlockBegin
 62
7
  6
CONTINUOUS
  2
*D0
 70
65
 10
0.0
 20
0.0
  3
*D0
  1

  0
TEXT
  5
21C
100
AcDbEntity
  8
_03_2D_ZEICHNUNG_BEMASSUNGEN
100
AcDbText
 62
2
  6
CONTINUOUS
 10
-9.875
 20
-15.125
  7
STANDARD
 40
3.5
  1
25
 50
90.0
 41
0.75
 72
1
 11
-9.875
 21
-12.5
100
AcDbText
  0
LINE
  5
21D
100
AcDbEntity
  8
_03_2D_ZEICHNUNG_BEMASSUNGEN
100
AcDbLine
 62
7
  6
CONTINUOUS
 10
-0.0
 20
-0.0
 11
-10.5
 21
0.0
  0
LINE
  5
21E
100
AcDbEntity
  8
_03_2D_ZEICHNUNG_BEMASSUNGEN
100
AcDbLine
 62
7
  6
CONTINUOUS
 10
-0.0
 20
-25.0
 11
-10.5
 21
-25.0
  0
LINE
  5
21F
100
AcDbEntity
  8
_03_2D_ZEICHNUNG_BEMASSUNGEN
100
AcDbLine
 62
7
  6
CONTINUOUS
 10
-9.0
 20
0.0
 11
-9.0
 21
6.0
  0
LINE
  5
220
100
AcDbEntity
  8
_03_2D_ZEICHNUNG_BEMASSUNGEN
100
AcDbLine
 62
7
  6
CONTINUOUS
 10
-9.0
 20
6.0
 11
-9.0
 21
-12.5
  0
LINE
  5
221
100
AcDbEntity
  8
_03_2D_ZEICHNUNG_BEMASSUNGEN
100
AcDbLine
 62
7
  6
CONTINUOUS
 10
-9.0
 20
-25.0
 11
-9.0
 21
-31.0
  0
LINE
  5
222
100
AcDbEntity
  8
_03_2D_ZEICHNUNG_BEMASSUNGEN
100
AcDbLine
 62
7
  6
CONTINUOUS
 10
-9.0
 20
-31.0
 11
-9.0
 21
-12.5
  0
INSERT
  5
223
100
AcDbEntity
  8
_03_2D_ZEICHNUNG_BEMASSUNGEN
100
AcDbBlockReference
 62
7
  6
CONTINUOUS
  2
_FILLED
 10
-9.0
 20
0.0
 41
3.5
 42
3.5
 43
3.5
 50
270.0
  0
INSERT
  5
224
100
AcDbEntity
  8
_03_2D_ZEICHNUNG_BEMASSUNGEN
100
AcDbBlockReference
 62
7
  6
CONTINUOUS
  2
_FILLED
 10
-9.0
 20
-25.0
 41
3.5
 42
3.5
 43
3.5
 50
90.0
  0
ENDBLK
  5
225
100
AcDbEntity
  8
0
  6
BYBLOCK
 62
0
100
AcDbBlockEnd
  0
BLOCK
  5
226
100
AcDbEntity
  8
_03_2D_ZEICHNUNG_BEMASSUNGEN
100
AcDbBlockBegin
 62
7
  6
CONTINUOUS
  2
*D1
 70
65
 10
0.0
 20
0.0
  3
*D1
  1

  0
TEXT
  5
227
100
AcDbEntity
  8
_03_2D_ZEICHNUNG_BEMASSUNGEN
100
AcDbText
 62
2
  6
CONTINUOUS
 10
81.25
 20
20.0757050446
  7
STANDARD
 40
3.5
  1
170
 41
0.7142857143
 72
1
 11
85.0
 21
20.0757050446
100
AcDbText
  0
LINE
  5
228
100
AcDbEntity
  8
_03_2D_ZEICHNUNG_BEMASSUNGEN
100
AcDbLine
 62
7
  6
CONTINUOUS
 10
170.0
 20
0.0
 11
170.0
 21
20.7007050446
  0
LINE
  5
229
100
AcDbEntity
  8
_03_2D_ZEICHNUNG_BEMASSUNGEN
100
AcDbLine
 62
7
  6
CONTINUOUS
 10
0.0
 20
0.0
 11
0.0
 21
20.7007050446
  0
LINE
  5
22A
100
AcDbEntity
  8
_03_2D_ZEICHNUNG_BEMASSUNGEN
100
AcDbLine
 62
7
  6
CONTINUOUS
 10
170.0
 20
19.2007050446
 11
85.0
 21
19.2007050446
  0
LINE
  5
22B
100
AcDbEntity
  8
_03_2D_ZEICHNUNG_BEMASSUNGEN
100
AcDbLine
 62
7
  6
CONTINUOUS
 10
0.0
 20
19.2007050446
 11
85.0
 21
19.2007050446
  0
INSERT
  5
22C
100
AcDbEntity
  8
_03_2D_ZEICHNUNG_BEMASSUNGEN
100
AcDbBlockReference
 62
7
  6
CONTINUOUS
  2
_FILLED
 10
170.0
 20
19.2007050446
 41
3.5
 42
3.5
 43
3.5
  0
INSERT
  5
22D
100
AcDbEntity
  8
_03_2D_ZEICHNUNG_BEMASSUNGEN
100
AcDbBlockReference
 62
7
  6
CONTINUOUS
  2
_FILLED
 10
0.0
 20
19.2007050446
 41
3.5
 42
3.5
 43
3.5
 50
180.0
  0
ENDBLK
  5
22E
100
AcDbEntity
  8
0
  6
BYBLOCK
 62
0
100
AcDbBlockEnd
  0
BLOCK
  5
22F
100
AcDbEntity
  8
_03_2D_ZEICHNUNG_BEMASSUNGEN
100
AcDbBlockBegin
 62
7
  6
CONTINUOUS
  2
*D2
 70
65
 10
0.0
 20
0.0
  3
*D2
  1

  0
TEXT
  5
230
100
AcDbEntity
  8
_03_2D_ZEICHNUNG_BEMASSUNGEN
100
AcDbText
 62
2
  6
CONTINUOUS
 10
178.2285954112
 20
-18.625
  7
STANDARD
 40
3.5
  1
32
 50
90.0
 41
0.75
 72
1
 11
178.2285954112
 21
-16.0
100
AcDbText
  0
LINE
  5
231
100
AcDbEntity
  8
_03_2D_ZEICHNUNG_BEMASSUNGEN
100
AcDbLine
 62
7
  6
CONTINUOUS
 10
170.0
 20
-32.0
 11
180.6035954112
 21
-32.0
  0
LINE
  5
232
100
AcDbEntity
  8
_03_2D_ZEICHNUNG_BEMASSUNGEN
100
AcDbLine
 62
7
  6
CONTINUOUS
 10
0.0
 20
0.0
 11
180.6035954112
 21
0.0
  0
LINE
  5
233
100
AcDbEntity
  8
_03_2D_ZEICHNUNG_BEMASSUNGEN
100
AcDbLine
 62
7
  6
CONTINUOUS
 10
179.1035954112
 20
-32.0
 11
179.1035954112
 21
-16.0
  0
LINE
  5
234
100
AcDbEntity
  8
_03_2D_ZEICHNUNG_BEMASSUNGEN
100
AcDbLine
 62
7
  6
CONTINUOUS
 10
179.1035954112
 20
0.0
 11
179.1035954112
 21
-16.0
  0
INSERT
  5
235
100
AcDbEntity
  8
_03_2D_ZEICHNUNG_BEMASSUNGEN
100
AcDbBlockReference
 62
7
  6
CONTINUOUS
  2
_FILLED
 10
179.1035954112
 20
-32.0
 41
3.5
 42
3.5
 43
3.5
 50
270.0
  0
INSERT
  5
236
100
AcDbEntity
  8
_03_2D_ZEICHNUNG_BEMASSUNGEN
100
AcDbBlockReference
 62
7
  6
CONTINUOUS
  2
_FILLED
 10
179.1035954112
 20
0.0
 41
3.5
 42
3.5
 43
3.5
 50
90.0
  0
ENDBLK
  5
237
100
AcDbEntity
  8
0
  6
BYBLOCK
 62
0
100
AcDbBlockEnd
  0
BLOCK
  5
238
100
AcDbEntity
  8
_03_2D_ZEICHNUNG_BEMASSUNGEN
100
AcDbBlockBegin
 62
7
  6
CONTINUOUS
  2
*D3
 70
65
 10
0.0
 20
0.0
  3
*D3
  1

  0
TEXT
  5
239
100
AcDbEntity
  8
_03_2D_ZEICHNUNG_BEMASSUNGEN
100
AcDbText
 62
2
  6
CONTINUOUS
 10
151.2
 20
11.0757050446
  7
STANDARD
 40
3.5
  1
28.1
 41
0.6785714286
 72
1
 11
155.95
 21
11.0757050446
100
AcDbText
  0
LINE
  5
23A
100
AcDbEntity
  8
_03_2D_ZEICHNUNG_BEMASSUNGEN
100
AcDbLine
 62
7
  6
CONTINUOUS
 10
141.9
 20
0.0
 11
141.9
 21
11.7007050446
  0
LINE
  5
23B
100
AcDbEntity
  8
_03_2D_ZEICHNUNG_BEMASSUNGEN
100
AcDbLine
 62
7
  6
CONTINUOUS
 10
170.0
 20
-32.0
 11
170.0
 21
11.7007050446
  0
LINE
  5
23C
100
AcDbEntity
  8
_03_2D_ZEICHNUNG_BEMASSUNGEN
100
AcDbLine
 62
7
  6
CONTINUOUS
 10
141.9
 20
10.2007050446
 11
155.95
 21
10.2007050446
  0
LINE
  5
23D
100
AcDbEntity
  8
_03_2D_ZEICHNUNG_BEMASSUNGEN
100
AcDbLine
 62
7
  6
CONTINUOUS
 10
170.0
 20
10.2007050446
 11
155.95
 21
10.2007050446
  0
INSERT
  5
23E
100
AcDbEntity
  8
_03_2D_ZEICHNUNG_BEMASSUNGEN
100
AcDbBlockReference
 62
7
  6
CONTINUOUS
  2
_FILLED
 10
141.9
 20
10.2007050446
 41
3.5
 42
3.5
 43
3.5
 50
180.0
  0
INSERT
  5
23F
100
AcDbEntity
  8
_03_2D_ZEICHNUNG_BEMASSUNGEN
100
AcDbBlockReference
 62
7
  6
CONTINUOUS
  2
_FILLED
 10
170.0
 20
10.2007050446
 41
3.5
 42
3.5
 43
3.5
 50
360.0
  0
ENDBLK
  5
240
100
AcDbEntity
  8
0
  6
BYBLOCK
 62
0
100
AcDbBlockEnd
  0
ENDSEC
  0
SECTION
  2
ENTITIES
  0
DIMENSION
  5
241
100
AcDbEntity
  8
_03_2D_ZEICHNUNG_BEMASSUNGEN
100
AcDbDimension
 62
7
  6
CONTINUOUS
  2
*D0
 10
-9.0
 20
-25.0
 11
-9.0
 21
-13.0000002766
 70
160
 71
2
 42
25.0
  3
DIMSTYLE_1
100
AcDbAlignedDimension
 13
-0.0
 23
-0.0
 14
-0.0
 24
-25.0
 50
270.0
100
AcDbRotatedDimension
  0
DIMENSION
  5
242
100
AcDbEntity
  8
_03_2D_ZEICHNUNG_BEMASSUNGEN
100
AcDbDimension
 62
7
  6
CONTINUOUS
  2
*D1
 10
0.0
 20
19.2007050446
 11
84.4999996948
 21
19.2007050446
 70
160
 71
2
 42
170.0
  3
DIMSTYLE_2
100
AcDbAlignedDimension
 13
170.0
 23
0.0
 14
0.0
 24
0.0
 50
180.0
100
AcDbRotatedDimension
  0
DIMENSION
  5
243
100
AcDbEntity
  8
_03_2D_ZEICHNUNG_BEMASSUNGEN
100
AcDbDimension
 62
7
  6
CONTINUOUS
  2
*D2
 10
179.1035954112
 20
0.0
 11
179.1035954112
 21
-16.5000031871
 70
160
 71
2
 42
32.0
  3
DIMSTYLE_3
100
AcDbAlignedDimension
 13
170.0
 23
-32.0
 14
0.0
 24
0.0
 50
90.0
100
AcDbRotatedDimension
  0
DIMENSION
  5
244
100
AcDbEntity
  8
_03_2D_ZEICHNUNG_BEMASSUNGEN
100
AcDbDimension
 62
7
  6
CONTINUOUS
  2
*D3
 10
170.0
 20
10.2007050446
 11
155.4500006104
 21
10.2007050446
 70
160
 71
2
 42
28.1
  3
DIMSTYLE_1
100
AcDbAlignedDimension
 13
141.9
 23
0.0
 14
170.0
 24
-32.0
 50
360.0
100
AcDbRotatedDimension
  0
LINE
  5
245
100
AcDbEntity
  8
_30_VOLUMEN
100
AcDbLine
 62
4
  6
CONTINUOUS
 10
-0.0
 20
-24.5
 11
-0.0
 21
-0.5
  0
LINE
  5
246
100
AcDbEntity
  8
_30_VOLUMEN
100
AcDbLine
 62
4
  6
CONTINUOUS
 10
0.5
 20
-25.0
 11
0.5
 21
-0.0
  0
LINE
  5
247
100
AcDbEntity
  8
_30_VOLUMEN
100
AcDbLine
 62
4
  6
CONTINUOUS
 10
0.5
 20
-0.0
 11
-0.0
 21
-0.5
  0
LINE
  5
248
100
AcDbEntity
  8
_30_VOLUMEN
100
AcDbLine
 62
4
  6
CONTINUOUS
 10
0.5
 20
-25.0
 11
-0.0
 21
-24.5
  0
LINE
  5
249
100
AcDbEntity
  8
_30_VOLUMEN
100
AcDbLine
 62
4
  6
CONTINUOUS
 10
0.5
 20
-25.0
 11
141.9
 21
-25.0
  0
LINE
  5
24A
100
AcDbEntity
  8
0
100
AcDbLine
 62
4
  6
CONTINUOUS
 10
141.9
 20
-25.0
 11
145.0
 21
-25.0
  0
LINE
  5
24B
100
AcDbEntity
  8
_30_VOLUMEN
100
AcDbLine
 62
4
  6
CONTINUOUS
 10
169.158224134
 20
-31.9017499251
 11
157.9819391783
 21
-31.02736997
  0
LINE
  5
24C
100
AcDbEntity
  8
_21_KURVEN
100
AcDbLine
 62
7
  6
CONTINUOUS
 10
169.158224134
 20
-31.9017499251
 11
157.9819391783
 21
-31.02736997
  0
LINE
  5
24D
100
AcDbEntity
  8
_26_BEZUGSACHSEN
100
AcDbLine
 62
4
  6
CONTINUOUS
 10
157.1774556282
 20
-29.8281929143
 11
146.0324432531
 21
-28.8531306766
  0
LINE
  5
24E
100
AcDbEntity
  8
_30_VOLUMEN
100
AcDbLine
 62
4
  6
CONTINUOUS
 10
157.1438895278
 20
-18.272787274
 11
168.3201744834
 21
-19.1471672291
  0
LINE
  5
24F
100
AcDbEntity
  8
_21_KURVEN
100
AcDbLine
 62
7
  6
CONTINUOUS
 10
157.1438895278
 20
-18.272787274
 11
168.3201744834
 21
-19.1471672291
  0
LINE
  5
250
100
AcDbEntity
  8
_30_VOLUMEN
100
AcDbLine
 62
4
  6
CONTINUOUS
 10
167.862656224
 20
-18.6896489696
 11
167.7849837166
 21
-18.6835722381
  0
LINE
  5
251
100
AcDbEntity
  8
_26_BEZUGSACHSEN
100
AcDbLine
 62
4
  6
CONTINUOUS
 10
156.2626141042
 20
-18.1347300192
 11
167.8254714329
 21
-19.1463489535
  0
LINE
  5
252
100
AcDbEntity
  8
_30_VOLUMEN
100
AcDbLine
 62
4
  6
CONTINUOUS
 10
0.5
 20
-0.0
 11
141.9
 21
0.0
  0
LINE
  5
253
100
AcDbEntity
  8
0
100
AcDbLine
 62
4
  6
CONTINUOUS
 10
141.9
 20
0.0
 11
153.3711932271
 21
0.0
  0
LINE
  5
254
100
AcDbEntity
  8
0
100
AcDbLine
 62
4
  6
CONTINUOUS
 10
154.4939670305
 20
-1.1227738034
 11
143.1057713659
 21
-12.510969468
  0
LINE
  5
255
100
AcDbEntity
  8
_30_VOLUMEN
100
AcDbLine
 62
4
  6
CONTINUOUS
 10
157.4857146583
 20
-30.7991814919
 11
157.0281963988
 21
-30.3416632325
  0
LINE
  5
256
100
AcDbEntity
  8
_30_VOLUMEN
100
AcDbLine
 62
7
  6
CONTINUOUS
 10
157.258129046
 20
-30.3102326849
 11
156.8006107865
 21
-29.8527144255
  0
LINE
  5
257
100
AcDbEntity
  8
_28_BEZUGSPUNKTE
100
AcDbLine
 62
1
  6
CONTINUOUS
 10
170.15625
 20
-32.15625
 11
169.84375
 21
-31.84375
  0
LINE
  5
258
100
AcDbEntity
  8
_30_VOLUMEN
100
AcDbLine
 62
7
  6
CONTINUOUS
 10
157.1438895278
 20
-18.272787274
 11
157.07708965
 21
-18.2059873962
  0
LINE
  5
259
100
AcDbEntity
  8
0
100
AcDbLine
 62
4
  6
CONTINUOUS
 10
141.9
 20
0.0
 11
141.9
 21
-25.0
  0
LINE
  5
25A
100
AcDbEntity
  8
0
100
AcDbLine
 62
4
  6
CONTINUOUS
 10
143.1057713659
 20
0.0
 11
143.1057713659
 21
-12.510969468
  0
LINE
  5
25B
100
AcDbEntity
  8
0
100
AcDbLine
 62
4
  6
CONTINUOUS
 10
143.1057713659
 20
-12.510969468
 11
142.7893346738
 21
-25.0
  0
LINE
  5
25C
100
AcDbEntity
  8
_30_VOLUMEN
100
AcDbLine
 62
7
  6
CONTINUOUS
 10
168.3201744834
 20
-19.1471672291
 11
167.862656224
 21
-18.6896489696
  0
LINE
  5
25D
100
AcDbEntity
  8
_30_VOLUMEN
100
AcDbLine
 62
4
  6
CONTINUOUS
 10
168.8163990035
 20
-19.3753557072
 11
168.358880744
 21
-18.9178374477
  0
LINE
  5
25E
100
AcDbEntity
  8
_30_VOLUMEN
100
AcDbLine
 62
4
  6
CONTINUOUS
 10
146.0324432531
 20
-28.8531306766
 11
145.0
 21
-25.0
  0
LINE
  5
25F
100
AcDbEntity
  8
0
100
AcDbLine
 62
4
  6
CONTINUOUS
 10
153.3711932271
 20
0.0
 11
154.4939670305
 21
-1.1227738034
  0
LINE
  5
260
100
AcDbEntity
  8
_30_VOLUMEN
100
AcDbLine
 62
4
  6
CONTINUOUS
 10
154.4939670305
 20
-1.1227738034
 11
167.3756107216
 21
-14.0044174945
  0
LINE
  5
261
100
AcDbEntity
  8
_30_VOLUMEN
100
AcDbLine
 62
4
  6
CONTINUOUS
 10
156.7955421649
 20
-29.7947798158
 11
156.8006107865
 21
-29.8527144255
  0
LINE
  5
262
100
AcDbEntity
  8
_30_VOLUMEN
100
AcDbLine
 62
4
  6
CONTINUOUS
 10
157.258129046
 20
-30.3102326849
 11
156.2811575856
 21
-19.143397795
  0
LINE
  5
263
100
AcDbEntity
  8
_21_KURVEN
100
AcDbLine
 62
7
  6
CONTINUOUS
 10
157.258129046
 20
-30.3102326849
 11
156.2811575856
 21
-19.143397795
  0
LINE
  5
264
100
AcDbEntity
  8
_26_BEZUGSACHSEN
100
AcDbLine
 62
4
  6
CONTINUOUS
 10
157.1774556282
 20
-29.8281929143
 11
156.2626141042
 21
-18.1347300192
  0
LINE
  5
265
100
AcDbEntity
  8
_28_BEZUGSPUNKTE
100
AcDbLine
 62
1
  6
CONTINUOUS
 10
170.15625
 20
-31.84375
 11
169.84375
 21
-32.15625
  0
LINE
  5
266
100
AcDbEntity
  8
_26_BEZUGSACHSEN
100
AcDbLine
 62
4
  6
CONTINUOUS
 10
167.8254714329
 20
-19.1463489535
 11
167.3756107216
 21
-14.0044174945
  0
LINE
  5
267
100
AcDbEntity
  8
_30_VOLUMEN
100
AcDbLine
 62
4
  6
CONTINUOUS
 10
169.0439846158
 20
-19.8643045142
 11
170.0209560761
 21
-31.0311394041
  0
LINE
  5
268
100
AcDbEntity
  8
_21_KURVEN
100
AcDbLine
 62
7
  6
CONTINUOUS
 10
169.0439846158
 20
-19.8643045142
 11
170.0209560761
 21
-31.0311394041
  0
ARC
  5
269
100
AcDbEntity
  8
_30_VOLUMEN
100
AcDbCircle
 62
4
  6
CONTINUOUS
 10
162.7115891628
 20
-24.6089270924
 40
2.5523819903
100
AcDbArc
 50
35.9469945549
 51
39.8244965943
  0
ARC
  5
26A
100
AcDbEntity
  8
_30_VOLUMEN
100
AcDbCircle
 62
4
  6
CONTINUOUS
 10
162.6690624768
 20
-24.6462325798
 40
2.551710833
100
AcDbArc
 50
234.1465090248
 51
275.5797570465
  0
ARC
  5
26B
100
AcDbEntity
  8
_30_VOLUMEN
100
AcDbCircle
 62
4
  6
CONTINUOUS
 10
162.6517483123
 20
-24.6741672876
 40
2.5189291843
100
AcDbArc
 50
230.7705199454
 51
234.0935484853
  0
ARC
  5
26C
100
AcDbEntity
  8
_30_VOLUMEN
100
AcDbCircle
 62
4
  6
CONTINUOUS
 10
162.6442543641
 20
-24.6835104121
 40
2.5069524405
100
AcDbArc
 50
230.2935952953
 51
230.7681454056
  0
SPLINE
  5
26D
100
AcDbEntity
  8
_30_VOLUMEN
100
AcDbSpline
 62
4
  6
CONTINUOUS
 70
0
 71
3
 72
11
 73
7
 74
0
 42
0.0000001
 43
0.0000001
 44
0.0000000001
 40
0.0
 40
0.0
 40
0.0
 40
0.0
 40
0.2496349922
 40
0.5000147789
 40
0.7503855881
 40
1.0
 40
1.0
 40
1.0
 40
1.0
 10
169.158224134
 20
-31.9017499251
 30
0.0
 10
169.2729169695
 20
-31.910722953
 30
0.0
 10
169.5096858865
 20
-31.8774721953
 30
0.0
 10
169.8086884386
 20
-31.6835325763
 30
0.0
 10
169.9999000985
 20
-31.382787699
 30
0.0
 10
170.0309819341
 20
-31.1457354852
 30
0.0
 10
170.0209560761
 20
-31.0311394041
 30
0.0
  0
SPLINE
  5
26E
100
AcDbEntity
  8
_30_VOLUMEN
100
AcDbSpline
 62
4
  6
CONTINUOUS
 70
0
 71
3
 72
9
 73
5
 74
0
 42
0.0000001
 43
0.0000001
 44
0.0000000001
 40
0.0
 40
0.0
 40
0.0
 40
0.0
 40
0.5000778014
 40
1.0
 40
1.0
 40
1.0
 40
1.0
 10
169.0439846158
 20
-19.8643045142
 30
0.0
 10
169.0360290168
 20
-19.7733716012
 30
0.0
 10
168.9877878462
 20
-19.5930276266
 30
0.0
 10
168.8809742415
 20
-19.4398305175
 30
0.0
 10
168.8164494558
 20
-19.375305686
 30
0.0
  0
SPLINE
  5
26F
100
AcDbEntity
  8
_30_VOLUMEN
100
AcDbSpline
 62
4
  6
CONTINUOUS
 70
0
 71
3
 72
9
 73
5
 74
0
 42
0.0000001
 43
0.0000001
 44
0.0000000001
 40
0.0
 40
0.0
 40
0.0
 40
0.0
 40
0.5001197338
 40
1.0
 40
1.0
 40
1.0
 40
1.0
 10
167.862656224
 20
-18.6896489696
 30
0.0
 10
167.9548611692
 20
-18.6968626508
 30
0.0
 10
168.1380257684
 20
-18.7444745368
 30
0.0
 10
168.2935645627
 20
-18.8524207467
 30
0.0
 10
168.3589311963
 20
-18.9177874266
 30
0.0
  0
SPLINE
  5
270
100
AcDbEntity
  8
_30_VOLUMEN
100
AcDbSpline
 62
4
  6
CONTINUOUS
 70
0
 71
3
 72
9
 73
5
 74
0
 42
0.0000001
 43
0.0000001
 44
0.0000000001
 40
0.0
 40
0.0
 40
0.0
 40
0.0
 40
0.4998802662
 40
1.0
 40
1.0
 40
1.0
 40
1.0
 10
157.485664206
 20
-30.7992315131
 30
0.0
 10
157.5510308396
 20
-30.864598193
 30
0.0
 10
157.7065696339
 20
-30.9725444028
 30
0.0
 10
157.8897342331
 20
-31.0201562889
 30
0.0
 10
157.9819391783
 20
-31.02736997
 30
0.0
  0
SPLINE
  5
271
100
AcDbEntity
  8
_30_VOLUMEN
100
AcDbSpline
 62
4
  6
CONTINUOUS
 70
0
 71
3
 72
9
 73
5
 74
0
 42
0.0000001
 43
0.0000001
 44
0.0000000001
 40
0.0
 40
0.0
 40
0.0
 40
0.0
 40
0.4999221986
 40
1.0
 40
1.0
 40
1.0
 40
1.0
 10
157.0281459465
 20
-30.3417132536
 30
0.0
 10
156.9636211608
 20
-30.2771884222
 30
0.0
 10
156.8568075561
 20
-30.1239913131
 30
0.0
 10
156.8085663855
 20
-29.9436473384
 30
0.0
 10
156.8006107865
 20
-29.8527144255
 30
0.0
  0
SPLINE
  5
272
100
AcDbEntity
  8
_30_VOLUMEN
100
AcDbSpline
 62
4
  6
CONTINUOUS
 70
0
 71
3
 72
9
 73
5
 74
0
 42
0.0000001
 43
0.0000001
 44
0.0000000001
 40
0.0
 40
0.0
 40
0.0
 40
0.0
 40
0.5033241938
 40
1.0
 40
1.0
 40
1.0
 40
1.0
 10
162.7843754255
 20
-22.3741417169
 30
0.0
 10
163.151506675
 20
-22.3386274865
 30
0.0
 10
163.9061789775
 20
-22.4281486268
 30
0.0
 10
164.5480744875
 20
-22.8356152652
 30
0.0
 10
164.8054422051
 20
-23.0929829828
 30
0.0
  0
SPLINE
  5
273
100
AcDbEntity
  8
_30_VOLUMEN
100
AcDbSpline
 62
4
  6
CONTINUOUS
 70
0
 71
3
 72
15
 73
11
 74
0
 42
0.0000001
 43
0.0000001
 44
0.0000000001
 40
0.0
 40
0.0
 40
0.0
 40
0.0
 40
0.1243289262
 40
0.2488920374
 40
0.3737504144
 40
0.4988891629
 40
0.6242307257
 40
0.7495911685
 40
0.875054414
 40
1.0
 40
1.0
 40
1.0
 40
1.0
 10
164.7778965982
 20
-23.1105855401
 30
0.0
 10
164.9093579188
 20
-23.2918833833
 30
0.0
 10
165.1249217196
 20
-23.6920835459
 30
0.0
 10
165.2793886312
 20
-24.3550804523
 30
0.0
 10
165.2552504859
 20
-25.0372654183
 30
0.0
 10
165.0545682317
 20
-25.6909575431
 30
0.0
 10
164.6915709706
 20
-26.2714798035
 30
0.0
 10
164.1904633187
 20
-26.7391519071
 30
0.0
 10
163.586388569
 20
-27.0604561075
 30
0.0
 10
163.1411778246
 20
-27.1641835271
 30
0.0
 10
162.9171685712
 20
-27.1858529335
 30
0.0
  0
SPLINE
  5
274
100
AcDbEntity
  8
_30_VOLUMEN
100
AcDbSpline
 62
4
  6
CONTINUOUS
 70
0
 71
3
 72
15
 73
11
 74
0
 42
0.0000001
 43
0.0000001
 44
0.0000000001
 40
0.0
 40
0.0
 40
0.0
 40
0.0
 40
0.1218909681
 40
0.2448243991
 40
0.3688250953
 40
0.4942964634
 40
0.6208478577
 40
0.7477612155
 40
0.8744854163
 40
1.0
 40
1.0
 40
1.0
 40
1.0
 10
161.1567712141
 20
-26.7416539737
 30
0.0
 10
160.9903924167
 20
-26.5752751763
 30
0.0
 10
160.7029477683
 20
-26.1906599516
 30
0.0
 10
160.4504497472
 20
-25.5150398214
 30
0.0
 10
160.3980946342
 20
-24.7882358601
 30
0.0
 10
160.5511091063
 20
-24.068819409
 30
0.0
 10
160.9009712861
 20
-23.4154443469
 30
0.0
 10
161.4191463754
 20
-22.8820252798
 30
0.0
 10
162.0627186245
 20
-22.5144301559
 30
0.0
 10
162.5432110668
 20
-22.3974706126
 30
0.0
 10
162.7843754255
 20
-22.3741417169
 30
0.0
  0
SPLINE
  5
275
100
AcDbEntity
  8
_30_VOLUMEN
100
AcDbSpline
 62
4
  6
CONTINUOUS
 70
0
 71
3
 72
15
 73
11
 74
0
 42
0.0000001
 43
0.0000001
 44
0.0000000001
 40
0.0
 40
0.0
 40
0.0
 40
0.0
 40
0.1248951824
 40
0.2493889825
 40
0.3738219425
 40
0.498502705
 40
0.6236222837
 40
0.7491143977
 40
0.8746665727
 40
1.0
 40
1.0
 40
1.0
 40
1.0
 10
163.4145588461
 20
-28.099110415
 30
0.0
 10
163.0231730405
 20
-28.136970896
 30
0.0
 10
162.2177930197
 20
-28.0575995864
 30
0.0
 10
161.1558465546
 20
-27.4841706703
 30
0.0
 10
160.3963049741
 20
-26.5451995724
 30
0.0
 10
160.0581404469
 20
-25.3842293588
 30
0.0
 10
160.1907278232
 20
-24.1793546368
 30
0.0
 10
160.7736833469
 20
-23.1135724792
 30
0.0
 10
161.7153821515
 20
-22.3474855384
 30
0.0
 10
162.4947956759
 20
-22.1134201138
 30
0.0
 10
162.8875548157
 20
-22.0754267841
 30
0.0
  0
SPLINE
  5
276
100
AcDbEntity
  8
_30_VOLUMEN
100
AcDbSpline
 62
7
  6
CONTINUOUS
 70
0
 71
3
 72
9
 73
5
 74
0
 42
0.0000001
 43
0.0000001
 44
0.0000000001
 40
0.0
 40
0.0
 40
0.0
 40
0.0
 40
0.5007365021
 40
1.0
 40
1.0
 40
1.0
 40
1.0
 10
163.2047367093
 20
-27.4734210717
 30
0.0
 10
162.834456821
 20
-27.5092398839
 30
0.0
 10
162.0696398198
 20
-27.4172221557
 30
0.0
 10
161.4189809012
 20
-27.0039958557
 30
0.0
 10
161.1567590041
 20
-26.7416661788
 30
0.0
  0
SPLINE
  5
277
100
AcDbEntity
  8
_30_VOLUMEN
100
AcDbSpline
 62
4
  6
CONTINUOUS
 70
0
 71
3
 72
15
 73
11
 74
0
 42
0.0000001
 43
0.0000001
 44
0.0000000001
 40
0.0
 40
0.0
 40
0.0
 40
0.0
 40
0.1248797068
 40
0.2493907964
 40
0.3738200552
 40
0.4985026973
 40
0.6236242322
 40
0.749112591
 40
0.8746820906
 40
1.0
 40
1.0
 40
1.0
 40
1.0
 10
163.378910525
 20
-28.0124508877
 30
0.0
 10
162.9948293578
 20
-28.0496047587
 30
0.0
 10
162.204413892
 20
-27.9716297464
 30
0.0
 10
161.1620197185
 20
-27.4090741739
 30
0.0
 10
160.416622702
 20
-26.4873857496
 30
0.0
 10
160.0846258894
 20
-25.3479754265
 30
0.0
 10
160.2148615051
 20
-24.1654557235
 30
0.0
 10
160.7869250303
 20
-23.1193212806
 30
0.0
 10
161.7113417076
 20
-22.3676483921
 30
0.0
 10
162.4762591694
 20
-22.1378554951
 30
0.0
 10
162.8616880767
 20
-22.1005712513
 30
0.0
  0
SPLINE
  5
278
100
AcDbEntity
  8
_30_VOLUMEN
100
AcDbSpline
 62
7
  6
CONTINUOUS
 70
0
 71
3
 72
15
 73
11
 74
0
 42
0.0000001
 43
0.0000001
 44
0.0000000001
 40
0.0
 40
0.0
 40
0.0
 40
0.0
 40
0.1249414755
 40
0.250547789
 40
0.3759755021
 40
0.5013082195
 40
0.6264143521
 40
0.7512130035
 40
0.8756960564
 40
1.0
 40
1.0
 40
1.0
 40
1.0
 10
163.2047367093
 20
-27.4734210717
 30
0.0
 10
163.4452127169
 20
-27.4501587633
 30
0.0
 10
163.923184183
 20
-27.3334665533
 30
0.0
 10
164.5630007083
 20
-26.9694506927
 30
0.0
 10
165.0771830761
 20
-26.440537603
 30
0.0
 10
165.4237249715
 20
-25.7908815962
 30
0.0
 10
165.5776349862
 20
-25.0719700292
 30
0.0
 10
165.5240621542
 20
-24.339991944
 30
0.0
 10
165.2679464001
 20
-23.6545619512
 30
0.0
 10
164.9753837262
 20
-23.262969934
 30
0.0
 10
164.8054544151
 20
-23.0929707777
 30
0.0
  0
SPLINE
  5
279
100
AcDbEntity
  8
_30_VOLUMEN
100
AcDbSpline
 62
4
  6
CONTINUOUS
 70
0
 71
3
 72
15
 73
11
 74
0
 42
0.0000001
 43
0.0000001
 44
0.0000000001
 40
0.0
 40
0.0
 40
0.0
 40
0.0
 40
0.1253179094
 40
0.250887409
 40
0.3763757678
 40
0.5014973027
 40
0.6261799448
 40
0.7506092036
 40
0.8751202932
 40
1.0
 40
1.0
 40
1.0
 40
1.0
 10
163.378910525
 20
-28.0124508877
 30
0.0
 10
163.7643394323
 20
-27.9751666439
 30
0.0
 10
164.5292568941
 20
-27.7453737469
 30
0.0
 10
165.4536735713
 20
-26.9937008584
 30
0.0
 10
166.0257370965
 20
-25.9475664155
 30
0.0
 10
166.1559727122
 20
-24.7650467125
 30
0.0
 10
165.8239758997
 20
-23.6256363894
 30
0.0
 10
165.0785788832
 20
-22.7039479651
 30
0.0
 10
164.0361847097
 20
-22.1413923926
 30
0.0
 10
163.2457692438
 20
-22.0634173803
 30
0.0
 10
162.8616880767
 20
-22.1005712513
 30
0.0
  0
SPLINE
  5
27A
100
AcDbEntity
  8
_30_VOLUMEN
100
AcDbSpline
 62
4
  6
CONTINUOUS
 70
0
 71
3
 72
15
 73
11
 74
0
 42
0.0000001
 43
0.0000001
 44
0.0000000001
 40
0.0
 40
0.0
 40
0.0
 40
0.0
 40
0.1248951824
 40
0.2493889825
 40
0.3738219425
 40
0.498502705
 40
0.6236222837
 40
0.7491143977
 40
0.8746665727
 40
1.0
 40
1.0
 40
1.0
 40
1.0
 10
162.8875548157
 20
-22.0754267841
 30
0.0
 10
163.2789406213
 20
-22.0375663031
 30
0.0
 10
164.0843206421
 20
-22.1169376127
 30
0.0
 10
165.1462671072
 20
-22.6903665288
 30
0.0
 10
165.9058086877
 20
-23.6293376267
 30
0.0
 10
166.2439732149
 20
-24.7903078403
 30
0.0
 10
166.1113858386
 20
-25.9951825623
 30
0.0
 10
165.5284303148
 20
-27.0609647199
 30
0.0
 10
164.5867315103
 20
-27.8270516607
 30
0.0
 10
163.8073179859
 20
-28.0611170853
 30
0.0
 10
163.4145588461
 20
-28.099110415
 30
0.0
  0
SPLINE
  5
27B
100
AcDbEntity
  8
_30_VOLUMEN
100
AcDbSpline
 62
4
  6
CONTINUOUS
 70
0
 71
3
 72
9
 73
5
 74
0
 42
0.0000001
 43
0.0000001
 44
0.0000000001
 40
0.0
 40
0.0
 40
0.0
 40
0.0
 40
0.4998802662
 40
1.0
 40
1.0
 40
1.0
 40
1.0
 10
168.8164494558
 20
-19.375305686
 30
0.0
 10
168.7510828222
 20
-19.3099390061
 30
0.0
 10
168.5955440278
 20
-19.2019927963
 30
0.0
 10
168.4123794287
 20
-19.1543809102
 30
0.0
 10
168.3201744834
 20
-19.1471672291
 30
0.0
  0
SPLINE
  5
27C
100
AcDbEntity
  8
_30_VOLUMEN
100
AcDbSpline
 62
4
  6
CONTINUOUS
 70
0
 71
3
 72
11
 73
7
 74
0
 42
0.0000001
 43
0.0000001
 44
0.0000000001
 40
0.0
 40
0.0
 40
0.0
 40
0.0
 40
0.2492274047
 40
0.4995420259
 40
0.7497242318
 40
1.0
 40
1.0
 40
1.0
 40
1.0
 10
157.1438895278
 20
-18.272787274
 30
0.0
 10
157.0546896763
 20
-18.2658086973
 30
0.0
 10
156.8720921398
 20
-18.282639073
 30
0.0
 10
156.6227990333
 20
-18.3965860538
 30
0.0
 10
156.4246307451
 20
-18.5864276923
 30
0.0
 10
156.3411869159
 20
-18.7500879163
 30
0.0
 10
156.3145315084
 20
-18.835891721
 30
0.0
  0
SPLINE
  5
27D
100
AcDbEntity
  8
_30_VOLUMEN
100
AcDbSpline
 62
4
  6
CONTINUOUS
 70
0
 71
3
 72
9
 73
5
 74
0
 42
0.0000001
 43
0.0000001
 44
0.0000000001
 40
0.0
 40
0.0
 40
0.0
 40
0.0
 40
0.2516325258
 40
1.0
 40
1.0
 40
1.0
 40
1.0
 10
156.3145315084
 20
-18.835891721
 30
0.0
 10
156.3068076118
 20
-18.8607549579
 30
0.0
 10
156.2809458898
 20
-18.960994503
 30
0.0
 10
156.2744090825
 20
-19.0662620514
 30
0.0
 10
156.2811575856
 20
-19.143397795
 30
0.0
  0
SPLINE
  5
27E
100
AcDbEntity
  8
_30_VOLUMEN
100
AcDbSpline
 62
4
  6
CONTINUOUS
 70
0
 71
3
 72
9
 73
5
 74
0
 42
0.0000001
 43
0.0000001
 44
0.0000000001
 40
0.0
 40
0.0
 40
0.0
 40
0.0
 40
0.5000778014
 40
1.0
 40
1.0
 40
1.0
 40
1.0
 10
157.258129046
 20
-30.3102326849
 30
0.0
 10
157.266084645
 20
-30.4011655979
 30
0.0
 10
157.3143258155
 20
-30.5815095725
 30
0.0
 10
157.4211394202
 20
-30.7347066816
 30
0.0
 10
157.485664206
 20
-30.7992315131
 30
0.0
  0
SPLINE
  5
27F
100
AcDbEntity
  8
_21_KURVEN
100
AcDbSpline
 62
7
  6
CONTINUOUS
 70
0
 71
3
 72
27
 73
23
 74
0
 42
0.0000001
 43
0.0000001
 44
0.0000000001
 40
0.0
 40
0.0
 40
0.0
 40
0.0
 40
0.125
 40
0.15625
 40
0.1875
 40
0.25
 40
0.3125
 40
0.34375
 40
0.375
 40
0.4375
 40
0.46875
 40
0.5
 40
0.53125
 40
0.5625
 40
0.625
 40
0.65625
 40
0.6875
 40
0.75
 40
0.8125
 40
0.84375
 40
0.875
 40
1.0
 40
1.0
 40
1.0
 40
1.0
 10
157.1438895278
 20
-18.272787274
 30
0.0
 10
157.0995215622
 20
-18.2742819643
 30
0.0
 10
157.0442655642
 20
-18.2776493328
 30
0.0
 10
156.9773464895
 20
-18.2771931582
 30
0.0
 10
156.9340391109
 20
-18.2864826777
 30
0.0
 10
156.8804863254
 20
-18.3018147023
 30
0.0
 10
156.8263312938
 20
-18.3147488099
 30
0.0
 10
156.783987509
 20
-18.3278749965
 30
0.0
 10
156.745165586
 20
-18.3502619051
 30
0.0
 10
156.7051153332
 20
-18.3696795523
 30
0.0
 10
156.6661086735
 20
-18.3910594423
 30
0.0
 10
156.6349512294
 20
-18.404176893
 30
0.0
 10
156.6108817859
 20
-18.4279830892
 30
0.0
 10
156.5761989439
 20
-18.4558646729
 30
0.0
 10
156.5428816048
 20
-18.4855288328
 30
0.0
 10
156.507410445
 20
-18.5127402726
 30
0.0
 10
156.4787338974
 20
-18.5473858246
 30
0.0
 10
156.4454997804
 20
-18.5933634771
 30
0.0
 10
156.4102857561
 20
-18.6378191904
 30
0.0
 10
156.38477706
 20
-18.6748998452
 30
0.0
 10
156.3595998721
 20
-18.7374671059
 30
0.0
 10
156.3352111071
 20
-18.7877975632
 30
0.0
 10
156.3167905832
 20
-18.8286407855
 30
0.0
  0
SPLINE
  5
280
100
AcDbEntity
  8
_21_KURVEN
100
AcDbSpline
 62
7
  6
CONTINUOUS
 70
0
 71
3
 72
9
 73
5
 74
0
 42
0.0000001
 43
0.0000001
 44
0.0000000001
 40
0.0
 40
0.0
 40
0.0
 40
0.0
 40
0.5
 40
1.0
 40
1.0
 40
1.0
 40
1.0
 10
156.3167905861
 20
-18.8286407764
 30
0.0
 10
156.3022128236
 20
-18.8795249816
 30
0.0
 10
156.2763432134
 20
-18.9828043597
 30
0.0
 10
156.2782724024
 20
-19.0890046267
 30
0.0
 10
156.2811575854
 20
-19.1433977925
 30
0.0
  0
SPLINE
  5
281
100
AcDbEntity
  8
_21_KURVEN
100
AcDbSpline
 62
7
  6
CONTINUOUS
 70
0
 71
3
 72
9
 73
5
 74
0
 42
0.0000001
 43
0.0000001
 44
0.0000000001
 40
0.0
 40
0.0
 40
0.0
 40
0.0
 40
0.5
 40
1.0
 40
1.0
 40
1.0
 40
1.0
 10
169.0439846158
 20
-19.8643045142
 30
0.0
 10
169.0380652165
 20
-19.8146888015
 30
0.0
 10
169.0229820155
 20
-19.715381713
 30
0.0
 10
168.9837311149
 20
-19.623136507
 30
0.0
 10
168.9613889156
 20
-19.5752253854
 30
0.0
  0
SPLINE
  5
282
100
AcDbEntity
  8
_21_KURVEN
100
AcDbSpline
 62
7
  6
CONTINUOUS
 70
0
 71
3
 72
9
 73
5
 74
0
 42
0.0000001
 43
0.0000001
 44
0.0000000001
 40
0.0
 40
0.0
 40
0.0
 40
0.0
 40
0.5
 40
1.0
 40
1.0
 40
1.0
 40
1.0
 10
168.9613889175
 20
-19.575225389
 30
0.0
 10
168.9575884383
 20
-19.5678388067
 30
0.0
 10
168.9473475163
 20
-19.5481904145
 30
0.0
 10
168.9360205893
 20
-19.5291544498
 30
0.0
 10
168.9288985017
 20
-19.5174195319
 30
0.0
  0
SPLINE
  5
283
100
AcDbEntity
  8
_21_KURVEN
100
AcDbSpline
 62
7
  6
CONTINUOUS
 70
0
 71
3
 72
9
 73
5
 74
0
 42
0.0000001
 43
0.0000001
 44
0.0000000001
 40
0.0
 40
0.0
 40
0.0
 40
0.0
 40
0.5
 40
1.0
 40
1.0
 40
1.0
 40
1.0
 10
168.9288985014
 20
-19.5174195315
 30
0.0
 10
168.891599918
 20
-19.4624842662
 30
0.0
 10
168.8069825368
 20
-19.3496368384
 30
0.0
 10
168.6936232107
 20
-19.2751858817
 30
0.0
 10
168.632389754
 20
-19.2386486898
 30
0.0
  0
SPLINE
  5
284
100
AcDbEntity
  8
_21_KURVEN
100
AcDbSpline
 62
7
  6
CONTINUOUS
 70
0
 71
3
 72
11
 73
7
 74
0
 42
0.0000001
 43
0.0000001
 44
0.0000000001
 40
0.0
 40
0.0
 40
0.0
 40
0.0
 40
0.25
 40
0.5
 40
0.75
 40
1.0
 40
1.0
 40
1.0
 40
1.0
 10
168.6323897341
 20
-19.2386486791
 30
0.0
 10
168.6088119547
 20
-19.2269897042
 30
0.0
 10
168.5610916365
 20
-19.2038182009
 30
0.0
 10
168.4806989682
 20
-19.1748477142
 30
0.0
 10
168.4045666493
 20
-19.1574519081
 30
0.0
 10
168.3480069838
 20
-19.1503360241
 30
0.0
 10
168.3201744908
 20
-19.1471672297
 30
0.0
  0
SPLINE
  5
285
100
AcDbEntity
  8
_21_KURVEN
100
AcDbSpline
 62
7
  6
CONTINUOUS
 70
0
 71
3
 72
9
 73
5
 74
0
 42
0.0000001
 43
0.0000001
 44
0.0000000001
 40
0.0
 40
0.0
 40
0.0
 40
0.0
 40
0.5
 40
1.0
 40
1.0
 40
1.0
 40
1.0
 10
169.158224134
 20
-31.9017499251
 30
0.0
 10
169.2137284058
 20
-31.9041452436
 30
0.0
 10
169.3326231594
 20
-31.904629612
 30
0.0
 10
169.4417676453
 20
-31.8728248982
 30
0.0
 10
169.4989500738
 20
-31.8539812436
 30
0.0
  0
SPLINE
  5
286
100
AcDbEntity
  8
_21_KURVEN
100
AcDbSpline
 62
7
  6
CONTINUOUS
 70
0
 71
3
 72
21
 73
17
 74
0
 42
0.0000001
 43
0.0000001
 44
0.0000000001
 40
0.0
 40
0.0
 40
0.0
 40
0.0
 40
0.125
 40
0.1875
 40
0.25
 40
0.3125
 40
0.375
 40
0.4375
 40
0.5
 40
0.5625
 40
0.625
 40
0.6875
 40
0.75
 40
0.8125
 40
0.875
 40
1.0
 40
1.0
 40
1.0
 40
1.0
 10
169.4989500651
 20
-31.8539812468
 30
0.0
 10
169.5249521296
 20
-31.842153179
 30
0.0
 10
169.5641295505
 20
-31.8249629089
 30
0.0
 10
169.6156688154
 20
-31.7998352228
 30
0.0
 10
169.651989036
 20
-31.7745381406
 30
0.0
 10
169.6898398799
 20
-31.7522107272
 30
0.0
 10
169.723902459
 20
-31.724455956
 30
0.0
 10
169.7563377223
 20
-31.6949879691
 30
0.0
 10
169.7914456379
 20
-31.6675737133
 30
0.0
 10
169.81749026
 20
-31.6336577485
 30
0.0
 10
169.8462282008
 20
-31.6017717331
 30
0.0
 10
169.8732561603
 20
-31.5682676289
 30
0.0
 10
169.8956604104
 20
-31.530128219
 30
0.0
 10
169.920728848
 20
-31.4939926972
 30
0.0
 10
169.9461093775
 20
-31.4413050061
 30
0.0
 10
169.9635777923
 20
-31.4009964702
 30
0.0
 10
169.9755716205
 20
-31.3743002835
 30
0.0
  0
SPLINE
  5
287
100
AcDbEntity
  8
_21_KURVEN
100
AcDbSpline
 62
7
  6
CONTINUOUS
 70
0
 71
3
 72
9
 73
5
 74
0
 42
0.0000001
 43
0.0000001
 44
0.0000000001
 40
0.0
 40
0.0
 40
0.0
 40
0.0
 40
0.5
 40
1.0
 40
1.0
 40
1.0
 40
1.0
 10
169.9755716163
 20
-31.3743002953
 30
0.0
 10
169.9928219169
 20
-31.3213057955
 30
0.0
 10
170.0253016516
 20
-31.2080098794
 30
0.0
 10
170.0239183954
 20
-31.0904627581
 30
0.0
 10
170.0209560753
 20
-31.0311393951
 30
0.0
  0
SPLINE
  5
288
100
AcDbEntity
  8
_21_KURVEN
100
AcDbSpline
 62
1
  6
CENTER
 70
0
 71
3
 72
163
 73
159
 74
0
 42
0.0000001
 43
0.0000001
 44
0.0000000001
 40
0.0
 40
0.0
 40
0.0
 40
0.0
 40
0.015625
 40
0.03125
 40
0.0390625
 40
0.046875
 40
0.0546875
 40
0.05859375
 40
0.060546875
 40
0.0625
 40
0.064453125
 40
0.06640625
 40
0.0703125
 40
0.078125
 40
0.09375
 40
0.109375
 40
0.1171875
 40
0.12109375
 40
0.123046875
 40
0.125
 40
0.126953125
 40
0.12890625
 40
0.1328125
 40
0.140625
 40
0.15625
 40
0.171875
 40
0.1796875
 40
0.18359375
 40
0.185546875
 40
0.1875
 40
0.189453125
 40
0.19140625
 40
0.1953125
 40
0.203125
 40
0.21875
 40
0.234375
 40
0.2421875
 40
0.24609375
 40
0.248046875
 40
0.25
 40
0.251953125
 40
0.25390625
 40
0.2578125
 40
0.265625
 40
0.28125
 40
0.296875
 40
0.3046875
 40
0.30859375
 40
0.310546875
 40
0.3125
 40
0.314453125
 40
0.31640625
 40
0.3203125
 40
0.328125
 40
0.34375
 40
0.359375
 40
0.3671875
 40
0.37109375
 40
0.373046875
 40
0.375
 40
0.376953125
 40
0.37890625
 40
0.3828125
 40
0.390625
 40
0.40625
 40
0.421875
 40
0.4296875
 40
0.43359375
 40
0.435546875
 40
0.4375
 40
0.439453125
 40
0.44140625
 40
0.4453125
 40
0.453125
 40
0.46875
 40
0.484375
 40
0.4921875
 40
0.49609375
 40
0.498046875
 40
0.5
 40
0.501953125
 40
0.50390625
 40
0.5078125
 40
0.515625
 40
0.53125
 40
0.546875
 40
0.5546875
 40
0.55859375
 40
0.560546875
 40
0.5625
 40
0.564453125
 40
0.56640625
 40
0.5703125
 40
0.578125
 40
0.59375
 40
0.609375
 40
0.6171875
 40
0.62109375
 40
0.623046875
 40
0.625
 40
0.626953125
 40
0.62890625
 40
0.6328125
 40
0.640625
 40
0.65625
 40
0.671875
 40
0.6796875
 40
0.68359375
 40
0.685546875
 40
0.6875
 40
0.689453125
 40
0.69140625
 40
0.6953125
 40
0.703125
 40
0.71875
 40
0.734375
 40
0.7421875
 40
0.74609375
 40
0.748046875
 40
0.75
 40
0.751953125
 40
0.75390625
 40
0.7578125
 40
0.765625
 40
0.78125
 40
0.796875
 40
0.8046875
 40
0.80859375
 40
0.810546875
 40
0.8125
 40
0.814453125
 40
0.81640625
 40
0.8203125
 40
0.828125
 40
0.84375
 40
0.859375
 40
0.8671875
 40
0.87109375
 40
0.873046875
 40
0.875
 40
0.876953125
 40
0.87890625
 40
0.8828125
 40
0.890625
 40
0.90625
 40
0.921875
 40
0.9296875
 40
0.93359375
 40
0.935546875
 40
0.9375
 40
0.939453125
 40
0.94140625
 40
0.9453125
 40
0.953125
 40
0.9609375
 40
0.96875
 40
0.984375
 40
1.0
 40
1.0
 40
1.0
 40
1.0
 10
163.7014640008
 20
-31.3784513391
 30
0.0
 10
163.8025082868
 20
-31.3586078274
 30
0.0
 10
164.0045956479
 20
-31.3189166459
 30
0.0
 10
164.2572109046
 20
-31.2693234601
 30
0.0
 10
164.4592903936
 20
-31.2296052499
 30
0.0
 10
164.6108845261
 20
-31.1999351022
 30
0.0
 10
164.7371032159
 20
-31.1748331384
 30
0.0
 10
164.8256716815
 20
-31.1580012811
 30
0.0
 10
164.8759459318
 20
-31.147228385
 30
0.0
 10
164.914598986
 20
-31.1424014982
 30
0.0
 10
164.9496307253
 20
-31.1251408164
 30
0.0
 10
164.9976027888
 20
-31.1064633003
 30
0.0
 10
165.0809661868
 20
-31.0717603042
 30
0.0
 10
165.2481143806
 20
-31.0037946153
 30
0.0
 10
165.4866438944
 20
-30.9058829903
 30
0.0
 10
165.7253852264
 20
-30.8084990649
 30
0.0
 10
165.8922368748
 20
-30.7397945965
 30
0.0
 10
165.9760080227
 20
-30.7061074222
 30
0.0
 10
166.02332345
 20
-30.6857940371
 30
0.0
 10
166.0603727567
 20
-30.6735596947
 30
0.0
 10
166.0914480186
 20
-30.6498543524
 30
0.0
 10
166.1349653717
 20
-30.6222481491
 30
0.0
 10
166.2101513551
 20
-30.5720761351
 30
0.0
 10
166.361216665
 20
-30.4730611772
 30
0.0
 10
166.5766206499
 20
-30.330854398
 30
0.0
 10
166.792318384
 20
-30.1891434139
 30
0.0
 10
166.9429724451
 20
-30.089434343
 30
0.0
 10
167.0187238956
 20
-30.0402167344
 30
0.0
 10
167.0613306265
 20
-30.0110735665
 30
0.0
 10
167.0952038485
 20
-29.9920906719
 30
0.0
 10
167.1217442812
 20
-29.9621192621
 30
0.0
 10
167.1596891195
 20
-29.9259900002
 30
0.0
 10
167.2249026057
 20
-29.8609811074
 30
0.0
 10
167.3561819764
 20
-29.732234292
 30
0.0
 10
167.5432175528
 20
-29.5476030087
 30
0.0
 10
167.7306550403
 20
-29.3633798749
 30
0.0
 10
167.8613717355
 20
-29.2340616503
 30
0.0
 10
167.9273589005
 20
-29.1698384451
 30
0.0
 10
167.9640578145
 20
-29.1324439201
 30
0.0
 10
167.9944264501
 20
-29.1063601333
 30
0.0
 10
168.0139213039
 20
-29.0727756942
 30
0.0
 10
168.0437070669
 20
-29.0306125554
 30
0.0
 10
168.0940678311
 20
-28.9556101548
 30
0.0
 10
168.1960499316
 20
-28.8064736528
 30
0.0
 10
168.3410155781
 20
-28.5929327007
 30
0.0
 10
168.486472409
 20
-28.3796930706
 30
0.0
 10
168.5877668512
 20
-28.2301347178
 30
0.0
 10
168.6390731456
 20
-28.155712362
 30
0.0
 10
168.6673362367
 20
-28.1126151251
 30
0.0
 10
168.6915096226
 20
-28.0819007781
 30
0.0
 10
168.7043061339
 20
-28.0450371963
 30
0.0
 10
168.725336248
 20
-27.998030506
 30
0.0
 10
168.760292968
 20
-27.9147712221
 30
0.0
 10
168.8315256451
 20
-27.7489636159
 30
0.0
 10
168.9325273219
 20
-27.5117020851
 30
0.0
 10
169.0340533281
 20
-27.2746604295
 30
0.0
 10
169.1045519439
 20
-27.1085449979
 30
0.0
 10
169.1405179982
 20
-27.0257089739
 30
0.0
 10
169.1599226908
 20
-26.9780206704
 30
0.0
 10
169.177713441
 20
-26.9432514
 30
0.0
 10
169.1831289373
 20
-26.904671017
 30
0.0
 10
169.1946659166
 20
-26.8545597607
 30
0.0
 10
169.2128476851
 20
-26.7662467849
 30
0.0
 10
169.2506458968
 20
-26.5900615752
 30
0.0
 10
169.3038201027
 20
-26.338123644
 30
0.0
 10
169.3575545528
 20
-26.0863253026
 30
0.0
 10
169.3945684227
 20
-25.9099446671
 30
0.0
 10
169.4138286612
 20
-25.8219004017
 30
0.0
 10
169.4236288835
 20
-25.771356417
 30
0.0
 10
169.4343807056
 20
-25.7341056271
 30
0.0
 10
169.4321287202
 20
-25.6943425304
 30
0.0
 10
169.4336616176
 20
-25.6422012955
 30
0.0
 10
169.434234295
 20
-25.550546821
 30
0.0
 10
169.4368867578
 20
-25.3675254401
 30
0.0
 10
169.4398144544
 20
-25.1059289605
 30
0.0
 10
169.4433176128
 20
-24.8443341884
 30
0.0
 10
169.4451644289
 20
-24.6613104169
 30
0.0
 10
169.4468448705
 20
-24.5696592294
 30
0.0
 10
169.446593836
 20
-24.5175127012
 30
0.0
 10
169.4498231253
 20
-24.4777658688
 30
0.0
 10
169.4399877973
 20
-24.4404539916
 30
0.0
 10
169.431430777
 20
-24.3898555362
 30
0.0
 10
169.4143362733
 20
-24.3017033969
 30
0.0
 10
169.3816609438
 20
-24.1251159757
 30
0.0
 10
169.3341201941
 20
-23.8730171247
 30
0.0
 10
169.2871430791
 20
-23.6207820188
 30
0.0
 10
169.253678661
 20
-23.4443853545
 30
0.0
 10
169.2376691542
 20
-23.3559709244
 30
0.0
 10
169.2273648661
 20
-23.3057948595
 30
0.0
 10
169.2228981591
 20
-23.2671851534
 30
0.0
 10
169.205963415
 20
-23.2323128436
 30
0.0
 10
169.1877324257
 20
-23.1845128654
 30
0.0
 10
169.1538052943
 20
-23.1014694503
 30
0.0
 10
169.0873953192
 20
-22.9349477757
 30
0.0
 10
168.991703746
 20
-22.6973209248
 30
0.0
 10
168.8965418692
 20
-22.4594773263
 30
0.0
 10
168.8293903193
 20
-22.2932590985
 30
0.0
 10
168.7964828532
 20
-22.2097984441
 30
0.0
 10
168.7766098053
 20
-22.1626703836
 30
0.0
 10
168.7647204189
 20
-22.1257335524
 30
0.0
 10
168.7413038253
 20
-22.0948779937
 30
0.0
 10
168.7141022247
 20
-22.0516161788
 30
0.0
 10
168.6646291449
 20
-21.9768947847
 30
0.0
 10
168.5670185787
 20
-21.8267462296
 30
0.0
 10
168.4268142769
 20
-21.6126589695
 30
0.0
 10
168.2871085309
 20
-21.3982733242
 30
0.0
 10
168.1887999865
 20
-21.2485425083
 30
0.0
 10
168.1402866267
 20
-21.1732467227
 30
0.0
 10
168.1115395031
 20
-21.1309099019
 30
0.0
 10
168.0928716538
 20
-21.0972122242
 30
0.0
 10
168.0631464326
 20
-21.0709501234
 30
0.0
 10
168.0273694387
 20
-21.0333405438
 30
0.0
 10
167.9629658407
 20
-20.9687304356
 30
0.0
 10
167.8354376188
 20
-20.838645932
 30
0.0
 10
167.6525424306
 20
-20.6533239259
 30
0.0
 10
167.4700591573
 20
-20.4675961852
 30
0.0
 10
167.3419542544
 20
-20.3380797099
 30
0.0
 10
167.2783435928
 20
-20.2726885627
 30
0.0
 10
167.2412896624
 20
-20.2363367602
 30
0.0
 10
167.2154879315
 20
-20.2062100378
 30
0.0
 10
167.1820838234
 20
-20.187027514
 30
0.0
 10
167.1401966062
 20
-20.1576336309
 30
0.0
 10
167.065660563
 20
-20.1079700807
 30
0.0
 10
166.9174685685
 20
-20.0073742566
 30
0.0
 10
166.7052701489
 20
-19.8643935946
 30
0.0
 10
166.4933776448
 20
-19.7209189169
 30
0.0
 10
166.3447573687
 20
-19.6210147148
 30
0.0
 10
166.2708102127
 20
-19.5704001844
 30
0.0
 10
166.2279746576
 20
-19.5425377498
 30
0.0
 10
166.1974843941
 20
-19.5186497268
 30
0.0
 10
166.1607385381
 20
-19.5061964151
 30
0.0
 10
166.1139259116
 20
-19.4856037279
 30
0.0
 10
166.0309889822
 20
-19.4514218879
 30
0.0
 10
165.8658384177
 20
-19.3817322835
 30
0.0
 10
165.6295084204
 20
-19.2829386991
 30
0.0
 10
165.3934031972
 20
-19.1836187119
 30
0.0
 10
165.2279379488
 20
-19.1146660714
 30
0.0
 10
165.1454337097
 20
-19.0794709061
 30
0.0
 10
165.0979242833
 20
-19.0605100673
 30
0.0
 10
165.0633194014
 20
-19.0430427699
 30
0.0
 10
165.024787841
 20
-19.0379868035
 30
0.0
 10
164.9747819893
 20
-19.0269166143
 30
0.0
 10
164.8866347203
 20
-19.0095575811
 30
0.0
 10
164.7107943221
 20
-18.9734006678
 30
0.0
 10
164.4593412908
 20
-18.9225734926
 30
0.0
 10
164.2080330809
 20
-18.8711847456
 30
0.0
 10
164.0319899327
 20
-18.8358140328
 30
0.0
 10
163.9441214449
 20
-18.8173739739
 30
0.0
 10
163.893666647
 20
-18.8080446575
 30
0.0
 10
163.8565145098
 20
-18.797639719
 30
0.0
 10
163.8167286445
 20
-18.8002626551
 30
0.0
 10
163.764599498
 20
-18.7992156345
 30
0.0
 10
163.6729454642
 20
-18.799500608
 30
0.0
 10
163.5422349085
 20
-18.7988007827
 30
0.0
 10
163.3852864546
 20
-18.7984348075
 30
0.0
 10
163.1760553198
 20
-18.7977812775
 30
0.0
 10
162.9145048409
 20
-18.7970215497
 30
0.0
 10
162.7052679809
 20
-18.7963963397
 30
0.0
 10
162.6006491105
 20
-18.7960859132
 30
0.0
  0
SPLINE
  5
289
100
AcDbEntity
  8
_21_KURVEN
100
AcDbSpline
 62
1
  6
CENTER
 70
0
 71
3
 72
163
 73
159
 74
0
 42
0.0000001
 43
0.0000001
 44
0.0000000001
 40
0.0
 40
0.0
 40
0.0
 40
0.0
 40
0.015625
 40
0.03125
 40
0.0390625
 40
0.046875
 40
0.0546875
 40
0.05859375
 40
0.060546875
 40
0.0625
 40
0.064453125
 40
0.06640625
 40
0.0703125
 40
0.078125
 40
0.09375
 40
0.109375
 40
0.1171875
 40
0.12109375
 40
0.123046875
 40
0.125
 40
0.126953125
 40
0.12890625
 40
0.1328125
 40
0.140625
 40
0.15625
 40
0.171875
 40
0.1796875
 40
0.18359375
 40
0.185546875
 40
0.1875
 40
0.189453125
 40
0.19140625
 40
0.1953125
 40
0.203125
 40
0.21875
 40
0.234375
 40
0.2421875
 40
0.24609375
 40
0.248046875
 40
0.25
 40
0.251953125
 40
0.25390625
 40
0.2578125
 40
0.265625
 40
0.28125
 40
0.296875
 40
0.3046875
 40
0.30859375
 40
0.310546875
 40
0.3125
 40
0.314453125
 40
0.31640625
 40
0.3203125
 40
0.328125
 40
0.34375
 40
0.359375
 40
0.3671875
 40
0.37109375
 40
0.373046875
 40
0.375
 40
0.376953125
 40
0.37890625
 40
0.3828125
 40
0.390625
 40
0.40625
 40
0.421875
 40
0.4296875
 40
0.43359375
 40
0.435546875
 40
0.4375
 40
0.439453125
 40
0.44140625
 40
0.4453125
 40
0.453125
 40
0.46875
 40
0.484375
 40
0.4921875
 40
0.49609375
 40
0.498046875
 40
0.5
 40
0.501953125
 40
0.50390625
 40
0.5078125
 40
0.515625
 40
0.53125
 40
0.546875
 40
0.5546875
 40
0.55859375
 40
0.560546875
 40
0.5625
 40
0.564453125
 40
0.56640625
 40
0.5703125
 40
0.578125
 40
0.59375
 40
0.609375
 40
0.6171875
 40
0.62109375
 40
0.623046875
 40
0.625
 40
0.626953125
 40
0.62890625
 40
0.6328125
 40
0.640625
 40
0.65625
 40
0.671875
 40
0.6796875
 40
0.68359375
 40
0.685546875
 40
0.6875
 40
0.689453125
 40
0.69140625
 40
0.6953125
 40
0.703125
 40
0.71875
 40
0.734375
 40
0.7421875
 40
0.74609375
 40
0.748046875
 40
0.75
 40
0.751953125
 40
0.75390625
 40
0.7578125
 40
0.765625
 40
0.78125
 40
0.796875
 40
0.8046875
 40
0.80859375
 40
0.810546875
 40
0.8125
 40
0.814453125
 40
0.81640625
 40
0.8203125
 40
0.828125
 40
0.84375
 40
0.859375
 40
0.8671875
 40
0.87109375
 40
0.873046875
 40
0.875
 40
0.876953125
 40
0.87890625
 40
0.8828125
 40
0.890625
 40
0.90625
 40
0.921875
 40
0.9296875
 40
0.93359375
 40
0.935546875
 40
0.9375
 40
0.939453125
 40
0.94140625
 40
0.9453125
 40
0.953125
 40
0.9609375
 40
0.96875
 40
0.984375
 40
1.0
 40
1.0
 40
1.0
 40
1.0
 10
162.600649661
 20
-18.79608586
 30
0.0
 10
162.4996053749
 20
-18.8159293717
 30
0.0
 10
162.2975180139
 20
-18.8556205532
 30
0.0
 10
162.0449027572
 20
-18.905213739
 30
0.0
 10
161.8428232682
 20
-18.9449319492
 30
0.0
 10
161.6912291357
 20
-18.9746020969
 30
0.0
 10
161.5650104459
 20
-18.9997040607
 30
0.0
 10
161.4764419803
 20
-19.016535918
 30
0.0
 10
161.4261677299
 20
-19.0273088141
 30
0.0
 10
161.3875146758
 20
-19.0321357009
 30
0.0
 10
161.3524829364
 20
-19.0493963826
 30
0.0
 10
161.304510873
 20
-19.0680738987
 30
0.0
 10
161.221147475
 20
-19.1027768949
 30
0.0
 10
161.0539992812
 20
-19.1707425838
 30
0.0
 10
160.8154697673
 20
-19.2686542088
 30
0.0
 10
160.5767284354
 20
-19.3660381342
 30
0.0
 10
160.409876787
 20
-19.4347426026
 30
0.0
 10
160.3261056391
 20
-19.4684297769
 30
0.0
 10
160.2787902117
 20
-19.488743162
 30
0.0
 10
160.241740905
 20
-19.5009775044
 30
0.0
 10
160.2106656432
 20
-19.5246828467
 30
0.0
 10
160.1671482901
 20
-19.55228905
 30
0.0
 10
160.0919623067
 20
-19.602461064
 30
0.0
 10
159.9408969968
 20
-19.7014760219
 30
0.0
 10
159.7254930118
 20
-19.8436828011
 30
0.0
 10
159.5097952778
 20
-19.9853937852
 30
0.0
 10
159.3591412166
 20
-20.0851028561
 30
0.0
 10
159.2833897662
 20
-20.1343204647
 30
0.0
 10
159.2407830353
 20
-20.1634636326
 30
0.0
 10
159.2069098133
 20
-20.1824465272
 30
0.0
 10
159.1803693805
 20
-20.212417937
 30
0.0
 10
159.1424245423
 20
-20.2485471989
 30
0.0
 10
159.0772110561
 20
-20.3135560917
 30
0.0
 10
158.9459316854
 20
-20.4423029071
 30
0.0
 10
158.758896109
 20
-20.6269341903
 30
0.0
 10
158.5714586215
 20
-20.8111573242
 30
0.0
 10
158.4407419262
 20
-20.9404755488
 30
0.0
 10
158.3747547613
 20
-21.004698754
 30
0.0
 10
158.3380558473
 20
-21.042093279
 30
0.0
 10
158.3076872117
 20
-21.0681770658
 30
0.0
 10
158.2881923579
 20
-21.1017615049
 30
0.0
 10
158.2584065949
 20
-21.1439246437
 30
0.0
 10
158.2080458306
 20
-21.2189270443
 30
0.0
 10
158.1060637302
 20
-21.3680635463
 30
0.0
 10
157.9610980837
 20
-21.5816044984
 30
0.0
 10
157.8156412527
 20
-21.7948441285
 30
0.0
 10
157.7143468106
 20
-21.9444024813
 30
0.0
 10
157.6630405162
 20
-22.0188248371
 30
0.0
 10
157.6347774251
 20
-22.061922074
 30
0.0
 10
157.6106040392
 20
-22.092636421
 30
0.0
 10
157.5978075279
 20
-22.1295000028
 30
0.0
 10
157.5767774137
 20
-22.1765066931
 30
0.0
 10
157.5418206937
 20
-22.259765977
 30
0.0
 10
157.4705880167
 20
-22.4255735832
 30
0.0
 10
157.3695863399
 20
-22.662835114
 30
0.0
 10
157.2680603336
 20
-22.8998767696
 30
0.0
 10
157.1975617179
 20
-23.0659922012
 30
0.0
 10
157.1615956635
 20
-23.1488282252
 30
0.0
 10
157.142190971
 20
-23.1965165287
 30
0.0
 10
157.1244002208
 20
-23.2312857991
 30
0.0
 10
157.1189847245
 20
-23.2698661821
 30
0.0
 10
157.1074477452
 20
-23.3199774384
 30
0.0
 10
157.0892659767
 20
-23.4082904142
 30
0.0
 10
157.051467765
 20
-23.5844756239
 30
0.0
 10
156.9982935591
 20
-23.8364135551
 30
0.0
 10
156.944559109
 20
-24.0882118965
 30
0.0
 10
156.9075452391
 20
-24.264592532
 30
0.0
 10
156.8882850005
 20
-24.3526367974
 30
0.0
 10
156.8784847783
 20
-24.4031807821
 30
0.0
 10
156.8677329561
 20
-24.440431572
 30
0.0
 10
156.8699849416
 20
-24.4801946687
 30
0.0
 10
156.8684520441
 20
-24.5323359035
 30
0.0
 10
156.8678793667
 20
-24.6239903781
 30
0.0
 10
156.865226904
 20
-24.807011759
 30
0.0
 10
156.8622992074
 20
-25.0686082386
 30
0.0
 10
156.8587960489
 20
-25.3302030107
 30
0.0
 10
156.8569492329
 20
-25.5132267822
 30
0.0
 10
156.8552687913
 20
-25.6048779697
 30
0.0
 10
156.8555198258
 20
-25.6570244979
 30
0.0
 10
156.8522905364
 20
-25.6967713303
 30
0.0
 10
156.8621258645
 20
-25.7340832075
 30
0.0
 10
156.8706828848
 20
-25.7846816629
 30
0.0
 10
156.8877773885
 20
-25.8728338022
 30
0.0
 10
156.9204527179
 20
-26.0494212234
 30
0.0
 10
156.9679934677
 20
-26.3015200744
 30
0.0
 10
157.0149705827
 20
-26.5537551803
 30
0.0
 10
157.0484350008
 20
-26.7301518446
 30
0.0
 10
157.0644445076
 20
-26.8185662747
 30
0.0
 10
157.0747487957
 20
-26.8687423396
 30
0.0
 10
157.0792155027
 20
-26.9073520457
 30
0.0
 10
157.0961502468
 20
-26.9422243555
 30
0.0
 10
157.114381236
 20
-26.9900243337
 30
0.0
 10
157.1483083675
 20
-27.0730677488
 30
0.0
 10
157.2147183426
 20
-27.2395894234
 30
0.0
 10
157.3104099157
 20
-27.4772162743
 30
0.0
 10
157.4055717926
 20
-27.7150598728
 30
0.0
 10
157.4727233425
 20
-27.8812781006
 30
0.0
 10
157.5056308085
 20
-27.964738755
 30
0.0
 10
157.5255038565
 20
-28.0118668155
 30
0.0
 10
157.5373932429
 20
-28.0488036467
 30
0.0
 10
157.5608098365
 20
-28.0796592054
 30
0.0
 10
157.5880114371
 20
-28.1229210203
 30
0.0
 10
157.6374845168
 20
-28.1976424144
 30
0.0
 10
157.7350950831
 20
-28.3477909695
 30
0.0
 10
157.8752993849
 20
-28.5618782296
 30
0.0
 10
158.0150051309
 20
-28.7762638749
 30
0.0
 10
158.1133136752
 20
-28.9259946908
 30
0.0
 10
158.1618270351
 20
-29.0012904764
 30
0.0
 10
158.1905741587
 20
-29.0436272972
 30
0.0
 10
158.209242008
 20
-29.0773249749
 30
0.0
 10
158.2389672292
 20
-29.1035870757
 30
0.0
 10
158.2747442231
 20
-29.1411966553
 30
0.0
 10
158.3391478211
 20
-29.2058067634
 30
0.0
 10
158.466676043
 20
-29.3358912671
 30
0.0
 10
158.6495712312
 20
-29.5212132732
 30
0.0
 10
158.8320545044
 20
-29.7069410139
 30
0.0
 10
158.9601594074
 20
-29.8364574892
 30
0.0
 10
159.023770069
 20
-29.9018486363
 30
0.0
 10
159.0608239994
 20
-29.9382004389
 30
0.0
 10
159.0866257303
 20
-29.9683271613
 30
0.0
 10
159.1200298384
 20
-29.9875096851
 30
0.0
 10
159.1619170555
 20
-30.0169035682
 30
0.0
 10
159.2364530988
 20
-30.0665671184
 30
0.0
 10
159.3846450933
 20
-30.1671629425
 30
0.0
 10
159.5968435129
 20
-30.3101436045
 30
0.0
 10
159.808736017
 20
-30.4536182822
 30
0.0
 10
159.9573562931
 20
-30.5535224843
 30
0.0
 10
160.0313034491
 20
-30.6041370147
 30
0.0
 10
160.0741390042
 20
-30.6319994493
 30
0.0
 10
160.1046292676
 20
-30.6558874723
 30
0.0
 10
160.1413751237
 20
-30.668340784
 30
0.0
 10
160.1881877501
 20
-30.6889334712
 30
0.0
 10
160.2711246796
 20
-30.7231153112
 30
0.0
 10
160.4362752441
 20
-30.7928049156
 30
0.0
 10
160.6726052414
 20
-30.8915985
 30
0.0
 10
160.9087104645
 20
-30.9909184872
 30
0.0
 10
161.0741757129
 20
-31.0598711277
 30
0.0
 10
161.156679952
 20
-31.095066293
 30
0.0
 10
161.2041893785
 20
-31.1140271318
 30
0.0
 10
161.2387942603
 20
-31.1314944292
 30
0.0
 10
161.2773258208
 20
-31.1365503956
 30
0.0
 10
161.3273316725
 20
-31.1476205848
 30
0.0
 10
161.4154789414
 20
-31.164979618
 30
0.0
 10
161.5913193397
 20
-31.2011365313
 30
0.0
 10
161.842772371
 20
-31.2519637065
 30
0.0
 10
162.0940805809
 20
-31.3033524535
 30
0.0
 10
162.2701237291
 20
-31.3387231662
 30
0.0
 10
162.3579922169
 20
-31.3571632252
 30
0.0
 10
162.4084470148
 20
-31.3664925416
 30
0.0
 10
162.445599152
 20
-31.3768974801
 30
0.0
 10
162.4853850173
 20
-31.374274544
 30
0.0
 10
162.5375141638
 20
-31.3753215646
 30
0.0
 10
162.6291681975
 20
-31.3750365911
 30
0.0
 10
162.7598787533
 20
-31.3757364164
 30
0.0
 10
162.9168272072
 20
-31.3761023916
 30
0.0
 10
163.1260583419
 20
-31.3767559216
 30
0.0
 10
163.3876088209
 20
-31.3775156494
 30
0.0
 10
163.5968456809
 20
-31.3781408594
 30
0.0
 10
163.7014645512
 20
-31.3784512859
 30
0.0
  0
SPLINE
  5
28A
100
AcDbEntity
  8
_21_KURVEN
100
AcDbSpline
 62
7
  6
CONTINUOUS
 70
0
 71
3
 72
9
 73
5
 74
0
 42
0.0000001
 43
0.0000001
 44
0.0000000001
 40
0.0
 40
0.0
 40
0.0
 40
0.0
 40
0.5
 40
1.0
 40
1.0
 40
1.0
 40
1.0
 10
157.258129046
 20
-30.3102326849
 30
0.0
 10
157.2640484453
 20
-30.3598483976
 30
0.0
 10
157.2791316463
 20
-30.4591554861
 30
0.0
 10
157.3183825469
 20
-30.5514006921
 30
0.0
 10
157.3407247461
 20
-30.5993118137
 30
0.0
  0
SPLINE
  5
28B
100
AcDbEntity
  8
_21_KURVEN
100
AcDbSpline
 62
7
  6
CONTINUOUS
 70
0
 71
3
 72
9
 73
5
 74
0
 42
0.0000001
 43
0.0000001
 44
0.0000000001
 40
0.0
 40
0.0
 40
0.0
 40
0.0
 40
0.5
 40
1.0
 40
1.0
 40
1.0
 40
1.0
 10
157.3407247443
 20
-30.5993118101
 30
0.0
 10
157.376205235
 20
-30.6619102268
 30
0.0
 10
157.4527344259
 20
-30.7841272687
 30
0.0
 10
157.5723315944
 20
-30.8740021754
 30
0.0
 10
157.6327258299
 20
-30.9147178066
 30
0.0
  0
SPLINE
  5
28C
100
AcDbEntity
  8
_21_KURVEN
100
AcDbSpline
 62
7
  6
CONTINUOUS
 70
0
 71
3
 72
9
 73
5
 74
0
 42
0.0000001
 43
0.0000001
 44
0.0000000001
 40
0.0
 40
0.0
 40
0.0
 40
0.0
 40
0.25
 40
1.0
 40
1.0
 40
1.0
 40
1.0
 10
157.6327258151
 20
-30.9147177976
 30
0.0
 10
157.635095285
 20
-30.9161488237
 30
0.0
 10
157.6472372775
 20
-30.9234409528
 30
0.0
 10
157.6573241648
 20
-30.9291366274
 30
0.0
 10
157.6697239285
 20
-30.9358885204
 30
0.0
  0
SPLINE
  5
28D
100
AcDbEntity
  8
_21_KURVEN
100
AcDbSpline
 62
7
  6
CONTINUOUS
 70
0
 71
3
 72
11
 73
7
 74
0
 42
0.0000001
 43
0.0000001
 44
0.0000000001
 40
0.0
 40
0.0
 40
0.0
 40
0.0
 40
0.25
 40
0.5
 40
0.75
 40
1.0
 40
1.0
 40
1.0
 40
1.0
 10
157.6697239276
 20
-30.93588852
 30
0.0
 10
157.6933017071
 20
-30.9475474949
 30
0.0
 10
157.7410220253
 20
-30.9707189982
 30
0.0
 10
157.8214146935
 20
-30.9996894849
 30
0.0
 10
157.8975470125
 20
-31.017085291
 30
0.0
 10
157.9541066779
 20
-31.024201175
 30
0.0
 10
157.981939171
 20
-31.0273699694
 30
0.0
  0
ENDSEC
  0
SECTION
  2
OBJECTS
  0
DICTIONARY
  5
C
100
AcDbDictionary
280
0
281
1
  3
ACAD_GROUP
350
D
  3
ACAD_MLINESTYLE
350
17
  3
ACAD_LAYOUT
350
1A
  3
ACAD_PLOTSETTINGS
350
19
  3
ACAD_PLOTSTYLENAME
350
E
  0
DICTIONARY
  5
D
102
{ACAD_REACTORS
330
C
102
}
100
AcDbDictionary
280
0
281
1
  0
ACDBDICTIONARYWDFLT
  5
E
102
{ACAD_REACTORS
330
C
102
}
100
AcDbDictionary
281
1
  3
Normal
350
F
100
AcDbDictionaryWithDefault
340
F
  0
DICTIONARY
  5
17
102
{ACAD_REACTORS
330
C
102
}
100
AcDbDictionary
280
0
281
1
  3
Standard
350
18
  0
DICTIONARY
  5
19
102
{ACAD_REACTORS
330
C
102
}
100
AcDbDictionary
281
1
  0
DICTIONARY
  5
1A
102
{ACAD_REACTORS
330
C
102
}
100
AcDbDictionary
281
1
  3
Model
350
28E
  3
Layout1
350
28F
  0
ACDBPLACEHOLDER
  5
F
102
{ACAD_REACTORS
330
E
102
}
  0
MLINESTYLE
  5
18
102
{ACAD_REACTORS
330
17
102
}
100
AcDbMlineStyle
  2
STANDARD
 70
0
  3

 62
256
 51
90.0
 52
90.0
 71
2
 49
0.5
 62
256
  6
BYLAYER
 49
-0.5
 62
256
  6
BYLAYER
  0
LAYOUT
  5
28E
102
{ACAD_REACTORS
330
1A
102
}
100
AcDbPlotSettings
  1

  2
none_device
  4
ISO_A3_(420.00_x_297.00_MM)
  6

 40
0.0
 41
0.0
 42
0.0
 43
0.0
 44
420.0
 45
297.0
 46
0.0
 47
0.0
 48
0.0
 49
0.0
140
0.0
141
0.0
142
1.0
143
1.0
 70
1024
 72
1
 73
0
 74
0
  7

 75
0
147
1.0
148
0.0
149
0.0
100
AcDbLayout
  1
Model
 70
0
 71
0
 10
0.0
 20
0.0
 11
420.0
 21
297.0
 12
0.0
 22
0.0
 32
0.0
 14
0.0
 24
0.0
 34
0.0
 15
0.0
 25
0.0
 35
0.0
146
0.0
 13
0.0
 23
0.0
 33
0.0
 16
1.0
 26
0.0
 36
0.0
 17
0.0
 27
1.0
 37
0.0
 76
0
330
20D
345
0
346
0
  0
LAYOUT
  5
28F
102
{ACAD_REACTORS
330
1A
102
}
100
AcDbPlotSettings
  1

  2
none_device
  4
ISO_A3_(420.00_x_297.00_MM)
  6

 40
0.0
 41
0.0
 42
0.0
 43
0.0
 44
420.0
 45
297.0
 46
0.0
 47
0.0
 48
0.0
 49
0.0
140
0.0
141
0.0
142
1.0
143
1.0
 70
0
 72
1
 73
0
 74
0
  7

 75
0
147
1.0
148
0.0
149
0.0
100
AcDbLayout
  1
Layout1
 70
0
 71
1
 10
0.0
 20
0.0
 11
420.0
 21
297.0
 12
0.0
 22
0.0
 32
0.0
 14
0.0
 24
0.0
 34
0.0
 15
0.0
 25
0.0
 35
0.0
146
0.0
 13
0.0
 23
0.0
 33
0.0
 16
1.0
 26
0.0
 36
0.0
 17
0.0
 27
1.0
 37
0.0
 76
0
330
20E
345
0
346
0
  0
ENDSEC
  0
EOF
