999
DXF file: 70509125.dxf
999
Pro/ENGINEER 2017380 by Parametric Technology Corporation
  0
SECTION
  2
HEADER
  9
$ACADVER
  1
AC1027
  9
$DWGCODEPAGE
  3
ANSI_1252
  9
$EXTMAX
 10
420.0
 20
297.0
 30
0.0
  9
$EXTMIN
 10
0.0
 20
0.0
 30
0.0
  9
$LIMMIN
 10
0.0
 20
0.0
  9
$LIMMAX
 10
420.0
 20
297.0
  9
$VIEWCTR
 10
210.0
 20
148.5
  9
$VIEWSIZE
 40
297.0
  9
$CLAYER
  8
0
  9
$LTSCALE
 40
23.1
  9
$CELTYPE
  6
BYLAYER
  9
$DIMSCALE
 40
1.0
  9
$DIMASZ
 40
3.5
  9
$DIMEXO
 40
0.0
  9
$DIMDLI
 40
15.96
  9
$DIMEXE
 40
1.5
  9
$DIMCEN
 40
3.78
  9
$DIMLFAC
 40
1.0
  9
$DIMBLK
  1
_FILLED
  9
$DIMALT
 70
0
  9
$DIMALTF
 40
25.4
  9
$DIMTXT
 40
3.5
  9
$DIMTOL
 70
1
  9
$DIMLIM
 70
0
  9
$DIMTFAC
 40
1.0
  9
$DIMTP
 40
0.05
  9
$DIMTM
 40
0.05
  9
$DIMGAP
 40
0.625
  9
$DIMDSEP
 70
46
  9
$AUNITS
 70
0
  9
$PDMODE
 70
3
  9
$PDSIZE
 40
0.3125
  9
$HANDSEED
  5
28A
  9
$TILEMODE
 70
1
  9
$MEASUREMENT
 70
1
  9
$INSUNITS
 70
4
  0
ENDSEC
  0
SECTION
  2
CLASSES
  0
CLASS
  1
ACDBDICTIONARYWDFLT
  2
AcDbDictionaryWithDefault
  3
AutoCAD 2000
 90
0
 91
1
280
0
281
0
  0
CLASS
  1
ACDBPLACEHOLDER
  2
AcDbPlaceHolder
  3
AutoCAD 2000
 90
0
 91
1
280
0
281
0
  0
CLASS
  1
LAYOUT
  2
AcDbLayout
  3
AutoCAD 2000
 90
0
 91
0
280
0
281
0
  0
ENDSEC
  0
SECTION
  2
TABLES
  0
TABLE
  2
VPORT
  5
8
100
AcDbSymbolTable
 70
2
  0
VPORT
  5
1F4
100
AcDbSymbolTableRecord
100
AcDbViewportTableRecord
  2
*ACTIVE
 70
0
 10
0.0
 20
0.0
 11
1.0
 21
1.0
 12
210.0
 22
148.5
 13
0.0
 23
0.0
 14
1.0
 24
1.0
 15
0.0
 25
0.0
 16
0.0
 26
0.0
 36
1.0
 17
0.0
 27
0.0
 37
0.0
 40
297.0
 41
1.4141414141
 42
50.0
 43
0.0
 44
0.0
 50
0.0
 51
0.0
 71
0
 72
100
 73
1
 74
1
 75
0
 76
0
 77
0
 78
0
  0
ENDTAB
  0
TABLE
  2
LTYPE
  5
5
100
AcDbSymbolTable
 70
6
  0
LTYPE
  5
14
100
AcDbSymbolTableRecord
100
AcDbLinetypeTableRecord
  2
BYBLOCK
 70
0
  3

 72
65
 73
0
 40
0.0
  0
LTYPE
  5
15
100
AcDbSymbolTableRecord
100
AcDbLinetypeTableRecord
  2
BYLAYER
 70
0
  3

 72
65
 73
0
 40
0.0
  0
LTYPE
  5
16
100
AcDbSymbolTableRecord
100
AcDbLinetypeTableRecord
  2
CONTINUOUS
 70
64
  3
Solid line
 72
65
 73
0
 40
0.0
  0
LTYPE
  5
1F5
100
AcDbSymbolTableRecord
100
AcDbLinetypeTableRecord
  2
CENTER
 70
64
  3
____ _ ____ _ ____ _ ____ _ ____ _ ____ _ ____
 72
65
 73
4
 40
0.6
 49
0.375
 74
0
 49
-0.075
 74
0
 49
0.075
 74
0
 49
-0.075
 74
0
  0
LTYPE
  5
1F6
100
AcDbSymbolTableRecord
100
AcDbLinetypeTableRecord
  2
HIDDEN
 70
64
  3
- - - - - - - - - - - - - - - - - - - -
 72
65
 73
2
 40
0.2
 49
0.1
 74
0
 49
-0.1
 74
0
  0
LTYPE
  5
1F7
100
AcDbSymbolTableRecord
100
AcDbLinetypeTableRecord
  2
PHANTOM
 70
64
  3
_____ _ _ _____ _ _ _____ _ _ _____
 72
65
 73
6
 40
0.8
 49
0.45
 74
0
 49
-0.05
 74
0
 49
0.1
 74
0
 49
-0.05
 74
0
 49
0.1
 74
0
 49
-0.05
 74
0
  0
LTYPE
  5
1F8
100
AcDbSymbolTableRecord
100
AcDbLinetypeTableRecord
  2
DOT
 70
64
  3
. . . . . . . . . . . . . . . . . . . .
 72
65
 73
2
 40
0.2
 49
0.1
 74
0
 49
-0.1
 74
0
  0
LTYPE
  5
1F9
100
AcDbSymbolTableRecord
100
AcDbLinetypeTableRecord
  2
DASHED
 70
64
  3
- - - - - - - - - - - - - - - - - - - -
 72
65
 73
2
 40
0.2
 49
0.1
 74
0
 49
-0.1
 74
0
  0
ENDTAB
  0
TABLE
  2
LAYER
  5
2
100
AcDbSymbolTable
 70
36
  0
LAYER
  5
10
100
AcDbSymbolTableRecord
100
AcDbLayerTableRecord
  2
0
 70
0
 62
7
  6
CONTINUOUS
370
-3
390
F
  0
LAYER
  5
1FA
100
AcDbSymbolTableRecord
100
AcDbLayerTableRecord
  2
DEFAULT_1
 70
0
 62
7
  6
CENTER
370
-3
390
F
  0
LAYER
  5
1FB
100
AcDbSymbolTableRecord
100
AcDbLayerTableRecord
  2
DEFAULT_2
 70
0
 62
1
  6
HIDDEN
370
-3
390
F
  0
LAYER
  5
1FC
100
AcDbSymbolTableRecord
100
AcDbLayerTableRecord
  2
DEFAULT_3
 70
0
 62
7
  6
PHANTOM
370
-3
390
F
  0
LAYER
  5
1FD
100
AcDbSymbolTableRecord
100
AcDbLayerTableRecord
  2
BG_STARTBEZUEGE
 70
0
 62
7
  6
CONTINUOUS
370
-3
390
F
  0
LAYER
  5
1FE
100
AcDbSymbolTableRecord
100
AcDbLayerTableRecord
  2
HILFEN
 70
0
 62
7
  6
CONTINUOUS
370
-3
390
F
  0
LAYER
  5
1FF
100
AcDbSymbolTableRecord
100
AcDbLayerTableRecord
  2
PLATZIERUNG
 70
0
 62
7
  6
CONTINUOUS
370
-3
390
F
  0
LAYER
  5
200
100
AcDbSymbolTableRecord
100
AcDbLayerTableRecord
  2
T_STARTBEZUEGE
 70
0
 62
7
  6
CONTINUOUS
370
-3
390
F
  0
LAYER
  5
201
100
AcDbSymbolTableRecord
100
AcDbLayerTableRecord
  2
_03_2D_ZEICHNUNG_BEMASSUNGEN
 70
0
 62
7
  6
CONTINUOUS
370
-3
390
F
  0
LAYER
  5
202
100
AcDbSymbolTableRecord
100
AcDbLayerTableRecord
  2
_04_NOTIZEN
 70
0
 62
7
  6
CONTINUOUS
370
-3
390
F
  0
LAYER
  5
203
100
AcDbSymbolTableRecord
100
AcDbLayerTableRecord
  2
_05_2D_ELEMENTE
 70
0
 62
7
  6
CONTINUOUS
370
-3
390
F
  0
LAYER
  5
204
100
AcDbSymbolTableRecord
100
AcDbLayerTableRecord
  2
_07_EINRASTLINIEN
 70
0
 62
7
  6
CONTINUOUS
370
-3
390
F
  0
LAYER
  5
205
100
AcDbSymbolTableRecord
100
AcDbLayerTableRecord
  2
_21_KURVEN
 70
0
 62
7
  6
CONTINUOUS
370
-3
390
F
  0
LAYER
  5
206
100
AcDbSymbolTableRecord
100
AcDbLayerTableRecord
  2
_26_BEZUGSACHSEN
 70
0
 62
7
  6
CONTINUOUS
370
-3
390
F
  0
LAYER
  5
207
100
AcDbSymbolTableRecord
100
AcDbLayerTableRecord
  2
_27_BEZUGSEBENEN
 70
0
 62
7
  6
CONTINUOUS
370
-3
390
F
  0
LAYER
  5
208
100
AcDbSymbolTableRecord
100
AcDbLayerTableRecord
  2
_28_BEZUGSPUNKTE
 70
0
 62
7
  6
CONTINUOUS
370
-3
390
F
  0
LAYER
  5
209
100
AcDbSymbolTableRecord
100
AcDbLayerTableRecord
  2
_29_KOORDINATENSYSTEME
 70
0
 62
7
  6
CONTINUOUS
370
-3
390
F
  0
LAYER
  5
20A
100
AcDbSymbolTableRecord
100
AcDbLayerTableRecord
  2
_30_VOLUMEN
 70
0
 62
7
  6
CONTINUOUS
370
-3
390
F
  0
ENDTAB
  0
TABLE
  2
STYLE
  5
3
100
AcDbSymbolTable
 70
1
  0
STYLE
  5
11
100
AcDbSymbolTableRecord
100
AcDbTextStyleTableRecord
  2
STANDARD
 70
0
 40
0.0
 41
0.7
 50
0.0
 71
0
 42
0.2
  3
SIMPLEX.SHX
  4

  0
STYLE
  5
20B
100
AcDbSymbolTableRecord
100
AcDbTextStyleTableRecord
  2
TEXTSTYLE_1
 70
0
 40
0.0
 41
0.8
 50
0.0
 71
0
 42
0.2
  3
gdt
  4

  0
ENDTAB
  0
TABLE
  2
VIEW
  5
6
100
AcDbSymbolTable
 70
0
  0
ENDTAB
  0
TABLE
  2
UCS
  5
7
100
AcDbSymbolTable
 70
0
  0
ENDTAB
  0
TABLE
  2
APPID
  5
9
100
AcDbSymbolTable
 70
1
  0
APPID
  5
20C
100
AcDbSymbolTableRecord
100
AcDbRegAppTableRecord
  2
ACAD
 70
0
  0
ENDTAB
  0
TABLE
  2
BLOCK_RECORD
  5
1
100
AcDbSymbolTable
 70
0
  0
BLOCK_RECORD
  5
20D
100
AcDbSymbolTableRecord
100
AcDbBlockTableRecord
  2
*Model_Space
  0
BLOCK_RECORD
  5
20E
100
AcDbSymbolTableRecord
100
AcDbBlockTableRecord
  2
*Paper_Space
  0
BLOCK_RECORD
  5
20F
100
AcDbSymbolTableRecord
100
AcDbBlockTableRecord
  2
_FILLED
  0
BLOCK_RECORD
  5
210
100
AcDbSymbolTableRecord
100
AcDbBlockTableRecord
  2
*D0
  0
BLOCK_RECORD
  5
211
100
AcDbSymbolTableRecord
100
AcDbBlockTableRecord
  2
*D1
  0
BLOCK_RECORD
  5
212
100
AcDbSymbolTableRecord
100
AcDbBlockTableRecord
  2
*D2
  0
BLOCK_RECORD
  5
213
100
AcDbSymbolTableRecord
100
AcDbBlockTableRecord
  2
*D3
  0
ENDTAB
  0
TABLE
  2
DIMSTYLE
  5
A
100
AcDbSymbolTable
 70
1
100
AcDbDimStyleTable
 71
0
  0
DIMSTYLE
105
214
100
AcDbSymbolTableRecord
100
AcDbDimStyleTableRecord
  2
STANDARD
 70
0
  3

  4

 40
1.0
 41
3.5
 42
0.0
 43
0.38
 44
1.5
 45
0.0
 46
0.0
 47
0.05
 48
0.05
140
3.5
141
0.09
142
0.0
143
25.4
144
1.0
145
0.0
146
1.0
147
0.625
 71
1.0
 72
0.0
 73
0
 74
0
 75
0
 76
0
 77
1
 78
8
 79
2
170
0
171
1
172
0
173
0
174
0
175
0
176
0
177
0
178
2
270
2
179
2
271
2
272
2
273
2
274
2
275
0
280
0
281
0
282
0
283
1
284
8
285
0
286
0
287
3
288
0
340
11
278
46
341
20F
342
20F
343
20F
344
20F
  0
DIMSTYLE
105
215
100
AcDbSymbolTableRecord
100
AcDbDimStyleTableRecord
  2
DIMSTYLE_1
 70
0
  3

  4

 40
1.0
 41
3.5
 42
0.0
 43
0.38
 44
1.5
 45
0.0
 46
0.0
 47
0.2
 48
0.2
140
3.5
141
0.09
142
0.0
143
25.4
144
1.0
145
0.0
146
1.0
147
0.875
 71
0.0
 72
0.0
 73
0
 74
0
 75
0
 76
0
 77
1
 78
8
 79
2
170
0
171
1
172
0
173
0
174
0
175
0
176
0
177
0
178
2
270
2
179
2
271
2
272
2
273
2
274
2
275
0
280
0
281
0
282
0
283
1
284
8
285
0
286
0
287
3
288
0
340
11
278
46
341
20F
342
20F
343
20F
344
20F
  0
DIMSTYLE
105
216
100
AcDbSymbolTableRecord
100
AcDbDimStyleTableRecord
  2
DIMSTYLE_2
 70
0
  3

  4

 40
1.0
 41
3.5
 42
0.0
 43
0.38
 44
1.5
 45
0.0
 46
0.0
 47
0.5
 48
0.5
140
3.5
141
0.09
142
0.0
143
25.4
144
1.0
145
0.0
146
1.0
147
0.875
 71
0.0
 72
0.0
 73
0
 74
0
 75
0
 76
0
 77
1
 78
8
 79
2
170
0
171
1
172
0
173
0
174
0
175
0
176
0
177
0
178
2
270
2
179
2
271
2
272
2
273
2
274
2
275
0
280
0
281
0
282
0
283
1
284
8
285
0
286
0
287
3
288
0
340
11
278
46
341
20F
342
20F
343
20F
344
20F
  0
DIMSTYLE
105
217
100
AcDbSymbolTableRecord
100
AcDbDimStyleTableRecord
  2
DIMSTYLE_3
 70
0
  3

  4

 40
1.0
 41
3.5
 42
0.0
 43
0.38
 44
1.5
 45
0.0
 46
0.0
 47
0.3
 48
0.3
140
3.5
141
0.09
142
0.0
143
25.4
144
1.0
145
0.0
146
1.0
147
0.875
 71
0.0
 72
0.0
 73
0
 74
0
 75
0
 76
0
 77
1
 78
8
 79
2
170
0
171
1
172
0
173
0
174
0
175
0
176
0
177
0
178
2
270
2
179
2
271
2
272
2
273
2
274
2
275
0
280
0
281
0
282
0
283
1
284
8
285
0
286
0
287
3
288
0
340
11
278
46
341
20F
342
20F
343
20F
344
20F
  0
ENDTAB
  0
ENDSEC
  0
SECTION
  2
BLOCKS
  0
BLOCK
  5
20
100
AcDbEntity
  8
0
100
AcDbBlockBegin
  2
*Model_Space
 70
0
 10
0.0
 20
0.0
 30
0.0
  3
*Model_Space
  1

  0
ENDBLK
  5
21
100
AcDbEntity
  8
0
100
AcDbBlockEnd
  0
BLOCK
  5
1C
100
AcDbEntity
  8
0
100
AcDbBlockBegin
  2
*Paper_Space
 70
0
 10
0.0
 20
0.0
 30
0.0
  3
*Paper_Space
  1

  0
ENDBLK
  5
1D
100
AcDbEntity
  8
0
100
AcDbBlockEnd
  0
BLOCK
  5
218
100
AcDbEntity
  8
0
100
AcDbBlockBegin
  2
_FILLED
 70
64
 10
0.0
 20
0.0
  3
_FILLED
  1

  0
SOLID
  5
219
100
AcDbEntity
  8
0
  6
BYBLOCK
 62
0
100
AcDbTrace
 10
0.0
 20
0.0
 11
-1.0
 21
0.125
 12
-1.0
 22
-0.125
 13
-1.0
 23
-0.125
  0
ENDBLK
  5
21A
100
AcDbEntity
  8
0
  6
BYBLOCK
 62
0
100
AcDbBlockEnd
  0
BLOCK
  5
21B
100
AcDbEntity
  8
_03_2D_ZEICHNUNG_BEMASSUNGEN
100
AcDbBlockBegin
 62
7
  6
CONTINUOUS
  2
*D0
 70
65
 10
0.0
 20
0.0
  3
*D0
  1

  0
TEXT
  5
21C
100
AcDbEntity
  8
_03_2D_ZEICHNUNG_BEMASSUNGEN
100
AcDbText
 62
2
  6
CONTINUOUS
 10
-9.875
 20
-15.125
  7
STANDARD
 40
3.5
  1
25
 50
90.0
 41
0.75
 72
1
 11
-9.875
 21
-12.5
100
AcDbText
  0
LINE
  5
21D
100
AcDbEntity
  8
_03_2D_ZEICHNUNG_BEMASSUNGEN
100
AcDbLine
 62
7
  6
CONTINUOUS
 10
-0.0
 20
-0.0
 11
-10.5
 21
0.0
  0
LINE
  5
21E
100
AcDbEntity
  8
_03_2D_ZEICHNUNG_BEMASSUNGEN
100
AcDbLine
 62
7
  6
CONTINUOUS
 10
-0.0
 20
-25.0
 11
-10.5
 21
-25.0
  0
LINE
  5
21F
100
AcDbEntity
  8
_03_2D_ZEICHNUNG_BEMASSUNGEN
100
AcDbLine
 62
7
  6
CONTINUOUS
 10
-9.0
 20
0.0
 11
-9.0
 21
6.0
  0
LINE
  5
220
100
AcDbEntity
  8
_03_2D_ZEICHNUNG_BEMASSUNGEN
100
AcDbLine
 62
7
  6
CONTINUOUS
 10
-9.0
 20
6.0
 11
-9.0
 21
-12.5
  0
LINE
  5
221
100
AcDbEntity
  8
_03_2D_ZEICHNUNG_BEMASSUNGEN
100
AcDbLine
 62
7
  6
CONTINUOUS
 10
-9.0
 20
-25.0
 11
-9.0
 21
-31.0
  0
LINE
  5
222
100
AcDbEntity
  8
_03_2D_ZEICHNUNG_BEMASSUNGEN
100
AcDbLine
 62
7
  6
CONTINUOUS
 10
-9.0
 20
-31.0
 11
-9.0
 21
-12.5
  0
INSERT
  5
223
100
AcDbEntity
  8
_03_2D_ZEICHNUNG_BEMASSUNGEN
100
AcDbBlockReference
 62
7
  6
CONTINUOUS
  2
_FILLED
 10
-9.0
 20
0.0
 41
3.5
 42
3.5
 43
3.5
 50
270.0
  0
INSERT
  5
224
100
AcDbEntity
  8
_03_2D_ZEICHNUNG_BEMASSUNGEN
100
AcDbBlockReference
 62
7
  6
CONTINUOUS
  2
_FILLED
 10
-9.0
 20
-25.0
 41
3.5
 42
3.5
 43
3.5
 50
90.0
  0
ENDBLK
  5
225
100
AcDbEntity
  8
0
  6
BYBLOCK
 62
0
100
AcDbBlockEnd
  0
BLOCK
  5
226
100
AcDbEntity
  8
_03_2D_ZEICHNUNG_BEMASSUNGEN
100
AcDbBlockBegin
 62
7
  6
CONTINUOUS
  2
*D1
 70
65
 10
0.0
 20
0.0
  3
*D1
  1

  0
TEXT
  5
227
100
AcDbEntity
  8
_03_2D_ZEICHNUNG_BEMASSUNGEN
100
AcDbText
 62
2
  6
CONTINUOUS
 10
71.375
 20
19.8362780338
  7
STANDARD
 40
3.5
  1
150
 41
0.6904761905
 72
1
 11
75.0
 21
19.8362780338
100
AcDbText
  0
LINE
  5
228
100
AcDbEntity
  8
_03_2D_ZEICHNUNG_BEMASSUNGEN
100
AcDbLine
 62
7
  6
CONTINUOUS
 10
150.0
 20
0.0
 11
150.0
 21
20.4612780338
  0
LINE
  5
229
100
AcDbEntity
  8
_03_2D_ZEICHNUNG_BEMASSUNGEN
100
AcDbLine
 62
7
  6
CONTINUOUS
 10
0.0
 20
0.0
 11
0.0
 21
20.4612780338
  0
LINE
  5
22A
100
AcDbEntity
  8
_03_2D_ZEICHNUNG_BEMASSUNGEN
100
AcDbLine
 62
7
  6
CONTINUOUS
 10
150.0
 20
18.9612780338
 11
75.0
 21
18.9612780338
  0
LINE
  5
22B
100
AcDbEntity
  8
_03_2D_ZEICHNUNG_BEMASSUNGEN
100
AcDbLine
 62
7
  6
CONTINUOUS
 10
0.0
 20
18.9612780338
 11
75.0
 21
18.9612780338
  0
INSERT
  5
22C
100
AcDbEntity
  8
_03_2D_ZEICHNUNG_BEMASSUNGEN
100
AcDbBlockReference
 62
7
  6
CONTINUOUS
  2
_FILLED
 10
150.0
 20
18.9612780338
 41
3.5
 42
3.5
 43
3.5
  0
INSERT
  5
22D
100
AcDbEntity
  8
_03_2D_ZEICHNUNG_BEMASSUNGEN
100
AcDbBlockReference
 62
7
  6
CONTINUOUS
  2
_FILLED
 10
0.0
 20
18.9612780338
 41
3.5
 42
3.5
 43
3.5
 50
180.0
  0
ENDBLK
  5
22E
100
AcDbEntity
  8
0
  6
BYBLOCK
 62
0
100
AcDbBlockEnd
  0
BLOCK
  5
22F
100
AcDbEntity
  8
_03_2D_ZEICHNUNG_BEMASSUNGEN
100
AcDbBlockBegin
 62
7
  6
CONTINUOUS
  2
*D2
 70
65
 10
0.0
 20
0.0
  3
*D2
  1

  0
TEXT
  5
230
100
AcDbEntity
  8
_03_2D_ZEICHNUNG_BEMASSUNGEN
100
AcDbText
 62
2
  6
CONTINUOUS
 10
158.2643439188
 20
-18.625
  7
STANDARD
 40
3.5
  1
32
 50
90.0
 41
0.75
 72
1
 11
158.2643439188
 21
-16.0
100
AcDbText
  0
LINE
  5
231
100
AcDbEntity
  8
_03_2D_ZEICHNUNG_BEMASSUNGEN
100
AcDbLine
 62
7
  6
CONTINUOUS
 10
150.0
 20
-32.0
 11
160.6393439188
 21
-32.0
  0
LINE
  5
232
100
AcDbEntity
  8
_03_2D_ZEICHNUNG_BEMASSUNGEN
100
AcDbLine
 62
7
  6
CONTINUOUS
 10
0.0
 20
0.0
 11
160.6393439188
 21
0.0
  0
LINE
  5
233
100
AcDbEntity
  8
_03_2D_ZEICHNUNG_BEMASSUNGEN
100
AcDbLine
 62
7
  6
CONTINUOUS
 10
159.1393439188
 20
-32.0
 11
159.1393439188
 21
-16.0
  0
LINE
  5
234
100
AcDbEntity
  8
_03_2D_ZEICHNUNG_BEMASSUNGEN
100
AcDbLine
 62
7
  6
CONTINUOUS
 10
159.1393439188
 20
0.0
 11
159.1393439188
 21
-16.0
  0
INSERT
  5
235
100
AcDbEntity
  8
_03_2D_ZEICHNUNG_BEMASSUNGEN
100
AcDbBlockReference
 62
7
  6
CONTINUOUS
  2
_FILLED
 10
159.1393439188
 20
-32.0
 41
3.5
 42
3.5
 43
3.5
 50
270.0
  0
INSERT
  5
236
100
AcDbEntity
  8
_03_2D_ZEICHNUNG_BEMASSUNGEN
100
AcDbBlockReference
 62
7
  6
CONTINUOUS
  2
_FILLED
 10
159.1393439188
 20
0.0
 41
3.5
 42
3.5
 43
3.5
 50
90.0
  0
ENDBLK
  5
237
100
AcDbEntity
  8
0
  6
BYBLOCK
 62
0
100
AcDbBlockEnd
  0
BLOCK
  5
238
100
AcDbEntity
  8
_03_2D_ZEICHNUNG_BEMASSUNGEN
100
AcDbBlockBegin
 62
7
  6
CONTINUOUS
  2
*D3
 70
65
 10
0.0
 20
0.0
  3
*D3
  1

  0
TEXT
  5
239
100
AcDbEntity
  8
_03_2D_ZEICHNUNG_BEMASSUNGEN
100
AcDbText
 62
2
  6
CONTINUOUS
 10
128.65
 20
10.8362780338
  7
STANDARD
 40
3.5
  1
32.7
 41
0.7142857143
 72
1
 11
133.65
 21
10.8362780338
100
AcDbText
  0
LINE
  5
23A
100
AcDbEntity
  8
_03_2D_ZEICHNUNG_BEMASSUNGEN
100
AcDbLine
 62
7
  6
CONTINUOUS
 10
117.3
 20
0.0
 11
117.3
 21
11.4612780338
  0
LINE
  5
23B
100
AcDbEntity
  8
_03_2D_ZEICHNUNG_BEMASSUNGEN
100
AcDbLine
 62
7
  6
CONTINUOUS
 10
150.0
 20
-32.0
 11
150.0
 21
11.4612780338
  0
LINE
  5
23C
100
AcDbEntity
  8
_03_2D_ZEICHNUNG_BEMASSUNGEN
100
AcDbLine
 62
7
  6
CONTINUOUS
 10
117.3
 20
9.9612780338
 11
133.65
 21
9.9612780338
  0
LINE
  5
23D
100
AcDbEntity
  8
_03_2D_ZEICHNUNG_BEMASSUNGEN
100
AcDbLine
 62
7
  6
CONTINUOUS
 10
150.0
 20
9.9612780338
 11
133.65
 21
9.9612780338
  0
INSERT
  5
23E
100
AcDbEntity
  8
_03_2D_ZEICHNUNG_BEMASSUNGEN
100
AcDbBlockReference
 62
7
  6
CONTINUOUS
  2
_FILLED
 10
117.3
 20
9.9612780338
 41
3.5
 42
3.5
 43
3.5
 50
180.0
  0
INSERT
  5
23F
100
AcDbEntity
  8
_03_2D_ZEICHNUNG_BEMASSUNGEN
100
AcDbBlockReference
 62
7
  6
CONTINUOUS
  2
_FILLED
 10
150.0
 20
9.9612780338
 41
3.5
 42
3.5
 43
3.5
 50
360.0
  0
ENDBLK
  5
240
100
AcDbEntity
  8
0
  6
BYBLOCK
 62
0
100
AcDbBlockEnd
  0
ENDSEC
  0
SECTION
  2
ENTITIES
  0
DIMENSION
  5
241
100
AcDbEntity
  8
_03_2D_ZEICHNUNG_BEMASSUNGEN
100
AcDbDimension
 62
7
  6
CONTINUOUS
  2
*D0
 10
-9.0
 20
-25.0
 11
-9.0
 21
-13.0000002766
 70
160
 71
2
 42
25.0
  3
DIMSTYLE_1
100
AcDbAlignedDimension
 13
-0.0
 23
-0.0
 14
-0.0
 24
-25.0
 50
270.0
100
AcDbRotatedDimension
  0
DIMENSION
  5
242
100
AcDbEntity
  8
_03_2D_ZEICHNUNG_BEMASSUNGEN
100
AcDbDimension
 62
7
  6
CONTINUOUS
  2
*D1
 10
0.0
 20
18.9612780338
 11
74.4999993896
 21
18.9612780338
 70
160
 71
2
 42
150.0
  3
DIMSTYLE_2
100
AcDbAlignedDimension
 13
150.0
 23
0.0
 14
0.0
 24
0.0
 50
180.0
100
AcDbRotatedDimension
  0
DIMENSION
  5
243
100
AcDbEntity
  8
_03_2D_ZEICHNUNG_BEMASSUNGEN
100
AcDbDimension
 62
7
  6
CONTINUOUS
  2
*D2
 10
159.1393439188
 20
0.0
 11
159.1393439188
 21
-16.5000046244
 70
160
 71
2
 42
32.0
  3
DIMSTYLE_3
100
AcDbAlignedDimension
 13
150.0
 23
-32.0
 14
0.0
 24
0.0
 50
90.0
100
AcDbRotatedDimension
  0
DIMENSION
  5
244
100
AcDbEntity
  8
_03_2D_ZEICHNUNG_BEMASSUNGEN
100
AcDbDimension
 62
7
  6
CONTINUOUS
  2
*D3
 10
150.0
 20
9.9612780338
 11
133.1499975586
 21
9.9612780338
 70
160
 71
2
 42
32.7
  3
DIMSTYLE_3
100
AcDbAlignedDimension
 13
117.3
 23
0.0
 14
150.0
 24
-32.0
 50
360.0
100
AcDbRotatedDimension
  0
LINE
  5
245
100
AcDbEntity
  8
_30_VOLUMEN
100
AcDbLine
 62
4
  6
CONTINUOUS
 10
-0.0
 20
-24.5
 11
-0.0
 21
-0.5
  0
LINE
  5
246
100
AcDbEntity
  8
_30_VOLUMEN
100
AcDbLine
 62
4
  6
CONTINUOUS
 10
0.5
 20
-25.0
 11
0.5
 21
-0.0
  0
LINE
  5
247
100
AcDbEntity
  8
_30_VOLUMEN
100
AcDbLine
 62
4
  6
CONTINUOUS
 10
0.5
 20
-0.0
 11
-0.0
 21
-0.5
  0
LINE
  5
248
100
AcDbEntity
  8
_30_VOLUMEN
100
AcDbLine
 62
4
  6
CONTINUOUS
 10
0.5
 20
-25.0
 11
-0.0
 21
-24.5
  0
LINE
  5
249
100
AcDbEntity
  8
_30_VOLUMEN
100
AcDbLine
 62
4
  6
CONTINUOUS
 10
148.721287003
 20
-31.8686740856
 11
135.1587141784
 21
-30.8076021942
  0
LINE
  5
24A
100
AcDbEntity
  8
_21_KURVEN
100
AcDbLine
 62
7
  6
CONTINUOUS
 10
148.721287003
 20
-31.8686740856
 11
135.1587141784
 21
-30.8076021942
  0
LINE
  5
24B
100
AcDbEntity
  8
_30_VOLUMEN
100
AcDbLine
 62
4
  6
CONTINUOUS
 10
0.5
 20
-25.0
 11
117.3
 21
-25.0
  0
LINE
  5
24C
100
AcDbEntity
  8
0
100
AcDbLine
 62
4
  6
CONTINUOUS
 10
117.3
 20
-25.0
 11
125.0
 21
-25.0
  0
LINE
  5
24D
100
AcDbEntity
  8
_26_BEZUGSACHSEN
100
AcDbLine
 62
4
  6
CONTINUOUS
 10
134.0082620031
 20
-29.5709240151
 11
126.0379307753
 21
-28.8736103882
  0
LINE
  5
24E
100
AcDbEntity
  8
_30_VOLUMEN
100
AcDbLine
 62
4
  6
CONTINUOUS
 10
134.1815288237
 20
-14.874875443
 11
147.7441016482
 21
-15.9359473345
  0
LINE
  5
24F
100
AcDbEntity
  8
_21_KURVEN
100
AcDbLine
 62
7
  6
CONTINUOUS
 10
134.1815288237
 20
-14.874875443
 11
147.7441016482
 21
-15.9359473345
  0
LINE
  5
250
100
AcDbEntity
  8
_26_BEZUGSACHSEN
100
AcDbLine
 62
4
  6
CONTINUOUS
 10
132.8435664903
 20
-14.6838387588
 11
147.5677548535
 21
-15.9720383202
  0
LINE
  5
251
100
AcDbEntity
  8
_30_VOLUMEN
100
AcDbLine
 62
4
  6
CONTINUOUS
 10
0.5
 20
-0.0
 11
117.3
 21
0.0
  0
LINE
  5
252
100
AcDbEntity
  8
0
100
AcDbLine
 62
4
  6
CONTINUOUS
 10
117.3
 20
0.0
 11
136.1288036333
 21
0.0
  0
LINE
  5
253
100
AcDbEntity
  8
_30_VOLUMEN
100
AcDbLine
 62
4
  6
CONTINUOUS
 10
134.4143773983
 20
-30.4653194771
 11
133.8040326615
 21
-29.8549747402
  0
LINE
  5
254
100
AcDbEntity
  8
_30_VOLUMEN
100
AcDbLine
 62
7
  6
CONTINUOUS
 10
134.0729989799
 20
-29.7318962666
 11
133.9027999986
 21
-29.5616972853
  0
LINE
  5
255
100
AcDbEntity
  8
_28_BEZUGSPUNKTE
100
AcDbLine
 62
1
  6
CONTINUOUS
 10
150.15625
 20
-32.15625
 11
149.84375
 21
-31.84375
  0
LINE
  5
256
100
AcDbEntity
  8
0
100
AcDbLine
 62
4
  6
CONTINUOUS
 10
117.3
 20
0.0
 11
117.3
 21
-25.0
  0
LINE
  5
257
100
AcDbEntity
  8
0
100
AcDbLine
 62
4
  6
CONTINUOUS
 10
118.9393149115
 20
0.0
 11
118.3058856567
 21
-25.0
  0
LINE
  5
258
100
AcDbEntity
  8
_30_VOLUMEN
100
AcDbLine
 62
7
  6
CONTINUOUS
 10
134.1815288237
 20
-14.874875443
 11
134.1004556963
 21
-14.7938023157
  0
LINE
  5
259
100
AcDbEntity
  8
_30_VOLUMEN
100
AcDbLine
 62
4
  6
CONTINUOUS
 10
126.0379307753
 20
-28.8736103882
 11
125.0
 21
-25.0
  0
LINE
  5
25A
100
AcDbEntity
  8
_30_VOLUMEN
100
AcDbLine
 62
7
  6
CONTINUOUS
 10
147.7441016482
 20
-15.9359473345
 11
147.5473869997
 21
-15.739232686
  0
LINE
  5
25B
100
AcDbEntity
  8
_30_VOLUMEN
100
AcDbLine
 62
4
  6
CONTINUOUS
 10
148.4884384283
 20
-16.2782300515
 11
147.8780936914
 21
-15.6678853147
  0
LINE
  5
25C
100
AcDbEntity
  8
_30_VOLUMEN
100
AcDbLine
 62
4
  6
CONTINUOUS
 10
136.1288036333
 20
0.0
 11
147.1331369851
 21
-11.0043333518
  0
LINE
  5
25D
100
AcDbEntity
  8
_30_VOLUMEN
100
AcDbLine
 62
4
  6
CONTINUOUS
 10
134.0729989799
 20
-29.7318962666
 11
132.8874309104
 21
-16.1807912244
  0
LINE
  5
25E
100
AcDbEntity
  8
_21_KURVEN
100
AcDbLine
 62
7
  6
CONTINUOUS
 10
134.0729989799
 20
-29.7318962666
 11
132.8874309104
 21
-16.1807912244
  0
LINE
  5
25F
100
AcDbEntity
  8
_26_BEZUGSACHSEN
100
AcDbLine
 62
4
  6
CONTINUOUS
 10
134.0082620031
 20
-29.5709240151
 11
132.8435664903
 21
-14.6838387588
  0
LINE
  5
260
100
AcDbEntity
  8
_28_BEZUGSPUNKTE
100
AcDbLine
 62
1
  6
CONTINUOUS
 10
150.15625
 20
-31.84375
 11
149.84375
 21
-32.15625
  0
LINE
  5
261
100
AcDbEntity
  8
_26_BEZUGSACHSEN
100
AcDbLine
 62
4
  6
CONTINUOUS
 10
147.5677548535
 20
-15.9720383202
 11
147.1331369851
 21
-11.0043333518
  0
LINE
  5
262
100
AcDbEntity
  8
_30_VOLUMEN
100
AcDbLine
 62
4
  6
CONTINUOUS
 10
148.8298168468
 20
-17.0116532621
 11
150.0153849162
 21
-30.5627583042
  0
LINE
  5
263
100
AcDbEntity
  8
_21_KURVEN
100
AcDbLine
 62
7
  6
CONTINUOUS
 10
148.8298168468
 20
-17.0116532621
 11
150.0153849162
 21
-30.5627583042
  0
ARC
  5
264
100
AcDbEntity
  8
_30_VOLUMEN
100
AcDbCircle
 62
4
  6
CONTINUOUS
 10
140.8108177976
 20
-22.781570932
 40
3.1403406949
100
AcDbArc
 50
236.2590518574
 51
275.581766932
  0
ARC
  5
265
100
AcDbEntity
  8
_30_VOLUMEN
100
AcDbCircle
 62
4
  6
CONTINUOUS
 10
140.7980485045
 20
-22.8072191149
 40
3.1119286532
100
AcDbArc
 50
230.4417352087
 51
235.3381844171
  0
ARC
  5
266
100
AcDbEntity
  8
_30_VOLUMEN
100
AcDbCircle
 62
4
  6
CONTINUOUS
 10
140.8926340536
 20
-22.7136783085
 40
3.104483372
100
AcDbArc
 50
35.1834265135
 51
39.7424638428
  0
ARC
  5
267
100
AcDbEntity
  8
_30_VOLUMEN
100
AcDbCircle
 62
4
  6
CONTINUOUS
 10
140.7885476572
 20
-22.8204287434
 40
3.0956600103
100
AcDbArc
 50
235.3437727803
 51
236.202337617
  0
ARC
  5
268
100
AcDbEntity
  8
_30_VOLUMEN
100
AcDbCircle
 62
4
  6
CONTINUOUS
 10
140.9031727478
 20
-22.7058766419
 40
3.0913747014
100
AcDbArc
 50
33.7742914492
 51
35.1777914114
  0
ARC
  5
269
100
AcDbEntity
  8
_30_VOLUMEN
100
AcDbCircle
 62
4
  6
CONTINUOUS
 10
134.6440036127
 20
-29.0169278281
 40
1.186538506
100
AcDbArc
 50
205.8191341465
 51
224.934303891
  0
ARC
  5
26A
100
AcDbEntity
  8
_30_VOLUMEN
100
AcDbCircle
 62
4
  6
CONTINUOUS
 10
147.6520365127
 20
-17.1137013988
 40
1.1821930204
100
AcDbArc
 50
4.9519944059
 51
85.5768601927
  0
ARC
  5
26B
100
AcDbEntity
  8
_30_VOLUMEN
100
AcDbCircle
 62
4
  6
CONTINUOUS
 10
135.2507793139
 20
-29.6298481298
 40
1.1821930204
100
AcDbArc
 50
184.9519944059
 51
265.5768601927
  0
SPLINE
  5
26C
100
AcDbEntity
  8
_30_VOLUMEN
100
AcDbSpline
 62
4
  6
CONTINUOUS
 70
0
 71
3
 72
11
 73
7
 74
0
 42
0.0000001
 43
0.0000001
 44
0.0000000001
 40
0.0
 40
0.0
 40
0.0
 40
0.0
 40
0.2496349922
 40
0.5000147789
 40
0.7503855881
 40
1.0
 40
1.0
 40
1.0
 40
1.0
 10
148.721287003
 20
-31.8686740856
 30
0.0
 10
148.8933262563
 20
-31.8821336274
 30
0.0
 10
149.2484796318
 20
-31.8322574909
 30
0.0
 10
149.6969834598
 20
-31.5413480625
 30
0.0
 10
149.9838009497
 20
-31.0902307464
 30
0.0
 10
150.0304237032
 20
-30.7346524258
 30
0.0
 10
150.0153849162
 20
-30.5627583042
 30
0.0
  0
SPLINE
  5
26D
100
AcDbEntity
  8
_30_VOLUMEN
100
AcDbSpline
 62
4
  6
CONTINUOUS
 70
0
 71
3
 72
8
 73
4
 74
0
 42
0.0000001
 43
0.0000001
 44
0.0000000001
 40
0.0
 40
0.0
 40
0.0
 40
0.0
 40
1.0
 40
1.0
 40
1.0
 40
1.0
 10
147.5203312926
 20
-15.4229270039
 30
0.0
 10
147.652587167
 20
-15.4812116955
 30
0.0
 10
147.7758990824
 20
-15.5656846122
 30
0.0
 10
147.8780936316
 20
-15.6678853739
 30
0.0
  0
SPLINE
  5
26E
100
AcDbEntity
  8
_30_VOLUMEN
100
AcDbSpline
 62
4
  6
CONTINUOUS
 70
0
 71
3
 72
9
 73
5
 74
0
 42
0.0000001
 43
0.0000001
 44
0.0000000001
 40
0.0
 40
0.0
 40
0.0
 40
0.0
 40
0.5027090586
 40
1.0
 40
1.0
 40
1.0
 40
1.0
 10
141.0331529227
 20
-20.0691591053
 30
0.0
 10
141.4855667538
 20
-20.0253951133
 30
0.0
 10
142.4166213241
 20
-20.1360472283
 30
0.0
 10
143.2085876345
 20
-20.638826425
 30
0.0
 10
143.5265218223
 20
-20.9567606128
 30
0.0
  0
SPLINE
  5
26F
100
AcDbEntity
  8
_30_VOLUMEN
100
AcDbSpline
 62
4
  6
CONTINUOUS
 70
0
 71
3
 72
15
 73
11
 74
0
 42
0.0000001
 43
0.0000001
 44
0.0000000001
 40
0.0
 40
0.0
 40
0.0
 40
0.0
 40
0.1243464769
 40
0.2489212344
 40
0.3737883632
 40
0.4989405826
 40
0.6242860113
 40
0.7496321182
 40
0.8750137891
 40
1.0
 40
1.0
 40
1.0
 40
1.0
 10
143.4728284903
 20
-20.9873112782
 30
0.0
 10
143.623401737
 20
-21.2124494455
 30
0.0
 10
143.867003375
 20
-21.7049896229
 30
0.0
 10
144.0290403635
 20
-22.5118574084
 30
0.0
 10
143.9792873028
 20
-23.3354942574
 30
0.0
 10
143.7205941582
 20
-24.1206804851
 30
0.0
 10
143.2701518965
 20
-24.8150106601
 30
0.0
 10
142.6582756173
 20
-25.3732768547
 30
0.0
 10
141.9256610351
 20
-25.7569706568
 30
0.0
 10
141.3872449104
 20
-25.8808084817
 30
0.0
 10
141.1162667614
 20
-25.9070213972
 30
0.0
  0
SPLINE
  5
270
100
AcDbEntity
  8
_30_VOLUMEN
100
AcDbSpline
 62
4
  6
CONTINUOUS
 70
0
 71
3
 72
15
 73
11
 74
0
 42
0.0000001
 43
0.0000001
 44
0.0000000001
 40
0.0
 40
0.0
 40
0.0
 40
0.0
 40
0.1225261772
 40
0.2457633646
 40
0.3699790939
 40
0.495356917
 40
0.621608894
 40
0.7481914008
 40
0.8745411495
 40
1.0
 40
1.0
 40
1.0
 40
1.0
 10
139.0363937618
 20
-25.4468886733
 30
0.0
 10
138.8305064229
 20
-25.2410013344
 30
0.0
 10
138.4750036422
 20
-24.7658357212
 30
0.0
 10
138.1640975323
 20
-23.9311630599
 30
0.0
 10
138.0997117067
 20
-23.0354162125
 30
0.0
 10
138.288714863
 20
-22.1503508357
 30
0.0
 10
138.7186855608
 20
-21.3476293074
 30
0.0
 10
139.3552302877
 20
-20.693047287
 30
0.0
 10
140.1457839583
 20
-20.2412351928
 30
0.0
 10
140.7364003175
 20
-20.097865298
 30
0.0
 10
141.0331529227
 20
-20.0691591053
 30
0.0
  0
SPLINE
  5
271
100
AcDbEntity
  8
_30_VOLUMEN
100
AcDbSpline
 62
4
  6
CONTINUOUS
 70
0
 71
3
 72
21
 73
17
 74
0
 42
0.0000001
 43
0.0000001
 44
0.0000000001
 40
0.0
 40
0.0
 40
0.0
 40
0.0
 40
0.0625202818
 40
0.1250437687
 40
0.187400065
 40
0.2496957674
 40
0.3119808741
 40
0.37428859
 40
0.4366575003
 40
0.499124639
 40
0.561703927
 40
0.6243917155
 40
0.6871766307
 40
0.7500245485
 40
0.8751205082
 40
1.0
 40
1.0
 40
1.0
 40
1.0
 10
141.7664835137
 20
-26.9731053562
 30
0.0
 10
141.5313618527
 20
-26.9958497149
 30
0.0
 10
141.0553387465
 20
-26.9948713518
 30
0.0
 10
140.3567795683
 20
-26.8550323323
 30
0.0
 10
139.6998718842
 20
-26.5806111822
 30
0.0
 10
139.1107256627
 20
-26.1827679976
 30
0.0
 10
138.6111664119
 20
-25.6771882482
 30
0.0
 10
138.2210965313
 20
-25.0826779764
 30
0.0
 10
137.9552865323
 20
-24.4225032994
 30
0.0
 10
137.8236205912
 20
-23.7220581333
 30
0.0
 10
137.8318038864
 20
-23.0082055563
 30
0.0
 10
137.9787086922
 20
-22.308459495
 30
0.0
 10
138.2592280451
 20
-21.6494435639
 30
0.0
 10
138.7946637547
 20
-20.8617896074
 30
0.0
 10
139.7350149596
 20
-20.0950978929
 30
0.0
 10
140.666694738
 20
-19.8158742934
 30
0.0
 10
141.1363323129
 20
-19.7704441725
 30
0.0
  0
SPLINE
  5
272
100
AcDbEntity
  8
_30_VOLUMEN
100
AcDbSpline
 62
7
  6
CONTINUOUS
 70
0
 71
3
 72
11
 73
7
 74
0
 42
0.0000001
 43
0.0000001
 44
0.0000000001
 40
0.0
 40
0.0
 40
0.0
 40
0.0
 40
0.2502216464
 40
0.5008050994
 40
0.7505733056
 40
1.0
 40
1.0
 40
1.0
 40
1.0
 10
141.556661377
 20
-26.3474160128
 30
0.0
 10
141.3275752588
 20
-26.3695765268
 30
0.0
 10
140.8626772869
 20
-26.3628949719
 30
0.0
 10
140.1854056269
 20
-26.2035019204
 30
0.0
 10
139.5606299876
 20
-25.8986950302
 30
0.0
 10
139.1986383003
 20
-25.6090991213
 30
0.0
 10
139.0365127521
 20
-25.4467698296
 30
0.0
  0
SPLINE
  5
273
100
AcDbEntity
  8
_30_VOLUMEN
100
AcDbSpline
 62
4
  6
CONTINUOUS
 70
0
 71
3
 72
15
 73
11
 74
0
 42
0.0000001
 43
0.0000001
 44
0.0000000001
 40
0.0
 40
0.0
 40
0.0
 40
0.0
 40
0.1248951824
 40
0.2493889825
 40
0.3738219425
 40
0.498502705
 40
0.6236222837
 40
0.7491143977
 40
0.8746665727
 40
1.0
 40
1.0
 40
1.0
 40
1.0
 10
141.7308351926
 20
-26.8864458289
 30
0.0
 10
141.2701103234
 20
-26.9310137844
 30
0.0
 10
140.3220468027
 20
-26.8375808195
 30
0.0
 10
139.0719627698
 20
-26.1625615452
 30
0.0
 10
138.1778585626
 20
-25.0572395582
 30
0.0
 10
137.7797838105
 20
-23.6905884374
 30
0.0
 10
137.9358607574
 20
-22.272254556
 30
0.0
 10
138.6220944011
 20
-21.0176552881
 30
0.0
 10
139.7306273433
 20
-20.1158461253
 30
0.0
 10
140.6481240664
 20
-19.8403129797
 30
0.0
 10
141.1104655739
 20
-19.7955886396
 30
0.0
  0
SPLINE
  5
274
100
AcDbEntity
  8
_30_VOLUMEN
100
AcDbSpline
 62
7
  6
CONTINUOUS
 70
0
 71
3
 72
15
 73
11
 74
0
 42
0.0000001
 43
0.0000001
 44
0.0000000001
 40
0.0
 40
0.0
 40
0.0
 40
0.0
 40
0.1250355958
 40
0.2505386542
 40
0.3759438323
 40
0.5013083731
 40
0.6264127423
 40
0.7511866739
 40
0.8756767747
 40
1.0
 40
1.0
 40
1.0
 40
1.0
 10
141.556661377
 20
-26.3474160128
 30
0.0
 10
141.8528280539
 20
-26.3187664995
 30
0.0
 10
142.4412130502
 20
-26.1757496773
 30
0.0
 10
143.2281628271
 20
-25.7269523081
 30
0.0
 10
143.8605543324
 20
-25.076243162
 30
0.0
 10
144.2881294409
 20
-24.2772021883
 30
0.0
 10
144.476468119
 20
-23.3921183834
 30
0.0
 10
144.4107078252
 20
-22.4915730011
 30
0.0
 10
144.0965426796
 20
-21.6474489408
 30
0.0
 10
143.7354717269
 20
-21.1662110886
 30
0.0
 10
143.526402832
 20
-20.9568794565
 30
0.0
  0
SPLINE
  5
275
100
AcDbEntity
  8
_30_VOLUMEN
100
AcDbSpline
 62
4
  6
CONTINUOUS
 70
0
 71
3
 72
15
 73
11
 74
0
 42
0.0000001
 43
0.0000001
 44
0.0000000001
 40
0.0
 40
0.0
 40
0.0
 40
0.0
 40
0.1253334273
 40
0.2508856023
 40
0.3763777163
 40
0.501497295
 40
0.6261780575
 40
0.7506110175
 40
0.8751048176
 40
1.0
 40
1.0
 40
1.0
 40
1.0
 10
141.7308351926
 20
-26.8864458289
 30
0.0
 10
142.1931767001
 20
-26.8417214889
 30
0.0
 10
143.1106734233
 20
-26.5661883433
 30
0.0
 10
144.2192063655
 20
-25.6643791805
 30
0.0
 10
144.9054400092
 20
-24.4097799125
 30
0.0
 10
145.0615169561
 20
-22.9914460311
 30
0.0
 10
144.6634422039
 20
-21.6247949103
 30
0.0
 10
143.7693379968
 20
-20.5194729233
 30
0.0
 10
142.5192539638
 20
-19.844453649
 30
0.0
 10
141.5711904432
 20
-19.7510206842
 30
0.0
 10
141.1104655739
 20
-19.7955886396
 30
0.0
  0
SPLINE
  5
276
100
AcDbEntity
  8
_30_VOLUMEN
100
AcDbSpline
 62
4
  6
CONTINUOUS
 70
0
 71
3
 72
21
 73
17
 74
0
 42
0.0000001
 43
0.0000001
 44
0.0000000001
 40
0.0
 40
0.0
 40
0.0
 40
0.0
 40
0.0625202818
 40
0.1250437687
 40
0.187400065
 40
0.2496957674
 40
0.3119808741
 40
0.37428859
 40
0.4366575003
 40
0.499124639
 40
0.561703927
 40
0.6243917155
 40
0.6871766307
 40
0.7500245485
 40
0.8751205082
 40
1.0
 40
1.0
 40
1.0
 40
1.0
 10
141.1363323129
 20
-19.7704441725
 30
0.0
 10
141.3714539739
 20
-19.7476998137
 30
0.0
 10
141.8474770802
 20
-19.7486781768
 30
0.0
 10
142.5460362583
 20
-19.8885171963
 30
0.0
 10
143.2029439424
 20
-20.1629383464
 30
0.0
 10
143.792090164
 20
-20.560781531
 30
0.0
 10
144.2916494147
 20
-21.0663612805
 30
0.0
 10
144.6817192953
 20
-21.6608715523
 30
0.0
 10
144.9475292943
 20
-22.3210462293
 30
0.0
 10
145.0791952354
 20
-23.0214913953
 30
0.0
 10
145.0710119403
 20
-23.7353439724
 30
0.0
 10
144.9241071345
 20
-24.4350900336
 30
0.0
 10
144.6435877815
 20
-25.0941059647
 30
0.0
 10
144.108152072
 20
-25.8817599212
 30
0.0
 10
143.167800867
 20
-26.6484516358
 30
0.0
 10
142.2361210887
 20
-26.9276752352
 30
0.0
 10
141.7664835137
 20
-26.9731053562
 30
0.0
  0
SPLINE
  5
277
100
AcDbEntity
  8
_30_VOLUMEN
100
AcDbSpline
 62
4
  6
CONTINUOUS
 70
0
 71
3
 72
11
 73
7
 74
0
 42
0.0000001
 43
0.0000001
 44
0.0000000001
 40
0.0
 40
0.0
 40
0.0
 40
0.0
 40
0.2492560194
 40
0.4995489889
 40
0.7497180242
 40
1.0
 40
1.0
 40
1.0
 40
1.0
 10
134.1815288237
 20
-14.874875443
 30
0.0
 10
134.0431670196
 20
-14.8640506664
 30
0.0
 10
133.7596692295
 20
-14.8917894624
 30
0.0
 10
133.3756985741
 20
-15.0754875026
 30
0.0
 10
133.0765034383
 20
-15.3789500007
 30
0.0
 10
132.9573371197
 20
-15.6382468758
 30
0.0
 10
132.9222039971
 20
-15.7731012989
 30
0.0
  0
SPLINE
  5
278
100
AcDbEntity
  8
_30_VOLUMEN
100
AcDbSpline
 62
4
  6
CONTINUOUS
 70
0
 71
3
 72
9
 73
5
 74
0
 42
0.0000001
 43
0.0000001
 44
0.0000000001
 40
0.0
 40
0.0
 40
0.0
 40
0.0
 40
0.2515557809
 40
1.0
 40
1.0
 40
1.0
 40
1.0
 10
132.9222039971
 20
-15.7731012989
 30
0.0
 10
132.9135306162
 20
-15.8063930669
 30
0.0
 10
132.8846997598
 20
-15.9401360448
 30
0.0
 10
132.8785098188
 20
-16.0788226804
 30
0.0
 10
132.8874309104
 20
-16.1807912244
 30
0.0
  0
SPLINE
  5
279
100
AcDbEntity
  8
_21_KURVEN
100
AcDbSpline
 62
7
  6
CONTINUOUS
 70
0
 71
3
 72
33
 73
29
 74
0
 42
0.0000001
 43
0.0000001
 44
0.0000000001
 40
0.0
 40
0.0
 40
0.0
 40
0.0
 40
0.0625
 40
0.09375
 40
0.125
 40
0.140625
 40
0.15625
 40
0.1875
 40
0.25
 40
0.28125
 40
0.3125
 40
0.375
 40
0.4375
 40
0.46875
 40
0.5
 40
0.53125
 40
0.5625
 40
0.625
 40
0.6875
 40
0.71875
 40
0.75
 40
0.8125
 40
0.84375
 40
0.859375
 40
0.875
 40
0.90625
 40
0.9375
 40
1.0
 40
1.0
 40
1.0
 40
1.0
 10
134.1815288237
 20
-14.874875443
 30
0.0
 10
134.1475347789
 20
-14.8755458746
 30
0.0
 10
134.096546528
 20
-14.8766859481
 30
0.0
 10
134.0285509282
 20
-14.8776683416
 30
0.0
 10
133.9860771477
 20
-14.8794025553
 30
0.0
 10
133.9520446132
 20
-14.8782358298
 30
0.0
 10
133.9182073437
 20
-14.8863893156
 30
0.0
 10
133.8588736084
 20
-14.89875908
 30
0.0
 10
133.7916406158
 20
-14.9153832824
 30
0.0
 10
133.7228120955
 20
-14.9267155966
 30
0.0
 10
133.6595963652
 20
-14.9558990251
 30
0.0
 10
133.580545804
 20
-14.9910819429
 30
0.0
 10
133.4990551392
 20
-15.0231333425
 30
0.0
 10
133.4446234587
 20
-15.0645050088
 30
0.0
 10
133.4022605111
 20
-15.0932878822
 30
0.0
 10
133.3606738866
 20
-15.1231889877
 30
0.0
 10
133.3031369138
 20
-15.1600877255
 30
0.0
 10
133.2449359408
 20
-15.2256860885
 30
0.0
 10
133.1846530486
 20
-15.2879028407
 30
0.0
 10
133.1354660344
 20
-15.3372927958
 30
0.0
 10
133.1010206708
 20
-15.3981547654
 30
0.0
 10
133.0621859281
 20
-15.4556645466
 30
0.0
 10
133.0300534402
 20
-15.5072565902
 30
0.0
 10
133.0107188589
 20
-15.5362350207
 30
0.0
 10
132.9998523785
 20
-15.5692568193
 30
0.0
 10
132.9833685464
 20
-15.6091490195
 30
0.0
 10
132.9586228959
 20
-15.6737541107
 30
0.0
 10
132.9396972498
 20
-15.7220329757
 30
0.0
 10
132.9271615764
 20
-15.7542577642
 30
0.0
  0
SPLINE
  5
27A
100
AcDbEntity
  8
_21_KURVEN
100
AcDbSpline
 62
7
  6
CONTINUOUS
 70
0
 71
3
 72
9
 73
5
 74
0
 42
0.0000001
 43
0.0000001
 44
0.0000000001
 40
0.0
 40
0.0
 40
0.0
 40
0.0
 40
0.5
 40
1.0
 40
1.0
 40
1.0
 40
1.0
 10
132.9271615939
 20
-15.7542577017
 30
0.0
 10
132.910079508
 20
-15.8231938269
 30
0.0
 10
132.8798712635
 20
-15.9605782566
 30
0.0
 10
132.8833317834
 20
-16.1091751156
 30
0.0
 10
132.8874309119
 20
-16.1807912413
 30
0.0
  0
SPLINE
  5
27B
100
AcDbEntity
  8
_21_KURVEN
100
AcDbSpline
 62
7
  6
CONTINUOUS
 70
0
 71
3
 72
9
 73
5
 74
0
 42
0.0000001
 43
0.0000001
 44
0.0000000001
 40
0.0
 40
0.0
 40
0.0
 40
0.0
 40
0.5
 40
1.0
 40
1.0
 40
1.0
 40
1.0
 10
148.8298168468
 20
-17.0116532621
 30
0.0
 10
148.8169400137
 20
-16.9125736246
 30
0.0
 10
148.7833579042
 20
-16.7157161842
 30
0.0
 10
148.6826102816
 20
-16.5344173534
 30
0.0
 10
148.6291381443
 20
-16.4481418423
 30
0.0
  0
SPLINE
  5
27C
100
AcDbEntity
  8
_21_KURVEN
100
AcDbSpline
 62
7
  6
CONTINUOUS
 70
0
 71
3
 72
9
 73
5
 74
0
 42
0.0000001
 43
0.0000001
 44
0.0000000001
 40
0.0
 40
0.0
 40
0.0
 40
0.0
 40
0.5
 40
1.0
 40
1.0
 40
1.0
 40
1.0
 10
148.6291381489
 20
-16.4481418491
 30
0.0
 10
148.6100611266
 20
-16.4209610601
 30
0.0
 10
148.5662197701
 20
-16.3603387539
 30
0.0
 10
148.5150813719
 20
-16.3057539488
 30
0.0
 10
148.4891174827
 20
-16.2789096601
 30
0.0
  0
SPLINE
  5
27D
100
AcDbEntity
  8
_21_KURVEN
100
AcDbSpline
 62
7
  6
CONTINUOUS
 70
0
 71
3
 72
12
 73
8
 74
0
 42
0.0000001
 43
0.0000001
 44
0.0000000001
 40
0.0
 40
0.0
 40
0.0
 40
0.0
 40
0.25
 40
0.375
 40
0.5
 40
0.75
 40
1.0
 40
1.0
 40
1.0
 40
1.0
 10
148.4891174832
 20
-16.2789096605
 30
0.0
 10
148.4757159748
 20
-16.2659053112
 30
0.0
 10
148.4557359779
 20
-16.2465574715
 30
0.0
 10
148.4273894992
 20
-16.2214192023
 30
0.0
 10
148.3943224315
 20
-16.1931670737
 30
0.0
 10
148.3606235267
 20
-16.1672390471
 30
0.0
 10
148.3266888239
 20
-16.1433658491
 30
0.0
 10
148.3094789765
 20
-16.1314296346
 30
0.0
  0
SPLINE
  5
27E
100
AcDbEntity
  8
_21_KURVEN
100
AcDbSpline
 62
7
  6
CONTINUOUS
 70
0
 71
3
 72
9
 73
5
 74
0
 42
0.0000001
 43
0.0000001
 44
0.0000000001
 40
0.0
 40
0.0
 40
0.0
 40
0.0
 40
0.5
 40
1.0
 40
1.0
 40
1.0
 40
1.0
 10
148.3094789811
 20
-16.1314296376
 30
0.0
 10
148.2243626082
 20
-16.0796665528
 30
0.0
 10
148.0501474153
 20
-15.983028119
 30
0.0
 10
147.8451709946
 20
-15.9482201425
 30
0.0
 10
147.74410164
 20
-15.9359473338
 30
0.0
  0
SPLINE
  5
27F
100
AcDbEntity
  8
_21_KURVEN
100
AcDbSpline
 62
7
  6
CONTINUOUS
 70
0
 71
3
 72
10
 73
6
 74
0
 42
0.0000001
 43
0.0000001
 44
0.0000000001
 40
0.0
 40
0.0
 40
0.0
 40
0.0
 40
0.25
 40
0.5
 40
1.0
 40
1.0
 40
1.0
 40
1.0
 10
148.721287003
 20
-31.8686740856
 30
0.0
 10
148.7629152068
 20
-31.8704705745
 30
0.0
 10
148.8471162781
 20
-31.8733407339
 30
0.0
 10
149.0250223224
 20
-31.8605316289
 30
0.0
 10
149.14660227
 20
-31.8252865453
 30
0.0
 10
149.2323759127
 20
-31.7970210633
 30
0.0
  0
SPLINE
  5
280
100
AcDbEntity
  8
_21_KURVEN
100
AcDbSpline
 62
7
  6
CONTINUOUS
 70
0
 71
3
 72
21
 73
17
 74
0
 42
0.0000001
 43
0.0000001
 44
0.0000000001
 40
0.0
 40
0.0
 40
0.0
 40
0.0
 40
0.125
 40
0.1875
 40
0.25
 40
0.3125
 40
0.375
 40
0.4375
 40
0.5
 40
0.5625
 40
0.625
 40
0.6875
 40
0.75
 40
0.8125
 40
0.875
 40
1.0
 40
1.0
 40
1.0
 40
1.0
 10
149.2323758997
 20
-31.7970210682
 30
0.0
 10
149.2713789964
 20
-31.7792789665
 30
0.0
 10
149.3301451277
 20
-31.7534935613
 30
0.0
 10
149.4074540251
 20
-31.7158020322
 30
0.0
 10
149.461934356
 20
-31.6778564088
 30
0.0
 10
149.5187106218
 20
-31.6443652889
 30
0.0
 10
149.5698044905
 20
-31.602733132
 30
0.0
 10
149.6184573854
 20
-31.5585311516
 30
0.0
 10
149.6711192588
 20
-31.517409768
 30
0.0
 10
149.710186192
 20
-31.4665358207
 30
0.0
 10
149.7532931032
 20
-31.4187067977
 30
0.0
 10
149.7938350425
 20
-31.3684506413
 30
0.0
 10
149.8274414176
 20
-31.3112415266
 30
0.0
 10
149.865044074
 20
-31.2570382438
 30
0.0
 10
149.9031148682
 20
-31.1780067071
 30
0.0
 10
149.9293174905
 20
-31.1175439033
 30
0.0
 10
149.9473082328
 20
-31.0774996233
 30
0.0
  0
SPLINE
  5
281
100
AcDbEntity
  8
_21_KURVEN
100
AcDbSpline
 62
7
  6
CONTINUOUS
 70
0
 71
3
 72
9
 73
5
 74
0
 42
0.0000001
 43
0.0000001
 44
0.0000000001
 40
0.0
 40
0.0
 40
0.0
 40
0.0
 40
0.5
 40
1.0
 40
1.0
 40
1.0
 40
1.0
 10
149.9473082264
 20
-31.0774996409
 30
0.0
 10
149.9731836774
 20
-30.9980078913
 30
0.0
 10
150.0219032794
 20
-30.8280640171
 30
0.0
 10
150.019828395
 20
-30.6517433351
 30
0.0
 10
150.015384915
 20
-30.5627582907
 30
0.0
  0
SPLINE
  5
282
100
AcDbEntity
  8
_21_KURVEN
100
AcDbSpline
 62
1
  6
CENTER
 70
0
 71
3
 72
191
 73
187
 74
0
 42
0.0000001
 43
0.0000001
 44
0.0000000001
 40
0.0
 40
0.0
 40
0.0
 40
0.0
 40
0.015625
 40
0.03125
 40
0.0390625
 40
0.046875
 40
0.0546875
 40
0.05859375
 40
0.060546875
 40
0.0625
 40
0.064453125
 40
0.06640625
 40
0.0703125
 40
0.078125
 40
0.0859375
 40
0.09375
 40
0.1015625
 40
0.109375
 40
0.1171875
 40
0.12109375
 40
0.123046875
 40
0.125
 40
0.126953125
 40
0.12890625
 40
0.1328125
 40
0.140625
 40
0.1484375
 40
0.15625
 40
0.1640625
 40
0.171875
 40
0.1796875
 40
0.18359375
 40
0.185546875
 40
0.1875
 40
0.189453125
 40
0.19140625
 40
0.1953125
 40
0.203125
 40
0.2109375
 40
0.21875
 40
0.2265625
 40
0.234375
 40
0.2421875
 40
0.24609375
 40
0.248046875
 40
0.25
 40
0.251953125
 40
0.25390625
 40
0.2578125
 40
0.265625
 40
0.2734375
 40
0.28125
 40
0.2890625
 40
0.296875
 40
0.3046875
 40
0.30859375
 40
0.310546875
 40
0.3125
 40
0.314453125
 40
0.31640625
 40
0.3203125
 40
0.328125
 40
0.3359375
 40
0.34375
 40
0.3515625
 40
0.359375
 40
0.3671875
 40
0.37109375
 40
0.373046875
 40
0.375
 40
0.376953125
 40
0.37890625
 40
0.3828125
 40
0.390625
 40
0.3984375
 40
0.40625
 40
0.4140625
 40
0.421875
 40
0.4296875
 40
0.43359375
 40
0.435546875
 40
0.4375
 40
0.439453125
 40
0.44140625
 40
0.4453125
 40
0.453125
 40
0.4609375
 40
0.46875
 40
0.4765625
 40
0.484375
 40
0.4921875
 40
0.49609375
 40
0.498046875
 40
0.5
 40
0.501953125
 40
0.50390625
 40
0.5078125
 40
0.515625
 40
0.5234375
 40
0.53125
 40
0.5390625
 40
0.546875
 40
0.5546875
 40
0.55859375
 40
0.560546875
 40
0.5625
 40
0.564453125
 40
0.56640625
 40
0.5703125
 40
0.578125
 40
0.5859375
 40
0.59375
 40
0.6015625
 40
0.609375
 40
0.6171875
 40
0.62109375
 40
0.623046875
 40
0.625
 40
0.626953125
 40
0.62890625
 40
0.6328125
 40
0.640625
 40
0.6484375
 40
0.65625
 40
0.6640625
 40
0.671875
 40
0.6796875
 40
0.68359375
 40
0.685546875
 40
0.6875
 40
0.689453125
 40
0.69140625
 40
0.6953125
 40
0.703125
 40
0.7109375
 40
0.71875
 40
0.7265625
 40
0.734375
 40
0.7421875
 40
0.74609375
 40
0.748046875
 40
0.75
 40
0.751953125
 40
0.75390625
 40
0.7578125
 40
0.765625
 40
0.7734375
 40
0.78125
 40
0.7890625
 40
0.796875
 40
0.8046875
 40
0.80859375
 40
0.810546875
 40
0.8125
 40
0.814453125
 40
0.81640625
 40
0.8203125
 40
0.828125
 40
0.8359375
 40
0.84375
 40
0.8515625
 40
0.859375
 40
0.8671875
 40
0.87109375
 40
0.873046875
 40
0.875
 40
0.876953125
 40
0.87890625
 40
0.8828125
 40
0.890625
 40
0.8984375
 40
0.90625
 40
0.9140625
 40
0.921875
 40
0.9296875
 40
0.93359375
 40
0.935546875
 40
0.9375
 40
0.939453125
 40
0.94140625
 40
0.9453125
 40
0.953125
 40
0.9609375
 40
0.96875
 40
0.984375
 40
1.0
 40
1.0
 40
1.0
 40
1.0
 10
142.1392001799
 20
-31.2332763452
 30
0.0
 10
142.2654657563
 20
-31.208479768
 30
0.0
 10
142.5179953956
 20
-31.1588814174
 30
0.0
 10
142.8336650117
 20
-31.0969094602
 30
0.0
 10
143.0861848141
 20
-31.0472773343
 30
0.0
 10
143.2756177972
 20
-31.0102013315
 30
0.0
 10
143.4333414665
 20
-30.9788337573
 30
0.0
 10
143.5440171799
 20
-30.9578005663
 30
0.0
 10
143.6068401984
 20
-30.9443386814
 30
0.0
 10
143.6551413029
 20
-30.9383069918
 30
0.0
 10
143.6989171678
 20
-30.9167378652
 30
0.0
 10
143.7588634464
 20
-30.8933986715
 30
0.0
 10
143.8630339563
 20
-30.8500298742
 30
0.0
 10
144.0122338446
 20
-30.7893954361
 30
0.0
 10
144.1911074063
 20
-30.7160652796
 30
0.0
 10
144.3700303862
 20
-30.6428968676
 30
0.0
 10
144.5489219978
 20
-30.5696503082
 30
0.0
 10
144.7278896644
 20
-30.4965545938
 30
0.0
 10
144.87680201
 20
-30.4352038048
 30
0.0
 10
144.9814848686
 20
-30.3931114145
 30
0.0
 10
145.0406103436
 20
-30.3677273647
 30
0.0
 10
145.0869074349
 20
-30.3524393327
 30
0.0
 10
145.1257392368
 20
-30.322816907
 30
0.0
 10
145.1801189551
 20
-30.2883203456
 30
0.0
 10
145.2740701606
 20
-30.2256216758
 30
0.0
 10
145.4089209612
 20
-30.1372708734
 30
0.0
 10
145.570468177
 20
-30.030725026
 30
0.0
 10
145.7320947044
 20
-29.9243287554
 30
0.0
 10
145.8936777302
 20
-29.817859062
 30
0.0
 10
146.0553554507
 20
-29.711533483
 30
0.0
 10
146.1898074867
 20
-29.6225096382
 30
0.0
 10
146.2844692184
 20
-29.5610102076
 30
0.0
 10
146.3377106446
 20
-29.524592416
 30
0.0
 10
146.3800388881
 20
-29.5008713489
 30
0.0
 10
146.4132039324
 20
-29.4634188054
 30
0.0
 10
146.4606202263
 20
-29.4182717805
 30
0.0
 10
146.5421094729
 20
-29.3370328077
 30
0.0
 10
146.6593019526
 20
-29.2221444366
 30
0.0
 10
146.7995964716
 20
-29.0837763118
 30
0.0
 10
146.9399899846
 20
-28.9455488177
 30
0.0
 10
147.0803239782
 20
-28.8072608804
 30
0.0
 10
147.2207970555
 20
-28.6690740855
 30
0.0
 10
147.3374439404
 20
-28.553631651
 30
0.0
 10
147.4199053378
 20
-28.4733799183
 30
0.0
 10
147.4657642065
 20
-28.4266512944
 30
0.0
 10
147.503713125
 20
-28.3940568789
 30
0.0
 10
147.5280739405
 20
-28.3520894992
 30
0.0
 10
147.5652947196
 20
-28.2994023932
 30
0.0
 10
147.6282226798
 20
-28.2056766299
 30
0.0
 10
147.7192750923
 20
-28.0725795268
 30
0.0
 10
147.8280401987
 20
-27.9125200413
 30
0.0
 10
147.9369479372
 20
-27.752557452
 30
0.0
 10
148.0457829358
 20
-27.5925502396
 30
0.0
 10
148.1547662622
 20
-27.4326246233
 30
0.0
 10
148.2451518912
 20
-27.2991184753
 30
0.0
 10
148.3092679385
 20
-27.2061215557
 30
0.0
 10
148.3445853535
 20
-27.1522668123
 30
0.0
 10
148.3747926488
 20
-27.1138860131
 30
0.0
 10
148.3907831712
 20
-27.0678210036
 30
0.0
 10
148.4170628473
 20
-27.0090813332
 30
0.0
 10
148.4607416998
 20
-26.9050380525
 30
0.0
 10
148.5243488648
 20
-26.7570580036
 30
0.0
 10
148.6001565297
 20
-26.5792010716
 30
0.0
 10
148.6761138401
 20
-26.4014224983
 30
0.0
 10
148.7519935019
 20
-26.2236113634
 30
0.0
 10
148.8280341123
 20
-26.045852116
 30
0.0
 10
148.8909294993
 20
-25.8975735863
 30
0.0
 10
148.9358766108
 20
-25.7940621442
 30
0.0
 10
148.9601244843
 20
-25.7344704466
 30
0.0
 10
148.9823560055
 20
-25.6910225717
 30
0.0
 10
148.9891231575
 20
-25.6428122545
 30
0.0
 10
149.0035401827
 20
-25.5801930271
 30
0.0
 10
149.0262566333
 20
-25.469835374
 30
0.0
 10
149.0600235644
 20
-25.3125864313
 30
0.0
 10
149.0999773442
 20
-25.1237135871
 30
0.0
 10
149.1400935001
 20
-24.934889439
 30
0.0
 10
149.1801266889
 20
-24.746044619
 30
0.0
 10
149.2203293702
 20
-24.5572337908
 30
0.0
 10
149.2533357691
 20
-24.3997953546
 30
0.0
 10
149.2774073498
 20
-24.2897753444
 30
0.0
 10
149.2896534012
 20
-24.2266151993
 30
0.0
 10
149.3030890377
 20
-24.1800663953
 30
0.0
 10
149.3002748513
 20
-24.1303781562
 30
0.0
 10
149.3021907337
 20
-24.0652222399
 30
0.0
 10
149.3029025327
 20
-23.9506891831
 30
0.0
 10
149.3053009987
 20
-23.7873371912
 30
0.0
 10
149.3075839894
 20
-23.5912010089
 30
0.0
 10
149.3100370775
 20
-23.3950933378
 30
0.0
 10
149.3124049447
 20
-23.1989854138
 30
0.0
 10
149.3149435978
 20
-23.0028499901
 30
0.0
 10
149.3165608734
 20
-22.8394956802
 30
0.0
 10
149.3186646115
 20
-22.7249667537
 30
0.0
 10
149.3183505507
 20
-22.6598042206
 30
0.0
 10
149.3223859828
 20
-22.610136306
 30
0.0
 10
149.3100956027
 20
-22.5635111663
 30
0.0
 10
149.2994030658
 20
-22.5002829565
 30
0.0
 10
149.2780377851
 20
-22.3901281235
 30
0.0
 10
149.2489039916
 20
-22.2325053014
 30
0.0
 10
149.2133456461
 20
-22.0434696707
 30
0.0
 10
149.1779576162
 20
-21.8544010565
 30
0.0
 10
149.1424861171
 20
-21.6653526205
 30
0.0
 10
149.1071781794
 20
-21.4762564553
 30
0.0
 10
149.077279251
 20
-21.3188185997
 30
0.0
 10
149.0572773016
 20
-21.2083341901
 30
0.0
 10
149.0444006523
 20
-21.1456339754
 30
0.0
 10
149.0388191141
 20
-21.0973870165
 30
0.0
 10
149.0176572629
 20
-21.0538103823
 30
0.0
 10
148.9948760587
 20
-20.9940791372
 30
0.0
 10
148.9524767744
 20
-20.890308516
 30
0.0
 10
148.8932310015
 20
-20.741667562
 30
0.0
 10
148.8215656677
 20
-20.5634700331
 30
0.0
 10
148.7500625462
 20
-20.3852215756
 30
0.0
 10
148.6784809815
 20
-20.2070052165
 30
0.0
 10
148.6070509775
 20
-20.0287113925
 30
0.0
 10
148.5470861411
 20
-19.8803646737
 30
0.0
 10
148.5059680972
 20
-19.7760697788
 30
0.0
 10
148.4811342937
 20
-19.7171784415
 30
0.0
 10
148.4662773213
 20
-19.6710218996
 30
0.0
 10
148.4370157175
 20
-19.6324646409
 30
0.0
 10
148.4030247517
 20
-19.5784042417
 30
0.0
 10
148.3411994588
 20
-19.4850336217
 30
0.0
 10
148.2541023101
 20
-19.3510008367
 30
0.0
 10
148.1490582715
 20
-19.1904401462
 30
0.0
 10
148.044164556
 20
-19.0297987457
 30
0.0
 10
147.9391970087
 20
-18.8692015335
 30
0.0
 10
147.8343744652
 20
-18.7085082785
 30
0.0
 10
147.7466005263
 20
-18.5748805516
 30
0.0
 10
147.6859811504
 20
-18.4807881916
 30
0.0
 10
147.6500582562
 20
-18.4278840495
 30
0.0
 10
147.6267308721
 20
-18.3857751666
 30
0.0
 10
147.5895859671
 20
-18.3529579285
 30
0.0
 10
147.5448791402
 20
-18.3059605729
 30
0.0
 10
147.4643965294
 20
-18.2252253434
 30
0.0
 10
147.3505959928
 20
-18.1090991122
 30
0.0
 10
147.2135301103
 20
-17.9700887878
 30
0.0
 10
147.0766057876
 20
-17.8309781538
 30
0.0
 10
146.939620464
 20
-17.6919276053
 30
0.0
 10
146.8027375843
 20
-17.552737024
 30
0.0
 10
146.6883778726
 20
-17.4371615779
 30
0.0
 10
146.6088916102
 20
-17.3554449495
 30
0.0
 10
146.5625885924
 20
-17.3100198352
 30
0.0
 10
146.5303466366
 20
-17.2723732124
 30
0.0
 10
146.4886045989
 20
-17.2484026871
 30
0.0
 10
146.4362622891
 20
-17.2116716014
 30
0.0
 10
146.3431192592
 20
-17.1496149058
 30
0.0
 10
146.2108654408
 20
-17.0597996761
 30
0.0
 10
146.05181324
 20
-16.952522409
 30
0.0
 10
145.8928592696
 20
-16.8451015999
 30
0.0
 10
145.7338599959
 20
-16.7377539501
 30
0.0
 10
145.5749437051
 20
-16.630257205
 30
0.0
 10
145.4422746061
 20
-16.5411126023
 30
0.0
 10
145.3498715307
 20
-16.4778609714
 30
0.0
 10
145.2963437836
 20
-16.4430442209
 30
0.0
 10
145.2582430013
 20
-16.4131935164
 30
0.0
 10
145.212325102
 20
-16.3976318588
 30
0.0
 10
145.1538279379
 20
-16.3718987924
 30
0.0
 10
145.0501874425
 20
-16.3291882532
 30
0.0
 10
144.902794102
 20
-16.266958249
 30
0.0
 10
144.7256363499
 20
-16.1928058189
 30
0.0
 10
144.5485583555
 20
-16.1185030062
 30
0.0
 10
144.371447074
 20
-16.044278149
 30
0.0
 10
144.1943891831
 20
-15.9698918523
 30
0.0
 10
144.0466907113
 20
-15.9083764404
 30
0.0
 10
143.9435939044
 20
-15.8643926276
 30
0.0
 10
143.8842257293
 20
-15.8406993974
 30
0.0
 10
143.8409832762
 20
-15.8188720647
 30
0.0
 10
143.7928339672
 20
-15.8125541837
 30
0.0
 10
143.7303464573
 20
-15.7987204613
 30
0.0
 10
143.6201958388
 20
-15.7770321173
 30
0.0
 10
143.4632549388
 20
-15.7447300776
 30
0.0
 10
143.2747464551
 20
-15.7065358158
 30
0.0
 10
143.086288184
 20
-15.6681787166
 30
0.0
 10
142.8978084662
 20
-15.629904781
 30
0.0
 10
142.7093643225
 20
-15.5914610286
 30
0.0
 10
142.5522268279
 20
-15.5599213212
 30
0.0
 10
142.4424265053
 20
-15.5368746397
 30
0.0
 10
142.3793778071
 20
-15.5252170295
 30
0.0
 10
142.3329522755
 20
-15.5122148801
 30
0.0
 10
142.2832356041
 20
-15.5154925369
 30
0.0
 10
142.2180946953
 20
-15.5141841672
 30
0.0
 10
142.1035632367
 20
-15.5145402757
 30
0.0
 10
141.9402265033
 20
-15.5136657674
 30
0.0
 10
141.7441027266
 20
-15.5132084432
 30
0.0
 10
141.4826461826
 20
-15.5123917878
 30
0.0
 10
141.1558110565
 20
-15.5114424273
 30
0.0
 10
140.8943473583
 20
-15.5106611609
 30
0.0
 10
140.7636149588
 20
-15.51027325
 30
0.0
  0
SPLINE
  5
283
100
AcDbEntity
  8
_21_KURVEN
100
AcDbSpline
 62
1
  6
CENTER
 70
0
 71
3
 72
191
 73
187
 74
0
 42
0.0000001
 43
0.0000001
 44
0.0000000001
 40
0.0
 40
0.0
 40
0.0
 40
0.0
 40
0.015625
 40
0.03125
 40
0.0390625
 40
0.046875
 40
0.0546875
 40
0.05859375
 40
0.060546875
 40
0.0625
 40
0.064453125
 40
0.06640625
 40
0.0703125
 40
0.078125
 40
0.0859375
 40
0.09375
 40
0.1015625
 40
0.109375
 40
0.1171875
 40
0.12109375
 40
0.123046875
 40
0.125
 40
0.126953125
 40
0.12890625
 40
0.1328125
 40
0.140625
 40
0.1484375
 40
0.15625
 40
0.1640625
 40
0.171875
 40
0.1796875
 40
0.18359375
 40
0.185546875
 40
0.1875
 40
0.189453125
 40
0.19140625
 40
0.1953125
 40
0.203125
 40
0.2109375
 40
0.21875
 40
0.2265625
 40
0.234375
 40
0.2421875
 40
0.24609375
 40
0.248046875
 40
0.25
 40
0.251953125
 40
0.25390625
 40
0.2578125
 40
0.265625
 40
0.2734375
 40
0.28125
 40
0.2890625
 40
0.296875
 40
0.3046875
 40
0.30859375
 40
0.310546875
 40
0.3125
 40
0.314453125
 40
0.31640625
 40
0.3203125
 40
0.328125
 40
0.3359375
 40
0.34375
 40
0.3515625
 40
0.359375
 40
0.3671875
 40
0.37109375
 40
0.373046875
 40
0.375
 40
0.376953125
 40
0.37890625
 40
0.3828125
 40
0.390625
 40
0.3984375
 40
0.40625
 40
0.4140625
 40
0.421875
 40
0.4296875
 40
0.43359375
 40
0.435546875
 40
0.4375
 40
0.439453125
 40
0.44140625
 40
0.4453125
 40
0.453125
 40
0.4609375
 40
0.46875
 40
0.4765625
 40
0.484375
 40
0.4921875
 40
0.49609375
 40
0.498046875
 40
0.5
 40
0.501953125
 40
0.50390625
 40
0.5078125
 40
0.515625
 40
0.5234375
 40
0.53125
 40
0.5390625
 40
0.546875
 40
0.5546875
 40
0.55859375
 40
0.560546875
 40
0.5625
 40
0.564453125
 40
0.56640625
 40
0.5703125
 40
0.578125
 40
0.5859375
 40
0.59375
 40
0.6015625
 40
0.609375
 40
0.6171875
 40
0.62109375
 40
0.623046875
 40
0.625
 40
0.626953125
 40
0.62890625
 40
0.6328125
 40
0.640625
 40
0.6484375
 40
0.65625
 40
0.6640625
 40
0.671875
 40
0.6796875
 40
0.68359375
 40
0.685546875
 40
0.6875
 40
0.689453125
 40
0.69140625
 40
0.6953125
 40
0.703125
 40
0.7109375
 40
0.71875
 40
0.7265625
 40
0.734375
 40
0.7421875
 40
0.74609375
 40
0.748046875
 40
0.75
 40
0.751953125
 40
0.75390625
 40
0.7578125
 40
0.765625
 40
0.7734375
 40
0.78125
 40
0.7890625
 40
0.796875
 40
0.8046875
 40
0.80859375
 40
0.810546875
 40
0.8125
 40
0.814453125
 40
0.81640625
 40
0.8203125
 40
0.828125
 40
0.8359375
 40
0.84375
 40
0.8515625
 40
0.859375
 40
0.8671875
 40
0.87109375
 40
0.873046875
 40
0.875
 40
0.876953125
 40
0.87890625
 40
0.8828125
 40
0.890625
 40
0.8984375
 40
0.90625
 40
0.9140625
 40
0.921875
 40
0.9296875
 40
0.93359375
 40
0.935546875
 40
0.9375
 40
0.939453125
 40
0.94140625
 40
0.9453125
 40
0.953125
 40
0.9609375
 40
0.96875
 40
0.984375
 40
1.0
 40
1.0
 40
1.0
 40
1.0
 10
140.7636156467
 20
-15.5102731835
 30
0.0
 10
140.6373500703
 20
-15.5350697606
 30
0.0
 10
140.384820431
 20
-15.5846681112
 30
0.0
 10
140.0691508149
 20
-15.6466400684
 30
0.0
 10
139.8166310126
 20
-15.6962721943
 30
0.0
 10
139.6271980295
 20
-15.7333481971
 30
0.0
 10
139.4694743602
 20
-15.7647157713
 30
0.0
 10
139.3587986467
 20
-15.7857489624
 30
0.0
 10
139.2959756283
 20
-15.7992108473
 30
0.0
 10
139.2476745238
 20
-15.8052425369
 30
0.0
 10
139.2038986588
 20
-15.8268116634
 30
0.0
 10
139.1439523802
 20
-15.8501508571
 30
0.0
 10
139.0397818704
 20
-15.8935196544
 30
0.0
 10
138.8905819821
 20
-15.9541540925
 30
0.0
 10
138.7117084203
 20
-16.0274842491
 30
0.0
 10
138.5327854405
 20
-16.1006526611
 30
0.0
 10
138.3538938289
 20
-16.1738992204
 30
0.0
 10
138.1749261623
 20
-16.2469949349
 30
0.0
 10
138.0260138167
 20
-16.3083457239
 30
0.0
 10
137.921330958
 20
-16.3504381142
 30
0.0
 10
137.862205483
 20
-16.3758221639
 30
0.0
 10
137.8159083918
 20
-16.3911101959
 30
0.0
 10
137.7770765898
 20
-16.4207326216
 30
0.0
 10
137.7226968716
 20
-16.455229183
 30
0.0
 10
137.6287456661
 20
-16.5179278528
 30
0.0
 10
137.4938948654
 20
-16.6062786552
 30
0.0
 10
137.3323476497
 20
-16.7128245026
 30
0.0
 10
137.1707211223
 20
-16.8192207732
 30
0.0
 10
137.0091380965
 20
-16.9256904666
 30
0.0
 10
136.8474603759
 20
-17.0320160456
 30
0.0
 10
136.71300834
 20
-17.1210398905
 30
0.0
 10
136.6183466083
 20
-17.182539321
 30
0.0
 10
136.565105182
 20
-17.2189571126
 30
0.0
 10
136.5227769386
 20
-17.2426781798
 30
0.0
 10
136.4896118942
 20
-17.2801307232
 30
0.0
 10
136.4421956004
 20
-17.3252777482
 30
0.0
 10
136.3607063537
 20
-17.4065167209
 30
0.0
 10
136.2435138741
 20
-17.5214050921
 30
0.0
 10
136.1032193551
 20
-17.6597732168
 30
0.0
 10
135.962825842
 20
-17.7980007109
 30
0.0
 10
135.8224918484
 20
-17.9362886483
 30
0.0
 10
135.6820187711
 20
-18.0744754432
 30
0.0
 10
135.5653718863
 20
-18.1899178777
 30
0.0
 10
135.4829104889
 20
-18.2701696103
 30
0.0
 10
135.4370516202
 20
-18.3168982342
 30
0.0
 10
135.3991027016
 20
-18.3494926497
 30
0.0
 10
135.3747418862
 20
-18.3914600294
 30
0.0
 10
135.337521107
 20
-18.4441471354
 30
0.0
 10
135.2745931469
 20
-18.5378728987
 30
0.0
 10
135.1835407343
 20
-18.6709700018
 30
0.0
 10
135.074775628
 20
-18.8310294873
 30
0.0
 10
134.9658678894
 20
-18.9909920766
 30
0.0
 10
134.8570328909
 20
-19.150999289
 30
0.0
 10
134.7480495644
 20
-19.3109249053
 30
0.0
 10
134.6576639355
 20
-19.4444310533
 30
0.0
 10
134.5935478882
 20
-19.5374279729
 30
0.0
 10
134.5582304732
 20
-19.5912827163
 30
0.0
 10
134.5280231779
 20
-19.6296635155
 30
0.0
 10
134.5120326555
 20
-19.675728525
 30
0.0
 10
134.4857529793
 20
-19.7344681954
 30
0.0
 10
134.4420741268
 20
-19.8385114762
 30
0.0
 10
134.3784669618
 20
-19.986491525
 30
0.0
 10
134.3026592969
 20
-20.1643484571
 30
0.0
 10
134.2267019866
 20
-20.3421270304
 30
0.0
 10
134.1508223248
 20
-20.5199381652
 30
0.0
 10
134.0747817143
 20
-20.6976974126
 30
0.0
 10
134.0118863273
 20
-20.8459759423
 30
0.0
 10
133.9669392159
 20
-20.9494873844
 30
0.0
 10
133.9426913423
 20
-21.0090790821
 30
0.0
 10
133.9204598211
 20
-21.052526957
 30
0.0
 10
133.9136926691
 20
-21.1007372741
 30
0.0
 10
133.899275644
 20
-21.1633565015
 30
0.0
 10
133.8765591934
 20
-21.2737141546
 30
0.0
 10
133.8427922623
 20
-21.4309630973
 30
0.0
 10
133.8028384825
 20
-21.6198359416
 30
0.0
 10
133.7627223265
 20
-21.8086600896
 30
0.0
 10
133.7226891377
 20
-21.9975049096
 30
0.0
 10
133.6824864565
 20
-22.1863157379
 30
0.0
 10
133.6494800575
 20
-22.343754174
 30
0.0
 10
133.6254084769
 20
-22.4537741842
 30
0.0
 10
133.6131624254
 20
-22.5169343293
 30
0.0
 10
133.5997267889
 20
-22.5634831334
 30
0.0
 10
133.6025409754
 20
-22.6131713724
 30
0.0
 10
133.600625093
 20
-22.6783272888
 30
0.0
 10
133.5999132939
 20
-22.7928603455
 30
0.0
 10
133.597514828
 20
-22.9562123374
 30
0.0
 10
133.5952318372
 20
-23.1523485197
 30
0.0
 10
133.5927787492
 20
-23.3484561908
 30
0.0
 10
133.5904108819
 20
-23.5445641148
 30
0.0
 10
133.5878722289
 20
-23.7406995385
 30
0.0
 10
133.5862549532
 20
-23.9040538484
 30
0.0
 10
133.5841512151
 20
-24.0185827749
 30
0.0
 10
133.5844652759
 20
-24.0837453081
 30
0.0
 10
133.5804298438
 20
-24.1334132226
 30
0.0
 10
133.5927202239
 20
-24.1800383624
 30
0.0
 10
133.6034127609
 20
-24.2432665721
 30
0.0
 10
133.6247780415
 20
-24.3534214052
 30
0.0
 10
133.653911835
 20
-24.5110442272
 30
0.0
 10
133.6894701805
 20
-24.7000798579
 30
0.0
 10
133.7248582104
 20
-24.8891484721
 30
0.0
 10
133.7603297095
 20
-25.0781969081
 30
0.0
 10
133.7956376473
 20
-25.2672930733
 30
0.0
 10
133.8255365757
 20
-25.424730929
 30
0.0
 10
133.8455385251
 20
-25.5352153386
 30
0.0
 10
133.8584151743
 20
-25.5979155533
 30
0.0
 10
133.8639967126
 20
-25.6461625122
 30
0.0
 10
133.8851585637
 20
-25.6897391464
 30
0.0
 10
133.9079397679
 20
-25.7494703914
 30
0.0
 10
133.9503390522
 20
-25.8532410127
 30
0.0
 10
134.0095848251
 20
-26.0018819666
 30
0.0
 10
134.081250159
 20
-26.1800794955
 30
0.0
 10
134.1527532804
 20
-26.358327953
 30
0.0
 10
134.2243348452
 20
-26.5365443121
 30
0.0
 10
134.2957648492
 20
-26.7148381362
 30
0.0
 10
134.3557296855
 20
-26.8631848549
 30
0.0
 10
134.3968477295
 20
-26.9674797498
 30
0.0
 10
134.4216815329
 20
-27.0263710871
 30
0.0
 10
134.4365385053
 20
-27.072527629
 30
0.0
 10
134.4658001092
 20
-27.1110848877
 30
0.0
 10
134.4997910749
 20
-27.165145287
 30
0.0
 10
134.5616163679
 20
-27.2585159069
 30
0.0
 10
134.6487135166
 20
-27.3925486919
 30
0.0
 10
134.7537575551
 20
-27.5531093824
 30
0.0
 10
134.8586512707
 20
-27.7137507829
 30
0.0
 10
134.9636188179
 20
-27.8743479952
 30
0.0
 10
135.0684413615
 20
-28.0350412502
 30
0.0
 10
135.1562153004
 20
-28.168668977
 30
0.0
 10
135.2168346762
 20
-28.262761337
 30
0.0
 10
135.2527575705
 20
-28.3156654791
 30
0.0
 10
135.2760849545
 20
-28.357774362
 30
0.0
 10
135.3132298595
 20
-28.3905916002
 30
0.0
 10
135.3579366865
 20
-28.4375889558
 30
0.0
 10
135.4384192973
 20
-28.5183241852
 30
0.0
 10
135.5522198338
 20
-28.6344504164
 30
0.0
 10
135.6892857164
 20
-28.7734607408
 30
0.0
 10
135.826210039
 20
-28.9125713749
 30
0.0
 10
135.9631953626
 20
-29.0516219233
 30
0.0
 10
136.1000782424
 20
-29.1908125047
 30
0.0
 10
136.2144379541
 20
-29.3063879507
 30
0.0
 10
136.2939242165
 20
-29.3881045792
 30
0.0
 10
136.3402272342
 20
-29.4335296934
 30
0.0
 10
136.37246919
 20
-29.4711763163
 30
0.0
 10
136.4142112277
 20
-29.4951468416
 30
0.0
 10
136.4665535376
 20
-29.5318779273
 30
0.0
 10
136.5596965674
 20
-29.5939346228
 30
0.0
 10
136.6919503858
 20
-29.6837498525
 30
0.0
 10
136.8510025867
 20
-29.7910271197
 30
0.0
 10
137.009956557
 20
-29.8984479288
 30
0.0
 10
137.1689558307
 20
-30.0057955785
 30
0.0
 10
137.3278721216
 20
-30.1132923236
 30
0.0
 10
137.4605412205
 20
-30.2024369263
 30
0.0
 10
137.5529442959
 20
-30.2656885572
 30
0.0
 10
137.606472043
 20
-30.3005053078
 30
0.0
 10
137.6445728253
 20
-30.3303560122
 30
0.0
 10
137.6904907247
 20
-30.3459176698
 30
0.0
 10
137.7489878888
 20
-30.3716507362
 30
0.0
 10
137.8526283841
 20
-30.4143612755
 30
0.0
 10
138.0000217247
 20
-30.4765912796
 30
0.0
 10
138.1771794767
 20
-30.5507437097
 30
0.0
 10
138.3542574711
 20
-30.6250465225
 30
0.0
 10
138.5313687526
 20
-30.6992713797
 30
0.0
 10
138.7084266435
 20
-30.7736576764
 30
0.0
 10
138.8561251153
 20
-30.8351730882
 30
0.0
 10
138.9592219223
 20
-30.879156901
 30
0.0
 10
139.0185900974
 20
-30.9028501312
 30
0.0
 10
139.0618325505
 20
-30.924677464
 30
0.0
 10
139.1099818595
 20
-30.930995345
 30
0.0
 10
139.1724693694
 20
-30.9448290674
 30
0.0
 10
139.2826199878
 20
-30.9665174113
 30
0.0
 10
139.4395608879
 20
-30.998819451
 30
0.0
 10
139.6280693716
 20
-31.0370137128
 30
0.0
 10
139.8165276427
 20
-31.075370812
 30
0.0
 10
140.0050073605
 20
-31.1136447476
 30
0.0
 10
140.1934515041
 20
-31.1520885
 30
0.0
 10
140.3505889988
 20
-31.1836282074
 30
0.0
 10
140.4603893213
 20
-31.2066748889
 30
0.0
 10
140.5234380195
 20
-31.2183324991
 30
0.0
 10
140.5698635512
 20
-31.2313346485
 30
0.0
 10
140.6195802226
 20
-31.2280569917
 30
0.0
 10
140.6847211313
 20
-31.2293653615
 30
0.0
 10
140.7992525899
 20
-31.2290092529
 30
0.0
 10
140.9625893234
 20
-31.2298837612
 30
0.0
 10
141.1587131001
 20
-31.2303410854
 30
0.0
 10
141.420169644
 20
-31.2311577408
 30
0.0
 10
141.7470047701
 20
-31.2321071014
 30
0.0
 10
142.0084684684
 20
-31.2328883677
 30
0.0
 10
142.1392008678
 20
-31.2332762786
 30
0.0
  0
SPLINE
  5
284
100
AcDbEntity
  8
_21_KURVEN
100
AcDbSpline
 62
7
  6
CONTINUOUS
 70
0
 71
3
 72
9
 73
5
 74
0
 42
0.0000001
 43
0.0000001
 44
0.0000000001
 40
0.0
 40
0.0
 40
0.0
 40
0.0
 40
0.5
 40
1.0
 40
1.0
 40
1.0
 40
1.0
 10
134.0729989799
 20
-29.7318962666
 30
0.0
 10
134.0858758129
 20
-29.8309759041
 30
0.0
 10
134.1194579225
 20
-30.0278333444
 30
0.0
 10
134.2202055451
 20
-30.2091321752
 30
0.0
 10
134.2736776824
 20
-30.2954076863
 30
0.0
  0
SPLINE
  5
285
100
AcDbEntity
  8
_21_KURVEN
100
AcDbSpline
 62
7
  6
CONTINUOUS
 70
0
 71
3
 72
9
 73
5
 74
0
 42
0.0000001
 43
0.0000001
 44
0.0000000001
 40
0.0
 40
0.0
 40
0.0
 40
0.0
 40
0.5
 40
1.0
 40
1.0
 40
1.0
 40
1.0
 10
134.2736776778
 20
-30.2954076795
 30
0.0
 10
134.2927547001
 20
-30.3225884685
 30
0.0
 10
134.3365960566
 20
-30.3832107747
 30
0.0
 10
134.3877344547
 20
-30.4377955798
 30
0.0
 10
134.414877618
 20
-30.4658193965
 30
0.0
  0
SPLINE
  5
286
100
AcDbEntity
  8
_21_KURVEN
100
AcDbSpline
 62
7
  6
CONTINUOUS
 70
0
 71
3
 72
12
 73
8
 74
0
 42
0.0000001
 43
0.0000001
 44
0.0000000001
 40
0.0
 40
0.0
 40
0.0
 40
0.0
 40
0.25
 40
0.5
 40
0.625
 40
0.75
 40
1.0
 40
1.0
 40
1.0
 40
1.0
 10
134.4148776174
 20
-30.4658193958
 30
0.0
 10
134.4282975332
 20
-30.4788047596
 30
0.0
 10
134.4558939832
 20
-30.5051471916
 30
0.0
 10
134.4886324878
 20
-30.5340579144
 30
0.0
 10
134.5226859216
 20
-30.5610150548
 30
0.0
 10
134.5525222742
 20
-30.5838159383
 30
0.0
 10
134.57680423
 20
-30.6006707015
 30
0.0
 10
134.5933368499
 20
-30.6121198939
 30
0.0
  0
SPLINE
  5
287
100
AcDbEntity
  8
_21_KURVEN
100
AcDbSpline
 62
7
  6
CONTINUOUS
 70
0
 71
3
 72
9
 73
5
 74
0
 42
0.0000001
 43
0.0000001
 44
0.0000000001
 40
0.0
 40
0.0
 40
0.0
 40
0.0
 40
0.5
 40
1.0
 40
1.0
 40
1.0
 40
1.0
 10
134.5933368455
 20
-30.612119891
 30
0.0
 10
134.6784532185
 20
-30.6638829759
 30
0.0
 10
134.8526684113
 20
-30.7605214097
 30
0.0
 10
135.057644832
 20
-30.7953293862
 30
0.0
 10
135.1587141867
 20
-30.8076021948
 30
0.0
  0
ENDSEC
  0
SECTION
  2
OBJECTS
  0
DICTIONARY
  5
C
100
AcDbDictionary
280
0
281
1
  3
ACAD_GROUP
350
D
  3
ACAD_MLINESTYLE
350
17
  3
ACAD_LAYOUT
350
1A
  3
ACAD_PLOTSETTINGS
350
19
  3
ACAD_PLOTSTYLENAME
350
E
  0
DICTIONARY
  5
D
102
{ACAD_REACTORS
330
C
102
}
100
AcDbDictionary
280
0
281
1
  0
ACDBDICTIONARYWDFLT
  5
E
102
{ACAD_REACTORS
330
C
102
}
100
AcDbDictionary
281
1
  3
Normal
350
F
100
AcDbDictionaryWithDefault
340
F
  0
DICTIONARY
  5
17
102
{ACAD_REACTORS
330
C
102
}
100
AcDbDictionary
280
0
281
1
  3
Standard
350
18
  0
DICTIONARY
  5
19
102
{ACAD_REACTORS
330
C
102
}
100
AcDbDictionary
281
1
  0
DICTIONARY
  5
1A
102
{ACAD_REACTORS
330
C
102
}
100
AcDbDictionary
281
1
  3
Model
350
288
  3
Layout1
350
289
  0
ACDBPLACEHOLDER
  5
F
102
{ACAD_REACTORS
330
E
102
}
  0
MLINESTYLE
  5
18
102
{ACAD_REACTORS
330
17
102
}
100
AcDbMlineStyle
  2
STANDARD
 70
0
  3

 62
256
 51
90.0
 52
90.0
 71
2
 49
0.5
 62
256
  6
BYLAYER
 49
-0.5
 62
256
  6
BYLAYER
  0
LAYOUT
  5
288
102
{ACAD_REACTORS
330
1A
102
}
100
AcDbPlotSettings
  1

  2
none_device
  4
ISO_A3_(420.00_x_297.00_MM)
  6

 40
0.0
 41
0.0
 42
0.0
 43
0.0
 44
420.0
 45
297.0
 46
0.0
 47
0.0
 48
0.0
 49
0.0
140
0.0
141
0.0
142
1.0
143
1.0
 70
1024
 72
1
 73
0
 74
0
  7

 75
0
147
1.0
148
0.0
149
0.0
100
AcDbLayout
  1
Model
 70
0
 71
0
 10
0.0
 20
0.0
 11
420.0
 21
297.0
 12
0.0
 22
0.0
 32
0.0
 14
0.0
 24
0.0
 34
0.0
 15
0.0
 25
0.0
 35
0.0
146
0.0
 13
0.0
 23
0.0
 33
0.0
 16
1.0
 26
0.0
 36
0.0
 17
0.0
 27
1.0
 37
0.0
 76
0
330
20D
345
0
346
0
  0
LAYOUT
  5
289
102
{ACAD_REACTORS
330
1A
102
}
100
AcDbPlotSettings
  1

  2
none_device
  4
ISO_A3_(420.00_x_297.00_MM)
  6

 40
0.0
 41
0.0
 42
0.0
 43
0.0
 44
420.0
 45
297.0
 46
0.0
 47
0.0
 48
0.0
 49
0.0
140
0.0
141
0.0
142
1.0
143
1.0
 70
0
 72
1
 73
0
 74
0
  7

 75
0
147
1.0
148
0.0
149
0.0
100
AcDbLayout
  1
Layout1
 70
0
 71
1
 10
0.0
 20
0.0
 11
420.0
 21
297.0
 12
0.0
 22
0.0
 32
0.0
 14
0.0
 24
0.0
 34
0.0
 15
0.0
 25
0.0
 35
0.0
146
0.0
 13
0.0
 23
0.0
 33
0.0
 16
1.0
 26
0.0
 36
0.0
 17
0.0
 27
1.0
 37
0.0
 76
0
330
20E
345
0
346
0
  0
ENDSEC
  0
EOF
