999
DXF file: 70509440.dxf
999
Pro/ENGINEER 2017380 by Parametric Technology Corporation
  0
SECTION
  2
HEADER
  9
$ACADVER
  1
AC1027
  9
$DWGCODEPAGE
  3
ANSI_1252
  9
$EXTMAX
 10
420.0
 20
297.0
 30
0.0
  9
$EXTMIN
 10
0.0
 20
0.0
 30
0.0
  9
$LIMMIN
 10
0.0
 20
0.0
  9
$LIMMAX
 10
420.0
 20
297.0
  9
$VIEWCTR
 10
210.0
 20
148.5
  9
$VIEWSIZE
 40
297.0
  9
$CLAYER
  8
0
  9
$LTSCALE
 40
23.1
  9
$CELTYPE
  6
BYLAYER
  9
$DIMSCALE
 40
1.0
  9
$DIMASZ
 40
3.5
  9
$DIMEXO
 40
0.0
  9
$DIMDLI
 40
15.96
  9
$DIMEXE
 40
1.5
  9
$DIMCEN
 40
3.78
  9
$DIMLFAC
 40
1.0
  9
$DIMBLK
  1
_FILLED
  9
$DIMALT
 70
0
  9
$DIMALTF
 40
25.4
  9
$DIMTXT
 40
3.5
  9
$DIMTOL
 70
1
  9
$DIMLIM
 70
0
  9
$DIMTFAC
 40
1.0
  9
$DIMTP
 40
0.05
  9
$DIMTM
 40
0.05
  9
$DIMGAP
 40
0.625
  9
$DIMDSEP
 70
46
  9
$AUNITS
 70
0
  9
$PDMODE
 70
3
  9
$PDSIZE
 40
0.3125
  9
$HANDSEED
  5
29D
  9
$TILEMODE
 70
1
  9
$MEASUREMENT
 70
1
  9
$INSUNITS
 70
4
  0
ENDSEC
  0
SECTION
  2
CLASSES
  0
CLASS
  1
ACDBDICTIONARYWDFLT
  2
AcDbDictionaryWithDefault
  3
AutoCAD 2000
 90
0
 91
1
280
0
281
0
  0
CLASS
  1
ACDBPLACEHOLDER
  2
AcDbPlaceHolder
  3
AutoCAD 2000
 90
0
 91
1
280
0
281
0
  0
CLASS
  1
LAYOUT
  2
AcDbLayout
  3
AutoCAD 2000
 90
0
 91
0
280
0
281
0
  0
ENDSEC
  0
SECTION
  2
TABLES
  0
TABLE
  2
VPORT
  5
8
100
AcDbSymbolTable
 70
2
  0
VPORT
  5
1F4
100
AcDbSymbolTableRecord
100
AcDbViewportTableRecord
  2
*ACTIVE
 70
0
 10
0.0
 20
0.0
 11
1.0
 21
1.0
 12
210.0
 22
148.5
 13
0.0
 23
0.0
 14
1.0
 24
1.0
 15
0.0
 25
0.0
 16
0.0
 26
0.0
 36
1.0
 17
0.0
 27
0.0
 37
0.0
 40
297.0
 41
1.4141414141
 42
50.0
 43
0.0
 44
0.0
 50
0.0
 51
0.0
 71
0
 72
100
 73
1
 74
1
 75
0
 76
0
 77
0
 78
0
  0
ENDTAB
  0
TABLE
  2
LTYPE
  5
5
100
AcDbSymbolTable
 70
6
  0
LTYPE
  5
14
100
AcDbSymbolTableRecord
100
AcDbLinetypeTableRecord
  2
BYBLOCK
 70
0
  3

 72
65
 73
0
 40
0.0
  0
LTYPE
  5
15
100
AcDbSymbolTableRecord
100
AcDbLinetypeTableRecord
  2
BYLAYER
 70
0
  3

 72
65
 73
0
 40
0.0
  0
LTYPE
  5
16
100
AcDbSymbolTableRecord
100
AcDbLinetypeTableRecord
  2
CONTINUOUS
 70
64
  3
Solid line
 72
65
 73
0
 40
0.0
  0
LTYPE
  5
1F5
100
AcDbSymbolTableRecord
100
AcDbLinetypeTableRecord
  2
CENTER
 70
64
  3
____ _ ____ _ ____ _ ____ _ ____ _ ____ _ ____
 72
65
 73
4
 40
0.6
 49
0.375
 74
0
 49
-0.075
 74
0
 49
0.075
 74
0
 49
-0.075
 74
0
  0
LTYPE
  5
1F6
100
AcDbSymbolTableRecord
100
AcDbLinetypeTableRecord
  2
HIDDEN
 70
64
  3
- - - - - - - - - - - - - - - - - - - -
 72
65
 73
2
 40
0.2
 49
0.1
 74
0
 49
-0.1
 74
0
  0
LTYPE
  5
1F7
100
AcDbSymbolTableRecord
100
AcDbLinetypeTableRecord
  2
PHANTOM
 70
64
  3
_____ _ _ _____ _ _ _____ _ _ _____
 72
65
 73
6
 40
0.8
 49
0.45
 74
0
 49
-0.05
 74
0
 49
0.1
 74
0
 49
-0.05
 74
0
 49
0.1
 74
0
 49
-0.05
 74
0
  0
LTYPE
  5
1F8
100
AcDbSymbolTableRecord
100
AcDbLinetypeTableRecord
  2
DOT
 70
64
  3
. . . . . . . . . . . . . . . . . . . .
 72
65
 73
2
 40
0.2
 49
0.1
 74
0
 49
-0.1
 74
0
  0
LTYPE
  5
1F9
100
AcDbSymbolTableRecord
100
AcDbLinetypeTableRecord
  2
DASHED
 70
64
  3
- - - - - - - - - - - - - - - - - - - -
 72
65
 73
2
 40
0.2
 49
0.1
 74
0
 49
-0.1
 74
0
  0
ENDTAB
  0
TABLE
  2
LAYER
  5
2
100
AcDbSymbolTable
 70
36
  0
LAYER
  5
10
100
AcDbSymbolTableRecord
100
AcDbLayerTableRecord
  2
0
 70
0
 62
7
  6
CONTINUOUS
370
-3
390
F
  0
LAYER
  5
1FA
100
AcDbSymbolTableRecord
100
AcDbLayerTableRecord
  2
DEFAULT_1
 70
0
 62
7
  6
CENTER
370
-3
390
F
  0
LAYER
  5
1FB
100
AcDbSymbolTableRecord
100
AcDbLayerTableRecord
  2
DEFAULT_2
 70
0
 62
1
  6
HIDDEN
370
-3
390
F
  0
LAYER
  5
1FC
100
AcDbSymbolTableRecord
100
AcDbLayerTableRecord
  2
DEFAULT_3
 70
0
 62
7
  6
PHANTOM
370
-3
390
F
  0
LAYER
  5
1FD
100
AcDbSymbolTableRecord
100
AcDbLayerTableRecord
  2
BG_STARTBEZUEGE
 70
0
 62
7
  6
CONTINUOUS
370
-3
390
F
  0
LAYER
  5
1FE
100
AcDbSymbolTableRecord
100
AcDbLayerTableRecord
  2
HILFEN
 70
0
 62
7
  6
CONTINUOUS
370
-3
390
F
  0
LAYER
  5
1FF
100
AcDbSymbolTableRecord
100
AcDbLayerTableRecord
  2
PLATZIERUNG
 70
0
 62
7
  6
CONTINUOUS
370
-3
390
F
  0
LAYER
  5
200
100
AcDbSymbolTableRecord
100
AcDbLayerTableRecord
  2
T_STARTBEZUEGE
 70
0
 62
7
  6
CONTINUOUS
370
-3
390
F
  0
LAYER
  5
201
100
AcDbSymbolTableRecord
100
AcDbLayerTableRecord
  2
_03_2D_ZEICHNUNG_BEMASSUNGEN
 70
0
 62
7
  6
CONTINUOUS
370
-3
390
F
  0
LAYER
  5
202
100
AcDbSymbolTableRecord
100
AcDbLayerTableRecord
  2
_04_NOTIZEN
 70
0
 62
7
  6
CONTINUOUS
370
-3
390
F
  0
LAYER
  5
203
100
AcDbSymbolTableRecord
100
AcDbLayerTableRecord
  2
_05_2D_ELEMENTE
 70
0
 62
7
  6
CONTINUOUS
370
-3
390
F
  0
LAYER
  5
204
100
AcDbSymbolTableRecord
100
AcDbLayerTableRecord
  2
_07_EINRASTLINIEN
 70
0
 62
7
  6
CONTINUOUS
370
-3
390
F
  0
LAYER
  5
205
100
AcDbSymbolTableRecord
100
AcDbLayerTableRecord
  2
_21_KURVEN
 70
0
 62
7
  6
CONTINUOUS
370
-3
390
F
  0
LAYER
  5
206
100
AcDbSymbolTableRecord
100
AcDbLayerTableRecord
  2
_26_BEZUGSACHSEN
 70
0
 62
7
  6
CONTINUOUS
370
-3
390
F
  0
LAYER
  5
207
100
AcDbSymbolTableRecord
100
AcDbLayerTableRecord
  2
_27_BEZUGSEBENEN
 70
0
 62
7
  6
CONTINUOUS
370
-3
390
F
  0
LAYER
  5
208
100
AcDbSymbolTableRecord
100
AcDbLayerTableRecord
  2
_28_BEZUGSPUNKTE
 70
0
 62
7
  6
CONTINUOUS
370
-3
390
F
  0
LAYER
  5
209
100
AcDbSymbolTableRecord
100
AcDbLayerTableRecord
  2
_29_KOORDINATENSYSTEME
 70
0
 62
7
  6
CONTINUOUS
370
-3
390
F
  0
LAYER
  5
20A
100
AcDbSymbolTableRecord
100
AcDbLayerTableRecord
  2
_30_VOLUMEN
 70
0
 62
7
  6
CONTINUOUS
370
-3
390
F
  0
ENDTAB
  0
TABLE
  2
STYLE
  5
3
100
AcDbSymbolTable
 70
1
  0
STYLE
  5
11
100
AcDbSymbolTableRecord
100
AcDbTextStyleTableRecord
  2
STANDARD
 70
0
 40
0.0
 41
0.7
 50
0.0
 71
0
 42
0.2
  3
SIMPLEX.SHX
  4

  0
STYLE
  5
20B
100
AcDbSymbolTableRecord
100
AcDbTextStyleTableRecord
  2
TEXTSTYLE_1
 70
0
 40
0.0
 41
0.8
 50
0.0
 71
0
 42
0.2
  3
gdt
  4

  0
ENDTAB
  0
TABLE
  2
VIEW
  5
6
100
AcDbSymbolTable
 70
0
  0
ENDTAB
  0
TABLE
  2
UCS
  5
7
100
AcDbSymbolTable
 70
0
  0
ENDTAB
  0
TABLE
  2
APPID
  5
9
100
AcDbSymbolTable
 70
1
  0
APPID
  5
20C
100
AcDbSymbolTableRecord
100
AcDbRegAppTableRecord
  2
ACAD
 70
0
  0
ENDTAB
  0
TABLE
  2
BLOCK_RECORD
  5
1
100
AcDbSymbolTable
 70
0
  0
BLOCK_RECORD
  5
20D
100
AcDbSymbolTableRecord
100
AcDbBlockTableRecord
  2
*Model_Space
  0
BLOCK_RECORD
  5
20E
100
AcDbSymbolTableRecord
100
AcDbBlockTableRecord
  2
*Paper_Space
  0
BLOCK_RECORD
  5
20F
100
AcDbSymbolTableRecord
100
AcDbBlockTableRecord
  2
_FILLED
  0
BLOCK_RECORD
  5
210
100
AcDbSymbolTableRecord
100
AcDbBlockTableRecord
  2
*D0
  0
BLOCK_RECORD
  5
211
100
AcDbSymbolTableRecord
100
AcDbBlockTableRecord
  2
*D1
  0
BLOCK_RECORD
  5
212
100
AcDbSymbolTableRecord
100
AcDbBlockTableRecord
  2
*D2
  0
BLOCK_RECORD
  5
213
100
AcDbSymbolTableRecord
100
AcDbBlockTableRecord
  2
*D3
  0
ENDTAB
  0
TABLE
  2
DIMSTYLE
  5
A
100
AcDbSymbolTable
 70
1
100
AcDbDimStyleTable
 71
0
  0
DIMSTYLE
105
214
100
AcDbSymbolTableRecord
100
AcDbDimStyleTableRecord
  2
STANDARD
 70
0
  3

  4

 40
1.0
 41
3.5
 42
0.0
 43
0.38
 44
1.5
 45
0.0
 46
0.0
 47
0.05
 48
0.05
140
3.5
141
0.09
142
0.0
143
25.4
144
1.0
145
0.0
146
1.0
147
0.625
 71
1.0
 72
0.0
 73
0
 74
0
 75
0
 76
0
 77
1
 78
8
 79
2
170
0
171
1
172
0
173
0
174
0
175
0
176
0
177
0
178
2
270
2
179
2
271
2
272
2
273
2
274
2
275
0
280
0
281
0
282
0
283
1
284
8
285
0
286
0
287
3
288
0
340
11
278
46
341
20F
342
20F
343
20F
344
20F
  0
DIMSTYLE
105
215
100
AcDbSymbolTableRecord
100
AcDbDimStyleTableRecord
  2
DIMSTYLE_1
 70
0
  3

  4

 40
1.0
 41
3.5
 42
0.0
 43
0.38
 44
1.5
 45
0.0
 46
0.0
 47
0.3
 48
0.3
140
3.5
141
0.09
142
0.0
143
25.4
144
1.0
145
0.0
146
1.0
147
0.875
 71
0.0
 72
0.0
 73
0
 74
0
 75
0
 76
0
 77
1
 78
8
 79
2
170
0
171
1
172
0
173
0
174
0
175
0
176
0
177
0
178
2
270
2
179
2
271
2
272
2
273
2
274
2
275
0
280
0
281
0
282
0
283
1
284
8
285
0
286
0
287
3
288
0
340
11
278
46
341
20F
342
20F
343
20F
344
20F
  0
DIMSTYLE
105
216
100
AcDbSymbolTableRecord
100
AcDbDimStyleTableRecord
  2
DIMSTYLE_2
 70
0
  3

  4

 40
1.0
 41
3.5
 42
0.0
 43
0.38
 44
1.5
 45
0.0
 46
0.0
 47
0.5
 48
0.5
140
3.5
141
0.09
142
0.0
143
25.4
144
1.0
145
0.0
146
1.0
147
0.875
 71
0.0
 72
0.0
 73
0
 74
0
 75
0
 76
0
 77
1
 78
8
 79
2
170
0
171
1
172
0
173
0
174
0
175
0
176
0
177
0
178
2
270
2
179
2
271
2
272
2
273
2
274
2
275
0
280
0
281
0
282
0
283
1
284
8
285
0
286
0
287
3
288
0
340
11
278
46
341
20F
342
20F
343
20F
344
20F
  0
ENDTAB
  0
ENDSEC
  0
SECTION
  2
BLOCKS
  0
BLOCK
  5
20
100
AcDbEntity
  8
0
100
AcDbBlockBegin
  2
*Model_Space
 70
0
 10
0.0
 20
0.0
 30
0.0
  3
*Model_Space
  1

  0
ENDBLK
  5
21
100
AcDbEntity
  8
0
100
AcDbBlockEnd
  0
BLOCK
  5
1C
100
AcDbEntity
  8
0
100
AcDbBlockBegin
  2
*Paper_Space
 70
0
 10
0.0
 20
0.0
 30
0.0
  3
*Paper_Space
  1

  0
ENDBLK
  5
1D
100
AcDbEntity
  8
0
100
AcDbBlockEnd
  0
BLOCK
  5
217
100
AcDbEntity
  8
0
100
AcDbBlockBegin
  2
_FILLED
 70
64
 10
0.0
 20
0.0
  3
_FILLED
  1

  0
SOLID
  5
218
100
AcDbEntity
  8
0
  6
BYBLOCK
 62
0
100
AcDbTrace
 10
0.0
 20
0.0
 11
-1.0
 21
0.125
 12
-1.0
 22
-0.125
 13
-1.0
 23
-0.125
  0
ENDBLK
  5
219
100
AcDbEntity
  8
0
  6
BYBLOCK
 62
0
100
AcDbBlockEnd
  0
BLOCK
  5
21A
100
AcDbEntity
  8
_03_2D_ZEICHNUNG_BEMASSUNGEN
100
AcDbBlockBegin
 62
7
  6
CONTINUOUS
  2
*D0
 70
65
 10
0.0
 20
0.0
  3
*D0
  1

  0
TEXT
  5
21B
100
AcDbEntity
  8
_03_2D_ZEICHNUNG_BEMASSUNGEN
100
AcDbText
 62
2
  6
CONTINUOUS
 10
-9.875
 20
-22.75
  7
STANDARD
 40
3.5
  1
40
 50
90.0
 41
0.7857142857
 72
1
 11
-9.875
 21
-20.0
100
AcDbText
  0
LINE
  5
21C
100
AcDbEntity
  8
_03_2D_ZEICHNUNG_BEMASSUNGEN
100
AcDbLine
 62
7
  6
CONTINUOUS
 10
-0.0
 20
-0.0
 11
-10.5
 21
0.0
  0
LINE
  5
21D
100
AcDbEntity
  8
_03_2D_ZEICHNUNG_BEMASSUNGEN
100
AcDbLine
 62
7
  6
CONTINUOUS
 10
-0.0
 20
-40.0
 11
-10.5
 21
-40.0
  0
LINE
  5
21E
100
AcDbEntity
  8
_03_2D_ZEICHNUNG_BEMASSUNGEN
100
AcDbLine
 62
7
  6
CONTINUOUS
 10
-9.0
 20
0.0
 11
-9.0
 21
6.0
  0
LINE
  5
21F
100
AcDbEntity
  8
_03_2D_ZEICHNUNG_BEMASSUNGEN
100
AcDbLine
 62
7
  6
CONTINUOUS
 10
-9.0
 20
6.0
 11
-9.0
 21
-20.0
  0
LINE
  5
220
100
AcDbEntity
  8
_03_2D_ZEICHNUNG_BEMASSUNGEN
100
AcDbLine
 62
7
  6
CONTINUOUS
 10
-9.0
 20
-40.0
 11
-9.0
 21
-46.0
  0
LINE
  5
221
100
AcDbEntity
  8
_03_2D_ZEICHNUNG_BEMASSUNGEN
100
AcDbLine
 62
7
  6
CONTINUOUS
 10
-9.0
 20
-46.0
 11
-9.0
 21
-20.0
  0
INSERT
  5
222
100
AcDbEntity
  8
_03_2D_ZEICHNUNG_BEMASSUNGEN
100
AcDbBlockReference
 62
7
  6
CONTINUOUS
  2
_FILLED
 10
-9.0
 20
0.0
 41
3.5
 42
3.5
 43
3.5
 50
270.0
  0
INSERT
  5
223
100
AcDbEntity
  8
_03_2D_ZEICHNUNG_BEMASSUNGEN
100
AcDbBlockReference
 62
7
  6
CONTINUOUS
  2
_FILLED
 10
-9.0
 20
-40.0
 41
3.5
 42
3.5
 43
3.5
 50
90.0
  0
ENDBLK
  5
224
100
AcDbEntity
  8
0
  6
BYBLOCK
 62
0
100
AcDbBlockEnd
  0
BLOCK
  5
225
100
AcDbEntity
  8
_03_2D_ZEICHNUNG_BEMASSUNGEN
100
AcDbBlockBegin
 62
7
  6
CONTINUOUS
  2
*D1
 70
65
 10
0.0
 20
0.0
  3
*D1
  1

  0
TEXT
  5
226
100
AcDbEntity
  8
_03_2D_ZEICHNUNG_BEMASSUNGEN
100
AcDbText
 62
2
  6
CONTINUOUS
 10
121.0
 20
18.875
  7
STANDARD
 40
3.5
  1
250
 41
0.7619047619
 72
1
 11
125.0
 21
18.875
100
AcDbText
  0
LINE
  5
227
100
AcDbEntity
  8
_03_2D_ZEICHNUNG_BEMASSUNGEN
100
AcDbLine
 62
7
  6
CONTINUOUS
 10
250.0
 20
0.0
 11
250.0
 21
19.5
  0
LINE
  5
228
100
AcDbEntity
  8
_03_2D_ZEICHNUNG_BEMASSUNGEN
100
AcDbLine
 62
7
  6
CONTINUOUS
 10
0.0
 20
0.0
 11
0.0
 21
19.5
  0
LINE
  5
229
100
AcDbEntity
  8
_03_2D_ZEICHNUNG_BEMASSUNGEN
100
AcDbLine
 62
7
  6
CONTINUOUS
 10
250.0
 20
18.0
 11
125.0
 21
18.0
  0
LINE
  5
22A
100
AcDbEntity
  8
_03_2D_ZEICHNUNG_BEMASSUNGEN
100
AcDbLine
 62
7
  6
CONTINUOUS
 10
0.0
 20
18.0
 11
125.0
 21
18.0
  0
INSERT
  5
22B
100
AcDbEntity
  8
_03_2D_ZEICHNUNG_BEMASSUNGEN
100
AcDbBlockReference
 62
7
  6
CONTINUOUS
  2
_FILLED
 10
250.0
 20
18.0
 41
3.5
 42
3.5
 43
3.5
  0
INSERT
  5
22C
100
AcDbEntity
  8
_03_2D_ZEICHNUNG_BEMASSUNGEN
100
AcDbBlockReference
 62
7
  6
CONTINUOUS
  2
_FILLED
 10
0.0
 20
18.0
 41
3.5
 42
3.5
 43
3.5
 50
180.0
  0
ENDBLK
  5
22D
100
AcDbEntity
  8
0
  6
BYBLOCK
 62
0
100
AcDbBlockEnd
  0
BLOCK
  5
22E
100
AcDbEntity
  8
_03_2D_ZEICHNUNG_BEMASSUNGEN
100
AcDbBlockBegin
 62
7
  6
CONTINUOUS
  2
*D2
 70
65
 10
0.0
 20
0.0
  3
*D2
  1

  0
TEXT
  5
22F
100
AcDbEntity
  8
_03_2D_ZEICHNUNG_BEMASSUNGEN
100
AcDbText
 62
2
  6
CONTINUOUS
 10
258.3726377497
 20
-27.625
  7
STANDARD
 40
3.5
  1
50
 50
90.0
 41
0.75
 72
1
 11
258.3726377497
 21
-25.0
100
AcDbText
  0
LINE
  5
230
100
AcDbEntity
  8
_03_2D_ZEICHNUNG_BEMASSUNGEN
100
AcDbLine
 62
7
  6
CONTINUOUS
 10
250.0
 20
-50.0
 11
260.7476377497
 21
-50.0
  0
LINE
  5
231
100
AcDbEntity
  8
_03_2D_ZEICHNUNG_BEMASSUNGEN
100
AcDbLine
 62
7
  6
CONTINUOUS
 10
0.0
 20
0.0
 11
260.7476377497
 21
0.0
  0
LINE
  5
232
100
AcDbEntity
  8
_03_2D_ZEICHNUNG_BEMASSUNGEN
100
AcDbLine
 62
7
  6
CONTINUOUS
 10
259.2476377497
 20
-50.0
 11
259.2476377497
 21
-25.0
  0
LINE
  5
233
100
AcDbEntity
  8
_03_2D_ZEICHNUNG_BEMASSUNGEN
100
AcDbLine
 62
7
  6
CONTINUOUS
 10
259.2476377497
 20
0.0
 11
259.2476377497
 21
-25.0
  0
INSERT
  5
234
100
AcDbEntity
  8
_03_2D_ZEICHNUNG_BEMASSUNGEN
100
AcDbBlockReference
 62
7
  6
CONTINUOUS
  2
_FILLED
 10
259.2476377497
 20
-50.0
 41
3.5
 42
3.5
 43
3.5
 50
270.0
  0
INSERT
  5
235
100
AcDbEntity
  8
_03_2D_ZEICHNUNG_BEMASSUNGEN
100
AcDbBlockReference
 62
7
  6
CONTINUOUS
  2
_FILLED
 10
259.2476377497
 20
0.0
 41
3.5
 42
3.5
 43
3.5
 50
90.0
  0
ENDBLK
  5
236
100
AcDbEntity
  8
0
  6
BYBLOCK
 62
0
100
AcDbBlockEnd
  0
BLOCK
  5
237
100
AcDbEntity
  8
_03_2D_ZEICHNUNG_BEMASSUNGEN
100
AcDbBlockBegin
 62
7
  6
CONTINUOUS
  2
*D3
 70
65
 10
0.0
 20
0.0
  3
*D3
  1

  0
TEXT
  5
238
100
AcDbEntity
  8
_03_2D_ZEICHNUNG_BEMASSUNGEN
100
AcDbText
 62
2
  6
CONTINUOUS
 10
217.25
 20
9.875
  7
STANDARD
 40
3.5
  1
60
 41
0.7857142857
 72
1
 11
220.0
 21
9.875
100
AcDbText
  0
LINE
  5
239
100
AcDbEntity
  8
_03_2D_ZEICHNUNG_BEMASSUNGEN
100
AcDbLine
 62
7
  6
CONTINUOUS
 10
190.0
 20
0.0
 11
190.0
 21
10.5
  0
LINE
  5
23A
100
AcDbEntity
  8
_03_2D_ZEICHNUNG_BEMASSUNGEN
100
AcDbLine
 62
7
  6
CONTINUOUS
 10
250.0
 20
-50.0
 11
250.0
 21
10.5
  0
LINE
  5
23B
100
AcDbEntity
  8
_03_2D_ZEICHNUNG_BEMASSUNGEN
100
AcDbLine
 62
7
  6
CONTINUOUS
 10
190.0
 20
9.0
 11
220.0
 21
9.0
  0
LINE
  5
23C
100
AcDbEntity
  8
_03_2D_ZEICHNUNG_BEMASSUNGEN
100
AcDbLine
 62
7
  6
CONTINUOUS
 10
250.0
 20
9.0
 11
220.0
 21
9.0
  0
INSERT
  5
23D
100
AcDbEntity
  8
_03_2D_ZEICHNUNG_BEMASSUNGEN
100
AcDbBlockReference
 62
7
  6
CONTINUOUS
  2
_FILLED
 10
190.0
 20
9.0
 41
3.5
 42
3.5
 43
3.5
 50
180.0
  0
INSERT
  5
23E
100
AcDbEntity
  8
_03_2D_ZEICHNUNG_BEMASSUNGEN
100
AcDbBlockReference
 62
7
  6
CONTINUOUS
  2
_FILLED
 10
250.0
 20
9.0
 41
3.5
 42
3.5
 43
3.5
 50
360.0
  0
ENDBLK
  5
23F
100
AcDbEntity
  8
0
  6
BYBLOCK
 62
0
100
AcDbBlockEnd
  0
ENDSEC
  0
SECTION
  2
ENTITIES
  0
DIMENSION
  5
240
100
AcDbEntity
  8
_03_2D_ZEICHNUNG_BEMASSUNGEN
100
AcDbDimension
 62
7
  6
CONTINUOUS
  2
*D0
 10
-9.0
 20
-40.0
 11
-9.0
 21
-20.5000001526
 70
160
 71
2
 42
40.0
  3
DIMSTYLE_1
100
AcDbAlignedDimension
 13
-0.0
 23
-0.0
 14
-0.0
 24
-40.0
 50
270.0
100
AcDbRotatedDimension
  0
DIMENSION
  5
241
100
AcDbEntity
  8
_03_2D_ZEICHNUNG_BEMASSUNGEN
100
AcDbDimension
 62
7
  6
CONTINUOUS
  2
*D1
 10
0.0
 20
18.0
 11
124.5000009155
 21
18.0
 70
160
 71
2
 42
250.0
  3
DIMSTYLE_2
100
AcDbAlignedDimension
 13
250.0
 23
0.0
 14
0.0
 24
0.0
 50
180.0
100
AcDbRotatedDimension
  0
DIMENSION
  5
242
100
AcDbEntity
  8
_03_2D_ZEICHNUNG_BEMASSUNGEN
100
AcDbDimension
 62
7
  6
CONTINUOUS
  2
*D2
 10
259.2476377497
 20
0.0
 11
259.2476377497
 21
-25.4999949274
 70
160
 71
2
 42
50.0
  3
DIMSTYLE_1
100
AcDbAlignedDimension
 13
250.0
 23
-50.0
 14
0.0
 24
0.0
 50
90.0
100
AcDbRotatedDimension
  0
DIMENSION
  5
243
100
AcDbEntity
  8
_03_2D_ZEICHNUNG_BEMASSUNGEN
100
AcDbDimension
 62
7
  6
CONTINUOUS
  2
*D3
 10
250.0
 20
9.0
 11
219.5000006104
 21
9.0
 70
160
 71
2
 42
60.0
  3
DIMSTYLE_1
100
AcDbAlignedDimension
 13
190.0
 23
0.0
 14
250.0
 24
-50.0
 50
360.0
100
AcDbRotatedDimension
  0
LINE
  5
244
100
AcDbEntity
  8
_30_VOLUMEN
100
AcDbLine
 62
4
  6
CONTINUOUS
 10
-0.0
 20
-39.5
 11
-0.0
 21
-0.5
  0
LINE
  5
245
100
AcDbEntity
  8
_30_VOLUMEN
100
AcDbLine
 62
4
  6
CONTINUOUS
 10
0.5
 20
-40.0
 11
0.5
 21
-0.0
  0
LINE
  5
246
100
AcDbEntity
  8
_30_VOLUMEN
100
AcDbLine
 62
4
  6
CONTINUOUS
 10
0.5
 20
-0.0
 11
-0.0
 21
-0.5
  0
LINE
  5
247
100
AcDbEntity
  8
_30_VOLUMEN
100
AcDbLine
 62
4
  6
CONTINUOUS
 10
0.5
 20
-40.0
 11
-0.0
 21
-39.5
  0
LINE
  5
248
100
AcDbEntity
  8
_30_VOLUMEN
100
AcDbLine
 62
4
  6
CONTINUOUS
 10
201.1811050367
 20
-28.547759546
 11
205.9061949023
 21
-28.2374314593
  0
LINE
  5
249
100
AcDbEntity
  8
_30_VOLUMEN
100
AcDbLine
 62
4
  6
CONTINUOUS
 10
0.5
 20
-40.0
 11
190.0
 21
-40.0
  0
LINE
  5
24A
100
AcDbEntity
  8
_30_VOLUMEN
100
AcDbLine
 62
4
  6
CONTINUOUS
 10
247.4115239181
 20
-49.7684069017
 11
226.6699500364
 21
-48.1456837418
  0
LINE
  5
24B
100
AcDbEntity
  8
_21_KURVEN
100
AcDbLine
 62
7
  6
CONTINUOUS
 10
247.4115239181
 20
-49.7684069017
 11
226.6699500364
 21
-48.1456837418
  0
LINE
  5
24C
100
AcDbEntity
  8
_26_BEZUGSACHSEN
100
AcDbLine
 62
4
  6
CONTINUOUS
 10
224.3873596136
 20
-45.6009716725
 11
195.9155984874
 21
-43.1100153433
  0
LINE
  5
24D
100
AcDbEntity
  8
_30_VOLUMEN
100
AcDbLine
 62
4
  6
CONTINUOUS
 10
192.3476862024
 20
-42.7978634659
 11
195.9155984874
 21
-43.1100153433
  0
LINE
  5
24E
100
AcDbEntity
  8
_30_VOLUMEN
100
AcDbLine
 62
4
  6
CONTINUOUS
 10
227.4938361531
 20
-22.8321054475
 11
246.0151711417
 21
-24.2811275618
  0
LINE
  5
24F
100
AcDbEntity
  8
_21_KURVEN
100
AcDbLine
 62
7
  6
CONTINUOUS
 10
227.4938361531
 20
-22.8321054475
 11
246.0151711417
 21
-24.2811275618
  0
LINE
  5
250
100
AcDbEntity
  8
_30_VOLUMEN
100
AcDbLine
 62
4
  6
CONTINUOUS
 10
227.3776885273
 20
-22.7285588836
 11
245.5954086173
 21
-24.3237736018
  0
LINE
  5
251
100
AcDbEntity
  8
_30_VOLUMEN
100
AcDbLine
 62
4
  6
CONTINUOUS
 10
211.8562768124
 20
-33.2297312244
 11
235.1503952262
 21
-40.1273567552
  0
LINE
  5
252
100
AcDbEntity
  8
_30_VOLUMEN
100
AcDbLine
 62
4
  6
CONTINUOUS
 10
243.467354173
 20
0.0
 11
203.3166731161
 21
0.0
  0
LINE
  5
253
100
AcDbEntity
  8
_30_VOLUMEN
100
AcDbLine
 62
4
  6
CONTINUOUS
 10
0.5
 20
-0.0
 11
190.0
 21
0.0
  0
LINE
  5
254
100
AcDbEntity
  8
0
100
AcDbLine
 62
4
  6
CONTINUOUS
 10
190.0
 20
0.0
 11
203.3166731161
 21
0.0
  0
LINE
  5
255
100
AcDbEntity
  8
_30_VOLUMEN
100
AcDbLine
 62
4
  6
CONTINUOUS
 10
225.3766423359
 20
-35.121200531
 11
213.7557948019
 21
-31.6801493087
  0
LINE
  5
256
100
AcDbEntity
  8
_30_VOLUMEN
100
AcDbLine
 62
4
  6
CONTINUOUS
 10
235.7632700237
 20
-39.5650406642
 11
225.3766423359
 21
-35.121200531
  0
LINE
  5
257
100
AcDbEntity
  8
_30_VOLUMEN
100
AcDbLine
 62
4
  6
CONTINUOUS
 10
201.1811050367
 20
-28.547759546
 11
211.8562768124
 21
-33.2297312244
  0
LINE
  5
258
100
AcDbEntity
  8
_30_VOLUMEN
100
AcDbLine
 62
4
  6
CONTINUOUS
 10
205.9061949023
 20
-28.2374314593
 11
213.7557948019
 21
-31.6801493087
  0
LINE
  5
259
100
AcDbEntity
  8
0
100
AcDbLine
 62
4
  6
CONTINUOUS
 10
203.3166731161
 20
0.0
 11
199.38
 21
-3.9366731161
  0
LINE
  5
25A
100
AcDbEntity
  8
_30_VOLUMEN
100
AcDbLine
 62
4
  6
CONTINUOUS
 10
190.0
 20
-40.0
 11
192.3476862024
 21
-42.7978634659
  0
LINE
  5
25B
100
AcDbEntity
  8
_30_VOLUMEN
100
AcDbLine
 62
4
  6
CONTINUOUS
 10
238.7839029548
 20
-34.1981557184
 11
229.3053273267
 21
-28.1409414876
  0
LINE
  5
25C
100
AcDbEntity
  8
_30_VOLUMEN
100
AcDbLine
 62
4
  6
CONTINUOUS
 10
213.2208769304
 20
-15.2411297716
 11
220.2775763013
 21
-20.0926271742
  0
LINE
  5
25D
100
AcDbEntity
  8
_30_VOLUMEN
100
AcDbLine
 62
4
  6
CONTINUOUS
 10
225.1812764762
 20
-47.4611183077
 11
224.2662399573
 21
-46.5460817887
  0
LINE
  5
25E
100
AcDbEntity
  8
_30_VOLUMEN
100
AcDbLine
 62
7
  6
CONTINUOUS
 10
224.4985196393
 20
-45.9942718866
 11
224.0781687278
 21
-45.5739209751
  0
LINE
  5
25F
100
AcDbEntity
  8
0
100
AcDbLine
 62
4
  6
CONTINUOUS
 10
190.0
 20
0.0
 11
190.0
 21
-40.0
  0
LINE
  5
260
100
AcDbEntity
  8
_30_VOLUMEN
100
AcDbLine
 62
4
  6
CONTINUOUS
 10
211.3809943259
 20
-10.425189368
 11
201.1811050367
 21
-28.547759546
  0
LINE
  5
261
100
AcDbEntity
  8
_30_VOLUMEN
100
AcDbLine
 62
4
  6
CONTINUOUS
 10
211.8562768124
 20
-33.2297312244
 11
213.7557948019
 21
-31.6801493087
  0
LINE
  5
262
100
AcDbEntity
  8
_30_VOLUMEN
100
AcDbLine
 62
4
  6
CONTINUOUS
 10
220.9778500788
 20
-17.0230502532
 11
211.3809943259
 21
-10.425189368
  0
LINE
  5
263
100
AcDbEntity
  8
_30_VOLUMEN
100
AcDbLine
 62
4
  6
CONTINUOUS
 10
229.3053273267
 20
-28.1409414876
 11
220.2775763013
 21
-20.0926271742
  0
LINE
  5
264
100
AcDbEntity
  8
0
100
AcDbLine
 62
4
  6
CONTINUOUS
 10
199.38
 20
0.0
 11
199.38
 21
-3.9366731161
  0
LINE
  5
265
100
AcDbEntity
  8
_30_VOLUMEN
100
AcDbLine
 62
4
  6
CONTINUOUS
 10
199.38
 20
-3.9366731161
 11
195.9155984874
 21
-43.1100153433
  0
LINE
  5
266
100
AcDbEntity
  8
_30_VOLUMEN
100
AcDbLine
 62
4
  6
CONTINUOUS
 10
205.9061949023
 20
-28.2374314593
 11
213.2208769304
 21
-15.2411297716
  0
LINE
  5
267
100
AcDbEntity
  8
_30_VOLUMEN
100
AcDbLine
 62
4
  6
CONTINUOUS
 10
239.074077637
 20
-33.1559860049
 11
220.9778500788
 21
-17.0230502532
  0
LINE
  5
268
100
AcDbEntity
  8
_28_BEZUGSPUNKTE
100
AcDbLine
 62
1
  6
CONTINUOUS
 10
250.15625
 20
-50.15625
 11
249.84375
 21
-49.84375
  0
LINE
  5
269
100
AcDbEntity
  8
_30_VOLUMEN
100
AcDbLine
 62
7
  6
CONTINUOUS
 10
235.1503952262
 20
-40.1273567552
 11
235.7632700237
 21
-39.5650406642
  0
LINE
  5
26A
100
AcDbEntity
  8
_30_VOLUMEN
100
AcDbLine
 62
7
  6
CONTINUOUS
 10
246.0151711417
 20
-24.2811275618
 11
245.5510743656
 21
-23.8170307856
  0
LINE
  5
26B
100
AcDbEntity
  8
_30_VOLUMEN
100
AcDbLine
 62
4
  6
CONTINUOUS
 10
211.3809943259
 20
-10.425189368
 11
213.2208769304
 21
-15.2411297716
  0
LINE
  5
26C
100
AcDbEntity
  8
_30_VOLUMEN
100
AcDbLine
 62
4
  6
CONTINUOUS
 10
220.9778500788
 20
-17.0230502532
 11
220.2775763013
 21
-20.0926271742
  0
LINE
  5
26D
100
AcDbEntity
  8
_30_VOLUMEN
100
AcDbLine
 62
4
  6
CONTINUOUS
 10
225.3766423359
 20
-35.121200531
 11
229.3053273267
 21
-28.1409414876
  0
LINE
  5
26E
100
AcDbEntity
  8
_30_VOLUMEN
100
AcDbLine
 62
4
  6
CONTINUOUS
 10
247.5038447019
 20
-24.9656929959
 11
246.588808183
 21
-24.050656477
  0
LINE
  5
26F
100
AcDbEntity
  8
_30_VOLUMEN
100
AcDbLine
 62
4
  6
CONTINUOUS
 10
224.4985196393
 20
-45.9942718866
 11
223.6884941229
 21
-36.7356378675
  0
LINE
  5
270
100
AcDbEntity
  8
_21_KURVEN
100
AcDbLine
 62
7
  6
CONTINUOUS
 10
224.4985196393
 20
-45.9942718866
 11
223.6884941229
 21
-36.7356378675
  0
LINE
  5
271
100
AcDbEntity
  8
_30_VOLUMEN
100
AcDbLine
 62
4
  6
CONTINUOUS
 10
224.3873596136
 20
-45.6009716725
 11
223.6944031055
 21
-36.7351208985
  0
LINE
  5
272
100
AcDbEntity
  8
_28_BEZUGSPUNKTE
100
AcDbLine
 62
1
  6
CONTINUOUS
 10
250.15625
 20
-49.84375
 11
249.84375
 21
-50.15625
  0
LINE
  5
273
100
AcDbEntity
  8
_26_BEZUGSACHSEN
100
AcDbLine
 62
4
  6
CONTINUOUS
 10
245.5954086173
 20
-24.3237736018
 11
243.467354173
 21
0.0
  0
LINE
  5
274
100
AcDbEntity
  8
_30_VOLUMEN
100
AcDbLine
 62
4
  6
CONTINUOUS
 10
248.1866015388
 20
-26.432539417
 11
249.9997197445
 21
-47.1565753389
  0
LINE
  5
275
100
AcDbEntity
  8
_21_KURVEN
100
AcDbLine
 62
7
  6
CONTINUOUS
 10
248.1866015388
 20
-26.432539417
 11
249.9997197445
 21
-47.1565753389
  0
LINE
  5
276
100
AcDbEntity
  8
_30_VOLUMEN
100
AcDbLine
 62
7
  6
CONTINUOUS
 10
239.074077637
 20
-33.1559860049
 11
238.7839029548
 21
-34.1981557184
  0
ARC
  5
277
100
AcDbEntity
  8
_30_VOLUMEN
100
AcDbCircle
 62
4
  6
CONTINUOUS
 10
235.4646453983
 20
-35.2511351789
 40
4.5013550839
100
AcDbArc
 50
16.6894313184
 51
31.6743807614
  0
ARC
  5
278
100
AcDbEntity
  8
_30_VOLUMEN
100
AcDbCircle
 62
4
  6
CONTINUOUS
 10
235.4759659712
 20
-35.2474872144
 40
4.4898061399
100
AcDbArc
 50
31.7106196425
 51
38.2303693028
  0
ARC
  5
279
100
AcDbEntity
  8
_30_VOLUMEN
100
AcDbCircle
 62
4
  6
CONTINUOUS
 10
236.2593810794
 20
-35.9589993159
 40
4.4389246517
100
AcDbArc
 50
45.0211235899
 51
74.8404461232
  0
ARC
  5
27A
100
AcDbEntity
  8
_30_VOLUMEN
100
AcDbCircle
 62
4
  6
CONTINUOUS
 10
244.9130224202
 20
-25.7447145249
 40
2.38597049
100
AcDbArc
 50
74.914771134
 51
75.2756832061
  0
ARC
  5
27B
100
AcDbEntity
  8
_30_VOLUMEN
100
AcDbCircle
 62
4
  6
CONTINUOUS
 10
225.9434086334
 20
-44.8752681069
 40
2.3683570854
100
AcDbArc
 50
196.308989119
 51
201.0442729206
  0
ARC
  5
27C
100
AcDbEntity
  8
_30_VOLUMEN
100
AcDbCircle
 62
4
  6
CONTINUOUS
 10
245.8318165327
 20
-26.6363873051
 40
2.3635918401
100
AcDbArc
 50
4.9476188522
 51
85.5805516634
  0
ARC
  5
27D
100
AcDbEntity
  8
_30_VOLUMEN
100
AcDbCircle
 62
4
  6
CONTINUOUS
 10
226.8533046454
 20
-45.7904239985
 40
2.3635918401
100
AcDbArc
 50
184.9476188522
 51
265.5805516634
  0
ARC
  5
27E
100
AcDbEntity
  8
_30_VOLUMEN
100
AcDbCircle
 62
4
  6
CONTINUOUS
 10
244.9211222451
 20
-25.7183217303
 40
2.3583793648
100
AcDbArc
 50
44.9996437285
 51
74.9378954316
  0
ARC
  5
27F
100
AcDbEntity
  8
_30_VOLUMEN
100
AcDbCircle
 62
4
  6
CONTINUOUS
 10
225.9327712273
 20
-44.8791759992
 40
2.3570258842
100
AcDbArc
 50
201.0484668529
 51
225.0064365732
  0
SPLINE
  5
280
100
AcDbEntity
  8
_30_VOLUMEN
100
AcDbSpline
 62
4
  6
CONTINUOUS
 70
0
 71
3
 72
13
 73
9
 74
0
 42
0.0000001
 43
0.0000001
 44
0.0000000001
 40
0.0
 40
0.0
 40
0.0
 40
0.0
 40
0.125019147
 40
0.2503968241
 40
0.5000145532
 40
0.7496233329
 40
0.8749915344
 40
1.0
 40
1.0
 40
1.0
 40
1.0
 10
247.4115239181
 20
-49.7684069017
 30
0.0
 10
247.5843517692
 20
-49.7819281397
 30
0.0
 10
247.9347588716
 20
-49.7707961024
 30
0.0
 10
248.6111110764
 20
-49.5995470095
 30
0.0
 10
249.3638764075
 20
-49.1147059473
 30
0.0
 10
249.8418553256
 20
-48.3575748444
 30
0.0
 10
250.0069100796
 20
-47.6797241863
 30
0.0
 10
250.0148274213
 20
-47.3292568754
 30
0.0
 10
249.9997197445
 20
-47.1565753389
 30
0.0
  0
SPLINE
  5
281
100
AcDbEntity
  8
_30_VOLUMEN
100
AcDbSpline
 62
4
  6
CONTINUOUS
 70
0
 71
3
 72
11
 73
7
 74
0
 42
0.0000001
 43
0.0000001
 44
0.0000000001
 40
0.0
 40
0.0
 40
0.0
 40
0.0
 40
0.250637453
 40
0.5007521357
 40
0.7504463452
 40
1.0
 40
1.0
 40
1.0
 40
1.0
 10
236.7776856273
 20
-41.1869075971
 30
0.0
 10
236.3661952316
 20
-41.2267128841
 30
0.0
 10
235.5304573141
 20
-41.2037780701
 30
0.0
 10
234.3279519654
 20
-40.8611680964
 30
0.0
 10
233.2492401971
 20
-40.2322866165
 30
0.0
 10
232.6563634006
 20
-39.6461265251
 30
0.0
 10
232.4020636046
 20
-39.3224514725
 30
0.0
  0
SPLINE
  5
282
100
AcDbEntity
  8
_30_VOLUMEN
100
AcDbSpline
 62
7
  6
CONTINUOUS
 70
0
 71
3
 72
11
 73
7
 74
0
 42
0.0000001
 43
0.0000001
 44
0.0000000001
 40
0.0
 40
0.0
 40
0.0
 40
0.0
 40
0.2503723908
 40
0.5007795508
 40
0.7505187333
 40
1.0
 40
1.0
 40
1.0
 40
1.0
 10
236.5678634906
 20
-40.5612182537
 30
0.0
 10
236.2775636654
 20
-40.5893002405
 30
0.0
 10
235.6899542946
 20
-40.588994634
 30
0.0
 10
234.826713229
 20
-40.4203719956
 30
0.0
 10
234.0133522262
 20
-40.0880915736
 30
0.0
 10
233.5242843329
 20
-39.7655169478
 30
0.0
 10
233.2983423463
 20
-39.5827373699
 30
0.0
  0
SPLINE
  5
283
100
AcDbEntity
  8
_30_VOLUMEN
100
AcDbSpline
 62
4
  6
CONTINUOUS
 70
0
 71
3
 72
11
 73
7
 74
0
 42
0.0000001
 43
0.0000001
 44
0.0000000001
 40
0.0
 40
0.0
 40
0.0
 40
0.0
 40
0.2506001261
 40
0.5007757893
 40
0.7504508245
 40
1.0
 40
1.0
 40
1.0
 40
1.0
 10
236.7420373062
 20
-41.1002480698
 30
0.0
 10
236.3446199552
 20
-41.1386920089
 30
0.0
 10
235.537715285
 20
-41.118749306
 30
0.0
 10
234.3737842637
 20
-40.7982866023
 30
0.0
 10
233.3236712202
 20
-40.2060695053
 30
0.0
 10
232.7397160698
 20
-39.6522142254
 30
0.0
 10
232.4869209467
 20
-39.3453285807
 30
0.0
  0
SPLINE
  5
284
100
AcDbEntity
  8
_30_VOLUMEN
100
AcDbSpline
 62
7
  6
CONTINUOUS
 70
0
 71
3
 72
18
 73
14
 74
0
 42
0.0000001
 43
0.0000001
 44
0.0000000001
 40
0.0
 40
0.0
 40
0.0
 40
0.0
 40
0.1250025239
 40
0.1878019374
 40
0.2505926909
 40
0.3759177911
 40
0.5011563542
 40
0.5638419984
 40
0.6264541247
 40
0.6889848777
 40
0.7514329316
 40
0.875802159
 40
1.0
 40
1.0
 40
1.0
 40
1.0
 10
236.5678634906
 20
-40.5612182537
 30
0.0
 10
236.9935191481
 20
-40.5200426983
 30
0.0
 10
237.6287414331
 20
-40.365881436
 30
0.0
 10
238.4029252949
 20
-39.992963973
 30
0.0
 10
239.1189404258
 20
-39.5148399586
 30
0.0
 10
239.8770401027
 20
-38.7358633469
 30
0.0
 10
240.3889975433
 20
-37.7772805485
 30
0.0
 10
240.6266513274
 20
-36.9512864036
 30
0.0
 10
240.715797389
 20
-36.3127062612
 30
0.0
 10
240.7145832543
 20
-35.6687415714
 30
0.0
 10
240.5916690401
 20
-34.8221239109
 30
0.0
 10
240.2153772803
 20
-33.8108764305
 30
0.0
 10
239.6975087773
 20
-33.1194419827
 30
0.0
 10
239.3969655949
 20
-32.8191004375
 30
0.0
  0
SPLINE
  5
285
100
AcDbEntity
  8
_30_VOLUMEN
100
AcDbSpline
 62
4
  6
CONTINUOUS
 70
0
 71
3
 72
19
 73
15
 74
0
 42
0.0000001
 43
0.0000001
 44
0.0000000001
 40
0.0
 40
0.0
 40
0.0
 40
0.0
 40
0.1250500012
 40
0.2503238629
 40
0.3755856825
 40
0.5005479724
 40
0.5631345425
 40
0.6256184732
 40
0.6880217558
 40
0.7503722627
 40
0.8127074998
 40
0.8750640233
 40
0.9374642478
 40
1.0
 40
1.0
 40
1.0
 40
1.0
 10
236.7420373062
 20
-41.1002480698
 30
0.0
 10
237.3379436882
 20
-41.0426034084
 30
0.0
 10
238.5205029194
 20
-40.7052737048
 30
0.0
 10
239.9919415157
 20
-39.6070290022
 30
0.0
 10
240.9836364184
 20
-38.0609070144
 30
0.0
 10
241.2984621261
 20
-36.55984599
 30
0.0
 10
241.2185515781
 20
-35.3598911676
 30
0.0
 10
240.9962965271
 20
-34.4849103336
 30
0.0
 10
240.618782393
 20
-33.6663429713
 30
0.0
 10
240.0981672076
 20
-32.931226686
 30
0.0
 10
239.4520543852
 20
-32.3039479441
 30
0.0
 10
238.7018614876
 20
-31.8052163671
 30
0.0
 10
237.8725608009
 20
-31.4517381145
 30
0.0
 10
237.2848770942
 20
-31.3206940685
 30
0.0
 10
236.9879201582
 20
-31.2825597208
 30
0.0
  0
SPLINE
  5
286
100
AcDbEntity
  8
_30_VOLUMEN
100
AcDbSpline
 62
4
  6
CONTINUOUS
 70
0
 71
3
 72
23
 73
19
 74
0
 42
0.0000001
 43
0.0000001
 44
0.0000000001
 40
0.0
 40
0.0
 40
0.0
 40
0.0
 40
0.0624070154
 40
0.1246878007
 40
0.186922368
 40
0.2491303537
 40
0.3113501148
 40
0.3736222937
 40
0.4359753362
 40
0.4984274174
 40
0.5609863978
 40
0.6236442507
 40
0.6863772297
 40
0.7491577031
 40
0.8119467229
 40
0.8746930392
 40
0.9374219512
 40
1.0
 40
1.0
 40
1.0
 40
1.0
 10
236.9466174373
 20
-31.2479562486
 30
0.0
 10
237.2491833726
 20
-31.281885827
 30
0.0
 10
237.8489137017
 20
-31.4057857828
 30
0.0
 10
238.6975219892
 20
-31.7529293824
 30
0.0
 10
239.4675215436
 20
-32.2494916535
 30
0.0
 10
240.1326141306
 20
-32.8791460209
 30
0.0
 10
240.670659697
 20
-33.6205304234
 30
0.0
 10
241.0636319531
 20
-34.4487877788
 30
0.0
 10
241.2981351219
 20
-35.3361941336
 30
0.0
 10
241.3665673436
 20
-36.252867984
 30
0.0
 10
241.2667423091
 20
-37.1681361887
 30
0.0
 10
241.0018211372
 20
-38.051304257
 30
0.0
 10
240.5808613809
 20
-38.8728241331
 30
0.0
 10
240.0180123643
 20
-39.6052757559
 30
0.0
 10
239.332100744
 20
-40.224045048
 30
0.0
 10
238.5458660739
 20
-40.7087230044
 30
0.0
 10
237.68604261
 20
-41.042375077
 30
0.0
 10
237.0815639869
 20
-41.1575120986
 30
0.0
 10
236.7776856273
 20
-41.1869075971
 30
0.0
  0
SPLINE
  5
287
100
AcDbEntity
  8
_21_KURVEN
100
AcDbSpline
 62
7
  6
CONTINUOUS
 70
0
 71
3
 72
14
 73
10
 74
0
 42
0.0000001
 43
0.0000001
 44
0.0000000001
 40
0.0
 40
0.0
 40
0.0
 40
0.0
 40
0.25
 40
0.375
 40
0.5
 40
0.625
 40
0.75
 40
0.875
 40
1.0
 40
1.0
 40
1.0
 40
1.0
 10
248.1866015388
 20
-26.432539417
 30
0.0
 10
248.1806582293
 20
-26.3787265366
 30
0.0
 10
248.1716570648
 20
-26.2983213963
 30
0.0
 10
248.1526874682
 20
-26.1909011564
 30
0.0
 10
248.1376500328
 20
-26.1138080095
 30
0.0
 10
248.1148154115
 20
-26.0256805557
 30
0.0
 10
248.0923713745
 20
-25.9472557173
 30
0.0
 10
248.06753336
 20
-25.8694862461
 30
0.0
 10
248.0477089734
 20
-25.8156671675
 30
0.0
 10
248.0382049939
 20
-25.7890042238
 30
0.0
  0
SPLINE
  5
288
100
AcDbEntity
  8
_21_KURVEN
100
AcDbSpline
 62
7
  6
CONTINUOUS
 70
0
 71
3
 72
14
 73
10
 74
0
 42
0.0000001
 43
0.0000001
 44
0.0000000001
 40
0.0
 40
0.0
 40
0.0
 40
0.0
 40
0.25
 40
0.375
 40
0.5
 40
0.625
 40
0.75
 40
0.875
 40
1.0
 40
1.0
 40
1.0
 40
1.0
 10
248.038204989
 20
-25.7890042109
 30
0.0
 10
248.0177097
 20
-25.7390246818
 30
0.0
 10
247.9869702951
 20
-25.6643809404
 30
0.0
 10
247.9392056354
 20
-25.5665608237
 30
0.0
 10
247.9035579452
 20
-25.4967537715
 30
0.0
 10
247.8573481227
 20
-25.4184813273
 30
0.0
 10
247.8142393648
 20
-25.349489707
 30
0.0
 10
247.7687695577
 20
-25.2814754713
 30
0.0
 10
247.7340980005
 20
-25.2342517811
 30
0.0
 10
247.717307016
 20
-25.2108750442
 30
0.0
  0
SPLINE
  5
289
100
AcDbEntity
  8
_21_KURVEN
100
AcDbSpline
 62
7
  6
CONTINUOUS
 70
0
 71
3
 72
12
 73
8
 74
0
 42
0.0000001
 43
0.0000001
 44
0.0000000001
 40
0.0
 40
0.0
 40
0.0
 40
0.0
 40
0.5
 40
0.625
 40
0.75
 40
0.875
 40
1.0
 40
1.0
 40
1.0
 40
1.0
 10
247.7173070169
 20
-25.2108750455
 30
0.0
 10
247.7072484827
 20
-25.1976665374
 30
0.0
 10
247.6937963165
 20
-25.1801807381
 30
0.0
 10
247.6797706202
 20
-25.162526131
 30
0.0
 10
247.6687510895
 20
-25.1488626426
 30
0.0
 10
247.6573204051
 20
-25.1348026598
 30
0.0
 10
247.6519768656
 20
-25.1283749971
 30
0.0
 10
247.6490204813
 20
-25.1247929584
 30
0.0
  0
SPLINE
  5
28A
100
AcDbEntity
  8
_21_KURVEN
100
AcDbSpline
 62
7
  6
CONTINUOUS
 70
0
 71
3
 72
9
 73
5
 74
0
 42
0.0000001
 43
0.0000001
 44
0.0000000001
 40
0.0
 40
0.0
 40
0.0
 40
0.0
 40
0.5
 40
1.0
 40
1.0
 40
1.0
 40
1.0
 10
247.6490204789
 20
-25.1247929555
 30
0.0
 10
247.6003405774
 20
-25.0681339007
 30
0.0
 10
247.5010571723
 20
-24.956230439
 30
0.0
 10
247.3884270943
 20
-24.8577701506
 30
0.0
 10
247.327907281
 20
-24.8066401195
 30
0.0
  0
SPLINE
  5
28B
100
AcDbEntity
  8
_21_KURVEN
100
AcDbSpline
 62
7
  6
CONTINUOUS
 70
0
 71
3
 72
21
 73
17
 74
0
 42
0.0000001
 43
0.0000001
 44
0.0000000001
 40
0.0
 40
0.0
 40
0.0
 40
0.0
 40
0.125
 40
0.1875
 40
0.25
 40
0.3125
 40
0.375
 40
0.4375
 40
0.5
 40
0.5625
 40
0.625
 40
0.6875
 40
0.75
 40
0.8125
 40
0.875
 40
1.0
 40
1.0
 40
1.0
 40
1.0
 10
247.3279072858
 20
-24.8066401234
 30
0.0
 10
247.2811553085
 20
-24.7721665796
 30
0.0
 10
247.2117361999
 20
-24.7199540935
 30
0.0
 10
247.1163419592
 20
-24.6523461274
 30
0.0
 10
247.0368248999
 20
-24.6079846603
 30
0.0
 10
246.9604911663
 20
-24.5599732471
 30
0.0
 10
246.8793955085
 20
-24.5202171111
 30
0.0
 10
246.7968555436
 20
-24.4835984768
 30
0.0
 10
246.716200392
 20
-24.4424288905
 30
0.0
 10
246.6294502942
 20
-24.4163256104
 30
0.0
 10
246.5442686186
 20
-24.3855993103
 30
0.0
 10
246.4589082004
 20
-24.3582987842
 30
0.0
 10
246.3736113507
 20
-24.3406702226
 30
0.0
 10
246.2900730095
 20
-24.3184321102
 30
0.0
 10
246.1692250841
 20
-24.3004696116
 30
0.0
 10
246.0765163572
 20
-24.2891515586
 30
0.0
 10
246.0151711577
 20
-24.281127563
 30
0.0
  0
SPLINE
  5
28C
100
AcDbEntity
  8
_21_KURVEN
100
AcDbSpline
 62
7
  6
CONTINUOUS
 70
0
 71
3
 72
11
 73
7
 74
0
 42
0.0000001
 43
0.0000001
 44
0.0000000001
 40
0.0
 40
0.0
 40
0.0
 40
0.0
 40
0.125
 40
0.25
 40
0.5
 40
1.0
 40
1.0
 40
1.0
 40
1.0
 10
247.4115239181
 20
-49.7684069017
 30
0.0
 10
247.4385660534
 20
-49.7699054272
 30
0.0
 10
247.4914828452
 20
-49.7735237458
 30
0.0
 10
247.6066562592
 20
-49.7757902412
 30
0.0
 10
247.8121225847
 20
-49.7725358925
 30
0.0
 10
247.9851966806
 20
-49.7440705397
 30
0.0
 10
248.0988011475
 20
-49.7226123378
 30
0.0
  0
SPLINE
  5
28D
100
AcDbEntity
  8
_21_KURVEN
100
AcDbSpline
 62
7
  6
CONTINUOUS
 70
0
 71
3
 72
11
 73
7
 74
0
 42
0.0000001
 43
0.0000001
 44
0.0000000001
 40
0.0
 40
0.0
 40
0.0
 40
0.0
 40
0.125
 40
0.25
 40
0.5
 40
1.0
 40
1.0
 40
1.0
 40
1.0
 10
248.0988011399
 20
-49.7226123394
 30
0.0
 10
248.125219714
 20
-49.7163329174
 30
0.0
 10
248.1771119237
 20
-49.7047008292
 30
0.0
 10
248.2884558513
 20
-49.6740226055
 30
0.0
 10
248.4850093475
 20
-49.6123181621
 30
0.0
 10
248.6432398816
 20
-49.5357539936
 30
0.0
 10
248.7493380801
 20
-49.4811966889
 30
0.0
  0
SPLINE
  5
28E
100
AcDbEntity
  8
_21_KURVEN
100
AcDbSpline
 62
7
  6
CONTINUOUS
 70
0
 71
3
 72
21
 73
17
 74
0
 42
0.0000001
 43
0.0000001
 44
0.0000000001
 40
0.0
 40
0.0
 40
0.0
 40
0.0
 40
0.125
 40
0.1875
 40
0.25
 40
0.3125
 40
0.375
 40
0.4375
 40
0.5
 40
0.5625
 40
0.625
 40
0.6875
 40
0.75
 40
0.8125
 40
0.875
 40
1.0
 40
1.0
 40
1.0
 40
1.0
 10
248.7493380941
 20
-49.4811966813
 30
0.0
 10
248.7976102936
 20
-49.4518400384
 30
0.0
 10
248.8701757426
 20
-49.4086012763
 30
0.0
 10
248.9663010758
 20
-49.3477647846
 30
0.0
 10
249.0360148994
 20
-49.2929478724
 30
0.0
 10
249.1076603812
 20
-49.2421784076
 30
0.0
 10
249.1739594063
 20
-49.1844086964
 30
0.0
 10
249.2380878518
 20
-49.1242951692
 30
0.0
 10
249.3054326981
 20
-49.0674084752
 30
0.0
 10
249.362082521
 20
-48.9999582643
 30
0.0
 10
249.4221347812
 20
-48.9354788571
 30
0.0
 10
249.4792723154
 20
-48.8696797522
 30
0.0
 10
249.5279813344
 20
-48.8006265686
 30
0.0
 10
249.5799491759
 20
-48.7347852649
 30
0.0
 10
249.6430972644
 20
-48.6342056058
 30
0.0
 10
249.689465876
 20
-48.5561083612
 30
0.0
 10
249.7205988293
 20
-48.5046351982
 30
0.0
  0
SPLINE
  5
28F
100
AcDbEntity
  8
_21_KURVEN
100
AcDbSpline
 62
7
  6
CONTINUOUS
 70
0
 71
3
 72
11
 73
7
 74
0
 42
0.0000001
 43
0.0000001
 44
0.0000000001
 40
0.0
 40
0.0
 40
0.0
 40
0.0
 40
0.125
 40
0.25
 40
0.5
 40
1.0
 40
1.0
 40
1.0
 40
1.0
 10
249.7205988179
 20
-48.5046352194
 30
0.0
 10
249.7329581498
 20
-48.4804048613
 30
0.0
 10
249.7577726573
 20
-48.4332571269
 30
0.0
 10
249.8066349229
 20
-48.3284578049
 30
0.0
 10
249.8871076519
 20
-48.1386591891
 30
0.0
 10
249.9312897132
 20
-47.9687740337
 30
0.0
 10
249.9584412307
 20
-47.8528533703
 30
0.0
  0
SPLINE
  5
290
100
AcDbEntity
  8
_21_KURVEN
100
AcDbSpline
 62
7
  6
CONTINUOUS
 70
0
 71
3
 72
12
 73
8
 74
0
 42
0.0000001
 43
0.0000001
 44
0.0000000001
 40
0.0
 40
0.0
 40
0.0
 40
0.0
 40
0.125
 40
0.25
 40
0.5
 40
0.75
 40
1.0
 40
1.0
 40
1.0
 40
1.0
 10
249.9584412334
 20
-47.8528533571
 30
0.0
 10
249.9633724928
 20
-47.8261622403
 30
0.0
 10
249.9736979828
 20
-47.7739951056
 30
0.0
 10
249.9906451938
 20
-47.659940044
 30
0.0
 10
250.0067835205
 20
-47.5134118118
 30
0.0
 10
250.0101720172
 20
-47.3405748776
 30
0.0
 10
250.0035184409
 20
-47.2185477958
 30
0.0
 10
249.9997197429
 20
-47.1565753204
 30
0.0
  0
SPLINE
  5
291
100
AcDbEntity
  8
_21_KURVEN
100
AcDbSpline
 62
1
  6
CENTER
 70
0
 71
3
 72
251
 73
247
 74
0
 42
0.0000001
 43
0.0000001
 44
0.0000000001
 40
0.0
 40
0.0
 40
0.0
 40
0.0
 40
0.015625
 40
0.03125
 40
0.0390625
 40
0.046875
 40
0.05078125
 40
0.0546875
 40
0.05859375
 40
0.060546875
 40
0.0615234375
 40
0.0625
 40
0.0634765625
 40
0.064453125
 40
0.06640625
 40
0.0703125
 40
0.07421875
 40
0.078125
 40
0.0859375
 40
0.09375
 40
0.1015625
 40
0.109375
 40
0.11328125
 40
0.1171875
 40
0.12109375
 40
0.123046875
 40
0.1240234375
 40
0.125
 40
0.1259765625
 40
0.126953125
 40
0.12890625
 40
0.1328125
 40
0.13671875
 40
0.140625
 40
0.1484375
 40
0.15625
 40
0.1640625
 40
0.171875
 40
0.17578125
 40
0.1796875
 40
0.18359375
 40
0.185546875
 40
0.1865234375
 40
0.1875
 40
0.1884765625
 40
0.189453125
 40
0.19140625
 40
0.1953125
 40
0.19921875
 40
0.203125
 40
0.2109375
 40
0.21875
 40
0.2265625
 40
0.234375
 40
0.23828125
 40
0.2421875
 40
0.24609375
 40
0.248046875
 40
0.2490234375
 40
0.25
 40
0.2509765625
 40
0.251953125
 40
0.25390625
 40
0.2578125
 40
0.26171875
 40
0.265625
 40
0.2734375
 40
0.28125
 40
0.2890625
 40
0.296875
 40
0.30078125
 40
0.3046875
 40
0.30859375
 40
0.310546875
 40
0.3115234375
 40
0.3125
 40
0.3134765625
 40
0.314453125
 40
0.31640625
 40
0.3203125
 40
0.32421875
 40
0.328125
 40
0.3359375
 40
0.34375
 40
0.3515625
 40
0.359375
 40
0.36328125
 40
0.3671875
 40
0.37109375
 40
0.373046875
 40
0.3740234375
 40
0.375
 40
0.3759765625
 40
0.376953125
 40
0.37890625
 40
0.3828125
 40
0.38671875
 40
0.390625
 40
0.3984375
 40
0.40625
 40
0.4140625
 40
0.421875
 40
0.42578125
 40
0.4296875
 40
0.43359375
 40
0.435546875
 40
0.4365234375
 40
0.4375
 40
0.4384765625
 40
0.439453125
 40
0.44140625
 40
0.4453125
 40
0.44921875
 40
0.453125
 40
0.4609375
 40
0.46875
 40
0.4765625
 40
0.484375
 40
0.48828125
 40
0.4921875
 40
0.49609375
 40
0.498046875
 40
0.4990234375
 40
0.5
 40
0.5009765625
 40
0.501953125
 40
0.50390625
 40
0.5078125
 40
0.51171875
 40
0.515625
 40
0.5234375
 40
0.53125
 40
0.5390625
 40
0.546875
 40
0.55078125
 40
0.5546875
 40
0.55859375
 40
0.560546875
 40
0.5615234375
 40
0.5625
 40
0.5634765625
 40
0.564453125
 40
0.56640625
 40
0.5703125
 40
0.57421875
 40
0.578125
 40
0.5859375
 40
0.59375
 40
0.6015625
 40
0.609375
 40
0.61328125
 40
0.6171875
 40
0.62109375
 40
0.623046875
 40
0.6240234375
 40
0.625
 40
0.6259765625
 40
0.626953125
 40
0.62890625
 40
0.6328125
 40
0.63671875
 40
0.640625
 40
0.6484375
 40
0.65625
 40
0.6640625
 40
0.671875
 40
0.67578125
 40
0.6796875
 40
0.68359375
 40
0.685546875
 40
0.6865234375
 40
0.6875
 40
0.6884765625
 40
0.689453125
 40
0.69140625
 40
0.6953125
 40
0.69921875
 40
0.703125
 40
0.7109375
 40
0.71875
 40
0.7265625
 40
0.734375
 40
0.73828125
 40
0.7421875
 40
0.74609375
 40
0.748046875
 40
0.7490234375
 40
0.75
 40
0.7509765625
 40
0.751953125
 40
0.75390625
 40
0.7578125
 40
0.76171875
 40
0.765625
 40
0.7734375
 40
0.78125
 40
0.7890625
 40
0.796875
 40
0.80078125
 40
0.8046875
 40
0.80859375
 40
0.810546875
 40
0.8115234375
 40
0.8125
 40
0.8134765625
 40
0.814453125
 40
0.81640625
 40
0.8203125
 40
0.82421875
 40
0.828125
 40
0.8359375
 40
0.84375
 40
0.8515625
 40
0.859375
 40
0.86328125
 40
0.8671875
 40
0.87109375
 40
0.873046875
 40
0.8740234375
 40
0.875
 40
0.8759765625
 40
0.876953125
 40
0.87890625
 40
0.8828125
 40
0.88671875
 40
0.890625
 40
0.8984375
 40
0.90625
 40
0.9140625
 40
0.921875
 40
0.92578125
 40
0.9296875
 40
0.93359375
 40
0.935546875
 40
0.9365234375
 40
0.9375
 40
0.9384765625
 40
0.939453125
 40
0.94140625
 40
0.9453125
 40
0.94921875
 40
0.953125
 40
0.9609375
 40
0.96875
 40
0.984375
 40
1.0
 40
1.0
 40
1.0
 40
1.0
 10
237.4433749288
 20
-48.7957711309
 30
0.0
 10
237.6454635009
 20
-48.7560841076
 30
0.0
 10
238.0496404135
 20
-48.6767092652
 30
0.0
 10
238.5548627128
 20
-48.5774946906
 30
0.0
 10
238.959038119
 20
-48.4981146763
 30
0.0
 10
239.2116532517
 20
-48.4485210648
 30
0.0
 10
239.4137327569
 20
-48.4088029104
 30
0.0
 10
239.5653268863
 20
-48.3791327519
 30
0.0
 10
239.6915455765
 20
-48.3540307892
 30
0.0
 10
239.7801140427
 20
-48.3371989346
 30
0.0
 10
239.8303882919
 20
-48.3264260337
 30
0.0
 10
239.8690413495
 20
-48.3215991614
 30
0.0
 10
239.9040730757
 20
-48.3043384251
 30
0.0
 10
239.9520452049
 20
-48.285661181
 30
0.0
 10
240.0354079007
 20
-48.2509552817
 30
0.0
 10
240.1548051578
 20
-48.2024318848
 30
0.0
 10
240.2979501588
 20
-48.1437515979
 30
0.0
 10
240.4888561914
 20
-48.0656692253
 30
0.0
 10
240.7274727661
 20
-47.9680117113
 30
0.0
 10
241.0138202456
 20
-47.8508475117
 30
0.0
 10
241.3001629116
 20
-47.7336713203
 30
0.0
 10
241.5387915202
 20
-47.6360437859
 30
0.0
 10
241.7296734852
 20
-47.5579014541
 30
0.0
 10
241.8728918923
 20
-47.4994040429
 30
0.0
 10
241.9920595045
 20
-47.4503085351
 30
0.0
 10
242.0758321515
 20
-47.4166239411
 30
0.0
 10
242.1231474363
 20
-47.3963103102
 30
0.0
 10
242.1601967777
 20
-47.3840760296
 30
0.0
 10
242.1912720077
 20
-47.3603706243
 30
0.0
 10
242.2347894846
 20
-47.3327646741
 30
0.0
 10
242.3099741708
 20
-47.2825900013
 30
0.0
 10
242.4178884637
 20
-47.2118865561
 30
0.0
 10
242.5471683395
 20
-47.126625225
 30
0.0
 10
242.7196174342
 20
-47.0130892275
 30
0.0
 10
242.9351525392
 20
-46.8711188937
 30
0.0
 10
243.1938068394
 20
-46.7007774446
 30
0.0
 10
243.4524544642
 20
-46.5304247286
 30
0.0
 10
243.6680062576
 20
-46.3884825619
 30
0.0
 10
243.8404219754
 20
-46.2748902301
 30
0.0
 10
243.9698036509
 20
-46.1898007186
 30
0.0
 10
244.077399472
 20
-46.1185597507
 30
0.0
 10
244.1531526791
 20
-46.069344638
 30
0.0
 10
244.1957592431
 20
-46.0402012321
 30
0.0
 10
244.2296325056
 20
-46.021218398
 30
0.0
 10
244.2561729015
 20
-45.9912469247
 30
0.0
 10
244.2941178821
 20
-45.9551179207
 30
0.0
 10
244.359329878
 20
-45.8901063162
 30
0.0
 10
244.4531129193
 20
-45.7981662588
 30
0.0
 10
244.5653858742
 20
-45.6874385435
 30
0.0
 10
244.7151763514
 20
-45.5399412224
 30
0.0
 10
244.9023821549
 20
-45.3555214419
 30
0.0
 10
245.1270443196
 20
-45.1342392758
 30
0.0
 10
245.3516973509
 20
-44.9129478346
 30
0.0
 10
245.5389259877
 20
-44.7285512419
 30
0.0
 10
245.6886707982
 20
-44.5810075452
 30
0.0
 10
245.8010830367
 20
-44.4704212755
 30
0.0
 10
245.8944303409
 20
-44.3780387176
 30
0.0
 10
245.9604201941
 20
-44.3138170441
 30
0.0
 10
245.9971188524
 20
-44.2764223728
 30
0.0
 10
246.0274875509
 20
-44.2503386237
 30
0.0
 10
246.0469823449
 20
-44.2167541432
 30
0.0
 10
246.0767683433
 20
-44.174591175
 30
0.0
 10
246.1271266392
 20
-44.0995869795
 30
0.0
 10
246.1999909773
 20
-43.993075438
 30
0.0
 10
246.2870327059
 20
-43.8649887927
 30
0.0
 10
246.4032265359
 20
-43.6943019152
 30
0.0
 10
246.5484210782
 20
-43.4809104351
 30
0.0
 10
246.7226764176
 20
-43.2248555242
 30
0.0
 10
246.8969205949
 20
-42.9687937657
 30
0.0
 10
247.0421430424
 20
-42.7554194043
 30
0.0
 10
247.1582810619
 20
-42.5846982894
 30
0.0
 10
247.2454930122
 20
-42.4567160683
 30
0.0
 10
247.3178248263
 20
-42.3498778446
 30
0.0
 10
247.3691337591
 20
-42.2754568267
 30
0.0
 10
247.397396599
 20
-42.232359462
 30
0.0
 10
247.4215700473
 20
-42.2016451479
 30
0.0
 10
247.4343664973
 20
-42.1647815304
 30
0.0
 10
247.4553968551
 20
-42.1177749864
 30
0.0
 10
247.4903510183
 20
-42.034514164
 30
0.0
 10
247.5412521989
 20
-41.9160926152
 30
0.0
 10
247.6019198407
 20
-41.7737631127
 30
0.0
 10
247.6829546172
 20
-41.5840685801
 30
0.0
 10
247.7841981197
 20
-41.3469234927
 30
0.0
 10
247.9057132887
 20
-41.0623614057
 30
0.0
 10
248.0272165424
 20
-40.7777943221
 30
0.0
 10
248.1284898331
 20
-40.5406617262
 30
0.0
 10
248.2094650331
 20
-40.3509422106
 30
0.0
 10
248.2703143832
 20
-40.2086889065
 30
0.0
 10
248.320647105
 20
-40.0900289771
 30
0.0
 10
248.3566160539
 20
-40.0071937006
 30
0.0
 10
248.3760204709
 20
-39.9595053256
 30
0.0
 10
248.3938112896
 20
-39.924736074
 30
0.0
 10
248.3992267187
 20
-39.8861556695
 30
0.0
 10
248.4107639653
 20
-39.8360445029
 30
0.0
 10
248.4289429278
 20
-39.7477305819
 30
0.0
 10
248.4559643653
 20
-39.6218916569
 30
0.0
 10
248.4879400051
 20
-39.4707463389
 30
0.0
 10
248.5307314652
 20
-39.2692676762
 30
0.0
 10
248.5841664508
 20
-39.0174026581
 30
0.0
 10
248.6483133523
 20
-38.7151721053
 30
0.0
 10
248.7124475223
 20
-38.4129383803
 30
0.0
 10
248.7659143365
 20
-38.1610812926
 30
0.0
 10
248.8086421394
 20
-37.9595867691
 30
0.0
 10
248.8408119337
 20
-37.8084898265
 30
0.0
 10
248.8672259752
 20
-37.6824995633
 30
0.0
 10
248.8864892324
 20
-37.5944558041
 30
0.0
 10
248.8962891673
 20
-37.5439117706
 30
0.0
 10
248.9070410611
 20
-37.5066609945
 30
0.0
 10
248.9047890045
 20
-37.4668978793
 30
0.0
 10
248.9063221859
 20
-37.4147567245
 30
0.0
 10
248.9068918821
 20
-37.3231014042
 30
0.0
 10
248.9088106314
 20
-37.1923786956
 30
0.0
 10
248.9106401854
 20
-37.0354200775
 30
0.0
 10
248.91324485
 20
-36.8261738265
 30
0.0
 10
248.9164435993
 20
-36.5646051334
 30
0.0
 10
248.9203082003
 20
-36.2507270631
 30
0.0
 10
248.9241597241
 20
-35.9368489541
 30
0.0
 10
248.9273911666
 20
-35.675280358
 30
0.0
 10
248.9299304448
 20
-35.466033913
 30
0.0
 10
248.9319594271
 20
-35.3090758866
 30
0.0
 10
248.9332542818
 20
-35.1783513268
 30
0.0
 10
248.9349377252
 20
-35.0866993113
 30
0.0
 10
248.9346864047
 20
-35.0345528613
 30
0.0
 10
248.9379157657
 20
-34.994806011
 30
0.0
 10
248.9280803656
 20
-34.9574941471
 30
0.0
 10
248.9195236339
 20
-34.9068956446
 30
0.0
 10
248.9024260993
 20
-34.8187439936
 30
0.0
 10
248.8791111142
 20
-34.6926061716
 30
0.0
 10
248.8506579758
 20
-34.5413293451
 30
0.0
 10
248.8128864872
 20
-34.3395959596
 30
0.0
 10
248.7656147978
 20
-34.0874399548
 30
0.0
 10
248.7089149041
 20
-33.7848476841
 30
0.0
 10
248.6522022019
 20
-33.4822585098
 30
0.0
 10
248.6049625337
 20
-33.2300947641
 30
0.0
 10
248.5671270026
 20
-33.0283768604
 30
0.0
 10
248.5388691938
 20
-32.8770528143
 30
0.0
 10
248.5149431367
 20
-32.7510627149
 30
0.0
 10
248.498936459
 20
-32.6626473563
 30
0.0
 10
248.4886319013
 20
-32.6124713795
 30
0.0
 10
248.4841652621
 20
-32.5738616523
 30
0.0
 10
248.4672304491
 20
-32.5389893609
 30
0.0
 10
248.4489997371
 20
-32.4911893128
 30
0.0
 10
248.415069693
 20
-32.408146628
 30
0.0
 10
248.3676575757
 20
-32.2891966645
 30
0.0
 10
248.3103095767
 20
-32.1465926385
 30
0.0
 10
248.234004024
 20
-31.9564064304
 30
0.0
 10
248.1385673835
 20
-31.7186901456
 30
0.0
 10
248.0240683041
 20
-31.4334227824
 30
0.0
 10
247.9095571874
 20
-31.1481603447
 30
0.0
 10
247.8141506401
 20
-30.910431746
 30
0.0
 10
247.7377849012
 20
-30.7202701657
 30
0.0
 10
247.6806204702
 20
-30.577591025
 30
0.0
 10
247.6326340758
 20
-30.4588760514
 30
0.0
 10
247.5997292041
 20
-30.3754138738
 30
0.0
 10
247.579855909
 20
-30.3282859581
 30
0.0
 10
247.5679665847
 20
-30.2913490916
 30
0.0
 10
247.5445499279
 20
-30.2604935654
 30
0.0
 10
247.5173485816
 20
-30.2172316243
 30
0.0
 10
247.4678728308
 20
-30.1425115523
 30
0.0
 10
247.3981726213
 20
-30.035251883
 30
0.0
 10
247.314113129
 20
-29.9067614555
 30
0.0
 10
247.2021802974
 20
-29.7353635957
 30
0.0
 10
247.0622136739
 20
-29.521143005
 30
0.0
 10
246.8942767917
 20
-29.2640659074
 30
0.0
 10
246.7263285799
 20
-29.0069955905
 30
0.0
 10
246.5863902804
 20
-28.792758048
 30
0.0
 10
246.4744008008
 20
-28.6213940919
 30
0.0
 10
246.3905140847
 20
-28.492800258
 30
0.0
 10
246.3202733594
 20
-28.3858640869
 30
0.0
 10
246.271762512
 20
-28.3105665213
 30
0.0
 10
246.2430151487
 20
-28.2682298695
 30
0.0
 10
246.2243473603
 20
-28.2345321508
 30
0.0
 10
246.1946220753
 20
-28.2082700875
 30
0.0
 10
246.1588453407
 20
-28.1706603631
 30
0.0
 10
246.0944390169
 20
-28.1060517706
 30
0.0
 10
246.0033694969
 20
-28.0131220005
 30
0.0
 10
245.893683922
 20
-27.9018767094
 30
0.0
 10
245.7475769968
 20
-27.7534551446
 30
0.0
 10
245.564894908
 20
-27.5679609317
 30
0.0
 10
245.3456981145
 20
-27.3453524739
 30
0.0
 10
245.1264919603
 20
-27.1227532363
 30
0.0
 10
244.9438332732
 20
-26.9372359729
 30
0.0
 10
244.7976795446
 20
-26.7888605092
 30
0.0
 10
244.6881367203
 20
-26.6774746094
 30
0.0
 10
244.5966206172
 20
-26.5849847218
 30
0.0
 10
244.5330115124
 20
-26.5195908719
 30
0.0
 10
244.4959574333
 20
-26.4832393265
 30
0.0
 10
244.4701557408
 20
-26.4531125408
 30
0.0
 10
244.4367515907
 20
-26.4339300773
 30
0.0
 10
244.3948645463
 20
-26.4045359571
 30
0.0
 10
244.3203266852
 20
-26.3548748922
 30
0.0
 10
244.2144899788
 20
-26.2830006151
 30
0.0
 10
244.087209436
 20
-26.1971495207
 30
0.0
 10
243.9175986546
 20
-26.0825423084
 30
0.0
 10
243.705551848
 20
-25.9393313467
 30
0.0
 10
243.45111075
 20
-25.7674561645
 30
0.0
 10
243.1966627001
 20
-25.5955922088
 30
0.0
 10
242.9846332731
 20
-25.4523531811
 30
0.0
 10
242.8149877324
 20
-25.3378021008
 30
0.0
 10
242.6878132056
 20
-25.2517798036
 30
0.0
 10
242.5816448371
 20
-25.1804411201
 30
0.0
 10
242.5076990436
 20
-25.1298239388
 30
0.0
 10
242.4648633584
 20
-25.1019617565
 30
0.0
 10
242.4343731284
 20
-25.0780736708
 30
0.0
 10
242.3976272361
 20
-25.0656204207
 30
0.0
 10
242.3508147582
 20
-25.0450274885
 30
0.0
 10
242.2678762664
 20
-25.0108482197
 30
0.0
 10
242.1499242267
 20
-24.9610491169
 30
0.0
 10
242.0081542667
 20
-24.9017060719
 30
0.0
 10
241.8192071428
 20
-24.8224366896
 30
0.0
 10
241.582995849
 20
-24.723400183
 30
0.0
 10
241.299554529
 20
-24.604533296
 30
0.0
 10
241.016108101
 20
-24.4856783715
 30
0.0
 10
240.7799095771
 20
-24.3866119589
 30
0.0
 10
240.5909369134
 20
-24.3074023886
 30
0.0
 10
240.4492448498
 20
-24.2478769169
 30
0.0
 10
240.3310491182
 20
-24.1986485205
 30
0.0
 10
240.2485456536
 20
-24.1634504536
 30
0.0
 10
240.2010361531
 20
-24.144489891
 30
0.0
 10
240.1664312907
 20
-24.127022525
 30
0.0
 10
240.1278997081
 20
-24.121966626
 30
0.0
 10
240.0778939486
 20
-24.1108961686
 30
0.0
 10
239.9897457082
 20
-24.0935399504
 30
0.0
 10
239.8641532892
 20
-24.0676907965
 30
0.0
 10
239.7132995753
 20
-24.0371232092
 30
0.0
 10
239.5122111867
 20
-23.9962086941
 30
0.0
 10
239.2608335038
 20
-23.9451200475
 30
0.0
 10
238.9591879859
 20
-23.8837886823
 30
0.0
 10
238.657539177
 20
-23.8224700786
 30
0.0
 10
238.4061697217
 20
-23.7713495281
 30
0.0
 10
238.205064878
 20
-23.7304988208
 30
0.0
 10
238.0542613523
 20
-23.6997366194
 30
0.0
 10
237.9285119237
 20
-23.6744962993
 30
0.0
 10
237.8406439693
 20
-23.6560532198
 30
0.0
 10
237.7901891215
 20
-23.6467241864
 30
0.0
 10
237.7530369943
 20
-23.6363191911
 30
0.0
 10
237.7132511264
 20
-23.6389421423
 30
0.0
 10
237.6611219807
 20
-23.6378951169
 30
0.0
 10
237.5694679465
 20
-23.6381800931
 30
0.0
 10
237.4387573904
 20
-23.6374802689
 30
0.0
 10
237.2818089389
 20
-23.6371142824
 30
0.0
 10
237.0725777923
 20
-23.6364608108
 30
0.0
 10
236.8110274035
 20
-23.635700637
 30
0.0
 10
236.3925531861
 20
-23.6344526782
 30
0.0
 10
235.8694582021
 20
-23.632903672
 30
0.0
 10
235.4509828891
 20
-23.6316611322
 30
0.0
 10
235.2417451484
 20
-23.6310402792
 30
0.0
  0
SPLINE
  5
292
100
AcDbEntity
  8
_21_KURVEN
100
AcDbSpline
 62
1
  6
CENTER
 70
0
 71
3
 72
34
 73
30
 74
0
 42
0.0000001
 43
0.0000001
 44
0.0000000001
 40
0.0
 40
0.0
 40
0.0
 40
0.0
 40
0.0625
 40
0.125
 40
0.15625
 40
0.171875
 40
0.1875
 40
0.25
 40
0.3125
 40
0.328125
 40
0.34375
 40
0.375
 40
0.4375
 40
0.46875
 40
0.5
 40
0.53125
 40
0.5625
 40
0.625
 40
0.65625
 40
0.671875
 40
0.6875
 40
0.75
 40
0.78125
 40
0.8125
 40
0.828125
 40
0.84375
 40
0.875
 40
0.9375
 40
1.0
 40
1.0
 40
1.0
 40
1.0
 10
235.2417462493
 20
-23.6310401727
 30
0.0
 10
235.1322744815
 20
-23.645493537
 30
0.0
 10
234.9133081591
 20
-23.6742563324
 30
0.0
 10
234.6397141903
 20
-23.7109294924
 30
0.0
 10
234.4479890579
 20
-23.7352783188
 30
0.0
 10
234.3387565521
 20
-23.751242981
 30
0.0
 10
234.176690301
 20
-23.7864156019
 30
0.0
 10
233.9327192824
 20
-23.8339206531
 30
0.0
 10
233.6895610702
 20
-23.8856027832
 30
0.0
 10
233.5266820126
 20
-23.9165983252
 30
0.0
 10
233.4197976143
 20
-23.9446301042
 30
0.0
 10
233.2336016851
 20
-23.9973314619
 30
0.0
 10
233.020247855
 20
-24.0553660443
 30
0.0
 10
232.8075960232
 20
-24.1158206835
 30
0.0
 10
232.6465596368
 20
-24.1560970331
 30
0.0
 10
232.4913623013
 20
-24.2154218733
 30
0.0
 10
232.2823569722
 20
-24.2877723431
 30
0.0
 10
232.074126832
 20
-24.3625217349
 30
0.0
 10
231.891252667
 20
-24.4260595218
 30
0.0
 10
231.787518908
 20
-24.464369535
 30
0.0
 10
231.6359830372
 20
-24.5323692589
 30
0.0
 10
231.4578056626
 20
-24.6082768897
 30
0.0
 10
231.2548599821
 20
-24.6962379253
 30
0.0
 10
231.1278883776
 20
-24.7521046491
 30
0.0
 10
231.0264530227
 20
-24.79435708
 30
0.0
 10
230.9245543963
 20
-24.8456604423
 30
0.0
 10
230.7460190194
 20
-24.939655013
 30
0.0
 10
230.4910804707
 20
-25.0717152413
 30
0.0
 10
230.2870955016
 20
-25.1780393035
 30
0.0
 10
230.1851072833
 20
-25.2311168497
 30
0.0
  0
SPLINE
  5
293
100
AcDbEntity
  8
_21_KURVEN
100
AcDbSpline
 62
1
  6
CENTER
 70
0
 71
3
 72
123
 73
119
 74
0
 42
0.0000001
 43
0.0000001
 44
0.0000000001
 40
0.0
 40
0.0
 40
0.0
 40
0.0
 40
0.03125
 40
0.0625
 40
0.078125
 40
0.09375
 40
0.1015625
 40
0.109375
 40
0.1171875
 40
0.12109375
 40
0.123046875
 40
0.125
 40
0.126953125
 40
0.12890625
 40
0.1328125
 40
0.140625
 40
0.1484375
 40
0.15625
 40
0.171875
 40
0.1875
 40
0.203125
 40
0.21875
 40
0.2265625
 40
0.234375
 40
0.2421875
 40
0.24609375
 40
0.248046875
 40
0.25
 40
0.251953125
 40
0.25390625
 40
0.2578125
 40
0.265625
 40
0.2734375
 40
0.28125
 40
0.296875
 40
0.3125
 40
0.328125
 40
0.34375
 40
0.3515625
 40
0.359375
 40
0.3671875
 40
0.37109375
 40
0.373046875
 40
0.375
 40
0.376953125
 40
0.37890625
 40
0.3828125
 40
0.390625
 40
0.3984375
 40
0.40625
 40
0.421875
 40
0.4375
 40
0.453125
 40
0.46875
 40
0.4765625
 40
0.484375
 40
0.4921875
 40
0.49609375
 40
0.498046875
 40
0.5
 40
0.501953125
 40
0.50390625
 40
0.5078125
 40
0.515625
 40
0.5234375
 40
0.53125
 40
0.546875
 40
0.5625
 40
0.578125
 40
0.59375
 40
0.6015625
 40
0.609375
 40
0.6171875
 40
0.62109375
 40
0.623046875
 40
0.625
 40
0.626953125
 40
0.62890625
 40
0.6328125
 40
0.640625
 40
0.6484375
 40
0.65625
 40
0.671875
 40
0.6875
 40
0.703125
 40
0.71875
 40
0.7265625
 40
0.734375
 40
0.7421875
 40
0.74609375
 40
0.748046875
 40
0.75
 40
0.751953125
 40
0.75390625
 40
0.7578125
 40
0.765625
 40
0.7734375
 40
0.78125
 40
0.796875
 40
0.8125
 40
0.828125
 40
0.84375
 40
0.8515625
 40
0.859375
 40
0.8671875
 40
0.87109375
 40
0.873046875
 40
0.875
 40
0.876953125
 40
0.87890625
 40
0.8828125
 40
0.890625
 40
0.8984375
 40
0.90625
 40
0.921875
 40
0.9375
 40
0.96875
 40
1.0
 40
1.0
 40
1.0
 40
1.0
 10
223.7077969693
 20
-36.7345213101
 30
0.0
 10
223.736060324
 20
-36.9452764498
 30
0.0
 10
223.7925879
 20
-37.3667865142
 30
0.0
 10
223.8632430366
 20
-37.8936751696
 30
0.0
 10
223.9197762462
 20
-38.3151838365
 30
0.0
 10
223.9550889183
 20
-38.5786318595
 30
0.0
 10
223.9833861822
 20
-38.7893785873
 30
0.0
 10
224.0044801016
 20
-38.9474706414
 30
0.0
 10
224.0224688272
 20
-39.0791121968
 30
0.0
 10
224.0342554201
 20
-39.1714611102
 30
0.0
 10
224.0422483612
 20
-39.2239199083
 30
0.0
 10
224.0446999789
 20
-39.2641429428
 30
0.0
 10
224.0606950764
 20
-39.3010062385
 30
0.0
 10
224.0772977555
 20
-39.3513292139
 30
0.0
 10
224.1085534984
 20
-39.4388484041
 30
0.0
 10
224.1520538205
 20
-39.5641612838
 30
0.0
 10
224.2047467736
 20
-39.7144145455
 30
0.0
 10
224.2748319329
 20
-39.9147949361
 30
0.0
 10
224.362497802
 20
-40.1652555976
 30
0.0
 10
224.4676697961
 20
-40.4658154969
 30
0.0
 10
224.5728549134
 20
-40.7663706968
 30
0.0
 10
224.6604879747
 20
-41.0168431068
 30
0.0
 10
224.7306387496
 20
-41.2172000003
 30
0.0
 10
224.783131575
 20
-41.367524928
 30
0.0
 10
224.8272579796
 20
-41.4926136069
 30
0.0
 10
224.8573960695
 20
-41.5805330297
 30
0.0
 10
224.8757895088
 20
-41.6302147323
 30
0.0
 10
224.8862839655
 20
-41.6690478127
 30
0.0
 10
224.9093950762
 20
-41.7018726628
 30
0.0
 10
224.9358090602
 20
-41.7477348677
 30
0.0
 10
224.9840839609
 20
-41.8270172828
 30
0.0
 10
225.0519761147
 20
-41.9407883733
 30
0.0
 10
225.1339055574
 20
-42.0770951644
 30
0.0
 10
225.2429844834
 20
-42.2589139176
 30
0.0
 10
225.3793884773
 20
-42.4861609147
 30
0.0
 10
225.5430481518
 20
-42.7588696973
 30
0.0
 10
225.7067197609
 20
-43.0315712464
 30
0.0
 10
225.843093918
 20
-43.2588363272
 30
0.0
 10
225.9522325176
 20
-43.440618913
 30
0.0
 10
226.0339799559
 20
-43.5770360149
 30
0.0
 10
226.1024414949
 20
-43.6904620074
 30
0.0
 10
226.1496999562
 20
-43.7703604751
 30
0.0
 10
226.1777425308
 20
-43.8152356094
 30
0.0
 10
226.1958511333
 20
-43.8510924239
 30
0.0
 10
226.2251341798
 20
-43.8785379496
 30
0.0
 10
226.2602804705
 20
-43.9180659357
 30
0.0
 10
226.3236025235
 20
-43.9858729286
 30
0.0
 10
226.4131131483
 20
-44.0834547376
 30
0.0
 10
226.5209323045
 20
-44.2002469941
 30
0.0
 10
226.6645491741
 20
-44.3560769028
 30
0.0
 10
226.8441192842
 20
-44.5508273241
 30
0.0
 10
227.0595811133
 20
-44.7845449099
 30
0.0
 10
227.2750537176
 20
-45.0182533178
 30
0.0
 10
227.4545968895
 20
-45.2130266837
 30
0.0
 10
227.5982676356
 20
-45.3688107032
 30
0.0
 10
227.7059224683
 20
-45.4857429218
 30
0.0
 10
227.795947165
 20
-45.5828868712
 30
0.0
 10
227.8583515212
 20
-45.6514755104
 30
0.0
 10
227.894968192
 20
-45.6897511033
 30
0.0
 10
227.9197347024
 20
-45.7210435795
 30
0.0
 10
227.9548066644
 20
-45.7424518871
 30
0.0
 10
227.9979746234
 20
-45.7744440061
 30
0.0
 10
228.0751933692
 20
-45.8288238624
 30
0.0
 10
228.184630248
 20
-45.9073491933
 30
0.0
 10
228.3163293012
 20
-46.001220107
 30
0.0
 10
228.4917970916
 20
-46.1265069499
 30
0.0
 10
228.7111769374
 20
-46.2830720273
 30
0.0
 10
228.9744126558
 20
-46.4709703692
 30
0.0
 10
229.2376565876
 20
-46.6588572769
 30
0.0
 10
229.4570159
 20
-46.8154509398
 30
0.0
 10
229.6325247571
 20
-46.9406806117
 30
0.0
 10
229.7640985568
 20
-47.034725897
 30
0.0
 10
229.8739272806
 20
-47.112705721
 30
0.0
 10
229.9504465232
 20
-47.1680593906
 30
0.0
 10
229.9947352616
 20
-47.1984912169
 30
0.0
 10
230.0263645487
 20
-47.2246922433
 30
0.0
 10
230.0640611741
 20
-47.237984064
 30
0.0
 10
230.1122069857
 20
-47.2602093673
 30
0.0
 10
230.1974482056
 20
-47.2970056744
 30
0.0
 10
230.3187058579
 20
-47.3506686748
 30
0.0
 10
230.4644357042
 20
-47.4145947758
 30
0.0
 10
230.6586650672
 20
-47.4999936336
 30
0.0
 10
230.9014783526
 20
-47.6066855317
 30
0.0
 10
231.1928423511
 20
-47.7347417603
 30
0.0
 10
231.4842115948
 20
-47.8627848638
 30
0.0
 10
231.7270117673
 20
-47.9695095746
 30
0.0
 10
231.9212673562
 20
-48.0548428069
 30
0.0
 10
232.0669172135
 20
-48.1189690653
 30
0.0
 10
232.1884251048
 20
-48.1720058903
 30
0.0
 10
232.2732196097
 20
-48.2099200163
 30
0.0
 10
232.3220811705
 20
-48.2303542936
 30
0.0
 10
232.3575792439
 20
-48.2491475718
 30
0.0
 10
232.3974659273
 20
-48.2546860381
 30
0.0
 10
232.4491173755
 20
-48.2666940868
 30
0.0
 10
232.5402206364
 20
-48.2855540312
 30
0.0
 10
232.6699952682
 20
-48.3136230214
 30
0.0
 10
232.8258844358
 20
-48.3468237403
 30
0.0
 10
233.0336808947
 20
-48.3912598154
 30
0.0
 10
233.2934456791
 20
-48.4467467082
 30
0.0
 10
233.6051548553
 20
-48.5133576701
 30
0.0
 10
233.9168675544
 20
-48.5799549916
 30
0.0
 10
234.1766235316
 20
-48.6354759851
 30
0.0
 10
234.3844376049
 20
-48.6798438588
 30
0.0
 10
234.5402730485
 20
-48.713252592
 30
0.0
 10
234.6702157513
 20
-48.740670827
 30
0.0
 10
234.7610189799
 20
-48.760692469
 30
0.0
 10
234.8131511549
 20
-48.7708391872
 30
0.0
 10
234.8515611997
 20
-48.782095064
 30
0.0
 10
234.8926052823
 20
-48.7794146982
 30
0.0
 10
234.946411944
 20
-48.7807019946
 30
0.0
 10
235.0410016793
 20
-48.7806898786
 30
0.0
 10
235.175906069
 20
-48.7818566773
 30
0.0
 10
235.3378871317
 20
-48.7827500003
 30
0.0
 10
235.5538284226
 20
-48.7841181248
 30
0.0
 10
235.8237664932
 20
-48.7857676643
 30
0.0
 10
236.2556610007
 20
-48.7884408168
 30
0.0
 10
236.7955313476
 20
-48.7917705523
 30
0.0
 10
237.2274269508
 20
-48.7944379079
 30
0.0
 10
237.4433748367
 20
-48.7957711398
 30
0.0
  0
SPLINE
  5
294
100
AcDbEntity
  8
_21_KURVEN
100
AcDbSpline
 62
7
  6
CONTINUOUS
 70
0
 71
3
 72
21
 73
17
 74
0
 42
0.0000001
 43
0.0000001
 44
0.0000000001
 40
0.0
 40
0.0
 40
0.0
 40
0.0
 40
0.125
 40
0.1875
 40
0.25
 40
0.3125
 40
0.375
 40
0.4375
 40
0.5
 40
0.5625
 40
0.625
 40
0.6875
 40
0.75
 40
0.8125
 40
0.875
 40
1.0
 40
1.0
 40
1.0
 40
1.0
 10
224.4985196393
 20
-45.9942718866
 30
0.0
 10
224.5064341049
 20
-46.0520046311
 30
0.0
 10
224.5174553592
 20
-46.1384541247
 30
0.0
 10
224.5355521415
 20
-46.2543186084
 30
0.0
 10
224.5591853631
 20
-46.3424056955
 30
0.0
 10
224.5780053094
 20
-46.4308085491
 30
0.0
 10
224.6060177223
 20
-46.5167596123
 30
0.0
 10
224.6372698579
 20
-46.6015183391
 30
0.0
 10
224.6639687927
 20
-46.6881563359
 30
0.0
 10
224.7056408081
 20
-46.7684695892
 30
0.0
 10
224.7429280956
 20
-46.8509386452
 30
0.0
 10
224.7827812141
 20
-46.9311092337
 30
0.0
 10
224.8294836157
 20
-47.0043855959
 30
0.0
 10
224.8716788118
 20
-47.0796727436
 30
0.0
 10
224.9428451248
 20
-47.1785237195
 30
0.0
 10
224.9991951716
 20
-47.2526141105
 30
0.0
 10
225.036100689
 20
-47.3020183358
 30
0.0
  0
SPLINE
  5
295
100
AcDbEntity
  8
_21_KURVEN
100
AcDbSpline
 62
7
  6
CONTINUOUS
 70
0
 71
3
 72
9
 73
5
 74
0
 42
0.0000001
 43
0.0000001
 44
0.0000000001
 40
0.0
 40
0.0
 40
0.0
 40
0.0
 40
0.5
 40
1.0
 40
1.0
 40
1.0
 40
1.0
 10
225.0361006992
 20
-47.3020183481
 30
0.0
 10
225.0847806007
 20
-47.3586774029
 30
0.0
 10
225.1840640059
 20
-47.4705808646
 30
0.0
 10
225.2966940838
 20
-47.569041153
 30
0.0
 10
225.3572138971
 20
-47.6201711841
 30
0.0
  0
SPLINE
  5
296
100
AcDbEntity
  8
_21_KURVEN
100
AcDbSpline
 62
7
  6
CONTINUOUS
 70
0
 71
3
 72
8
 73
4
 74
0
 42
0.0000001
 43
0.0000001
 44
0.0000000001
 40
0.0
 40
0.0
 40
0.0
 40
0.0
 40
1.0
 40
1.0
 40
1.0
 40
1.0
 10
225.3572138923
 20
-47.6201711802
 30
0.0
 10
225.3830070663
 20
-47.6410786244
 30
0.0
 10
225.4073449916
 20
-47.660168539
 30
0.0
 10
225.4375061569
 20
-47.6828815127
 30
0.0
  0
SPLINE
  5
297
100
AcDbEntity
  8
_21_KURVEN
100
AcDbSpline
 62
7
  6
CONTINUOUS
 70
0
 71
3
 72
14
 73
10
 74
0
 42
0.0000001
 43
0.0000001
 44
0.0000000001
 40
0.0
 40
0.0
 40
0.0
 40
0.0
 40
0.25
 40
0.375
 40
0.5
 40
0.625
 40
0.75
 40
0.875
 40
1.0
 40
1.0
 40
1.0
 40
1.0
 10
225.4375061556
 20
-47.6828815117
 30
0.0
 10
225.481466611
 20
-47.7141695436
 30
0.0
 10
225.5472310163
 20
-47.7608286345
 30
0.0
 10
225.6398001672
 20
-47.8180134586
 30
0.0
 10
225.7181033366
 20
-47.8639910325
 30
0.0
 10
225.7880941433
 20
-47.8995252348
 30
0.0
 10
225.8613267073
 20
-47.9348318416
 30
0.0
 10
225.9364871491
 20
-47.9682259089
 30
0.0
 10
225.9925479389
 20
-47.9902323208
 30
0.0
 10
226.0198341052
 20
-48.0012675642
 30
0.0
  0
SPLINE
  5
298
100
AcDbEntity
  8
_21_KURVEN
100
AcDbSpline
 62
7
  6
CONTINUOUS
 70
0
 71
3
 72
14
 73
10
 74
0
 42
0.0000001
 43
0.0000001
 44
0.0000000001
 40
0.0
 40
0.0
 40
0.0
 40
0.0
 40
0.25
 40
0.375
 40
0.5
 40
0.625
 40
0.75
 40
0.875
 40
1.0
 40
1.0
 40
1.0
 40
1.0
 10
226.0198341331
 20
-48.0012675747
 30
0.0
 10
226.0708398074
 20
-48.0191157449
 30
0.0
 10
226.1471026994
 20
-48.0456750254
 30
0.0
 10
226.2521052857
 20
-48.0749199168
 30
0.0
 10
226.3402607938
 20
-48.097362449
 30
0.0
 10
226.4175346932
 20
-48.1120917267
 30
0.0
 10
226.4978197983
 20
-48.1257035322
 30
0.0
 10
226.5796208826
 20
-48.1369642459
 30
0.0
 10
226.6403571929
 20
-48.1426232317
 30
0.0
 10
226.6699500663
 20
-48.1456837442
 30
0.0
  0
SPLINE
  5
299
100
AcDbEntity
  8
_30_VOLUMEN
100
AcDbSpline
 62
4
  6
CONTINUOUS
 70
0
 71
3
 72
15
 73
11
 74
0
 42
0.0000001
 43
0.0000001
 44
0.0000000001
 40
0.0
 40
0.0
 40
0.0
 40
0.0
 40
0.1247809784
 40
0.2499447307
 40
0.3753857845
 40
0.5008750842
 40
0.626163065
 40
0.7510879081
 40
0.875646503
 40
1.0
 40
1.0
 40
1.0
 40
1.0
 10
235.1503952262
 20
-40.1273567552
 30
0.0
 10
235.5887974658
 20
-40.25717212
 30
0.0
 10
236.5189263188
 20
-40.3676813331
 30
0.0
 10
237.8855879241
 20
-40.0612869266
 30
0.0
 10
239.0786909878
 20
-39.3205891406
 30
0.0
 10
239.9621141407
 20
-38.2287405925
 30
0.0
 10
240.4368853763
 20
-36.9087914701
 30
0.0
 10
240.4482316907
 20
-35.5089790388
 30
0.0
 10
239.9954762831
 20
-34.1891128216
 30
0.0
 10
239.4141933926
 20
-33.4592019992
 30
0.0
 10
239.074077637
 20
-33.1559860049
 30
0.0
  0
ELLIPSE
  5
29A
100
AcDbEntity
  8
_30_VOLUMEN
100
AcDbEllipse
 62
4
  6
CONTINUOUS
 10
237.0786495849
 20
-36.7785515223
 30
0.0
 11
1.9450263187
 21
2.4077538084
 31
0.0
 40
0.9277889842
 41
-2.8853627038
 42
0.1029095314
  0
ENDSEC
  0
SECTION
  2
OBJECTS
  0
DICTIONARY
  5
C
100
AcDbDictionary
280
0
281
1
  3
ACAD_GROUP
350
D
  3
ACAD_MLINESTYLE
350
17
  3
ACAD_LAYOUT
350
1A
  3
ACAD_PLOTSETTINGS
350
19
  3
ACAD_PLOTSTYLENAME
350
E
  0
DICTIONARY
  5
D
102
{ACAD_REACTORS
330
C
102
}
100
AcDbDictionary
280
0
281
1
  0
ACDBDICTIONARYWDFLT
  5
E
102
{ACAD_REACTORS
330
C
102
}
100
AcDbDictionary
281
1
  3
Normal
350
F
100
AcDbDictionaryWithDefault
340
F
  0
DICTIONARY
  5
17
102
{ACAD_REACTORS
330
C
102
}
100
AcDbDictionary
280
0
281
1
  3
Standard
350
18
  0
DICTIONARY
  5
19
102
{ACAD_REACTORS
330
C
102
}
100
AcDbDictionary
281
1
  0
DICTIONARY
  5
1A
102
{ACAD_REACTORS
330
C
102
}
100
AcDbDictionary
281
1
  3
Model
350
29B
  3
Layout1
350
29C
  0
ACDBPLACEHOLDER
  5
F
102
{ACAD_REACTORS
330
E
102
}
  0
MLINESTYLE
  5
18
102
{ACAD_REACTORS
330
17
102
}
100
AcDbMlineStyle
  2
STANDARD
 70
0
  3

 62
256
 51
90.0
 52
90.0
 71
2
 49
0.5
 62
256
  6
BYLAYER
 49
-0.5
 62
256
  6
BYLAYER
  0
LAYOUT
  5
29B
102
{ACAD_REACTORS
330
1A
102
}
100
AcDbPlotSettings
  1

  2
none_device
  4
ISO_A3_(420.00_x_297.00_MM)
  6

 40
0.0
 41
0.0
 42
0.0
 43
0.0
 44
420.0
 45
297.0
 46
0.0
 47
0.0
 48
0.0
 49
0.0
140
0.0
141
0.0
142
1.0
143
1.0
 70
1024
 72
1
 73
0
 74
0
  7

 75
0
147
1.0
148
0.0
149
0.0
100
AcDbLayout
  1
Model
 70
0
 71
0
 10
0.0
 20
0.0
 11
420.0
 21
297.0
 12
0.0
 22
0.0
 32
0.0
 14
0.0
 24
0.0
 34
0.0
 15
0.0
 25
0.0
 35
0.0
146
0.0
 13
0.0
 23
0.0
 33
0.0
 16
1.0
 26
0.0
 36
0.0
 17
0.0
 27
1.0
 37
0.0
 76
0
330
20D
345
0
346
0
  0
LAYOUT
  5
29C
102
{ACAD_REACTORS
330
1A
102
}
100
AcDbPlotSettings
  1

  2
none_device
  4
ISO_A3_(420.00_x_297.00_MM)
  6

 40
0.0
 41
0.0
 42
0.0
 43
0.0
 44
420.0
 45
297.0
 46
0.0
 47
0.0
 48
0.0
 49
0.0
140
0.0
141
0.0
142
1.0
143
1.0
 70
0
 72
1
 73
0
 74
0
  7

 75
0
147
1.0
148
0.0
149
0.0
100
AcDbLayout
  1
Layout1
 70
0
 71
1
 10
0.0
 20
0.0
 11
420.0
 21
297.0
 12
0.0
 22
0.0
 32
0.0
 14
0.0
 24
0.0
 34
0.0
 15
0.0
 25
0.0
 35
0.0
146
0.0
 13
0.0
 23
0.0
 33
0.0
 16
1.0
 26
0.0
 36
0.0
 17
0.0
 27
1.0
 37
0.0
 76
0
330
20E
345
0
346
0
  0
ENDSEC
  0
EOF
