999
DXF file: 70509516.dxf
999
Pro/ENGINEER 2017380 by Parametric Technology Corporation
  0
SECTION
  2
HEADER
  9
$ACADVER
  1
AC1027
  9
$DWGCODEPAGE
  3
ANSI_1252
  9
$EXTMAX
 10
420.0
 20
297.0
 30
0.0
  9
$EXTMIN
 10
0.0
 20
0.0
 30
0.0
  9
$LIMMIN
 10
0.0
 20
0.0
  9
$LIMMAX
 10
420.0
 20
297.0
  9
$VIEWCTR
 10
210.0
 20
148.5
  9
$VIEWSIZE
 40
297.0
  9
$CLAYER
  8
0
  9
$LTSCALE
 40
23.1
  9
$CELTYPE
  6
BYLAYER
  9
$DIMSCALE
 40
1.0
  9
$DIMASZ
 40
3.5
  9
$DIMEXO
 40
0.0
  9
$DIMDLI
 40
15.96
  9
$DIMEXE
 40
1.5
  9
$DIMCEN
 40
3.78
  9
$DIMLFAC
 40
1.0
  9
$DIMBLK
  1
_FILLED
  9
$DIMALT
 70
0
  9
$DIMALTF
 40
25.4
  9
$DIMTXT
 40
3.5
  9
$DIMTOL
 70
1
  9
$DIMLIM
 70
0
  9
$DIMTFAC
 40
1.0
  9
$DIMTP
 40
0.05
  9
$DIMTM
 40
0.05
  9
$DIMGAP
 40
0.625
  9
$DIMDSEP
 70
46
  9
$AUNITS
 70
0
  9
$PDMODE
 70
3
  9
$PDSIZE
 40
0.3125
  9
$HANDSEED
  5
29E
  9
$TILEMODE
 70
1
  9
$MEASUREMENT
 70
1
  9
$INSUNITS
 70
4
  0
ENDSEC
  0
SECTION
  2
CLASSES
  0
CLASS
  1
ACDBDICTIONARYWDFLT
  2
AcDbDictionaryWithDefault
  3
AutoCAD 2000
 90
0
 91
1
280
0
281
0
  0
CLASS
  1
ACDBPLACEHOLDER
  2
AcDbPlaceHolder
  3
AutoCAD 2000
 90
0
 91
1
280
0
281
0
  0
CLASS
  1
LAYOUT
  2
AcDbLayout
  3
AutoCAD 2000
 90
0
 91
0
280
0
281
0
  0
ENDSEC
  0
SECTION
  2
TABLES
  0
TABLE
  2
VPORT
  5
8
100
AcDbSymbolTable
 70
2
  0
VPORT
  5
1F4
100
AcDbSymbolTableRecord
100
AcDbViewportTableRecord
  2
*ACTIVE
 70
0
 10
0.0
 20
0.0
 11
1.0
 21
1.0
 12
210.0
 22
148.5
 13
0.0
 23
0.0
 14
1.0
 24
1.0
 15
0.0
 25
0.0
 16
0.0
 26
0.0
 36
1.0
 17
0.0
 27
0.0
 37
0.0
 40
297.0
 41
1.4141414141
 42
50.0
 43
0.0
 44
0.0
 50
0.0
 51
0.0
 71
0
 72
100
 73
1
 74
1
 75
0
 76
0
 77
0
 78
0
  0
ENDTAB
  0
TABLE
  2
LTYPE
  5
5
100
AcDbSymbolTable
 70
6
  0
LTYPE
  5
14
100
AcDbSymbolTableRecord
100
AcDbLinetypeTableRecord
  2
BYBLOCK
 70
0
  3

 72
65
 73
0
 40
0.0
  0
LTYPE
  5
15
100
AcDbSymbolTableRecord
100
AcDbLinetypeTableRecord
  2
BYLAYER
 70
0
  3

 72
65
 73
0
 40
0.0
  0
LTYPE
  5
16
100
AcDbSymbolTableRecord
100
AcDbLinetypeTableRecord
  2
CONTINUOUS
 70
64
  3
Solid line
 72
65
 73
0
 40
0.0
  0
LTYPE
  5
1F5
100
AcDbSymbolTableRecord
100
AcDbLinetypeTableRecord
  2
CENTER
 70
64
  3
____ _ ____ _ ____ _ ____ _ ____ _ ____ _ ____
 72
65
 73
4
 40
0.6
 49
0.375
 74
0
 49
-0.075
 74
0
 49
0.075
 74
0
 49
-0.075
 74
0
  0
LTYPE
  5
1F6
100
AcDbSymbolTableRecord
100
AcDbLinetypeTableRecord
  2
HIDDEN
 70
64
  3
- - - - - - - - - - - - - - - - - - - -
 72
65
 73
2
 40
0.2
 49
0.1
 74
0
 49
-0.1
 74
0
  0
LTYPE
  5
1F7
100
AcDbSymbolTableRecord
100
AcDbLinetypeTableRecord
  2
PHANTOM
 70
64
  3
_____ _ _ _____ _ _ _____ _ _ _____
 72
65
 73
6
 40
0.8
 49
0.45
 74
0
 49
-0.05
 74
0
 49
0.1
 74
0
 49
-0.05
 74
0
 49
0.1
 74
0
 49
-0.05
 74
0
  0
LTYPE
  5
1F8
100
AcDbSymbolTableRecord
100
AcDbLinetypeTableRecord
  2
DOT
 70
64
  3
. . . . . . . . . . . . . . . . . . . .
 72
65
 73
2
 40
0.2
 49
0.1
 74
0
 49
-0.1
 74
0
  0
LTYPE
  5
1F9
100
AcDbSymbolTableRecord
100
AcDbLinetypeTableRecord
  2
DASHED
 70
64
  3
- - - - - - - - - - - - - - - - - - - -
 72
65
 73
2
 40
0.2
 49
0.1
 74
0
 49
-0.1
 74
0
  0
ENDTAB
  0
TABLE
  2
LAYER
  5
2
100
AcDbSymbolTable
 70
36
  0
LAYER
  5
10
100
AcDbSymbolTableRecord
100
AcDbLayerTableRecord
  2
0
 70
0
 62
7
  6
CONTINUOUS
370
-3
390
F
  0
LAYER
  5
1FA
100
AcDbSymbolTableRecord
100
AcDbLayerTableRecord
  2
DEFAULT_1
 70
0
 62
7
  6
CENTER
370
-3
390
F
  0
LAYER
  5
1FB
100
AcDbSymbolTableRecord
100
AcDbLayerTableRecord
  2
DEFAULT_2
 70
0
 62
1
  6
HIDDEN
370
-3
390
F
  0
LAYER
  5
1FC
100
AcDbSymbolTableRecord
100
AcDbLayerTableRecord
  2
DEFAULT_3
 70
0
 62
7
  6
PHANTOM
370
-3
390
F
  0
LAYER
  5
1FD
100
AcDbSymbolTableRecord
100
AcDbLayerTableRecord
  2
BG_STARTBEZUEGE
 70
0
 62
7
  6
CONTINUOUS
370
-3
390
F
  0
LAYER
  5
1FE
100
AcDbSymbolTableRecord
100
AcDbLayerTableRecord
  2
HILFEN
 70
0
 62
7
  6
CONTINUOUS
370
-3
390
F
  0
LAYER
  5
1FF
100
AcDbSymbolTableRecord
100
AcDbLayerTableRecord
  2
PLATZIERUNG
 70
0
 62
7
  6
CONTINUOUS
370
-3
390
F
  0
LAYER
  5
200
100
AcDbSymbolTableRecord
100
AcDbLayerTableRecord
  2
T_STARTBEZUEGE
 70
0
 62
7
  6
CONTINUOUS
370
-3
390
F
  0
LAYER
  5
201
100
AcDbSymbolTableRecord
100
AcDbLayerTableRecord
  2
_03_2D_ZEICHNUNG_BEMASSUNGEN
 70
0
 62
7
  6
CONTINUOUS
370
-3
390
F
  0
LAYER
  5
202
100
AcDbSymbolTableRecord
100
AcDbLayerTableRecord
  2
_04_NOTIZEN
 70
0
 62
7
  6
CONTINUOUS
370
-3
390
F
  0
LAYER
  5
203
100
AcDbSymbolTableRecord
100
AcDbLayerTableRecord
  2
_05_2D_ELEMENTE
 70
0
 62
7
  6
CONTINUOUS
370
-3
390
F
  0
LAYER
  5
204
100
AcDbSymbolTableRecord
100
AcDbLayerTableRecord
  2
_07_EINRASTLINIEN
 70
0
 62
7
  6
CONTINUOUS
370
-3
390
F
  0
LAYER
  5
205
100
AcDbSymbolTableRecord
100
AcDbLayerTableRecord
  2
_21_KURVEN
 70
0
 62
7
  6
CONTINUOUS
370
-3
390
F
  0
LAYER
  5
206
100
AcDbSymbolTableRecord
100
AcDbLayerTableRecord
  2
_26_BEZUGSACHSEN
 70
0
 62
7
  6
CONTINUOUS
370
-3
390
F
  0
LAYER
  5
207
100
AcDbSymbolTableRecord
100
AcDbLayerTableRecord
  2
_27_BEZUGSEBENEN
 70
0
 62
7
  6
CONTINUOUS
370
-3
390
F
  0
LAYER
  5
208
100
AcDbSymbolTableRecord
100
AcDbLayerTableRecord
  2
_28_BEZUGSPUNKTE
 70
0
 62
7
  6
CONTINUOUS
370
-3
390
F
  0
LAYER
  5
209
100
AcDbSymbolTableRecord
100
AcDbLayerTableRecord
  2
_29_KOORDINATENSYSTEME
 70
0
 62
7
  6
CONTINUOUS
370
-3
390
F
  0
LAYER
  5
20A
100
AcDbSymbolTableRecord
100
AcDbLayerTableRecord
  2
_30_VOLUMEN
 70
0
 62
7
  6
CONTINUOUS
370
-3
390
F
  0
ENDTAB
  0
TABLE
  2
STYLE
  5
3
100
AcDbSymbolTable
 70
1
  0
STYLE
  5
11
100
AcDbSymbolTableRecord
100
AcDbTextStyleTableRecord
  2
STANDARD
 70
0
 40
0.0
 41
0.7
 50
0.0
 71
0
 42
0.2
  3
SIMPLEX.SHX
  4

  0
STYLE
  5
20B
100
AcDbSymbolTableRecord
100
AcDbTextStyleTableRecord
  2
TEXTSTYLE_1
 70
0
 40
0.0
 41
0.8
 50
0.0
 71
0
 42
0.2
  3
gdt
  4

  0
ENDTAB
  0
TABLE
  2
VIEW
  5
6
100
AcDbSymbolTable
 70
0
  0
ENDTAB
  0
TABLE
  2
UCS
  5
7
100
AcDbSymbolTable
 70
0
  0
ENDTAB
  0
TABLE
  2
APPID
  5
9
100
AcDbSymbolTable
 70
1
  0
APPID
  5
20C
100
AcDbSymbolTableRecord
100
AcDbRegAppTableRecord
  2
ACAD
 70
0
  0
ENDTAB
  0
TABLE
  2
BLOCK_RECORD
  5
1
100
AcDbSymbolTable
 70
0
  0
BLOCK_RECORD
  5
20D
100
AcDbSymbolTableRecord
100
AcDbBlockTableRecord
  2
*Model_Space
  0
BLOCK_RECORD
  5
20E
100
AcDbSymbolTableRecord
100
AcDbBlockTableRecord
  2
*Paper_Space
  0
BLOCK_RECORD
  5
20F
100
AcDbSymbolTableRecord
100
AcDbBlockTableRecord
  2
_FILLED
  0
BLOCK_RECORD
  5
210
100
AcDbSymbolTableRecord
100
AcDbBlockTableRecord
  2
*D0
  0
BLOCK_RECORD
  5
211
100
AcDbSymbolTableRecord
100
AcDbBlockTableRecord
  2
*D1
  0
BLOCK_RECORD
  5
212
100
AcDbSymbolTableRecord
100
AcDbBlockTableRecord
  2
*D2
  0
BLOCK_RECORD
  5
213
100
AcDbSymbolTableRecord
100
AcDbBlockTableRecord
  2
*D3
  0
ENDTAB
  0
TABLE
  2
DIMSTYLE
  5
A
100
AcDbSymbolTable
 70
1
100
AcDbDimStyleTable
 71
0
  0
DIMSTYLE
105
214
100
AcDbSymbolTableRecord
100
AcDbDimStyleTableRecord
  2
STANDARD
 70
0
  3

  4

 40
1.0
 41
3.5
 42
0.0
 43
0.38
 44
1.5
 45
0.0
 46
0.0
 47
0.05
 48
0.05
140
3.5
141
0.09
142
0.0
143
25.4
144
1.0
145
0.0
146
1.0
147
0.625
 71
1.0
 72
0.0
 73
0
 74
0
 75
0
 76
0
 77
1
 78
8
 79
2
170
0
171
1
172
0
173
0
174
0
175
0
176
0
177
0
178
2
270
2
179
2
271
2
272
2
273
2
274
2
275
0
280
0
281
0
282
0
283
1
284
8
285
0
286
0
287
3
288
0
340
11
278
46
341
20F
342
20F
343
20F
344
20F
  0
DIMSTYLE
105
215
100
AcDbSymbolTableRecord
100
AcDbDimStyleTableRecord
  2
DIMSTYLE_1
 70
0
  3

  4

 40
1.0
 41
3.5
 42
0.0
 43
0.38
 44
1.5
 45
0.0
 46
0.0
 47
0.2
 48
0.2
140
3.5
141
0.09
142
0.0
143
25.4
144
1.0
145
0.0
146
1.0
147
0.875
 71
0.0
 72
0.0
 73
0
 74
0
 75
0
 76
0
 77
1
 78
8
 79
2
170
0
171
1
172
0
173
0
174
0
175
0
176
0
177
0
178
2
270
2
179
2
271
2
272
2
273
2
274
2
275
0
280
0
281
0
282
0
283
1
284
8
285
0
286
0
287
3
288
0
340
11
278
46
341
20F
342
20F
343
20F
344
20F
  0
DIMSTYLE
105
216
100
AcDbSymbolTableRecord
100
AcDbDimStyleTableRecord
  2
DIMSTYLE_2
 70
0
  3

  4

 40
1.0
 41
3.5
 42
0.0
 43
0.38
 44
1.5
 45
0.0
 46
0.0
 47
0.3
 48
0.3
140
3.5
141
0.09
142
0.0
143
25.4
144
1.0
145
0.0
146
1.0
147
0.875
 71
0.0
 72
0.0
 73
0
 74
0
 75
0
 76
0
 77
1
 78
8
 79
2
170
0
171
1
172
0
173
0
174
0
175
0
176
0
177
0
178
2
270
2
179
2
271
2
272
2
273
2
274
2
275
0
280
0
281
0
282
0
283
1
284
8
285
0
286
0
287
3
288
0
340
11
278
46
341
20F
342
20F
343
20F
344
20F
  0
ENDTAB
  0
ENDSEC
  0
SECTION
  2
BLOCKS
  0
BLOCK
  5
20
100
AcDbEntity
  8
0
100
AcDbBlockBegin
  2
*Model_Space
 70
0
 10
0.0
 20
0.0
 30
0.0
  3
*Model_Space
  1

  0
ENDBLK
  5
21
100
AcDbEntity
  8
0
100
AcDbBlockEnd
  0
BLOCK
  5
1C
100
AcDbEntity
  8
0
100
AcDbBlockBegin
  2
*Paper_Space
 70
0
 10
0.0
 20
0.0
 30
0.0
  3
*Paper_Space
  1

  0
ENDBLK
  5
1D
100
AcDbEntity
  8
0
100
AcDbBlockEnd
  0
BLOCK
  5
217
100
AcDbEntity
  8
0
100
AcDbBlockBegin
  2
_FILLED
 70
64
 10
0.0
 20
0.0
  3
_FILLED
  1

  0
SOLID
  5
218
100
AcDbEntity
  8
0
  6
BYBLOCK
 62
0
100
AcDbTrace
 10
0.0
 20
0.0
 11
-1.0
 21
0.125
 12
-1.0
 22
-0.125
 13
-1.0
 23
-0.125
  0
ENDBLK
  5
219
100
AcDbEntity
  8
0
  6
BYBLOCK
 62
0
100
AcDbBlockEnd
  0
BLOCK
  5
21A
100
AcDbEntity
  8
_03_2D_ZEICHNUNG_BEMASSUNGEN
100
AcDbBlockBegin
 62
7
  6
CONTINUOUS
  2
*D0
 70
65
 10
0.0
 20
0.0
  3
*D0
  1

  0
TEXT
  5
21B
100
AcDbEntity
  8
_03_2D_ZEICHNUNG_BEMASSUNGEN
100
AcDbText
 62
2
  6
CONTINUOUS
 10
-9.875
 20
-10.375
  7
STANDARD
 40
3.5
  1
16
 50
90.0
 41
0.6785714286
 72
1
 11
-9.875
 21
-8.0
100
AcDbText
  0
LINE
  5
21C
100
AcDbEntity
  8
_03_2D_ZEICHNUNG_BEMASSUNGEN
100
AcDbLine
 62
7
  6
CONTINUOUS
 10
-0.0
 20
-0.0
 11
-10.5
 21
0.0
  0
LINE
  5
21D
100
AcDbEntity
  8
_03_2D_ZEICHNUNG_BEMASSUNGEN
100
AcDbLine
 62
7
  6
CONTINUOUS
 10
-0.0
 20
-16.0
 11
-10.5
 21
-16.0
  0
LINE
  5
21E
100
AcDbEntity
  8
_03_2D_ZEICHNUNG_BEMASSUNGEN
100
AcDbLine
 62
7
  6
CONTINUOUS
 10
-9.0
 20
0.0
 11
-9.0
 21
6.0
  0
LINE
  5
21F
100
AcDbEntity
  8
_03_2D_ZEICHNUNG_BEMASSUNGEN
100
AcDbLine
 62
7
  6
CONTINUOUS
 10
-9.0
 20
6.0
 11
-9.0
 21
-8.0
  0
LINE
  5
220
100
AcDbEntity
  8
_03_2D_ZEICHNUNG_BEMASSUNGEN
100
AcDbLine
 62
7
  6
CONTINUOUS
 10
-9.0
 20
-16.0
 11
-9.0
 21
-22.0
  0
LINE
  5
221
100
AcDbEntity
  8
_03_2D_ZEICHNUNG_BEMASSUNGEN
100
AcDbLine
 62
7
  6
CONTINUOUS
 10
-9.0
 20
-22.0
 11
-9.0
 21
-8.0
  0
INSERT
  5
222
100
AcDbEntity
  8
_03_2D_ZEICHNUNG_BEMASSUNGEN
100
AcDbBlockReference
 62
7
  6
CONTINUOUS
  2
_FILLED
 10
-9.0
 20
0.0
 41
3.5
 42
3.5
 43
3.5
 50
270.0
  0
INSERT
  5
223
100
AcDbEntity
  8
_03_2D_ZEICHNUNG_BEMASSUNGEN
100
AcDbBlockReference
 62
7
  6
CONTINUOUS
  2
_FILLED
 10
-9.0
 20
-16.0
 41
3.5
 42
3.5
 43
3.5
 50
90.0
  0
ENDBLK
  5
224
100
AcDbEntity
  8
0
  6
BYBLOCK
 62
0
100
AcDbBlockEnd
  0
BLOCK
  5
225
100
AcDbEntity
  8
_03_2D_ZEICHNUNG_BEMASSUNGEN
100
AcDbBlockBegin
 62
7
  6
CONTINUOUS
  2
*D1
 70
65
 10
0.0
 20
0.0
  3
*D1
  1

  0
TEXT
  5
226
100
AcDbEntity
  8
_03_2D_ZEICHNUNG_BEMASSUNGEN
100
AcDbText
 62
2
  6
CONTINUOUS
 10
46.25
 20
19.4792745307
  7
STANDARD
 40
3.5
  1
100
 41
0.7142857143
 72
1
 11
50.0
 21
19.4792745307
100
AcDbText
  0
LINE
  5
227
100
AcDbEntity
  8
_03_2D_ZEICHNUNG_BEMASSUNGEN
100
AcDbLine
 62
7
  6
CONTINUOUS
 10
100.0
 20
0.0
 11
100.0
 21
20.1042745307
  0
LINE
  5
228
100
AcDbEntity
  8
_03_2D_ZEICHNUNG_BEMASSUNGEN
100
AcDbLine
 62
7
  6
CONTINUOUS
 10
0.0
 20
0.0
 11
0.0
 21
20.1042745307
  0
LINE
  5
229
100
AcDbEntity
  8
_03_2D_ZEICHNUNG_BEMASSUNGEN
100
AcDbLine
 62
7
  6
CONTINUOUS
 10
100.0
 20
18.6042745307
 11
50.0
 21
18.6042745307
  0
LINE
  5
22A
100
AcDbEntity
  8
_03_2D_ZEICHNUNG_BEMASSUNGEN
100
AcDbLine
 62
7
  6
CONTINUOUS
 10
0.0
 20
18.6042745307
 11
50.0
 21
18.6042745307
  0
INSERT
  5
22B
100
AcDbEntity
  8
_03_2D_ZEICHNUNG_BEMASSUNGEN
100
AcDbBlockReference
 62
7
  6
CONTINUOUS
  2
_FILLED
 10
100.0
 20
18.6042745307
 41
3.5
 42
3.5
 43
3.5
  0
INSERT
  5
22C
100
AcDbEntity
  8
_03_2D_ZEICHNUNG_BEMASSUNGEN
100
AcDbBlockReference
 62
7
  6
CONTINUOUS
  2
_FILLED
 10
0.0
 20
18.6042745307
 41
3.5
 42
3.5
 43
3.5
 50
180.0
  0
ENDBLK
  5
22D
100
AcDbEntity
  8
0
  6
BYBLOCK
 62
0
100
AcDbBlockEnd
  0
BLOCK
  5
22E
100
AcDbEntity
  8
_03_2D_ZEICHNUNG_BEMASSUNGEN
100
AcDbBlockBegin
 62
7
  6
CONTINUOUS
  2
*D2
 70
65
 10
0.0
 20
0.0
  3
*D2
  1

  0
TEXT
  5
22F
100
AcDbEntity
  8
_03_2D_ZEICHNUNG_BEMASSUNGEN
100
AcDbText
 62
2
  6
CONTINUOUS
 10
108.2125714478
 20
-12.75
  7
STANDARD
 40
3.5
  1
20
 50
90.0
 41
0.7857142857
 72
1
 11
108.2125714478
 21
-10.0
100
AcDbText
  0
LINE
  5
230
100
AcDbEntity
  8
_03_2D_ZEICHNUNG_BEMASSUNGEN
100
AcDbLine
 62
7
  6
CONTINUOUS
 10
100.0
 20
-20.0
 11
110.5875714478
 21
-20.0
  0
LINE
  5
231
100
AcDbEntity
  8
_03_2D_ZEICHNUNG_BEMASSUNGEN
100
AcDbLine
 62
7
  6
CONTINUOUS
 10
0.0
 20
0.0
 11
110.5875714478
 21
0.0
  0
LINE
  5
232
100
AcDbEntity
  8
_03_2D_ZEICHNUNG_BEMASSUNGEN
100
AcDbLine
 62
7
  6
CONTINUOUS
 10
109.0875714478
 20
-20.0
 11
109.0875714478
 21
-10.0
  0
LINE
  5
233
100
AcDbEntity
  8
_03_2D_ZEICHNUNG_BEMASSUNGEN
100
AcDbLine
 62
7
  6
CONTINUOUS
 10
109.0875714478
 20
0.0
 11
109.0875714478
 21
-10.0
  0
INSERT
  5
234
100
AcDbEntity
  8
_03_2D_ZEICHNUNG_BEMASSUNGEN
100
AcDbBlockReference
 62
7
  6
CONTINUOUS
  2
_FILLED
 10
109.0875714478
 20
-20.0
 41
3.5
 42
3.5
 43
3.5
 50
270.0
  0
INSERT
  5
235
100
AcDbEntity
  8
_03_2D_ZEICHNUNG_BEMASSUNGEN
100
AcDbBlockReference
 62
7
  6
CONTINUOUS
  2
_FILLED
 10
109.0875714478
 20
0.0
 41
3.5
 42
3.5
 43
3.5
 50
90.0
  0
ENDBLK
  5
236
100
AcDbEntity
  8
0
  6
BYBLOCK
 62
0
100
AcDbBlockEnd
  0
BLOCK
  5
237
100
AcDbEntity
  8
_03_2D_ZEICHNUNG_BEMASSUNGEN
100
AcDbBlockBegin
 62
7
  6
CONTINUOUS
  2
*D3
 70
65
 10
0.0
 20
0.0
  3
*D3
  1

  0
TEXT
  5
238
100
AcDbEntity
  8
_03_2D_ZEICHNUNG_BEMASSUNGEN
100
AcDbText
 62
2
  6
CONTINUOUS
 10
85.875
 20
10.4792745307
  7
STANDARD
 40
3.5
  1
23
 41
0.75
 72
1
 11
88.5
 21
10.4792745307
100
AcDbText
  0
LINE
  5
239
100
AcDbEntity
  8
_03_2D_ZEICHNUNG_BEMASSUNGEN
100
AcDbLine
 62
7
  6
CONTINUOUS
 10
77.0
 20
0.0
 11
77.0
 21
11.1042745307
  0
LINE
  5
23A
100
AcDbEntity
  8
_03_2D_ZEICHNUNG_BEMASSUNGEN
100
AcDbLine
 62
7
  6
CONTINUOUS
 10
100.0
 20
-20.0
 11
100.0
 21
11.1042745307
  0
LINE
  5
23B
100
AcDbEntity
  8
_03_2D_ZEICHNUNG_BEMASSUNGEN
100
AcDbLine
 62
7
  6
CONTINUOUS
 10
77.0
 20
9.6042745307
 11
88.5
 21
9.6042745307
  0
LINE
  5
23C
100
AcDbEntity
  8
_03_2D_ZEICHNUNG_BEMASSUNGEN
100
AcDbLine
 62
7
  6
CONTINUOUS
 10
100.0
 20
9.6042745307
 11
88.5
 21
9.6042745307
  0
INSERT
  5
23D
100
AcDbEntity
  8
_03_2D_ZEICHNUNG_BEMASSUNGEN
100
AcDbBlockReference
 62
7
  6
CONTINUOUS
  2
_FILLED
 10
77.0
 20
9.6042745307
 41
3.5
 42
3.5
 43
3.5
 50
180.0
  0
INSERT
  5
23E
100
AcDbEntity
  8
_03_2D_ZEICHNUNG_BEMASSUNGEN
100
AcDbBlockReference
 62
7
  6
CONTINUOUS
  2
_FILLED
 10
100.0
 20
9.6042745307
 41
3.5
 42
3.5
 43
3.5
 50
360.0
  0
ENDBLK
  5
23F
100
AcDbEntity
  8
0
  6
BYBLOCK
 62
0
100
AcDbBlockEnd
  0
ENDSEC
  0
SECTION
  2
ENTITIES
  0
DIMENSION
  5
240
100
AcDbEntity
  8
_03_2D_ZEICHNUNG_BEMASSUNGEN
100
AcDbDimension
 62
7
  6
CONTINUOUS
  2
*D0
 10
-9.0
 20
-16.0
 11
-9.0
 21
-8.500000124
 70
160
 71
2
 42
16.0
  3
DIMSTYLE_1
100
AcDbAlignedDimension
 13
-0.0
 23
-0.0
 14
-0.0
 24
-16.0
 50
270.0
100
AcDbRotatedDimension
  0
DIMENSION
  5
241
100
AcDbEntity
  8
_03_2D_ZEICHNUNG_BEMASSUNGEN
100
AcDbDimension
 62
7
  6
CONTINUOUS
  2
*D1
 10
0.0
 20
18.6042745307
 11
49.5000002289
 21
18.6042745307
 70
160
 71
2
 42
100.0
  3
DIMSTYLE_2
100
AcDbAlignedDimension
 13
100.0
 23
0.0
 14
0.0
 24
0.0
 50
180.0
100
AcDbRotatedDimension
  0
DIMENSION
  5
242
100
AcDbEntity
  8
_03_2D_ZEICHNUNG_BEMASSUNGEN
100
AcDbDimension
 62
7
  6
CONTINUOUS
  2
*D2
 10
109.0875714478
 20
0.0
 11
109.0875714478
 21
-10.5000015625
 70
160
 71
2
 42
20.0
  3
DIMSTYLE_1
100
AcDbAlignedDimension
 13
100.0
 23
-20.0
 14
0.0
 24
0.0
 50
90.0
100
AcDbRotatedDimension
  0
DIMENSION
  5
243
100
AcDbEntity
  8
_03_2D_ZEICHNUNG_BEMASSUNGEN
100
AcDbDimension
 62
7
  6
CONTINUOUS
  2
*D3
 10
100.0
 20
9.6042745307
 11
87.9999975586
 21
9.6042745307
 70
160
 71
2
 42
23.0
  3
DIMSTYLE_1
100
AcDbAlignedDimension
 13
77.0
 23
0.0
 14
100.0
 24
-20.0
 50
360.0
100
AcDbRotatedDimension
  0
LINE
  5
244
100
AcDbEntity
  8
_30_VOLUMEN
100
AcDbLine
 62
4
  6
CONTINUOUS
 10
-0.0
 20
-15.5
 11
-0.0
 21
-0.5
  0
LINE
  5
245
100
AcDbEntity
  8
_30_VOLUMEN
100
AcDbLine
 62
4
  6
CONTINUOUS
 10
0.5
 20
-16.0
 11
0.5
 21
-0.0
  0
LINE
  5
246
100
AcDbEntity
  8
_30_VOLUMEN
100
AcDbLine
 62
4
  6
CONTINUOUS
 10
0.5
 20
-0.0
 11
-0.0
 21
-0.5
  0
LINE
  5
247
100
AcDbEntity
  8
_30_VOLUMEN
100
AcDbLine
 62
4
  6
CONTINUOUS
 10
0.5
 20
-16.0
 11
-0.0
 21
-15.5
  0
LINE
  5
248
100
AcDbEntity
  8
_30_VOLUMEN
100
AcDbLine
 62
4
  6
CONTINUOUS
 10
0.5
 20
-16.0
 11
77.0
 21
-16.0
  0
LINE
  5
249
100
AcDbEntity
  8
0
100
AcDbLine
 62
4
  6
CONTINUOUS
 10
77.0
 20
-16.0
 11
85.0
 21
-16.0
  0
LINE
  5
24A
100
AcDbEntity
  8
_30_VOLUMEN
100
AcDbLine
 62
4
  6
CONTINUOUS
 10
99.6148858092
 20
-19.9547545891
 11
90.829923085
 21
-19.2674604352
  0
LINE
  5
24B
100
AcDbEntity
  8
_21_KURVEN
100
AcDbLine
 62
7
  6
CONTINUOUS
 10
99.6148858092
 20
-19.9547545891
 11
90.829923085
 21
-19.2674604352
  0
LINE
  5
24C
100
AcDbEntity
  8
_26_BEZUGSACHSEN
100
AcDbLine
 62
4
  6
CONTINUOUS
 10
90.4093838403
 20
-18.590940767
 11
87.3207174746
 21
-18.3207174746
  0
LINE
  5
24D
100
AcDbEntity
  8
_30_VOLUMEN
100
AcDbLine
 62
4
  6
CONTINUOUS
 10
77.5008951612
 20
-10.2964048824
 11
80.0365658303
 21
-10.3226638433
  0
LINE
  5
24E
100
AcDbEntity
  8
_30_VOLUMEN
100
AcDbLine
 62
4
  6
CONTINUOUS
 10
93.5349928578
 20
-9.9623291425
 11
98.9164119401
 21
-10.3833460541
  0
LINE
  5
24F
100
AcDbEntity
  8
_21_KURVEN
100
AcDbLine
 62
7
  6
CONTINUOUS
 10
93.548978048
 20
-9.9634232779
 11
98.9164119401
 21
-10.3833460541
  0
LINE
  5
250
100
AcDbEntity
  8
_30_VOLUMEN
100
AcDbLine
 62
4
  6
CONTINUOUS
 10
98.6107589852
 20
-10.0776930992
 11
98.5615850062
 21
-10.0738459585
  0
LINE
  5
251
100
AcDbEntity
  8
_30_VOLUMEN
100
AcDbLine
 62
4
  6
CONTINUOUS
 10
93.5362679292
 20
-9.9460312375
 11
98.5890782224
 21
-10.3880948571
  0
LINE
  5
252
100
AcDbEntity
  8
_30_VOLUMEN
100
AcDbLine
 62
4
  6
CONTINUOUS
 10
83.1575566436
 20
-13.4449046497
 11
94.3801288162
 21
-16.5524181656
  0
LINE
  5
253
100
AcDbEntity
  8
_30_VOLUMEN
100
AcDbLine
 62
4
  6
CONTINUOUS
 10
89.3704921266
 20
-14.0737573251
 11
84.2072326798
 21
-12.6440584762
  0
LINE
  5
254
100
AcDbEntity
  8
_30_VOLUMEN
100
AcDbLine
 62
4
  6
CONTINUOUS
 10
0.5
 20
-0.0
 11
77.0
 21
0.0
  0
LINE
  5
255
100
AcDbEntity
  8
0
100
AcDbLine
 62
4
  6
CONTINUOUS
 10
77.0
 20
0.0
 11
91.2904700668
 21
0.0
  0
LINE
  5
256
100
AcDbEntity
  8
_30_VOLUMEN
100
AcDbLine
 62
4
  6
CONTINUOUS
 10
94.5619616154
 20
-16.379750461
 11
89.3704921266
 21
-14.0737573251
  0
LINE
  5
257
100
AcDbEntity
  8
_30_VOLUMEN
100
AcDbLine
 62
4
  6
CONTINUOUS
 10
77.5008951612
 20
-10.2964048824
 11
83.1575566436
 21
-13.4449046497
  0
LINE
  5
258
100
AcDbEntity
  8
_30_VOLUMEN
100
AcDbLine
 62
4
  6
CONTINUOUS
 10
80.0365658303
 20
-10.3226638433
 11
84.2072326798
 21
-12.6440584762
  0
LINE
  5
259
100
AcDbEntity
  8
_30_VOLUMEN
100
AcDbLine
 62
4
  6
CONTINUOUS
 10
88.1501620393
 20
0.0
 11
86.3798352851
 21
-1.7703267542
  0
LINE
  5
25A
100
AcDbEntity
  8
_30_VOLUMEN
100
AcDbLine
 62
4
  6
CONTINUOUS
 10
87.3207174746
 20
-18.3207174746
 11
85.0
 21
-16.0
  0
LINE
  5
25B
100
AcDbEntity
  8
_30_VOLUMEN
100
AcDbLine
 62
4
  6
CONTINUOUS
 10
84.5232208348
 20
-0.2024395572
 11
77.5008951612
 21
-10.2964048824
  0
LINE
  5
25C
100
AcDbEntity
  8
_30_VOLUMEN
100
AcDbLine
 62
4
  6
CONTINUOUS
 10
83.1575566436
 20
-13.4449046497
 11
84.2072326798
 21
-12.6440584762
  0
LINE
  5
25D
100
AcDbEntity
  8
_30_VOLUMEN
100
AcDbLine
 62
4
  6
CONTINUOUS
 10
90.581810825
 20
-19.1533661961
 11
90.2761578702
 21
-18.8477132413
  0
LINE
  5
25E
100
AcDbEntity
  8
_30_VOLUMEN
100
AcDbLine
 62
7
  6
CONTINUOUS
 10
90.4680180189
 20
-18.9088917926
 11
90.162365064
 21
-18.6032388378
  0
LINE
  5
25F
100
AcDbEntity
  8
0
100
AcDbLine
 62
4
  6
CONTINUOUS
 10
77.0
 20
0.0
 11
77.0
 21
-16.0
  0
LINE
  5
260
100
AcDbEntity
  8
_30_VOLUMEN
100
AcDbLine
 62
4
  6
CONTINUOUS
 10
80.0365658303
 20
-10.3226638433
 11
85.2907679473
 21
-2.7702180518
  0
LINE
  5
261
100
AcDbEntity
  8
_30_VOLUMEN
100
AcDbLine
 62
4
  6
CONTINUOUS
 10
80.09
 20
0.0
 11
80.09
 21
-6.5747981553
  0
LINE
  5
262
100
AcDbEntity
  8
_30_VOLUMEN
100
AcDbLine
 62
4
  6
CONTINUOUS
 10
79.7800419581
 20
-11.5649787898
 11
79.3878187441
 21
-16.0
  0
LINE
  5
263
100
AcDbEntity
  8
_30_VOLUMEN
100
AcDbLine
 62
4
  6
CONTINUOUS
 10
85.2907679473
 20
-2.7702180518
 11
88.9352586226
 21
-5.8479438923
  0
LINE
  5
264
100
AcDbEntity
  8
_30_VOLUMEN
100
AcDbLine
 62
4
  6
CONTINUOUS
 10
89.4662313341
 20
-4.3767488088
 11
84.5232208348
 21
-0.2024395572
  0
LINE
  5
265
100
AcDbEntity
  8
_30_VOLUMEN
100
AcDbLine
 62
4
  6
CONTINUOUS
 10
96.1947205773
 20
-14.03280543
 11
92.0899773846
 21
-10.1647404022
  0
LINE
  5
266
100
AcDbEntity
  8
_28_BEZUGSPUNKTE
100
AcDbLine
 62
1
  6
CONTINUOUS
 10
100.15625
 20
-20.15625
 11
99.84375
 21
-19.84375
  0
LINE
  5
267
100
AcDbEntity
  8
_30_VOLUMEN
100
AcDbLine
 62
7
  6
CONTINUOUS
 10
98.9164119401
 20
-10.3833460541
 11
98.6107589852
 21
-10.0776930992
  0
LINE
  5
268
100
AcDbEntity
  8
_30_VOLUMEN
100
AcDbLine
 62
4
  6
CONTINUOUS
 10
99.1645242001
 20
-10.4974402931
 11
98.8588712453
 21
-10.1917873383
  0
LINE
  5
269
100
AcDbEntity
  8
_30_VOLUMEN
100
AcDbLine
 62
4
  6
CONTINUOUS
 10
92.0899773846
 20
-10.1647404022
 11
88.9352586226
 21
-5.8479438923
  0
LINE
  5
26A
100
AcDbEntity
  8
_30_VOLUMEN
100
AcDbLine
 62
4
  6
CONTINUOUS
 10
89.4662313341
 20
-4.3767488088
 11
88.9352586226
 21
-5.8479438923
  0
LINE
  5
26B
100
AcDbEntity
  8
_30_VOLUMEN
100
AcDbLine
 62
4
  6
CONTINUOUS
 10
89.3704921266
 20
-14.0737573251
 11
92.0899773846
 21
-10.1647404022
  0
LINE
  5
26C
100
AcDbEntity
  8
_30_VOLUMEN
100
AcDbLine
 62
7
  6
CONTINUOUS
 10
94.3801288162
 20
-16.5524181656
 11
94.5619616154
 21
-16.379750461
  0
LINE
  5
26D
100
AcDbEntity
  8
_30_VOLUMEN
100
AcDbLine
 62
4
  6
CONTINUOUS
 10
91.2904700668
 20
0.0
 11
98.2928681352
 21
-7.0023980685
  0
LINE
  5
26E
100
AcDbEntity
  8
_30_VOLUMEN
100
AcDbLine
 62
4
  6
CONTINUOUS
 10
96.3231517263
 20
-13.7594964483
 11
89.4662313341
 21
-4.3767488088
  0
LINE
  5
26F
100
AcDbEntity
  8
_30_VOLUMEN
100
AcDbLine
 62
4
  6
CONTINUOUS
 10
84.5232208348
 20
-0.2024395572
 11
85.2907679473
 21
-2.7702180518
  0
LINE
  5
270
100
AcDbEntity
  8
_30_VOLUMEN
100
AcDbLine
 62
4
  6
CONTINUOUS
 10
90.1593754918
 20
-18.5690678708
 11
90.162365064
 21
-18.6032388378
  0
LINE
  5
271
100
AcDbEntity
  8
_30_VOLUMEN
100
AcDbLine
 62
4
  6
CONTINUOUS
 10
90.4680180189
 20
-18.9088917926
 11
90.1595723127
 21
-15.3833412387
  0
LINE
  5
272
100
AcDbEntity
  8
_21_KURVEN
100
AcDbLine
 62
7
  6
CONTINUOUS
 10
90.4680180189
 20
-18.9088917926
 11
90.1595723127
 21
-15.3833412387
  0
LINE
  5
273
100
AcDbEntity
  8
_30_VOLUMEN
100
AcDbLine
 62
4
  6
CONTINUOUS
 10
90.4093838403
 20
-18.590940767
 11
90.1584440661
 21
-15.3834399475
  0
LINE
  5
274
100
AcDbEntity
  8
_30_VOLUMEN
100
AcDbLine
 62
7
  6
CONTINUOUS
 10
96.3231517263
 20
-13.7594964483
 11
96.1947205773
 21
-14.03280543
  0
LINE
  5
275
100
AcDbEntity
  8
_28_BEZUGSPUNKTE
100
AcDbLine
 62
1
  6
CONTINUOUS
 10
100.15625
 20
-19.84375
 11
99.84375
 21
-20.15625
  0
LINE
  5
276
100
AcDbEntity
  8
_26_BEZUGSACHSEN
100
AcDbLine
 62
4
  6
CONTINUOUS
 10
98.5890782224
 20
-10.3880948571
 11
98.2928681352
 21
-7.0023980685
  0
LINE
  5
277
100
AcDbEntity
  8
_30_VOLUMEN
100
AcDbLine
 62
4
  6
CONTINUOUS
 10
99.2783170063
 20
-10.7419146966
 11
100.0462517803
 21
-19.5194493286
  0
LINE
  5
278
100
AcDbEntity
  8
_21_KURVEN
100
AcDbLine
 62
7
  6
CONTINUOUS
 10
99.2783170063
 20
-10.7419146966
 11
100.0462517803
 21
-19.5194493286
  0
ARC
  5
279
100
AcDbEntity
  8
_30_VOLUMEN
100
AcDbCircle
 62
7
  6
CONTINUOUS
 10
94.6972730767
 20
-14.6437678636
 40
1.9029525232
100
AcDbArc
 50
17.2695271976
 51
28.5252272987
  0
ARC
  5
27A
100
AcDbEntity
  8
_30_VOLUMEN
100
AcDbCircle
 62
4
  6
CONTINUOUS
 10
94.5725939366
 20
-14.5073600107
 40
1.8929292105
100
AcDbArc
 50
26.5108784333
 51
39.0737023281
  0
ARC
  5
27B
100
AcDbEntity
  8
_30_VOLUMEN
100
AcDbCircle
 62
7
  6
CONTINUOUS
 10
94.7282612118
 20
-14.6296658163
 40
1.8689933127
100
AcDbArc
 50
28.5990497078
 51
44.9838827604
  0
ARC
  5
27C
100
AcDbEntity
  8
_30_VOLUMEN
100
AcDbCircle
 62
4
  6
CONTINUOUS
 10
94.5975852732
 20
-14.4881241492
 40
1.8614029819
100
AcDbArc
 50
39.0989131777
 51
42.7781884025
  0
ARC
  5
27D
100
AcDbEntity
  8
_30_VOLUMEN
100
AcDbCircle
 62
4
  6
CONTINUOUS
 10
94.7685193904
 20
-14.5908244978
 40
1.8131252368
100
AcDbArc
 50
45.0150465143
 51
51.3909832698
  0
ARC
  5
27E
100
AcDbEntity
  8
_30_VOLUMEN
100
AcDbCircle
 62
4
  6
CONTINUOUS
 10
94.8532572983
 20
-14.8428624748
 40
1.7738182603
100
AcDbArc
 50
254.530294066
 51
259.1864304447
  0
ARC
  5
27F
100
AcDbEntity
  8
_30_VOLUMEN
100
AcDbCircle
 62
4
  6
CONTINUOUS
 10
94.8988845474
 20
-14.8000049158
 40
1.76385795
100
AcDbArc
 50
30.8387553626
 51
36.1502607087
  0
SPLINE
  5
280
100
AcDbEntity
  8
_30_VOLUMEN
100
AcDbSpline
 62
4
  6
CONTINUOUS
 70
0
 71
3
 72
11
 73
7
 74
0
 42
0.0000001
 43
0.0000001
 44
0.0000000001
 40
0.0
 40
0.0
 40
0.0
 40
0.0
 40
0.2493328465
 40
0.500014802
 40
0.7506876982
 40
1.0
 40
1.0
 40
1.0
 40
1.0
 10
99.6148858092
 20
-19.9547545891
 30
0.0
 10
99.6721503309
 20
-19.9592346958
 30
0.0
 10
99.7903697593
 20
-19.9422417355
 30
0.0
 10
99.9403579806
 20
-19.8458837692
 30
0.0
 10
100.0353475477
 20
-19.6950299821
 30
0.0
 10
100.0512575505
 20
-19.5766655446
 30
0.0
 10
100.0462517803
 20
-19.5194493286
 30
0.0
  0
SPLINE
  5
281
100
AcDbEntity
  8
_30_VOLUMEN
100
AcDbSpline
 62
4
  6
CONTINUOUS
 70
0
 71
3
 72
9
 73
5
 74
0
 42
0.0000001
 43
0.0000001
 44
0.0000000001
 40
0.0
 40
0.0
 40
0.0
 40
0.0
 40
0.5000778014
 40
1.0
 40
1.0
 40
1.0
 40
1.0
 10
99.2783170063
 20
-10.7419146966
 30
0.0
 10
99.2743392067
 20
-10.6964482401
 30
0.0
 10
99.2502186215
 20
-10.6062762528
 30
0.0
 10
99.1968118191
 20
-10.5296776983
 30
0.0
 10
99.1645494263
 20
-10.4974152825
 30
0.0
  0
SPLINE
  5
282
100
AcDbEntity
  8
_30_VOLUMEN
100
AcDbSpline
 62
4
  6
CONTINUOUS
 70
0
 71
3
 72
9
 73
5
 74
0
 42
0.0000001
 43
0.0000001
 44
0.0000000001
 40
0.0
 40
0.0
 40
0.0
 40
0.0
 40
0.5001197338
 40
1.0
 40
1.0
 40
1.0
 40
1.0
 10
98.6107589852
 20
-10.0776930992
 30
0.0
 10
98.6568614579
 20
-10.0812999398
 30
0.0
 10
98.7484437574
 20
-10.1051058828
 30
0.0
 10
98.8262131546
 20
-10.1590789877
 30
0.0
 10
98.8588964714
 20
-10.1917623277
 30
0.0
  0
SPLINE
  5
283
100
AcDbEntity
  8
_30_VOLUMEN
100
AcDbSpline
 62
4
  6
CONTINUOUS
 70
0
 71
3
 72
9
 73
5
 74
0
 42
0.0000001
 43
0.0000001
 44
0.0000000001
 40
0.0
 40
0.0
 40
0.0
 40
0.0
 40
0.4998802662
 40
1.0
 40
1.0
 40
1.0
 40
1.0
 10
90.5817855989
 20
-19.1533912067
 30
0.0
 10
90.6144689157
 20
-19.1860745467
 30
0.0
 10
90.6922383128
 20
-19.2400476516
 30
0.0
 10
90.7838206124
 20
-19.2638535946
 30
0.0
 10
90.829923085
 20
-19.2674604352
 30
0.0
  0
SPLINE
  5
284
100
AcDbEntity
  8
_30_VOLUMEN
100
AcDbSpline
 62
4
  6
CONTINUOUS
 70
0
 71
3
 72
9
 73
5
 74
0
 42
0.0000001
 43
0.0000001
 44
0.0000000001
 40
0.0
 40
0.0
 40
0.0
 40
0.0
 40
0.4999221986
 40
1.0
 40
1.0
 40
1.0
 40
1.0
 10
90.276132644
 20
-18.8477382519
 30
0.0
 10
90.2438702511
 20
-18.8154758362
 30
0.0
 10
90.1904634488
 20
-18.7388772816
 30
0.0
 10
90.1663428635
 20
-18.6487052943
 30
0.0
 10
90.162365064
 20
-18.6032388378
 30
0.0
  0
SPLINE
  5
285
100
AcDbEntity
  8
_30_VOLUMEN
100
AcDbSpline
 62
4
  6
CONTINUOUS
 70
0
 71
3
 72
11
 73
7
 74
0
 42
0.0000001
 43
0.0000001
 44
0.0000000001
 40
0.0
 40
0.0
 40
0.0
 40
0.0
 40
0.2501555504
 40
0.5008150994
 40
0.7505459786
 40
1.0
 40
1.0
 40
1.0
 40
1.0
 10
95.0425133579
 20
-17.0818377613
 30
0.0
 10
94.8491861252
 20
-17.1005391601
 30
0.0
 10
94.4556495701
 20
-17.0876601898
 30
0.0
 10
93.8903235243
 20
-16.9226660183
 30
0.0
 10
93.3866230218
 20
-16.6182493671
 30
0.0
 10
93.1132627018
 20
-16.3364277404
 30
0.0
 10
92.9974412857
 20
-16.181188355
 30
0.0
  0
SPLINE
  5
286
100
AcDbEntity
  8
_30_VOLUMEN
100
AcDbSpline
 62
4
  6
CONTINUOUS
 70
0
 71
3
 72
17
 73
13
 74
0
 42
0.0000001
 43
0.0000001
 44
0.0000000001
 40
0.0
 40
0.0
 40
0.0
 40
0.0
 40
0.1250659801
 40
0.1881058259
 40
0.2510739335
 40
0.3764251224
 40
0.5015900924
 40
0.5642615085
 40
0.6268357749
 40
0.7512619463
 40
0.8754866181
 40
1.0
 40
1.0
 40
1.0
 40
1.0
 10
95.0425133579
 20
-17.0818377613
 30
0.0
 10
95.3061371046
 20
-17.0563362697
 30
0.0
 10
95.6998270027
 20
-16.9467169738
 30
0.0
 10
96.1610531615
 20
-16.6784102584
 30
0.0
 10
96.5700431311
 20
-16.3338822583
 30
0.0
 10
96.9602455446
 20
-15.7798026222
 30
0.0
 10
97.1404618605
 20
-15.1267267488
 30
0.0
 10
97.1444736417
 20
-14.5941010842
 30
0.0
 10
97.0582973983
 20
-14.0701193314
 30
0.0
 10
96.7793779889
 20
-13.4566264863
 30
0.0
 10
96.2156001109
 20
-12.8813839726
 30
0.0
 10
95.7281558433
 20
-12.6495924949
 30
0.0
 10
95.4738963317
 20
-12.5797255752
 30
0.0
  0
SPLINE
  5
287
100
AcDbEntity
  8
_30_VOLUMEN
100
AcDbSpline
 62
4
  6
CONTINUOUS
 70
0
 71
3
 72
15
 73
11
 74
0
 42
0.0000001
 43
0.0000001
 44
0.0000000001
 40
0.0
 40
0.0
 40
0.0
 40
0.0
 40
0.1246166805
 40
0.2489982084
 40
0.3735228871
 40
0.4983850873
 40
0.6236483161
 40
0.7491612722
 40
0.8747392269
 40
1.0
 40
1.0
 40
1.0
 40
1.0
 10
95.4377298979
 20
-12.5350349718
 30
0.0
 10
95.7039671074
 20
-12.598016746
 30
0.0
 10
96.2179817697
 20
-12.8210959903
 30
0.0
 10
96.8212467704
 20
-13.4008269979
 30
0.0
 10
97.1868768713
 20
-14.1549208177
 30
0.0
 10
97.268707924
 20
-14.9906306405
 30
0.0
 10
97.0577936575
 20
-15.8053869968
 30
0.0
 10
96.5803427659
 20
-16.5004805358
 30
0.0
 10
95.8951999691
 20
-16.9906339498
 30
0.0
 10
95.3518834011
 20
-17.1420189751
 30
0.0
 10
95.078161679
 20
-17.1684972886
 30
0.0
  0
SPLINE
  5
288
100
AcDbEntity
  8
_30_VOLUMEN
100
AcDbSpline
 62
4
  6
CONTINUOUS
 70
0
 71
3
 72
9
 73
5
 74
0
 42
0.0000001
 43
0.0000001
 44
0.0000000001
 40
0.0
 40
0.0
 40
0.0
 40
0.0
 40
0.4998802662
 40
1.0
 40
1.0
 40
1.0
 40
1.0
 10
99.1645494263
 20
-10.4974152825
 30
0.0
 10
99.1318661095
 20
-10.4647319426
 30
0.0
 10
99.0540967123
 20
-10.4107588377
 30
0.0
 10
98.9625144127
 20
-10.3869528946
 30
0.0
 10
98.9164119401
 20
-10.3833460541
 30
0.0
  0
SPLINE
  5
289
100
AcDbEntity
  8
_30_VOLUMEN
100
AcDbSpline
 62
4
  6
CONTINUOUS
 70
0
 71
3
 72
11
 73
7
 74
0
 42
0.0000001
 43
0.0000001
 44
0.0000000001
 40
0.0
 40
0.0
 40
0.0
 40
0.0
 40
0.2504109483
 40
0.5008041505
 40
0.7504063222
 40
1.0
 40
1.0
 40
1.0
 40
1.0
 10
95.078161679
 20
-17.1684972886
 30
0.0
 10
94.870957314
 20
-17.1885410838
 30
0.0
 10
94.449123795
 20
-17.1728595096
 30
0.0
 10
93.846813052
 20
-16.9845990741
 30
0.0
 10
93.316658883
 20
-16.6432531656
 30
0.0
 10
93.0364866645
 20
-16.3291963193
 30
0.0
 10
92.920063085
 20
-16.1574449137
 30
0.0
  0
SPLINE
  5
28A
100
AcDbEntity
  8
_30_VOLUMEN
100
AcDbSpline
 62
4
  6
CONTINUOUS
 70
0
 71
3
 72
9
 73
5
 74
0
 42
0.0000001
 43
0.0000001
 44
0.0000000001
 40
0.0
 40
0.0
 40
0.0
 40
0.0
 40
0.5000778014
 40
1.0
 40
1.0
 40
1.0
 40
1.0
 10
90.4680180189
 20
-18.9088917926
 30
0.0
 10
90.4719958184
 20
-18.9543582491
 30
0.0
 10
90.4961164036
 20
-19.0445302364
 30
0.0
 10
90.549523206
 20
-19.121128791
 30
0.0
 10
90.5817855989
 20
-19.1533912067
 30
0.0
  0
SPLINE
  5
28B
100
AcDbEntity
  8
_21_KURVEN
100
AcDbSpline
 62
7
  6
CONTINUOUS
 70
0
 71
3
 72
8
 73
4
 74
0
 42
0.0000001
 43
0.0000001
 44
0.0000000001
 40
0.0
 40
0.0
 40
0.0
 40
0.0
 40
1.0
 40
1.0
 40
1.0
 40
1.0
 10
99.2783170063
 20
-10.7419146966
 30
0.0
 10
99.2766908262
 20
-10.7253327747
 30
0.0
 10
99.2743032397
 20
-10.709346132
 30
0.0
 10
99.2707368719
 20
-10.6920554229
 30
0.0
  0
SPLINE
  5
28C
100
AcDbEntity
  8
_21_KURVEN
100
AcDbSpline
 62
7
  6
CONTINUOUS
 70
0
 71
3
 72
8
 73
4
 74
0
 42
0.0000001
 43
0.0000001
 44
0.0000000001
 40
0.0
 40
0.0
 40
0.0
 40
0.0
 40
1.0
 40
1.0
 40
1.0
 40
1.0
 10
99.2707368721
 20
-10.6920554235
 30
0.0
 10
99.2600782308
 20
-10.6489852081
 30
0.0
 10
99.2439173634
 20
-10.6084420442
 30
0.0
 10
99.22077395
 20
-10.5684722068
 30
0.0
  0
SPLINE
  5
28D
100
AcDbEntity
  8
_21_KURVEN
100
AcDbSpline
 62
7
  6
CONTINUOUS
 70
0
 71
3
 72
10
 73
6
 74
0
 42
0.0000001
 43
0.0000001
 44
0.0000000001
 40
0.0
 40
0.0
 40
0.0
 40
0.0
 40
0.25
 40
0.5
 40
1.0
 40
1.0
 40
1.0
 40
1.0
 10
99.2207739491
 20
-10.5684722053
 30
0.0
 10
99.2054864038
 20
-10.547108593
 30
0.0
 10
99.1745637934
 20
-10.5052840029
 30
0.0
 10
99.093817464
 20
-10.4323015783
 30
0.0
 10
99.0178186124
 20
-10.4048794421
 30
0.0
 10
98.9663429394
 20
-10.3904677131
 30
0.0
  0
SPLINE
  5
28E
100
AcDbEntity
  8
_21_KURVEN
100
AcDbSpline
 62
7
  6
CONTINUOUS
 70
0
 71
3
 72
8
 73
4
 74
0
 42
0.0000001
 43
0.0000001
 44
0.0000000001
 40
0.0
 40
0.0
 40
0.0
 40
0.0
 40
1.0
 40
1.0
 40
1.0
 40
1.0
 10
98.9663429356
 20
-10.3904677123
 30
0.0
 10
98.9500108064
 20
-10.3872447667
 30
0.0
 10
98.9340142783
 20
-10.3849203714
 30
0.0
 10
98.9164119394
 20
-10.383346054
 30
0.0
  0
SPLINE
  5
28F
100
AcDbEntity
  8
_21_KURVEN
100
AcDbSpline
 62
7
  6
CONTINUOUS
 70
0
 71
3
 72
9
 73
5
 74
0
 42
0.0000001
 43
0.0000001
 44
0.0000000001
 40
0.0
 40
0.0
 40
0.0
 40
0.0
 40
0.5
 40
1.0
 40
1.0
 40
1.0
 40
1.0
 10
99.6148858092
 20
-19.9547545891
 30
0.0
 10
99.652366157
 20
-19.9559131961
 30
0.0
 10
99.7318112047
 20
-19.9542156166
 30
0.0
 10
99.8025952766
 20
-19.9239608887
 30
0.0
 10
99.8382212424
 20
-19.9066859747
 30
0.0
  0
SPLINE
  5
290
100
AcDbEntity
  8
_21_KURVEN
100
AcDbSpline
 62
7
  6
CONTINUOUS
 70
0
 71
3
 72
9
 73
5
 74
0
 42
0.0000001
 43
0.0000001
 44
0.0000000001
 40
0.0
 40
0.0
 40
0.0
 40
0.0
 40
0.5
 40
1.0
 40
1.0
 40
1.0
 40
1.0
 10
99.83822125
 20
-19.9066859706
 30
0.0
 10
99.8703825659
 20
-19.8870814559
 30
0.0
 10
99.9362739823
 20
-19.8420758128
 30
0.0
 10
99.9792098454
 20
-19.7780950537
 30
0.0
 10
99.9998940688
 20
-19.7438241694
 30
0.0
  0
SPLINE
  5
291
100
AcDbEntity
  8
_21_KURVEN
100
AcDbSpline
 62
7
  6
CONTINUOUS
 70
0
 71
3
 72
9
 73
5
 74
0
 42
0.0000001
 43
0.0000001
 44
0.0000000001
 40
0.0
 40
0.0
 40
0.0
 40
0.0
 40
0.5
 40
1.0
 40
1.0
 40
1.0
 40
1.0
 10
99.9998940652
 20
-19.7438241761
 30
0.0
 10
100.0161524351
 20
-19.7098699527
 30
0.0
 10
100.0467935807
 20
-19.6369812051
 30
0.0
 10
100.0477434703
 20
-19.5581745321
 30
0.0
 10
100.0462517799
 20
-19.5194493241
 30
0.0
  0
SPLINE
  5
292
100
AcDbEntity
  8
_21_KURVEN
100
AcDbSpline
 62
1
  6
CENTER
 70
0
 71
3
 72
131
 73
127
 74
0
 42
0.0000001
 43
0.0000001
 44
0.0000000001
 40
0.0
 40
0.0
 40
0.0
 40
0.0
 40
0.015625
 40
0.03125
 40
0.046875
 40
0.0546875
 40
0.05859375
 40
0.0625
 40
0.06640625
 40
0.0703125
 40
0.078125
 40
0.09375
 40
0.109375
 40
0.1171875
 40
0.12109375
 40
0.125
 40
0.12890625
 40
0.1328125
 40
0.140625
 40
0.15625
 40
0.171875
 40
0.1796875
 40
0.18359375
 40
0.1875
 40
0.19140625
 40
0.1953125
 40
0.203125
 40
0.21875
 40
0.234375
 40
0.2421875
 40
0.24609375
 40
0.25
 40
0.25390625
 40
0.2578125
 40
0.265625
 40
0.28125
 40
0.296875
 40
0.3046875
 40
0.30859375
 40
0.3125
 40
0.31640625
 40
0.3203125
 40
0.328125
 40
0.34375
 40
0.359375
 40
0.3671875
 40
0.37109375
 40
0.375
 40
0.37890625
 40
0.3828125
 40
0.390625
 40
0.40625
 40
0.421875
 40
0.4296875
 40
0.43359375
 40
0.4375
 40
0.44140625
 40
0.4453125
 40
0.453125
 40
0.46875
 40
0.484375
 40
0.4921875
 40
0.49609375
 40
0.5
 40
0.50390625
 40
0.5078125
 40
0.515625
 40
0.53125
 40
0.546875
 40
0.5546875
 40
0.55859375
 40
0.5625
 40
0.56640625
 40
0.5703125
 40
0.578125
 40
0.59375
 40
0.609375
 40
0.6171875
 40
0.62109375
 40
0.625
 40
0.62890625
 40
0.6328125
 40
0.640625
 40
0.65625
 40
0.671875
 40
0.6796875
 40
0.68359375
 40
0.6875
 40
0.69140625
 40
0.6953125
 40
0.703125
 40
0.71875
 40
0.734375
 40
0.7421875
 40
0.74609375
 40
0.75
 40
0.75390625
 40
0.7578125
 40
0.765625
 40
0.78125
 40
0.796875
 40
0.8046875
 40
0.80859375
 40
0.8125
 40
0.81640625
 40
0.8203125
 40
0.828125
 40
0.84375
 40
0.859375
 40
0.8671875
 40
0.87109375
 40
0.875
 40
0.87890625
 40
0.8828125
 40
0.890625
 40
0.90625
 40
0.921875
 40
0.9296875
 40
0.93359375
 40
0.9375
 40
0.94140625
 40
0.9453125
 40
0.953125
 40
0.96875
 40
0.984375
 40
1.0
 40
1.0
 40
1.0
 40
1.0
 10
95.28597289
 20
-19.5437902993
 30
0.0
 10
95.3617561045
 20
-19.5289076655
 30
0.0
 10
95.5133130596
 20
-19.4991098693
 30
0.0
 10
95.7407053364
 20
-19.4546083474
 30
0.0
 10
95.9300331045
 20
-19.4169544928
 30
0.0
 10
96.0628858443
 20
-19.3917068378
 30
0.0
 10
96.1382972022
 20
-19.3755474511
 30
0.0
 10
96.1962768289
 20
-19.3683072217
 30
0.0
 10
96.2488242692
 20
-19.3424158274
 30
0.0
 10
96.3207832036
 20
-19.3144014014
 30
0.0
 10
96.4458193449
 20
-19.262327185
 30
0.0
 10
96.6249792633
 20
-19.1896666107
 30
0.0
 10
96.8036907798
 20
-19.1158889461
 30
0.0
 10
96.9293546838
 20
-19.065378656
 30
0.0
 10
97.0003271339
 20
-19.0349066315
 30
0.0
 10
97.0559012875
 20
-19.0165555965
 30
0.0
 10
97.1025139242
 20
-18.9809971287
 30
0.0
 10
97.1677910616
 20
-18.9395896085
 30
0.0
 10
97.2805583319
 20
-18.8643128768
 30
0.0
 10
97.442508809
 20
-18.7583768755
 30
0.0
 10
97.6038374371
 20
-18.6513913104
 30
0.0
 10
97.717475296
 20
-18.5775839681
 30
0.0
 10
97.7813843657
 20
-18.5338674074
 30
0.0
 10
97.8321944829
 20
-18.5053934955
 30
0.0
 10
97.8720047653
 20
-18.4604360177
 30
0.0
 10
97.9289235996
 20
-18.4062434878
 30
0.0
 10
98.0267271753
 20
-18.308715916
 30
0.0
 10
98.1675185045
 20
-18.170888079
 30
0.0
 10
98.3074590146
 20
-18.0321962168
 30
0.0
 10
98.4064537369
 20
-17.9358782802
 30
0.0
 10
98.4615007694
 20
-17.879784895
 30
0.0
 10
98.5070540801
 20
-17.8406595869
 30
0.0
 10
98.5362959354
 20
-17.7902826376
 30
0.0
 10
98.5809763725
 20
-17.7270389837
 30
0.0
 10
98.6564986164
 20
-17.6145244082
 30
0.0
 10
98.7659182113
 20
-17.4548240949
 30
0.0
 10
98.8742980028
 20
-17.2944859012
 30
0.0
 10
98.9512759715
 20
-17.1828643581
 30
0.0
 10
98.9936688409
 20
-17.1182173676
 30
0.0
 10
99.02992937
 20
-17.0721461103
 30
0.0
 10
99.0491236613
 20
-17.0168505366
 30
0.0
 10
99.0806707685
 20
-16.9463412219
 30
0.0
 10
99.1330854917
 20
-16.8214448012
 30
0.0
 10
99.2095710246
 20
-16.6438544324
 30
0.0
 10
99.2849465856
 20
-16.4657986018
 30
0.0
 10
99.3389152695
 20
-16.3415538276
 30
0.0
 10
99.3680204384
 20
-16.2700204971
 30
0.0
 10
99.3947070403
 20
-16.21786679
 30
0.0
 10
99.4028297808
 20
-16.1599960783
 30
0.0
 10
99.4201373022
 20
-16.0848296607
 30
0.0
 10
99.4473883703
 20
-15.9523553669
 30
0.0
 10
99.488061203
 20
-15.7636245665
 30
0.0
 10
99.5275480358
 20
-15.5745982658
 30
0.0
 10
99.5564595038
 20
-15.4425376724
 30
0.0
 10
99.5711578254
 20
-15.3667211541
 30
0.0
 10
99.5872860654
 20
-15.3108450695
 30
0.0
 10
99.5839075688
 20
-15.2512004295
 30
0.0
 10
99.5862090042
 20
-15.1729884169
 30
0.0
 10
99.5870460702
 20
-15.0355085113
 30
0.0
 10
99.5900656924
 20
-14.8393994944
 30
0.0
 10
99.5918670999
 20
-14.6432868628
 30
0.0
 10
99.5944096664
 20
-14.5058120179
 30
0.0
 10
99.5940310296
 20
-14.4275920528
 30
0.0
 10
99.5988754818
 20
-14.3679718124
 30
0.0
 10
99.5841219805
 20
-14.3120040937
 30
0.0
 10
99.571288475
 20
-14.2361058814
 30
0.0
 10
99.5456254681
 20
-14.1038833515
 30
0.0
 10
99.5107882157
 20
-13.9146365121
 30
0.0
 10
99.4747577857
 20
-13.7256781134
 30
0.0
 10
99.4507652274
 20
-13.5930517666
 30
0.0
 10
99.4353067313
 20
-13.5177881238
 30
0.0
 10
99.4286071782
 20
-13.4598734305
 30
0.0
 10
99.4032045805
 20
-13.4075651614
 30
0.0
 10
99.375859988
 20
-13.3358643299
 30
0.0
 10
99.3249494622
 20
-13.2113083521
 30
0.0
 10
99.25395642
 20
-13.0328182083
 30
0.0
 10
99.1818420447
 20
-12.8547869053
 30
0.0
 10
99.1325013852
 20
-12.7295885503
 30
0.0
 10
99.1026898599
 20
-12.6588971687
 30
0.0
 10
99.0848562606
 20
-12.6034917238
 30
0.0
 10
99.0497309136
 20
-12.5572086462
 30
0.0
 10
99.0089303078
 20
-12.4923147992
 30
0.0
 10
98.9347018675
 20
-12.3802445879
 30
0.0
 10
98.8302714621
 20
-12.2192749316
 30
0.0
 10
98.7247856484
 20
-12.0589369387
 30
0.0
 10
98.6520347797
 20
-11.9459823987
 30
0.0
 10
98.6089122758
 20
-11.882478211
 30
0.0
 10
98.5809109344
 20
-11.8319314063
 30
0.0
 10
98.5363227362
 20
-11.7925386252
 30
0.0
 10
98.482658623
 20
-11.7361226661
 30
0.0
 10
98.3860388374
 20
-11.6392242909
 30
0.0
 10
98.2495178989
 20
-11.4997120966
 30
0.0
 10
98.1121249637
 20
-11.3610588153
 30
0.0
 10
98.0167259734
 20
-11.2629579618
 30
0.0
 10
97.9611434676
 20
-11.2084316115
 30
0.0
 10
97.9224412469
 20
-11.1632411669
 30
0.0
 10
97.87233479
 20
-11.1344678095
 30
0.0
 10
97.8095050353
 20
-11.0903751822
 30
0.0
 10
97.6976898192
 20
-11.0158988627
 30
0.0
 10
97.5390029093
 20
-10.9079637291
 30
0.0
 10
97.3796683951
 20
-10.8010743927
 30
0.0
 10
97.2687598249
 20
-10.7251339573
 30
0.0
 10
97.2045053408
 20
-10.6833420834
 30
0.0
 10
97.1587702128
 20
-10.6475095961
 30
0.0
 10
97.1036512234
 20
-10.6288301061
 30
0.0
 10
97.0334330225
 20
-10.5979391325
 30
0.0
 10
96.9090199434
 20
-10.5466868001
 30
0.0
 10
96.7321350873
 20
-10.4718539867
 30
0.0
 10
96.5547743987
 20
-10.3981355341
 30
0.0
 10
96.4310274851
 20
-10.3453230967
 30
0.0
 10
96.3597624526
 20
-10.3168837166
 30
0.0
 10
96.3078553328
 20
-10.2906822921
 30
0.0
 10
96.2500578502
 20
-10.2830988477
 30
0.0
 10
96.1750495587
 20
-10.2664915069
 30
0.0
 10
96.0428236235
 20
-10.2404745875
 30
0.0
 10
95.8544638959
 20
-10.2015599198
 30
0.0
 10
95.6657975921
 20
-10.1638340464
 30
0.0
 10
95.5340008637
 20
-10.1361528149
 30
0.0
 10
95.4583181044
 20
-10.1221608217
 30
0.0
 10
95.4025900117
 20
-10.1065530155
 30
0.0
 10
95.3429111832
 20
-10.1104875277
 30
0.0
 10
95.2647174754
 20
-10.1089169515
 30
0.0
 10
95.1272363952
 20
-10.1093445493
 30
0.0
 10
94.9311707551
 20
-10.1082938588
 30
0.0
 10
94.6957472903
 20
-10.1077487725
 30
0.0
 10
94.5388258751
 20
-10.1072490498
 30
0.0
 10
94.4603617223
 20
-10.1070162299
 30
0.0
  0
SPLINE
  5
293
100
AcDbEntity
  8
_21_KURVEN
100
AcDbSpline
 62
1
  6
CENTER
 70
0
 71
3
 72
15
 73
11
 74
0
 42
0.0000001
 43
0.0000001
 44
0.0000000001
 40
0.0
 40
0.0
 40
0.0
 40
0.0
 40
0.25
 40
0.375
 40
0.4375
 40
0.5
 40
0.625
 40
0.75
 40
0.875
 40
1.0
 40
1.0
 40
1.0
 40
1.0
 10
94.4603621351
 20
-10.10701619
 30
0.0
 10
94.4027339807
 20
-10.1133010199
 30
0.0
 10
94.3161650455
 20
-10.1230147297
 30
0.0
 10
94.2160252002
 20
-10.1370321921
 30
0.0
 10
94.1582203806
 20
-10.1464676091
 30
0.0
 10
94.103184966
 20
-10.154779066
 30
0.0
 10
94.0143477234
 20
-10.1718162891
 30
0.0
 10
93.9286613534
 20
-10.1890908949
 30
0.0
 10
93.8419507248
 20
-10.2082589519
 30
0.0
 10
93.7770710017
 20
-10.2241772957
 30
0.0
 10
93.7455152198
 20
-10.2317440126
 30
0.0
  0
SPLINE
  5
294
100
AcDbEntity
  8
_21_KURVEN
100
AcDbSpline
 62
1
  6
CENTER
 70
0
 71
3
 72
15
 73
11
 74
0
 42
0.0000001
 43
0.0000001
 44
0.0000000001
 40
0.0
 40
0.0
 40
0.0
 40
0.0
 40
0.125
 40
0.1875
 40
0.25
 40
0.5
 40
0.75
 40
0.8125
 40
0.875
 40
1.0
 40
1.0
 40
1.0
 40
1.0
 10
90.1604067219
 20
-15.3809401774
 30
0.0
 10
90.1608603666
 20
-15.3850476406
 30
0.0
 10
90.1614644554
 20
-15.3905809902
 30
0.0
 10
90.1625754197
 20
-15.4004701704
 30
0.0
 10
90.1656944436
 20
-15.4273601544
 30
0.0
 10
90.169789695
 20
-15.4620326276
 30
0.0
 10
90.175071606
 20
-15.5011381436
 30
0.0
 10
90.1780784434
 20
-15.5234494155
 30
0.0
 10
90.1813854595
 20
-15.5463121998
 30
0.0
 10
90.1841741883
 20
-15.5653311363
 30
0.0
 10
90.1859647926
 20
-15.5775944611
 30
0.0
  0
SPLINE
  5
295
100
AcDbEntity
  8
_21_KURVEN
100
AcDbSpline
 62
1
  6
CENTER
 70
0
 71
3
 72
61
 73
57
 74
0
 42
0.0000001
 43
0.0000001
 44
0.0000000001
 40
0.0
 40
0.0
 40
0.0
 40
0.0
 40
0.0625
 40
0.09375
 40
0.109375
 40
0.125
 40
0.1328125
 40
0.140625
 40
0.15625
 40
0.171875
 40
0.1875
 40
0.21875
 40
0.25
 40
0.265625
 40
0.2734375
 40
0.28125
 40
0.28515625
 40
0.2890625
 40
0.296875
 40
0.3125
 40
0.34375
 40
0.375
 40
0.40625
 40
0.421875
 40
0.4296875
 40
0.4375
 40
0.453125
 40
0.46875
 40
0.5
 40
0.53125
 40
0.546875
 40
0.5625
 40
0.5703125
 40
0.578125
 40
0.59375
 40
0.625
 40
0.65625
 40
0.6875
 40
0.703125
 40
0.7109375
 40
0.71484375
 40
0.71875
 40
0.7265625
 40
0.734375
 40
0.75
 40
0.78125
 40
0.8125
 40
0.828125
 40
0.84375
 40
0.859375
 40
0.8671875
 40
0.875
 40
0.890625
 40
0.90625
 40
0.9375
 40
1.0
 40
1.0
 40
1.0
 40
1.0
 10
90.1859647928
 20
-15.5775944626
 30
0.0
 10
90.2232373351
 20
-15.7193583716
 30
0.0
 10
90.2791847869
 20
-15.9319923955
 30
0.0
 10
90.3443215795
 20
-16.1801068621
 30
0.0
 10
90.3817357961
 20
-16.3218273592
 30
0.0
 10
90.4046688997
 20
-16.4105407988
 30
0.0
 10
90.4240489606
 20
-16.4811948405
 30
0.0
 10
90.4396553346
 20
-16.553005219
 30
0.0
 10
90.486173982
 20
-16.6344915542
 30
0.0
 10
90.5356827631
 20
-16.7342093633
 30
0.0
 10
90.6038946732
 20
-16.8664943553
 30
0.0
 10
90.6884420361
 20
-17.0320557289
 30
0.0
 10
90.7731092451
 20
-17.1976366769
 30
0.0
 10
90.8326268819
 20
-17.3133586407
 30
0.0
 10
90.8661714226
 20
-17.379796233
 30
0.0
 10
90.8882409397
 20
-17.4205868146
 30
0.0
 10
90.9033629078
 20
-17.4549005837
 30
0.0
 10
90.9277361147
 20
-17.4830754682
 30
0.0
 10
90.9687763732
 20
-17.5334519554
 30
0.0
 10
91.0520058886
 20
-17.6334402804
 30
0.0
 10
91.170272945
 20
-17.7767180852
 30
0.0
 10
91.3126019366
 20
-17.9482999867
 30
0.0
 10
91.430690685
 20
-18.0918733314
 30
0.0
 10
91.5142634434
 20
-18.1912927421
 30
0.0
 10
91.5606138408
 20
-18.249782044
 30
0.0
 10
91.6210353043
 20
-18.2914640363
 30
0.0
 10
91.6917422754
 20
-18.3493239618
 30
0.0
 10
91.80757839
 20
-18.4386668767
 30
0.0
 10
91.9513657596
 20
-18.5515630236
 30
0.0
 10
92.0958030225
 20
-18.6636303649
 30
0.0
 10
92.210599308
 20
-18.7542993689
 30
0.0
 10
92.2839058519
 20
-18.8088440716
 30
0.0
 10
92.338998191
 20
-18.8573222706
 30
0.0
 10
92.4070550216
 20
-18.8881294623
 30
0.0
 10
92.5238892892
 20
-18.9451306297
 30
0.0
 10
92.6919859468
 20
-19.0249291273
 30
0.0
 10
92.8931648111
 20
-19.1214600682
 30
0.0
 10
93.0610168659
 20
-19.2015023619
 30
0.0
 10
93.1783219937
 20
-19.2580342218
 30
0.0
 10
93.2372082356
 20
-19.2856518115
 30
0.0
 10
93.270484256
 20
-19.3024729811
 30
0.0
 10
93.3075059688
 20
-19.3088581092
 30
0.0
 10
93.3525007751
 20
-19.3204121915
 30
0.0
 10
93.4252080222
 20
-19.3369057042
 30
0.0
 10
93.5521134299
 20
-19.3666890856
 30
0.0
 10
93.7335716004
 20
-19.4088271597
 30
0.0
 10
93.9150037515
 20
-19.4508518134
 30
0.0
 10
94.0600801341
 20
-19.4850714363
 30
0.0
 10
94.1691110476
 20
-19.5090045059
 30
0.0
 10
94.2592536114
 20
-19.5344709309
 30
0.0
 10
94.3343115482
 20
-19.5321638092
 30
0.0
 10
94.4088553687
 20
-19.5338175378
 30
0.0
 10
94.502211159
 20
-19.534528648
 30
0.0
 10
94.6514821623
 20
-19.536423447
 30
0.0
 10
94.912752478
 20
-19.5393844909
 30
0.0
 10
95.1366826709
 20
-19.5420441929
 30
0.0
 10
95.2859729755
 20
-19.543790291
 30
0.0
  0
SPLINE
  5
296
100
AcDbEntity
  8
_21_KURVEN
100
AcDbSpline
 62
7
  6
CONTINUOUS
 70
0
 71
3
 72
8
 73
4
 74
0
 42
0.0000001
 43
0.0000001
 44
0.0000000001
 40
0.0
 40
0.0
 40
0.0
 40
0.0
 40
1.0
 40
1.0
 40
1.0
 40
1.0
 10
90.4680180189
 20
-18.9088917926
 30
0.0
 10
90.4696441989
 20
-18.9254737146
 30
0.0
 10
90.4720317854
 20
-18.9414603573
 30
0.0
 10
90.4755981532
 20
-18.9587510664
 30
0.0
  0
SPLINE
  5
297
100
AcDbEntity
  8
_21_KURVEN
100
AcDbSpline
 62
7
  6
CONTINUOUS
 70
0
 71
3
 72
10
 73
6
 74
0
 42
0.0000001
 43
0.0000001
 44
0.0000000001
 40
0.0
 40
0.0
 40
0.0
 40
0.0
 40
0.25
 40
0.5
 40
1.0
 40
1.0
 40
1.0
 40
1.0
 10
90.475598153
 20
-18.9587510657
 30
0.0
 10
90.4829016468
 20
-18.9840377932
 30
0.0
 10
90.4980855834
 20
-19.0338321591
 30
0.0
 10
90.5501524781
 20
-19.1298992673
 30
0.0
 10
90.6112311618
 20
-19.1799545308
 30
0.0
 10
90.655316412
 20
-19.2111343542
 30
0.0
  0
SPLINE
  5
298
100
AcDbEntity
  8
_21_KURVEN
100
AcDbSpline
 62
7
  6
CONTINUOUS
 70
0
 71
3
 72
9
 73
5
 74
0
 42
0.0000001
 43
0.0000001
 44
0.0000000001
 40
0.0
 40
0.0
 40
0.0
 40
0.0
 40
0.5
 40
1.0
 40
1.0
 40
1.0
 40
1.0
 10
90.6553164034
 20
-19.211134349
 30
0.0
 10
90.6745480788
 20
-19.2221119766
 30
0.0
 10
90.7131245418
 20
-19.2428735613
 30
0.0
 10
90.7581153284
 20
-19.2551295462
 30
0.0
 10
90.7799920857
 20
-19.2603387762
 30
0.0
  0
SPLINE
  5
299
100
AcDbEntity
  8
_21_KURVEN
100
AcDbSpline
 62
7
  6
CONTINUOUS
 70
0
 71
3
 72
8
 73
4
 74
0
 42
0.0000001
 43
0.0000001
 44
0.0000000001
 40
0.0
 40
0.0
 40
0.0
 40
0.0
 40
1.0
 40
1.0
 40
1.0
 40
1.0
 10
90.7799920895
 20
-19.260338777
 30
0.0
 10
90.7963242187
 20
-19.2635617225
 30
0.0
 10
90.8123207469
 20
-19.2658861179
 30
0.0
 10
90.8299230857
 20
-19.2674604352
 30
0.0
  0
SPLINE
  5
29A
100
AcDbEntity
  8
_30_VOLUMEN
100
AcDbSpline
 62
4
  6
CONTINUOUS
 70
0
 71
3
 72
15
 73
11
 74
0
 42
0.0000001
 43
0.0000001
 44
0.0000000001
 40
0.0
 40
0.0
 40
0.0
 40
0.0
 40
0.1248253563
 40
0.2498805608
 40
0.375195821
 40
0.5005809706
 40
0.6258540573
 40
0.7508686267
 40
0.8755312262
 40
1.0
 40
1.0
 40
1.0
 40
1.0
 10
94.5204642519
 20
-16.5851827694
 30
0.0
 10
94.688908728
 20
-16.6173739922
 30
0.0
 10
95.0375040692
 20
-16.6331187413
 30
0.0
 10
95.5443343942
 20
-16.5070250481
 30
0.0
 10
95.9961165025
 20
-16.2428243554
 30
0.0
 10
96.3552867004
 20
-15.8618588889
 30
0.0
 10
96.5925931428
 20
-15.3955826423
 30
0.0
 10
96.6881836895
 20
-14.8820898867
 30
0.0
 10
96.6346027608
 20
-14.3639409254
 30
0.0
 10
96.5010327554
 20
-14.0426253305
 30
0.0
 10
96.4133565312
 20
-13.8958094291
 30
0.0
  0
ELLIPSE
  5
29B
100
AcDbEntity
  8
_30_VOLUMEN
100
AcDbEllipse
 62
4
  6
CONTINUOUS
 10
95.2078464811
 20
-15.0930443409
 30
0.0
 11
0.9534268369
 21
1.0905992042
 31
0.0
 40
0.9139213732
 41
-2.8657224007
 42
-0.034120653
  0
ENDSEC
  0
SECTION
  2
OBJECTS
  0
DICTIONARY
  5
C
100
AcDbDictionary
280
0
281
1
  3
ACAD_GROUP
350
D
  3
ACAD_MLINESTYLE
350
17
  3
ACAD_LAYOUT
350
1A
  3
ACAD_PLOTSETTINGS
350
19
  3
ACAD_PLOTSTYLENAME
350
E
  0
DICTIONARY
  5
D
102
{ACAD_REACTORS
330
C
102
}
100
AcDbDictionary
280
0
281
1
  0
ACDBDICTIONARYWDFLT
  5
E
102
{ACAD_REACTORS
330
C
102
}
100
AcDbDictionary
281
1
  3
Normal
350
F
100
AcDbDictionaryWithDefault
340
F
  0
DICTIONARY
  5
17
102
{ACAD_REACTORS
330
C
102
}
100
AcDbDictionary
280
0
281
1
  3
Standard
350
18
  0
DICTIONARY
  5
19
102
{ACAD_REACTORS
330
C
102
}
100
AcDbDictionary
281
1
  0
DICTIONARY
  5
1A
102
{ACAD_REACTORS
330
C
102
}
100
AcDbDictionary
281
1
  3
Model
350
29C
  3
Layout1
350
29D
  0
ACDBPLACEHOLDER
  5
F
102
{ACAD_REACTORS
330
E
102
}
  0
MLINESTYLE
  5
18
102
{ACAD_REACTORS
330
17
102
}
100
AcDbMlineStyle
  2
STANDARD
 70
0
  3

 62
256
 51
90.0
 52
90.0
 71
2
 49
0.5
 62
256
  6
BYLAYER
 49
-0.5
 62
256
  6
BYLAYER
  0
LAYOUT
  5
29C
102
{ACAD_REACTORS
330
1A
102
}
100
AcDbPlotSettings
  1

  2
none_device
  4
ISO_A3_(420.00_x_297.00_MM)
  6

 40
0.0
 41
0.0
 42
0.0
 43
0.0
 44
420.0
 45
297.0
 46
0.0
 47
0.0
 48
0.0
 49
0.0
140
0.0
141
0.0
142
1.0
143
1.0
 70
1024
 72
1
 73
0
 74
0
  7

 75
0
147
1.0
148
0.0
149
0.0
100
AcDbLayout
  1
Model
 70
0
 71
0
 10
0.0
 20
0.0
 11
420.0
 21
297.0
 12
0.0
 22
0.0
 32
0.0
 14
0.0
 24
0.0
 34
0.0
 15
0.0
 25
0.0
 35
0.0
146
0.0
 13
0.0
 23
0.0
 33
0.0
 16
1.0
 26
0.0
 36
0.0
 17
0.0
 27
1.0
 37
0.0
 76
0
330
20D
345
0
346
0
  0
LAYOUT
  5
29D
102
{ACAD_REACTORS
330
1A
102
}
100
AcDbPlotSettings
  1

  2
none_device
  4
ISO_A3_(420.00_x_297.00_MM)
  6

 40
0.0
 41
0.0
 42
0.0
 43
0.0
 44
420.0
 45
297.0
 46
0.0
 47
0.0
 48
0.0
 49
0.0
140
0.0
141
0.0
142
1.0
143
1.0
 70
0
 72
1
 73
0
 74
0
  7

 75
0
147
1.0
148
0.0
149
0.0
100
AcDbLayout
  1
Layout1
 70
0
 71
1
 10
0.0
 20
0.0
 11
420.0
 21
297.0
 12
0.0
 22
0.0
 32
0.0
 14
0.0
 24
0.0
 34
0.0
 15
0.0
 25
0.0
 35
0.0
146
0.0
 13
0.0
 23
0.0
 33
0.0
 16
1.0
 26
0.0
 36
0.0
 17
0.0
 27
1.0
 37
0.0
 76
0
330
20E
345
0
346
0
  0
ENDSEC
  0
EOF
