  0
SECTION
  2
HEADER
  9
$ACADVER
  1
AC1018
  9
$ACADMAINTVER
 70
     0
  9
$DWGCODEPAGE
  3
ANSI_1252
  9
$LASTSAVEDBY
  1
piechottad
  9
$INSBASE
 10
0.0
 20
0.0
 30
0.0
  9
$EXTMIN
 10
0.0
 20
0.0
 30
0.0
  9
$EXTMAX
 10
297.0
 20
210.0
 30
0.0
  9
$LIMMIN
 10
0.0
 20
0.0
  9
$LIMMAX
 10
297.0
 20
210.0
  9
$ORTHOMODE
 70
     0
  9
$REGENMODE
 70
     1
  9
$FILLMODE
 70
     1
  9
$QTEXTMODE
 70
     0
  9
$MIRRTEXT
 70
     1
  9
$LTSCALE
 40
1.0
  9
$ATTMODE
 70
     1
  9
$TEXTSIZE
 40
3.5
  9
$TRACEWID
 40
1.0
  9
$TEXTSTYLE
  7
Standard
  9
$CLAYER
  8
0
  9
$CELTYPE
  6
ByLayer
  9
$CECOLOR
 62
   256
  9
$CELTSCALE
 40
1.0
  9
$DISPSILH
 70
     0
  9
$DIMSCALE
 40
1.0
  9
$DIMASZ
 40
3.302
  9
$DIMEXO
 40
1.0
  9
$DIMDLI
 40
3.75
  9
$DIMRND
 40
0.0
  9
$DIMDLE
 40
0.0
  9
$DIMEXE
 40
1.0
  9
$DIMTP
 40
0.0
  9
$DIMTM
 40
0.0
  9
$DIMTXT
 40
3.5
  9
$DIMCEN
 40
2.5
  9
$DIMTSZ
 40
0.0
  9
$DIMTOL
 70
     0
  9
$DIMLIM
 70
     0
  9
$DIMTIH
 70
     1
  9
$DIMTOH
 70
     1
  9
$DIMSE1
 70
     0
  9
$DIMSE2
 70
     0
  9
$DIMTAD
 70
     1
  9
$DIMZIN
 70
     0
  9
$DIMBLK
  1

  9
$DIMASO
 70
     1
  9
$DIMSHO
 70
     1
  9
$DIMPOST
  1

  9
$DIMAPOST
  1

  9
$DIMALT
 70
     0
  9
$DIMALTD
 70
     3
  9
$DIMALTF
 40
0.0393700787
  9
$DIMLFAC
 40
1.0
  9
$DIMTOFL
 70
     1
  9
$DIMTVP
 40
0.0
  9
$DIMTIX
 70
     0
  9
$DIMSOXD
 70
     0
  9
$DIMSAH
 70
     0
  9
$DIMBLK1
  1

  9
$DIMBLK2
  1

  9
$DIMSTYLE
  2
ISO-25
  9
$DIMCLRD
 70
     0
  9
$DIMCLRE
 70
     0
  9
$DIMCLRT
 70
     0
  9
$DIMTFAC
 40
1.0
  9
$DIMGAP
 40
1.524
  9
$DIMJUST
 70
     0
  9
$DIMSD1
 70
     0
  9
$DIMSD2
 70
     0
  9
$DIMTOLJ
 70
     0
  9
$DIMTZIN
 70
     0
  9
$DIMALTZ
 70
     0
  9
$DIMALTTZ
 70
     0
  9
$DIMUPT
 70
     0
  9
$DIMDEC
 70
     2
  9
$DIMTDEC
 70
     2
  9
$DIMALTU
 70
     2
  9
$DIMALTTD
 70
     3
  9
$DIMTXSTY
  7
Standard
  9
$DIMAUNIT
 70
     0
  9
$DIMADEC
 70
     2
  9
$DIMALTRND
 40
0.0
  9
$DIMAZIN
 70
     0
  9
$DIMDSEP
 70
    44
  9
$DIMATFIT
 70
     3
  9
$DIMFRAC
 70
     0
  9
$DIMLDRBLK
  1

  9
$DIMLUNIT
 70
     2
  9
$DIMLWD
 70
    -2
  9
$DIMLWE
 70
    -2
  9
$DIMTMOVE
 70
     0
  9
$LUNITS
 70
     2
  9
$LUPREC
 70
     2
  9
$SKETCHINC
 40
1.0
  9
$FILLETRAD
 40
10.0
  9
$AUNITS
 70
     0
  9
$AUPREC
 70
     2
  9
$MENU
  1
.
  9
$ELEVATION
 40
0.0
  9
$PELEVATION
 40
0.0
  9
$THICKNESS
 40
0.0
  9
$LIMCHECK
 70
     0
  9
$CHAMFERA
 40
0.0
  9
$CHAMFERB
 40
0.0
  9
$CHAMFERC
 40
0.0
  9
$CHAMFERD
 40
0.0
  9
$SKPOLY
 70
     0
  9
$TDCREATE
 40
2457009.581948033
  9
$TDUCREATE
 40
2457009.540281366
  9
$TDUPDATE
 40
2457031.476003356
  9
$TDUUPDATE
 40
2457031.43433669
  9
$TDINDWG
 40
0.000240787
  9
$TDUSRTIMER
 40
2457031.434096146
  9
$USRTIMER
 70
     1
  9
$ANGBASE
 50
0.0
  9
$ANGDIR
 70
     0
  9
$PDMODE
 70
     0
  9
$PDSIZE
 40
-1.0
  9
$PLINEWID
 40
0.0
  9
$SPLFRAME
 70
     0
  9
$SPLINETYPE
 70
     6
  9
$SPLINESEGS
 70
     8
  9
$HANDSEED
  5
196
  9
$SURFTAB1
 70
     6
  9
$SURFTAB2
 70
     6
  9
$SURFTYPE
 70
     6
  9
$SURFU
 70
     6
  9
$SURFV
 70
     6
  9
$UCSBASE
  2

  9
$UCSNAME
  2

  9
$UCSORG
 10
0.0
 20
0.0
 30
0.0
  9
$UCSXDIR
 10
1.0
 20
0.0
 30
0.0
  9
$UCSYDIR
 10
0.0
 20
1.0
 30
0.0
  9
$UCSORTHOREF
  2

  9
$UCSORTHOVIEW
 70
     0
  9
$UCSORGTOP
 10
0.0
 20
0.0
 30
0.0
  9
$UCSORGBOTTOM
 10
0.0
 20
0.0
 30
0.0
  9
$UCSORGLEFT
 10
0.0
 20
0.0
 30
0.0
  9
$UCSORGRIGHT
 10
0.0
 20
0.0
 30
0.0
  9
$UCSORGFRONT
 10
0.0
 20
0.0
 30
0.0
  9
$UCSORGBACK
 10
0.0
 20
0.0
 30
0.0
  9
$PUCSBASE
  2

  9
$PUCSNAME
  2

  9
$PUCSORG
 10
0.0
 20
0.0
 30
0.0
  9
$PUCSXDIR
 10
1.0
 20
0.0
 30
0.0
  9
$PUCSYDIR
 10
0.0
 20
1.0
 30
0.0
  9
$PUCSORTHOREF
  2

  9
$PUCSORTHOVIEW
 70
     0
  9
$PUCSORGTOP
 10
0.0
 20
0.0
 30
0.0
  9
$PUCSORGBOTTOM
 10
0.0
 20
0.0
 30
0.0
  9
$PUCSORGLEFT
 10
0.0
 20
0.0
 30
0.0
  9
$PUCSORGRIGHT
 10
0.0
 20
0.0
 30
0.0
  9
$PUCSORGFRONT
 10
0.0
 20
0.0
 30
0.0
  9
$PUCSORGBACK
 10
0.0
 20
0.0
 30
0.0
  9
$USERI1
 70
     0
  9
$USERI2
 70
     0
  9
$USERI3
 70
     0
  9
$USERI4
 70
     0
  9
$USERI5
 70
     0
  9
$USERR1
 40
0.0
  9
$USERR2
 40
0.0
  9
$USERR3
 40
0.0
  9
$USERR4
 40
0.0
  9
$USERR5
 40
0.0
  9
$WORLDVIEW
 70
     1
  9
$SHADEDGE
 70
     3
  9
$SHADEDIF
 70
    70
  9
$TILEMODE
 70
     1
  9
$MAXACTVP
 70
    64
  9
$PINSBASE
 10
0.0
 20
0.0
 30
0.0
  9
$PLIMCHECK
 70
     0
  9
$PEXTMIN
 10
1.000000000000000E+20
 20
1.000000000000000E+20
 30
1.000000000000000E+20
  9
$PEXTMAX
 10
-1.000000000000000E+20
 20
-1.000000000000000E+20
 30
-1.000000000000000E+20
  9
$PLIMMIN
 10
0.0
 20
0.0
  9
$PLIMMAX
 10
0.0
 20
0.0
  9
$UNITMODE
 70
     0
  9
$VISRETAIN
 70
     1
  9
$PLINEGEN
 70
     0
  9
$PSLTSCALE
 70
     1
  9
$TREEDEPTH
 70
  3020
  9
$CMLSTYLE
  2
Standard
  9
$CMLJUST
 70
     0
  9
$CMLSCALE
 40
20.0
  9
$PROXYGRAPHICS
 70
     1
  9
$MEASUREMENT
 70
     1
  9
$CELWEIGHT
370
    -1
  9
$ENDCAPS
280
     0
  9
$JOINSTYLE
280
     0
  9
$LWDISPLAY
290
     1
  9
$INSUNITS
 70
     4
  9
$HYPERLINKBASE
  1

  9
$STYLESHEET
  1

  9
$XEDIT
290
     1
  9
$CEPSNTYPE
380
     0
  9
$PSTYLEMODE
290
     1
  9
$FINGERPRINTGUID
  2
{59C758D7-1EAC-4970-9BDA-776323B2C1F4}
  9
$VERSIONGUID
  2
{FAEB1C32-E019-11D5-929B-00C0DF256EC4}
  9
$EXTNAMES
290
     1
  9
$PSVPSCALE
 40
0.0
  9
$OLESTARTUP
290
     0
  9
$SORTENTS
280
   127
  9
$INDEXCTL
280
     0
  9
$HIDETEXT
280
     1
  9
$XCLIPFRAME
290
     0
  9
$HALOGAP
280
     0
  9
$OBSCOLOR
 70
   257
  9
$OBSLTYPE
280
     0
  9
$INTERSECTIONDISPLAY
280
     0
  9
$INTERSECTIONCOLOR
 70
   257
  9
$DIMASSOC
280
     2
  9
$PROJECTNAME
  1

  0
ENDSEC
  0
SECTION
  2
CLASSES
  0
CLASS
  1
ACDBDICTIONARYWDFLT
  2
AcDbDictionaryWithDefault
  3
ObjectDBX Classes
 90
        0
 91
       21
280
     0
281
     0
  0
CLASS
  1
VISUALSTYLE
  2
AcDbVisualStyle
  3
ObjectDBX Classes
 90
     4095
 91
       21
280
     0
281
     0
  0
CLASS
  1
MATERIAL
  2
AcDbMaterial
  3
ObjectDBX Classes
 90
     1153
 91
       21
280
     0
281
     0
  0
CLASS
  1
SCALE
  2
AcDbScale
  3
ObjectDBX Classes
 90
     1153
 91
       21
280
     0
281
     0
  0
CLASS
  1
SUN
  2
AcDbSun
  3
SCENEOE
 90
     1153
 91
       21
280
     0
281
     0
  0
CLASS
  1
DICTIONARYVAR
  2
AcDbDictionaryVar
  3
ObjectDBX Classes
 90
        0
 91
       12
280
     0
281
     0
  0
CLASS
  1
TABLESTYLE
  2
AcDbTableStyle
  3
ObjectDBX Classes
 90
     4095
 91
       21
280
     0
281
     0
  0
CLASS
  1
RASTERVARIABLES
  2
AcDbRasterVariables
  3
ISM
 90
        0
 91
       21
280
     0
281
     0
  0
CLASS
  1
CELLSTYLEMAP
  2
AcDbCellStyleMap
  3
ObjectDBX Classes
 90
     1152
 91
        4
280
     0
281
     0
  0
ENDSEC
  0
SECTION
  2
TABLES
  0
TABLE
  2
VPORT
  5
8
330
0
100
AcDbSymbolTable
 70
     1
  0
VPORT
  5
29
330
8
100
AcDbSymbolTableRecord
100
AcDbViewportTableRecord
  2
*Active
 70
     0
 10
0.0
 20
0.0
 11
1.0
 21
1.0
 12
93.84836065573768
 22
20.44057377049181
 13
0.0
 23
0.0
 14
10.0
 24
10.0
 15
10.0
 25
10.0
 16
0.0
 26
0.0
 36
1.0
 17
0.0
 27
0.0
 37
0.0
 40
210.0
 41
1.497950819672131
 42
50.0
 43
0.0
 44
0.0
 50
0.0
 51
0.0
 71
    16
 72
  2000
 73
     1
 74
     3
 75
     0
 76
     0
 77
     0
 78
     0
281
     0
 65
     1
110
0.0
120
0.0
130
0.0
111
1.0
121
0.0
131
0.0
112
0.0
122
1.0
132
0.0
 79
     0
146
0.0
  0
ENDTAB
  0
TABLE
  2
LTYPE
  5
5
330
0
100
AcDbSymbolTable
 70
     8
  0
LTYPE
  5
14
330
5
100
AcDbSymbolTableRecord
100
AcDbLinetypeTableRecord
  2
ByBlock
 70
     0
  3

 72
    65
 73
     0
 40
0.0
  0
LTYPE
  5
15
330
5
100
AcDbSymbolTableRecord
100
AcDbLinetypeTableRecord
  2
ByLayer
 70
     0
  3

 72
    65
 73
     0
 40
0.0
  0
LTYPE
  5
16
330
5
100
AcDbSymbolTableRecord
100
AcDbLinetypeTableRecord
  2
Continuous
 70
     0
  3
Solid line
 72
    65
 73
     0
 40
0.0
  0
LTYPE
  5
6A
330
5
100
AcDbSymbolTableRecord
100
AcDbLinetypeTableRecord
  2
SLD-Durchgehend
 70
     0
  3
SolidWorks Line Style
 72
    65
 73
     0
 40
0.0
  0
LTYPE
  5
6B
330
5
100
AcDbSymbolTableRecord
100
AcDbLinetypeTableRecord
  2
SLD-Gestrichelt
 70
     0
  3
SolidWorks Line Style
 72
    65
 73
     2
 40
1.905
 49
1.27
 74
     0
 49
-0.635
 74
     0
  0
LTYPE
  5
6C
330
5
100
AcDbSymbolTableRecord
100
AcDbLinetypeTableRecord
  2
SLD-Phantom
 70
     0
  3
SolidWorks Line Style
 72
    65
 73
     6
 40
12.7
 49
6.35
 74
     0
 49
-1.27
 74
     0
 49
1.27
 74
     0
 49
-1.27
 74
     0
 49
1.27
 74
     0
 49
-1.27
 74
     0
  0
LTYPE
  5
6D
330
5
100
AcDbSymbolTableRecord
100
AcDbLinetypeTableRecord
  2
SLD-Kette
 70
     0
  3
SolidWorks Line Style
 72
    65
 73
     4
 40
10.16
 49
6.35
 74
     0
 49
-1.27
 74
     0
 49
1.27
 74
     0
 49
-1.27
 74
     0
  0
LTYPE
  5
6E
330
5
100
AcDbSymbolTableRecord
100
AcDbLinetypeTableRecord
  2
SLD-Punktstrich
 70
     0
  3
SolidWorks Line Style
 72
    65
 73
     4
 40
19.05
 49
15.24
 74
     0
 49
-1.27
 74
     0
 49
1.27
 74
     0
 49
-1.27
 74
     0
  0
LTYPE
  5
6F
330
5
100
AcDbSymbolTableRecord
100
AcDbLinetypeTableRecord
  2
SLD-Naht
 70
     0
  3
SolidWorks Line Style
 72
    65
 73
     2
 40
0.635
 49
0.0
 74
     0
 49
-0.635
 74
     0
  0
LTYPE
  5
70
330
5
100
AcDbSymbolTableRecord
100
AcDbLinetypeTableRecord
  2
SLD-Dicke-Dünne-Kette
 70
     0
  3
SolidWorks Line Style
 72
    65
 73
     4
 40
10.16
 49
6.35
 74
     0
 49
-1.27
 74
     0
 49
1.27
 74
     0
 49
-1.27
 74
     0
  0
ENDTAB
  0
TABLE
  2
LAYER
  5
2
330
0
100
AcDbSymbolTable
 70
     4
  0
LAYER
  5
10
330
2
100
AcDbSymbolTableRecord
100
AcDbLayerTableRecord
  2
0
 70
     0
 62
     7
  6
Continuous
370
    -3
390
F
  0
LAYER
  5
71
330
2
100
AcDbSymbolTableRecord
100
AcDbLayerTableRecord
  2
1
 70
     0
 62
     4
  6
Continuous
370
    -1
390
F
  0
LAYER
  5
72
330
2
100
AcDbSymbolTableRecord
100
AcDbLayerTableRecord
  2
2
 70
     0
 62
     7
  6
SLD-Durchgehend
370
    -3
390
F
  0
LAYER
  5
182
330
2
100
AcDbSymbolTableRecord
100
AcDbLayerTableRecord
  2
Defpoints
 70
     0
 62
     7
  6
Continuous
290
     0
370
    -3
390
F
  0
ENDTAB
  0
TABLE
  2
STYLE
  5
3
330
0
100
AcDbSymbolTable
 70
     2
  0
STYLE
  5
11
330
3
100
AcDbSymbolTableRecord
100
AcDbTextStyleTableRecord
  2
Standard
 70
     0
 40
0.0
 41
1.0
 50
0.0
 71
     0
 42
3.5
  3
txt
  4

  0
STYLE
  5
11E
330
3
100
AcDbSymbolTableRecord
100
AcDbTextStyleTableRecord
  2
SLDTEXTSTYLE0
 70
     0
 40
0.0
 41
0.75
 50
0.0
 71
     0
 42
3.5
  3
TXT
  4

  0
ENDTAB
  0
TABLE
  2
VIEW
  5
6
330
0
100
AcDbSymbolTable
 70
     0
  0
ENDTAB
  0
TABLE
  2
UCS
  5
7
330
0
100
AcDbSymbolTable
 70
     0
  0
ENDTAB
  0
TABLE
  2
APPID
  5
9
330
0
100
AcDbSymbolTable
 70
     1
  0
APPID
  5
12
330
9
100
AcDbSymbolTableRecord
100
AcDbRegAppTableRecord
  2
ACAD
 70
     0
  0
ENDTAB
  0
TABLE
  2
DIMSTYLE
  5
A
330
0
100
AcDbSymbolTable
 70
     2
100
AcDbDimStyleTable
  0
DIMSTYLE
105
27
330
A
100
AcDbSymbolTableRecord
100
AcDbDimStyleTableRecord
  2
ISO-25
 70
     0
 41
2.5
 42
0.625
 43
3.75
 44
1.25
 73
     0
 74
     0
 77
     1
 78
     8
140
2.5
141
2.5
143
0.0393700787
147
0.625
171
     3
172
     1
178
     0
271
     2
272
     2
274
     3
278
    44
283
     0
284
     8
340
11
  0
DIMSTYLE
105
11F
102
{ACAD_REACTORS
330
11D
330
129
330
133
330
13D
102
}
330
A
100
AcDbSymbolTableRecord
100
AcDbDimStyleTableRecord
  2
SLDDIMSTYLE0
 70
     0
 41
3.302
 44
0.0
 45
0.000000001
 73
     0
 74
     0
 77
     1
 78
    12
 79
     3
140
3.5
147
0.875
173
     1
178
     0
271
     2
272
     2
276
     2
284
    12
340
11E
  0
ENDTAB
  0
TABLE
  2
BLOCK_RECORD
  5
1
330
0
100
AcDbSymbolTable
 70
     7
  0
BLOCK_RECORD
  5
1F
330
1
100
AcDbSymbolTableRecord
100
AcDbBlockTableRecord
  2
*Model_Space
340
22
  0
BLOCK_RECORD
  5
1B
330
1
100
AcDbSymbolTableRecord
100
AcDbBlockTableRecord
  2
*Paper_Space
340
1E
  0
BLOCK_RECORD
  5
23
330
1
100
AcDbSymbolTableRecord
100
AcDbBlockTableRecord
  2
*Paper_Space0
340
26
  0
BLOCK_RECORD
  5
120
330
1
100
AcDbSymbolTableRecord
100
AcDbBlockTableRecord
  2
_D
340
0
  0
BLOCK_RECORD
  5
12A
330
1
100
AcDbSymbolTableRecord
100
AcDbBlockTableRecord
  2
_D_1
340
0
  0
BLOCK_RECORD
  5
134
330
1
100
AcDbSymbolTableRecord
100
AcDbBlockTableRecord
  2
_D_2
340
0
  0
BLOCK_RECORD
  5
13E
330
1
100
AcDbSymbolTableRecord
100
AcDbBlockTableRecord
  2
_D_3
340
0
  0
BLOCK_RECORD
  5
147
330
1
100
AcDbSymbolTableRecord
100
AcDbBlockTableRecord
  2
SW_CENTERMARKSYMBOL_0
340
0
102
{BLKREFS
331
0
102
}
  0
BLOCK_RECORD
  5
153
330
1
100
AcDbSymbolTableRecord
100
AcDbBlockTableRecord
  2
SW_CENTERMARKSYMBOL_1
340
0
102
{BLKREFS
331
0
102
}
  0
ENDTAB
  0
ENDSEC
  0
SECTION
  2
BLOCKS
  0
BLOCK
  5
20
330
1F
100
AcDbEntity
  8
0
100
AcDbBlockBegin
  2
*Model_Space
 70
     0
 10
0.0
 20
0.0
 30
0.0
  3
*Model_Space
  1
*Model_Space
  0
ENDBLK
  5
21
330
1F
100
AcDbEntity
  8
0
100
AcDbBlockEnd
  0
BLOCK
  5
1C
330
1B
100
AcDbEntity
 67
     1
  8
0
100
AcDbBlockBegin
  2
*Paper_Space
 70
     0
 10
0.0
 20
0.0
 30
0.0
  3
*Paper_Space
  1
*Paper_Space
  0
ENDBLK
  5
1D
330
1B
100
AcDbEntity
 67
     1
  8
0
100
AcDbBlockEnd
  0
BLOCK
  5
24
330
23
100
AcDbEntity
  8
0
100
AcDbBlockBegin
  2
*Paper_Space0
 70
     0
 10
0.0
 20
0.0
 30
0.0
  3
*Paper_Space0
  1
*Paper_Space0
  0
ENDBLK
  5
25
330
23
100
AcDbEntity
  8
0
100
AcDbBlockEnd
  0
BLOCK
  5
121
330
120
100
AcDbEntity
  8
0
100
AcDbBlockBegin
  2
_D
 70
     0
 10
0.0
 20
0.0
 30
0.0
  3
_D
  1
_D
  0
LINE
  5
123
330
120
100
AcDbEntity
  8
2
  6
SLD-Durchgehend
 62
     0
370
    -2
100
AcDbLine
 10
150.0027086782
 20
32.0605059343
 30
0.0
 11
150.0027086782
 21
43.9142343518
 31
0.0
  0
LINE
  5
124
330
120
100
AcDbEntity
  8
2
  6
SLD-Durchgehend
 62
     0
370
    -2
100
AcDbLine
 10
0.0027086782
 20
0.0605059343
 30
0.0
 11
0.0027086781999941
 21
43.9142343518
 31
0.0
  0
LINE
  5
125
330
120
100
AcDbEntity
  8
2
  6
SLD-Durchgehend
 62
     0
370
    -2
100
AcDbLine
 10
146.7007086782
 20
43.9142343518
 30
0.0
 11
3.304708678199994
 21
43.9142343518
 31
0.0
  0
SOLID
  5
126
330
120
100
AcDbEntity
  8
2
 62
     0
100
AcDbTrace
 10
146.7007086782
 20
43.36390101846666
 30
0.0
 11
146.7007086782
 21
44.46456768513333
 31
0.0
 12
150.0027086782
 22
43.9142343518
 32
0.0
 13
150.0027086782
 23
43.9142343518
 33
0.0
  0
SOLID
  5
127
330
120
100
AcDbEntity
  8
2
 62
     0
100
AcDbTrace
 10
3.304708678199994
 20
44.46456768513333
 30
0.0
 11
3.304708678199994
 21
43.36390101846666
 31
0.0
 12
0.0027086781999941
 22
43.9142343518
 32
0.0
 13
0.0027086781999941
 23
43.9142343518
 33
0.0
  0
MTEXT
  5
128
330
120
100
AcDbEntity
  8
2
 62
     0
370
    15
100
AcDbMText
 10
75.0027086782
 20
48.2892343518
 30
0.0
 40
3.5
 41
0.0
 71
     2
 72
     1
  1
\A1;150
  7
SLDTEXTSTYLE0
 73
     1
 44
1.0
  0
POINT
  5
183
330
120
100
AcDbEntity
  8
Defpoints
 62
     0
100
AcDbPoint
 10
150.0027086782
 20
31.9980059343
 30
0.0
  0
POINT
  5
184
330
120
100
AcDbEntity
  8
Defpoints
 62
     0
100
AcDbPoint
 10
0.0027086782
 20
-0.0019940657
 30
0.0
  0
POINT
  5
185
330
120
100
AcDbEntity
  8
Defpoints
 62
     0
100
AcDbPoint
 10
0.0027086782
 20
43.9142343518
 30
0.0
  0
ENDBLK
  5
122
330
120
100
AcDbEntity
  8
0
100
AcDbBlockEnd
  0
BLOCK
  5
12B
330
12A
100
AcDbEntity
  8
0
100
AcDbBlockBegin
  2
_D_1
 70
     0
 10
0.0
 20
0.0
 30
0.0
  3
_D_1
  1
_D_1
  0
LINE
  5
12D
330
12A
100
AcDbEntity
  8
2
  6
SLD-Durchgehend
 62
     0
370
    -2
100
AcDbLine
 10
0.9402086782000001
 20
24.9980059343
 30
0.0
 11
-5.997291321799999
 21
24.9980059343
 31
0.0
  0
LINE
  5
12E
330
12A
100
AcDbEntity
  8
2
  6
SLD-Durchgehend
 62
     0
370
    -2
100
AcDbLine
 10
0.9402086782000001
 20
-0.0019940657
 30
0.0
 11
-5.997291321800001
 21
-0.0019940656999999
 31
0.0
  0
LINE
  5
12F
330
12A
100
AcDbEntity
  8
2
  6
SLD-Durchgehend
 62
     0
370
    -2
100
AcDbLine
 10
-5.997291321799999
 20
21.6960059343
 30
0.0
 11
-5.997291321800001
 21
3.3000059343
 31
0.0
  0
SOLID
  5
130
330
12A
100
AcDbEntity
  8
2
 62
     0
100
AcDbTrace
 10
-5.446957988466665
 20
21.6960059343
 30
0.0
 11
-6.547624655133332
 21
21.6960059343
 31
0.0
 12
-5.997291321799999
 22
24.9980059343
 32
0.0
 13
-5.997291321799999
 23
24.9980059343
 33
0.0
  0
SOLID
  5
131
330
12A
100
AcDbEntity
  8
2
 62
     0
100
AcDbTrace
 10
-6.547624655133334
 20
3.3000059343
 30
0.0
 11
-5.446957988466667
 21
3.3000059343
 31
0.0
 12
-5.997291321800001
 22
-0.0019940656999999
 32
0.0
 13
-5.997291321800001
 23
-0.0019940656999999
 33
0.0
  0
MTEXT
  5
132
330
12A
100
AcDbEntity
  8
2
 62
     0
370
    15
100
AcDbMText
 10
-10.3722913218
 20
12.4980059343
 30
0.0
 40
3.5
 41
0.0
 71
     2
 72
     1
  1
\A1;25
  7
SLDTEXTSTYLE0
 11
7.105427357601002E-17
 21
1.0
 31
0.0
 73
     1
 44
1.0
  0
POINT
  5
186
330
12A
100
AcDbEntity
  8
Defpoints
 62
     0
100
AcDbPoint
 10
1.0027086782
 20
24.9980059343
 30
0.0
  0
POINT
  5
187
330
12A
100
AcDbEntity
  8
Defpoints
 62
     0
100
AcDbPoint
 10
1.0027086782
 20
-0.0019940657
 30
0.0
  0
POINT
  5
188
330
12A
100
AcDbEntity
  8
Defpoints
 62
     0
100
AcDbPoint
 10
-5.9972913218
 20
-0.0019940656999996
 30
0.0
  0
ENDBLK
  5
12C
330
12A
100
AcDbEntity
  8
0
100
AcDbBlockEnd
  0
BLOCK
  5
135
330
134
100
AcDbEntity
  8
0
100
AcDbBlockBegin
  2
_D_2
 70
     0
 10
0.0
 20
0.0
 30
0.0
  3
_D_2
  1
_D_2
  0
LINE
  5
137
330
134
100
AcDbEntity
  8
2
  6
SLD-Durchgehend
 62
     0
370
    -2
100
AcDbLine
 10
150.0652086782
 20
31.9980059343
 30
0.0
 11
156.0020352505
 21
31.9980059343
 31
0.0
  0
LINE
  5
138
330
134
100
AcDbEntity
  8
2
  6
SLD-Durchgehend
 62
     0
370
    -2
100
AcDbLine
 10
150.0652086782
 20
-0.0019940657
 30
0.0
 11
156.0020352505
 21
-0.0019940656999999
 31
0.0
  0
LINE
  5
139
330
134
100
AcDbEntity
  8
2
  6
SLD-Durchgehend
 62
     0
370
    -2
100
AcDbLine
 10
156.0020352505
 20
28.6960059343
 30
0.0
 11
156.0020352505
 21
3.3000059343
 31
0.0
  0
SOLID
  5
13A
330
134
100
AcDbEntity
  8
2
 62
     0
100
AcDbTrace
 10
156.5523685838333
 20
28.6960059343
 30
0.0
 11
155.4517019171667
 21
28.6960059343
 31
0.0
 12
156.0020352505
 22
31.9980059343
 32
0.0
 13
156.0020352505
 23
31.9980059343
 33
0.0
  0
SOLID
  5
13B
330
134
100
AcDbEntity
  8
2
 62
     0
100
AcDbTrace
 10
155.4517019171667
 20
3.3000059343
 30
0.0
 11
156.5523685838333
 21
3.3000059343
 31
0.0
 12
156.0020352505
 22
-0.0019940656999999
 32
0.0
 13
156.0020352505
 23
-0.0019940656999999
 33
0.0
  0
MTEXT
  5
13C
330
134
100
AcDbEntity
  8
2
 62
     0
370
    15
100
AcDbMText
 10
151.6270352505
 20
15.9980059343
 30
0.0
 40
3.5
 41
0.0
 71
     2
 72
     1
  1
\A1;32
  7
SLDTEXTSTYLE0
 11
0.0
 21
1.0
 31
0.0
 73
     1
 44
1.0
  0
POINT
  5
189
330
134
100
AcDbEntity
  8
Defpoints
 62
     0
100
AcDbPoint
 10
150.0027086782
 20
31.9980059343
 30
0.0
  0
POINT
  5
18A
330
134
100
AcDbEntity
  8
Defpoints
 62
     0
100
AcDbPoint
 10
150.0027086782
 20
-0.0019940657
 30
0.0
  0
POINT
  5
18B
330
134
100
AcDbEntity
  8
Defpoints
 62
     0
100
AcDbPoint
 10
156.0020352505
 20
-0.0019940657000004
 30
0.0
  0
ENDBLK
  5
136
330
134
100
AcDbEntity
  8
0
100
AcDbBlockEnd
  0
BLOCK
  5
13F
330
13E
100
AcDbEntity
  8
0
100
AcDbBlockBegin
  2
_D_3
 70
     0
 10
0.0
 20
0.0
 30
0.0
  3
_D_3
  1
_D_3
  0
LINE
  5
141
330
13E
100
AcDbEntity
  8
2
  6
SLD-Durchgehend
 62
     0
370
    -2
100
AcDbLine
 10
115.0027086782
 20
0.0605059343
 30
0.0
 11
115.0027086782
 21
37.9142343518
 31
0.0
  0
LINE
  5
142
330
13E
100
AcDbEntity
  8
2
  6
SLD-Durchgehend
 62
     0
370
    -2
100
AcDbLine
 10
150.0027086782
 20
32.0605059343
 30
0.0
 11
150.0027086782
 21
37.9142343518
 31
0.0
  0
LINE
  5
143
330
13E
100
AcDbEntity
  8
2
  6
SLD-Durchgehend
 62
     0
370
    -2
100
AcDbLine
 10
118.3047086782
 20
37.9142343518
 30
0.0
 11
146.7007086782
 21
37.9142343518
 31
0.0
  0
SOLID
  5
144
330
13E
100
AcDbEntity
  8
2
 62
     0
100
AcDbTrace
 10
118.3047086782
 20
38.46456768513333
 30
0.0
 11
118.3047086782
 21
37.36390101846666
 31
0.0
 12
115.0027086782
 22
37.9142343518
 32
0.0
 13
115.0027086782
 23
37.9142343518
 33
0.0
  0
SOLID
  5
145
330
13E
100
AcDbEntity
  8
2
 62
     0
100
AcDbTrace
 10
146.7007086782
 20
37.36390101846666
 30
0.0
 11
146.7007086782
 21
38.46456768513333
 31
0.0
 12
150.0027086782
 22
37.9142343518
 32
0.0
 13
150.0027086782
 23
37.9142343518
 33
0.0
  0
MTEXT
  5
146
330
13E
100
AcDbEntity
  8
2
 62
     0
370
    15
100
AcDbMText
 10
132.5027086782
 20
42.2892343518
 30
0.0
 40
3.5
 41
0.0
 71
     2
 72
     1
  1
\A1;35
  7
SLDTEXTSTYLE0
 73
     1
 44
1.0
  0
POINT
  5
18C
330
13E
100
AcDbEntity
  8
Defpoints
 62
     0
100
AcDbPoint
 10
115.0027086782
 20
-0.0019940657
 30
0.0
  0
POINT
  5
18D
330
13E
100
AcDbEntity
  8
Defpoints
 62
     0
100
AcDbPoint
 10
150.0027086782
 20
31.9980059343
 30
0.0
  0
POINT
  5
18E
330
13E
100
AcDbEntity
  8
Defpoints
 62
     0
100
AcDbPoint
 10
150.0027086782
 20
37.9142343518
 30
0.0
  0
ENDBLK
  5
140
330
13E
100
AcDbEntity
  8
0
100
AcDbBlockEnd
  0
BLOCK
  5
148
330
147
100
AcDbEntity
  8
0
100
AcDbBlockBegin
  2
SW_CENTERMARKSYMBOL_0
 70
     0
 10
0.0
 20
0.0
 30
0.0
  3
SW_CENTERMARKSYMBOL_0
  1
SW_CENTERMARKSYMBOL_0
  0
LINE
  5
14A
330
147
100
AcDbEntity
  8
0
  6
SLD-Punktstrich
 62
     0
370
    15
100
AcDbLine
 10
0.0
 20
0.0
 30
0.0
 11
0.0
 21
2.5
 31
0.0
  0
LINE
  5
14B
330
147
100
AcDbEntity
  8
0
  6
SLD-Punktstrich
 62
     0
370
    15
100
AcDbLine
 10
0.0
 20
0.0
 30
0.0
 11
-2.5
 21
0.0
 31
0.0
  0
LINE
  5
14C
330
147
100
AcDbEntity
  8
0
  6
SLD-Punktstrich
 62
     0
370
    15
100
AcDbLine
 10
0.0
 20
0.0
 30
0.0
 11
0.0
 21
-2.5
 31
0.0
  0
LINE
  5
14D
330
147
100
AcDbEntity
  8
0
  6
SLD-Punktstrich
 62
     0
370
    15
100
AcDbLine
 10
0.0
 20
0.0
 30
0.0
 11
2.5
 21
0.0
 31
0.0
  0
LINE
  5
14E
330
147
100
AcDbEntity
  8
0
  6
SLD-Punktstrich
 62
     0
370
    15
100
AcDbLine
 10
0.0
 20
2.5
 30
0.0
 11
0.0
 21
4.7
 31
0.0
  0
LINE
  5
14F
330
147
100
AcDbEntity
  8
0
  6
SLD-Punktstrich
 62
     0
370
    15
100
AcDbLine
 10
-2.5
 20
0.0
 30
0.0
 11
-4.7
 21
0.0
 31
0.0
  0
LINE
  5
150
330
147
100
AcDbEntity
  8
0
  6
SLD-Punktstrich
 62
     0
370
    15
100
AcDbLine
 10
0.0
 20
-2.5
 30
0.0
 11
0.0
 21
-4.7
 31
0.0
  0
LINE
  5
151
330
147
100
AcDbEntity
  8
0
  6
SLD-Punktstrich
 62
     0
370
    15
100
AcDbLine
 10
2.5
 20
0.0
 30
0.0
 11
4.7
 21
0.0
 31
0.0
  0
ENDBLK
  5
149
330
147
100
AcDbEntity
  8
0
100
AcDbBlockEnd
  0
BLOCK
  5
154
330
153
100
AcDbEntity
  8
0
100
AcDbBlockBegin
  2
SW_CENTERMARKSYMBOL_1
 70
     0
 10
0.0
 20
0.0
 30
0.0
  3
SW_CENTERMARKSYMBOL_1
  1
SW_CENTERMARKSYMBOL_1
  0
LINE
  5
156
330
153
100
AcDbEntity
  8
0
  6
SLD-Punktstrich
 62
     0
370
    15
100
AcDbLine
 10
0.0
 20
0.0
 30
0.0
 11
0.0
 21
2.5
 31
0.0
  0
LINE
  5
157
330
153
100
AcDbEntity
  8
0
  6
SLD-Punktstrich
 62
     0
370
    15
100
AcDbLine
 10
0.0
 20
0.0
 30
0.0
 11
-2.5
 21
0.0
 31
0.0
  0
LINE
  5
158
330
153
100
AcDbEntity
  8
0
  6
SLD-Punktstrich
 62
     0
370
    15
100
AcDbLine
 10
0.0
 20
0.0
 30
0.0
 11
0.0
 21
-2.5
 31
0.0
  0
LINE
  5
159
330
153
100
AcDbEntity
  8
0
  6
SLD-Punktstrich
 62
     0
370
    15
100
AcDbLine
 10
0.0
 20
0.0
 30
0.0
 11
2.5
 21
0.0
 31
0.0
  0
LINE
  5
15A
330
153
100
AcDbEntity
  8
0
  6
SLD-Punktstrich
 62
     0
370
    15
100
AcDbLine
 10
0.0
 20
2.5
 30
0.0
 11
0.0
 21
4.7
 31
0.0
  0
LINE
  5
15B
330
153
100
AcDbEntity
  8
0
  6
SLD-Punktstrich
 62
     0
370
    15
100
AcDbLine
 10
-2.5
 20
0.0
 30
0.0
 11
-4.7
 21
0.0
 31
0.0
  0
LINE
  5
15C
330
153
100
AcDbEntity
  8
0
  6
SLD-Punktstrich
 62
     0
370
    15
100
AcDbLine
 10
0.0
 20
-2.5
 30
0.0
 11
0.0
 21
-4.7
 31
0.0
  0
LINE
  5
15D
330
153
100
AcDbEntity
  8
0
  6
SLD-Punktstrich
 62
     0
370
    15
100
AcDbLine
 10
2.5
 20
0.0
 30
0.0
 11
4.7
 21
0.0
 31
0.0
  0
ENDBLK
  5
155
330
153
100
AcDbEntity
  8
0
100
AcDbBlockEnd
  0
ENDSEC
  0
SECTION
  2
ENTITIES
  0
LINE
  5
73
330
1F
100
AcDbEntity
  8
0
  6
SLD-Punktstrich
 62
     7
100
AcDbLine
 10
0.0027086782
 20
-0.0019940657
 30
0.0
 11
150.0027086782
 21
-0.0019940657
 31
0.0
  0
LINE
  5
74
330
1F
100
AcDbEntity
  8
0
  6
SLD-Punktstrich
 62
     7
100
AcDbLine
 10
150.0027086782
 20
31.9980059343
 30
0.0
 11
141.3527086782
 21
31.9980059343
 31
0.0
  0
LINE
  5
75
330
1F
100
AcDbEntity
  8
0
  6
SLD-Punktstrich
 62
     7
100
AcDbLine
 10
150.0027086782
 20
31.9980059343
 30
0.0
 11
143.8862350209
 21
25.881532277
 31
0.0
  0
LINE
  5
76
330
1F
100
AcDbEntity
  8
0
  6
SLD-Punktstrich
 62
     7
100
AcDbLine
 10
141.3527086782
 20
31.9980059343
 30
0.0
 11
145.6777086782
 21
27.6730059343
 31
0.0
  0
POINT
  5
77
330
1F
100
AcDbEntity
  8
1
 62
     4
420
    65535
100
AcDbPoint
 10
150.0027086782
 20
-0.0019940657
 30
0.0
  0
POINT
  5
78
330
1F
100
AcDbEntity
  8
1
 62
     4
420
    65535
100
AcDbPoint
 10
115.0027086782
 20
-0.0019940657
 30
0.0
  0
POINT
  5
79
330
1F
100
AcDbEntity
  8
1
 62
     4
420
    65535
100
AcDbPoint
 10
150.0027086782
 20
31.9980059343
 30
0.0
  0
POINT
  5
7A
330
1F
100
AcDbEntity
  8
1
 62
     4
420
    65535
100
AcDbPoint
 10
145.6777086782
 20
27.6730059343
 30
0.0
  0
LINE
  5
7B
330
1F
100
AcDbEntity
  8
1
 62
     4
420
    65535
100
AcDbLine
 10
122.5636876223
 20
13.4969099599
 30
0.0
 11
122.2197875629
 21
13.1530099005
 31
0.0
  0
SPLINE
  5
7C
330
1F
100
AcDbEntity
  8
1
 62
     4
420
    65535
100
AcDbSpline
210
0.0
220
0.0
230
1.0
 70
     8
 71
     3
 72
    12
 73
     8
 74
     0
 42
0.000000001
 43
0.00000001
 40
0.0
 40
0.0
 40
0.0
 40
0.0
 40
0.0817235041717948
 40
0.3539927880472942
 40
0.6260068263085962
 40
0.8981799092528066
 40
1.0
 40
1.0
 40
1.0
 40
1.0
 10
143.6848432164711
 20
23.49438030397545
 30
0.0
 10
143.6815818179398
 20
23.54319010648713
 30
0.0
 10
143.6674547736979
 20
23.75461420351094
 30
0.0
 10
143.5473273661139
 20
24.11595620656035
 30
0.0
 10
143.3230872665708
 20
24.54935004877061
 30
0.0
 10
143.0878800193317
 20
24.86421051939755
 30
0.0
 10
142.9127777565761
 20
25.00431465907237
 30
0.0
 10
142.8651059552225
 20
25.04245817938036
 30
0.0
  0
LINE
  5
7D
330
1F
100
AcDbEntity
  8
1
 62
     4
420
    65535
100
AcDbLine
 10
138.6842198051
 20
17.1423736358
 30
0.0
 11
140.9144824874
 21
14.9336058098
 31
0.0
  0
LINE
  5
7E
330
1F
100
AcDbEntity
  8
1
 62
     4
420
    65535
100
AcDbLine
 10
140.7507040894
 20
31.6810571558
 30
0.0
 11
134.325033793
 21
25.1916144402
 31
0.0
  0
ARC
  5
7F
330
1F
100
AcDbEntity
  8
1
 62
     4
420
    65535
100
AcDbCircle
 10
141.3136167194
 20
31.1181898794
 30
0.0
 40
0.7960466066013168
100
AcDbArc
 50
44.9976917587
 51
135.0023082413
  0
LINE
  5
80
330
1F
100
AcDbEntity
  8
1
 62
     4
420
    65535
100
AcDbLine
 10
149.7633259899
 20
23.8702709153
 30
0.0
 11
141.8765293495
 21
31.6810571558
 31
0.0
  0
ARC
  5
81
330
1F
100
AcDbEntity
  8
1
 62
     4
420
    65535
100
AcDbCircle
 10
149.2057923908
 20
23.3018252505
 30
0.0
 40
0.7962249606050261
100
AcDbArc
 50
315.5653414766
 51
45.55524622890001
  0
LINE
  5
82
330
1F
100
AcDbEntity
  8
1
 62
     4
420
    65535
100
AcDbLine
 10
142.0403077079
 20
14.933605849
 30
0.0
 11
149.7743362816
 21
22.7443918176
 31
0.0
  0
ARC
  5
83
330
1F
100
AcDbEntity
  8
1
 62
     4
420
    65535
100
AcDbCircle
 10
141.4773950781
 20
15.4964731247
 30
0.0
 40
0.7960466059659038
100
AcDbArc
 50
224.9976957214
 51
315.0023082675
  0
ARC
  5
84
330
1F
100
AcDbEntity
  8
1
 62
     4
420
    65535
100
AcDbCircle
 10
141.3850204003
 20
23.3073434375
 30
0.0
 40
2.773066138035512
100
AcDbArc
 50
280.5376805991
 51
129.615015912
  0
LINE
  5
85
330
1F
100
AcDbEntity
  8
1
 62
     4
420
    65535
100
AcDbLine
 10
141.5718749491
 20
14.4651730902
 30
0.0
 11
142.0403077079
 21
14.933605849
 31
0.0
  0
ARC
  5
86
330
1F
100
AcDbEntity
  8
1
 62
     4
420
    65535
100
AcDbCircle
 10
141.0110227308
 20
15.0227637959
 30
0.0
 40
0.7908619385137923
100
AcDbArc
 50
258.4179864948
 51
315.1670808315
  0
LINE
  5
87
330
1F
100
AcDbEntity
  8
1
 62
     4
420
    65535
100
AcDbLine
 10
140.2822713306
 20
31.212624397
 30
0.0
 11
140.0697619455
 21
30.9980059343
 31
0.0
  0
LINE
  5
88
330
1F
100
AcDbEntity
  8
1
 62
     4
420
    65535
100
AcDbLine
 10
140.2822713306
 20
31.212624397
 30
0.0
 11
140.7507040894
 21
31.6810571558
 31
0.0
  0
ARC
  5
89
330
1F
100
AcDbEntity
  8
1
 62
     4
420
    65535
100
AcDbCircle
 10
141.3721380077
 20
23.2929923133
 30
0.0
 40
2.57488464966075
100
AcDbArc
 50
286.9122534320001
 51
122.6843258295
  0
ARC
  5
8A
330
1F
100
AcDbEntity
  8
1
 62
     4
420
    65535
100
AcDbCircle
 10
140.96523729
 20
22.8204333383
 30
0.0
 40
2.540147863951873
100
AcDbArc
 50
322.1758494937
 51
346.7570896300999
  0
LINE
  5
8B
330
1F
100
AcDbEntity
  8
1
 62
     4
420
    65535
100
AcDbLine
 10
132.6018932746
 20
14.3146038897
 30
0.0
 11
131.3122063656
 21
13.7104289854
 31
0.0
  0
SPLINE
  5
8C
330
1F
100
AcDbEntity
  8
1
 62
     4
420
    65535
100
AcDbSpline
210
0.0
220
0.0
230
1.0
 70
     8
 71
     3
 72
    22
 73
    18
 74
     0
 42
0.000000001
 43
0.00000001
 40
0.0
 40
0.0
 40
0.0
 40
0.0
 40
0.0495288470540289
 40
0.098992554461327
 40
0.1484572953599002
 40
0.1979892422692152
 40
0.2476543024440442
 40
0.2975178585179246
 40
0.3476445194469778
 40
0.3980978863007025
 40
0.4489403367975295
 40
0.500232831700055
 40
0.6054716722109382
 40
0.7073533245297735
 40
0.8065649721812417
 40
0.9038508013097324
 40
1.0
 40
1.0
 40
1.0
 40
1.0
 10
127.8636861946396
 20
13.60619944203295
 30
0.0
 10
127.9200068448393
 20
13.58630797691819
 30
0.0
 10
128.0325740731077
 20
13.5465512076653
 30
0.0
 10
128.2030574219881
 20
13.49431567364444
 30
0.0
 10
128.3744438506479
 20
13.44795663282777
 30
0.0
 10
128.5468734859147
 20
13.40818462931297
 30
0.0
 10
128.7203318921163
 20
13.3750245134344
 30
0.0
 10
128.8948703189855
 20
13.34862153388654
 30
0.0
 10
129.0705432630548
 20
13.32903472210709
 30
0.0
 10
129.2474195700777
 20
13.31629007354302
 30
0.0
 10
129.4255836547398
 20
13.31040851986528
 30
0.0
 10
129.6674206621897
 20
13.31157015320827
 30
0.0
 10
129.9681252109597
 20
13.33074931742068
 30
0.0
 10
130.3225380274856
 20
13.38345980296588
 30
0.0
 10
130.6642105044454
 20
13.46465562715008
 30
0.0
 10
130.9949502574644
 20
13.57082213520435
 30
0.0
 10
131.2068694107932
 20
13.66407602296752
 30
0.0
 10
131.3122063655808
 20
13.71042898542881
 30
0.0
  0
SPLINE
  5
8D
330
1F
100
AcDbEntity
  8
1
 62
     4
420
    65535
100
AcDbSpline
210
0.0
220
0.0
230
1.0
 70
     8
 71
     3
 72
    25
 73
    21
 74
     0
 42
0.000000001
 43
0.00000001
 40
0.0
 40
0.0
 40
0.0
 40
0.0
 40
0.0250753561475979
 40
0.0500903263121881
 40
0.0750864594873804
 40
0.1001053985148201
 40
0.1251886726507003
 40
0.1876893090622347
 40
0.2502420077528351
 40
0.3127043930371716
 40
0.3752255397006719
 40
0.5000074543155744
 40
0.6247893689304792
 40
0.6872378109424512
 40
0.7497729009208257
 40
0.8122528539385889
 40
0.8748262360858876
 40
0.9165561765305208
 40
0.9582163984891716
 40
1.0
 40
1.0
 40
1.0
 40
1.0
 10
124.9613448988009
 20
19.70272715185602
 30
0.0
 10
124.9392935099396
 20
19.64397606245938
 30
0.0
 10
124.895243835941
 20
19.52661536689233
 30
0.0
 10
124.838377433352
 20
19.34738265416033
 30
0.0
 10
124.7884211815388
 20
19.16622919066326
 30
0.0
 10
124.7460238856625
 20
18.98289310239865
 30
0.0
 10
124.6936431299316
 20
18.70558265008403
 30
0.0
 10
124.6501491509241
 20
18.33090602940643
 30
0.0
 10
124.6441222953432
 20
17.85950410557566
 30
0.0
 10
124.6858023970128
 20
17.38931850355161
 30
0.0
 10
124.8050527947145
 20
16.7716861265851
 30
0.0
 10
125.0709720663132
 20
16.02599572274325
 30
0.0
 10
125.4824638893819
 20
15.34870195850428
 30
0.0
 10
125.8875062591143
 20
14.86494768688689
 30
0.0
 10
126.2269160408042
 20
14.53441066877816
 30
0.0
 10
126.597875622658
 20
14.23943658073537
 30
0.0
 10
126.9525331588377
 20
14.0119297496787
 30
0.0
 10
127.2780462150683
 20
13.84008241293141
 30
0.0
 10
127.5660097718387
 20
13.71055796368737
 30
0.0
 10
127.7643629590828
 20
13.64101988878218
 30
0.0
 10
127.8636861946396
 20
13.60619944203297
 30
0.0
  0
SPLINE
  5
8E
330
1F
100
AcDbEntity
  8
1
 62
     4
420
    65535
100
AcDbSpline
210
0.0
220
0.0
230
1.0
 70
     8
 71
     3
 72
    21
 73
    17
 74
     0
 42
0.000000001
 43
0.00000001
 40
0.0
 40
0.0
 40
0.0
 40
0.0
 40
0.0533688462573897
 40
0.1069773869944862
 40
0.1609649639492925
 40
0.2154680074075692
 40
0.270619115833503
 40
0.3265462697612998
 40
0.3833721960722275
 40
0.4412138884862732
 40
0.5001822808968812
 40
0.6022400811933475
 40
0.7027414417212691
 40
0.8021885031628196
 40
0.9010992779493316
 40
1.0
 40
1.0
 40
1.0
 40
1.0
 10
127.2494719833728
 20
22.24442627041222
 30
0.0
 10
127.1919512363848
 20
22.21661361680738
 30
0.0
 10
127.0766514005766
 20
22.16086339515785
 30
0.0
 10
126.908885061852
 20
22.06822793698706
 30
0.0
 10
126.744682481489
 20
21.96877423377549
 30
0.0
 10
126.5844694784908
 20
21.86168906092925
 30
0.0
 10
126.4281997498355
 20
21.74692410138908
 30
0.0
 10
126.2759658293514
 20
21.62415364514239
 30
0.0
 10
126.1278361819295
 20
21.49306309646547
 30
0.0
 10
125.9838602584696
 20
21.35329910505296
 30
0.0
 10
125.8111537861422
 20
21.16923390113968
 30
0.0
 10
125.6183391028385
 20
20.93711284413239
 30
0.0
 10
125.4168542318062
 20
20.65113890376786
 30
0.0
 10
125.2403790940605
 20
20.35017547459467
 30
0.0
 10
125.0862958218096
 20
20.03502118415838
 30
0.0
 10
125.0029937953404
 20
19.81348807653588
 30
0.0
 10
124.9613448988009
 20
19.70272715185602
 30
0.0
  0
LINE
  5
8F
330
1F
100
AcDbEntity
  8
1
 62
     4
420
    65535
100
AcDbLine
 10
127.2494719834
 20
22.2444262704
 30
0.0
 11
128.5391588924
 21
22.8486011746
 31
0.0
  0
SPLINE
  5
90
330
1F
100
AcDbEntity
  8
1
 62
     4
420
    65535
100
AcDbSpline
210
0.0
220
0.0
230
1.0
 70
     8
 71
     3
 72
    17
 73
    13
 74
     0
 42
0.000000001
 43
0.00000001
 40
0.0
 40
0.0
 40
0.0
 40
0.0
 40
0.085470257459388
 40
0.1699134423335383
 40
0.2534630131654779
 40
0.3362567675758293
 40
0.4184363214571558
 40
0.5001464989185261
 40
0.6287235255863922
 40
0.7544089986396987
 40
0.8779170071162284
 40
1.0
 40
1.0
 40
1.0
 40
1.0
 10
130.9187642428611
 20
23.27672165269749
 30
0.0
 10
130.8492771882518
 20
23.28135021243422
 30
0.0
 10
130.711138085864
 20
23.29055171177786
 30
0.0
 10
130.5046345524403
 20
23.29275857932212
 30
0.0
 10
130.3004137553367
 20
23.28663637420567
 30
0.0
 10
130.0984078799977
 20
23.27167335962045
 30
0.0
 10
129.8985943892913
 20
23.2483830633212
 30
0.0
 10
129.6629145996448
 20
23.21101897114286
 30
0.0
 10
129.3944273704995
 20
23.15394970518761
 30
0.0
 10
129.0976041999988
 20
23.06985861049795
 30
0.0
 10
128.8115653672069
 20
22.96990679390735
 30
0.0
 10
128.6296091234389
 20
22.8888796639748
 30
0.0
 10
128.5391588924042
 20
22.84860117464841
 30
0.0
  0
SPLINE
  5
91
330
1F
100
AcDbEntity
  8
1
 62
     4
420
    65535
100
AcDbSpline
210
0.0
220
0.0
230
1.0
 70
     8
 71
     3
 72
    11
 73
     7
 74
     0
 42
0.000000001
 43
0.00000001
 40
0.0
 40
0.0
 40
0.0
 40
0.0
 40
0.2702663627511774
 40
0.5262286936962187
 40
0.7691074815927567
 40
1.0
 40
1.0
 40
1.0
 40
1.0
 10
131.5060043088491
 20
23.20133238212871
 30
0.0
 10
131.4535456876648
 20
23.2112943410227
 30
0.0
 10
131.3514048536449
 20
23.23069101533347
 30
0.0
 10
131.2008647689025
 20
23.25175244078907
 30
0.0
 10
131.05754255028
 20
23.26745796128143
 30
0.0
 10
130.9642368097456
 20
23.27368628041669
 30
0.0
 10
130.9187642428611
 20
23.27672165269747
 30
0.0
  0
SPLINE
  5
92
330
1F
100
AcDbEntity
  8
1
 62
     4
420
    65535
100
AcDbSpline
210
0.0
220
0.0
230
1.0
 70
     8
 71
     3
 72
    13
 73
     9
 74
     0
 42
0.000000001
 43
0.00000001
 40
0.0
 40
0.0
 40
0.0
 40
0.0
 40
0.1667987798628373
 40
0.3331360851113877
 40
0.4993182245957742
 40
0.6656524036800182
 40
0.8324450230612892
 40
1.0
 40
1.0
 40
1.0
 40
1.0
 10
132.5954013948394
 20
22.82005702247045
 30
0.0
 10
132.5377221462549
 20
22.84856687584297
 30
0.0
 10
132.422523227645
 20
22.90550770567055
 30
0.0
 10
132.2450645364735
 20
22.98080143258449
 30
0.0
 10
132.0647901220681
 20
23.04848829462967
 30
0.0
 10
131.8813784362896
 20
23.10774829808179
 30
0.0
 10
131.695151969596
 20
23.15959454484095
 30
0.0
 10
131.5691492967871
 20
23.18739863734072
 30
0.0
 10
131.5060043088491
 20
23.20133238212872
 30
0.0
  0
SPLINE
  5
93
330
1F
100
AcDbEntity
  8
1
 62
     4
420
    65535
100
AcDbSpline
210
0.0
220
0.0
230
1.0
 70
     8
 71
     3
 72
    21
 73
    17
 74
     0
 42
0.000000001
 43
0.00000001
 40
0.0
 40
0.0
 40
0.0
 40
0.0
 40
0.0313130422067683
 40
0.0625733488225333
 40
0.0938395435438491
 40
0.1251702170150887
 40
0.1876706307054865
 40
0.2502409020659607
 40
0.3751415940816836
 40
0.5000144650886045
 40
0.6248873360955248
 40
0.7497880281112483
 40
0.8122727341496107
 40
0.8748587132026171
 40
0.9373983043535212
 40
0.9999999999999999
 40
0.9999999999999999
 40
0.9999999999999999
 40
0.9999999999999999
 10
135.1404326081668
 20
17.47407881630163
 30
0.0
 10
135.1559373742171
 20
17.53885173450612
 30
0.0
 10
135.1869207940993
 20
17.6682884841614
 30
0.0
 10
135.222669617276
 20
17.86482047359808
 30
0.0
 10
135.250452959529
 20
18.06270703361174
 30
0.0
 10
135.2758364377179
 20
18.32794750362024
 30
0.0
 10
135.286125701756
 20
18.66150883718515
 30
0.0
 10
135.2561990821537
 20
19.194278373403
 30
0.0
 10
135.132525937214
 20
19.85332206712756
 30
0.0
 10
134.8502203388486
 20
20.60723956117894
 30
0.0
 10
134.4426405848042
 20
21.30249676854643
 30
0.0
 10
134.0082317798629
 20
21.81570873459467
 30
0.0
 10
133.6125597316826
 20
22.17728353088988
 30
0.0
 10
133.2930580466393
 20
22.42155317671366
 30
0.0
 10
132.9548152745538
 20
22.64002861965462
 30
0.0
 10
132.7152456522179
 20
22.76002770401553
 30
0.0
 10
132.5954013948394
 20
22.82005702247045
 30
0.0
  0
SPLINE
  5
94
330
1F
100
AcDbEntity
  8
1
 62
     4
420
    65535
100
AcDbSpline
210
0.0
220
0.0
230
1.0
 70
     8
 71
     3
 72
    12
 73
     8
 74
     0
 42
0.000000001
 43
0.00000001
 40
0.0
 40
0.0
 40
0.0
 40
0.0
 40
0.1663343647289653
 40
0.3329022696983348
 40
0.5000065250608885
 40
0.7508355279117493
 40
1.0
 40
1.0
 40
1.0
 40
1.0
 10
134.7470556686034
 20
16.39332553192344
 30
0.0
 10
134.7759479977488
 20
16.45043802640522
 30
0.0
 10
134.8337732220495
 20
16.56474320364325
 30
0.0
 10
134.9111137832411
 20
16.74104628055174
 30
0.0
 10
134.9927387508434
 20
16.95061625000998
 30
0.0
 10
135.0736608959279
 20
17.19443816016782
 30
0.0
 10
135.118224823418
 20
17.38107237255172
 30
0.0
 10
135.1404326081668
 20
17.47407881630163
 30
0.0
  0
SPLINE
  5
95
330
1F
100
AcDbEntity
  8
1
 62
     4
420
    65535
100
AcDbSpline
210
0.0
220
0.0
230
1.0
 70
     8
 71
     3
 72
    10
 73
     6
 74
     0
 42
0.000000001
 43
0.00000001
 40
0.0
 40
0.0
 40
0.0
 40
0.0
 40
0.3104706287607394
 40
0.6428895184046078
 40
1.0
 40
1.0
 40
1.0
 40
1.0
 10
134.4350399580141
 20
15.89059088870131
 30
0.0
 10
134.4701746359215
 20
15.94087522400489
 30
0.0
 10
134.54292778571
 20
16.04499867115883
 30
0.0
 10
134.6477771020899
 20
16.212506793135
 30
0.0
 10
134.7131821097057
 20
16.33163070278491
 30
0.0
 10
134.7470556686035
 20
16.39332553192344
 30
0.0
  0
SPLINE
  5
96
330
1F
100
AcDbEntity
  8
1
 62
     4
420
    65535
100
AcDbSpline
210
0.0
220
0.0
230
1.0
 70
     8
 71
     3
 72
    16
 73
    12
 74
     0
 42
0.000000001
 43
0.00000001
 40
0.0
 40
0.0
 40
0.0
 40
0.0
 40
0.0816171656017516
 40
0.1637581576449726
 40
0.2466533009416861
 40
0.3305266991250134
 40
0.4155947122744765
 40
0.5020647171970379
 40
0.6652516355233272
 40
0.8308633247262557
 40
1.0
 40
1.0
 40
1.0
 40
1.0
 10
132.6018932746122
 20
14.31460388966498
 30
0.0
 10
132.661385807314
 20
14.3434682517509
 30
0.0
 10
132.7807527012397
 20
14.40138223004136
 30
0.0
 10
132.9557982731559
 20
14.49947968885957
 30
0.0
 10
133.1283069000627
 20
14.60608680369598
 30
0.0
 10
133.29786278409
 20
14.72214345052197
 30
0.0
 10
133.464396761
 20
14.847610302952
 30
0.0
 10
133.6749781550376
 20
15.02184007373983
 30
0.0
 10
133.9216325560801
 20
15.25477114287069
 30
0.0
 10
134.1944321412807
 20
15.55680656116779
 30
0.0
 10
134.3542762858335
 20
15.77855110390143
 30
0.0
 10
134.4350399580142
 20
15.89059088870126
 30
0.0
  0
ARC
  5
97
330
1F
100
AcDbEntity
  8
1
 62
     4
420
    65535
100
AcDbCircle
 10
138.6765207631
 20
-13.9008203886
 30
0.0
 40
29.49818128541628
100
AcDbArc
 50
114.4454729044
 51
119.5709960176
  0
ARC
  5
98
330
1F
100
AcDbEntity
  8
1
 62
     4
420
    65535
100
AcDbCircle
 10
118.4777055031
 20
8.7249826673
 30
0.0
 40
9.041184057130517
100
AcDbArc
 50
11.9220698874
 51
27.8812812852
  0
ARC
  5
99
330
1F
100
AcDbEntity
  8
1
 62
     4
420
    65535
100
AcDbCircle
 10
126.4473754873
 20
13.1752445145
 30
0.0
 40
2.727208840776502
100
AcDbArc
 50
211.3820660415
 51
288.7468610661
  0
LINE
  5
9A
330
1F
100
AcDbEntity
  8
1
 62
     4
420
    65535
100
AcDbLine
 10
123.5670336693
 20
19.0495392753
 30
0.0
 11
126.4693749652
 21
12.9530115655
 31
0.0
  0
LINE
  5
9B
330
1F
100
AcDbEntity
  8
1
 62
     4
420
    65535
100
AcDbLine
 10
124.1191195692
 20
11.7550711303
 30
0.0
 11
121.2167782734
 21
17.8515988401
 31
0.0
  0
ARC
  5
9C
330
1F
100
AcDbEntity
  8
1
 62
     4
420
    65535
100
AcDbCircle
 10
135.7741794672
 20
-7.8042926788
 30
0.0
 40
29.49818128541548
100
AcDbArc
 50
114.4454729044
 51
119.5709960176
  0
ELLIPSE
  5
9D
330
1F
100
AcDbEntity
  8
1
 62
     4
420
    65535
100
AcDbEllipse
 10
134.4231271543
 20
16.5483058392
 30
0.0
 11
-0.008126242493773361
 21
2.756918863316841
 31
0.0
210
0.0
220
0.0
230
1.0
 40
0.0037254031
 41
3.452509856699901
 42
4.471486122683952
  0
LINE
  5
9E
330
1F
100
AcDbEntity
  8
1
 62
     4
420
    65535
100
AcDbLine
 10
134.4340058864
 20
13.9235812101
 30
0.0
 11
127.3238665573
 21
10.5927202715
 31
0.0
  0
LINE
  5
9F
330
1F
100
AcDbEntity
  8
1
 62
     4
420
    65535
100
AcDbLine
 10
126.4693749652
 20
12.9530115655
 30
0.0
 11
127.8636861946
 21
13.606199442
 31
0.0
  0
LINE
  5
A0
330
1F
100
AcDbEntity
  8
1
 62
     4
420
    65535
100
AcDbLine
 10
124.9613448988
 20
19.7027271519
 30
0.0
 11
123.5670336693
 21
19.0495392753
 31
0.0
  0
ARC
  5
A1
330
1F
100
AcDbEntity
  8
1
 62
     4
420
    65535
100
AcDbCircle
 10
116.9235360378
 20
16.3609727855
 30
0.0
 40
7.166899647037172
100
AcDbArc
 50
22.0327568674
 51
40.812240045
  0
ARC
  5
A2
330
1F
100
AcDbEntity
  8
1
 62
     4
420
    65535
100
AcDbCircle
 10
123.6823760923
 20
18.7754123052
 30
0.0
 40
2.632983843988403
100
AcDbArc
 50
120.4543665414
 51
200.5400360371
  0
LINE
  5
A3
330
1F
100
AcDbEntity
  8
1
 62
     4
420
    65535
100
AcDbLine
 10
122.3478430861
 20
21.0451315782
 30
0.0
 11
129.4579824153
 21
24.3759925168
 31
0.0
  0
ELLIPSE
  5
A4
330
1F
100
AcDbEntity
  8
1
 62
     4
420
    65535
100
AcDbEllipse
 10
131.5207858585
 20
22.6448335491
 30
0.0
 11
2.137075124390435
 21
-1.759081369071616
 31
0.0
210
0.0
220
0.0
230
1.0
 40
0.0400451544
 41
1.889156313179599
 42
2.908132579164936
  0
ARC
  5
A5
330
1F
100
AcDbEntity
  8
1
 62
     4
420
    65535
100
AcDbCircle
 10
132.2571171558
 20
13.7157580471
 30
0.0
 40
5.464909068596339
100
AcDbArc
 50
31.26561012339999
 51
51.926753262
  0
LINE
  5
A6
330
1F
100
AcDbEntity
  8
1
 62
     4
420
    65535
100
AcDbLine
 10
136.9283602138
 20
16.5520795065
 30
0.0
 11
135.7341929513
 21
15.2179145383
 31
0.0
  0
ARC
  5
A7
330
1F
100
AcDbEntity
  8
1
 62
     4
420
    65535
100
AcDbCircle
 10
132.0363267641
 20
13.1145769963
 30
0.0
 40
4.254202998645985
100
AcDbArc
 50
29.6311165766
 51
50.41751457479999
  0
LINE
  5
A8
330
1F
100
AcDbEntity
  8
1
 62
     4
420
    65535
100
AcDbLine
 10
135.1404326082
 20
17.4740788163
 30
0.0
 11
135.6271536815
 21
18.0178604335
 31
0.0
  0
ELLIPSE
  5
A9
330
1F
100
AcDbEntity
  8
1
 62
     4
420
    65535
100
AcDbEllipse
 10
135.9211541735
 20
15.2793453991
 30
0.0
 11
0.8674494015642722
 21
0.9494869060625355
 31
0.0
210
0.0
220
0.0
230
1.0
 40
0.0757850533
 41
1.704512473005363
 42
3.013509412000997
  0
ARC
  5
AA
330
1F
100
AcDbEntity
  8
1
 62
     4
420
    65535
100
AcDbCircle
 10
133.6880796028
 20
15.676797513
 30
0.0
 40
1.905301400132344
100
AcDbArc
 50
293.0478916959
 51
315.6969505452
  0
LINE
  5
AB
330
1F
100
AcDbEntity
  8
1
 62
     4
420
    65535
100
AcDbLine
 10
123.6383659023
 20
10.7829600144
 30
0.0
 11
124.1191195692
 21
11.7550711303
 31
0.0
  0
LINE
  5
AC
330
1F
100
AcDbEntity
  8
1
 62
     4
420
    65535
100
AcDbLine
 10
127.3238665573
 20
10.5927202715
 30
0.0
 11
126.1713713826
 21
8.262309819
 31
0.0
  0
ELLIPSE
  5
AD
330
1F
100
AcDbEntity
  8
1
 62
     4
420
    65535
100
AcDbEllipse
 10
125.2157370949
 20
10.6695369521
 30
0.0
 11
0.7391541047556701
 21
2.547745054057151
 31
0.0
210
0.0
220
0.0
230
1.0
 40
0.9405010029
 41
3.1381449174016
 42
3.831791521537063
  0
ELLIPSE
  5
AE
330
1F
100
AcDbEntity
  8
1
 62
     4
420
    65535
100
AcDbEllipse
 10
123.7246370328
 20
7.6544482587
 30
0.0
 11
-0.7647540011769536
 21
3.897054505786927
 31
0.0
210
0.0
220
0.0
230
1.0
 40
0.2071991863
 41
4.792485579524031
 42
5.602597803978582
  0
ELLIPSE
  5
AF
330
1F
100
AcDbEntity
  8
1
 62
     4
420
    65535
100
AcDbEllipse
 10
133.176237578
 20
22.3333874631
 30
0.0
 11
1.001588089866715
 21
0.1512994642328067
 31
0.0
210
0.0
220
0.0
230
1.0
 40
0.4919269134
 41
0.3334510721830605
 42
1.344985723418891
  0
LINE
  5
B0
330
1F
100
AcDbEntity
  8
1
 62
     4
420
    65535
100
AcDbLine
 10
135.5293207505
 20
21.1422830329
 30
0.0
 11
134.098295791
 21
22.6376194196
 31
0.0
  0
ELLIPSE
  5
B1
330
1F
100
AcDbEntity
  8
1
 62
     4
420
    65535
100
AcDbEllipse
 10
133.8297789657
 20
20.1292015334
 30
0.0
 11
1.815460930130882
 21
0.844563303228103
 31
0.0
210
0.0
220
0.0
230
1.0
 40
0.548748345
 41
6.108334550392069
 42
6.467792552931992
  0
LINE
  5
B2
330
1F
100
AcDbEntity
  8
1
 62
     4
420
    65535
100
AcDbLine
 10
135.9531863643
 20
18.7413196306
 30
0.0
 11
135.6981814552
 21
20.7875818244
 31
0.0
  0
ELLIPSE
  5
B3
330
1F
100
AcDbEntity
  8
1
 62
     4
420
    65535
100
AcDbEllipse
 10
135.1305600037
 20
18.2282255928
 30
0.0
 11
0.7563647857926412
 21
0.6686425981906652
 31
0.0
210
0.0
220
0.0
230
1.0
 40
0.4952571771
 41
4.945008740124674
 42
5.956543391360591
  0
LINE
  5
B4
330
1F
100
AcDbEntity
  8
1
 62
     4
420
    65535
100
AcDbLine
 10
133.3279508428
 20
22.8474626021
 30
0.0
 11
132.5954013948
 21
22.8200570225
 31
0.0
  0
ELLIPSE
  5
B5
330
1F
100
AcDbEntity
  8
1
 62
     4
420
    65535
100
AcDbEllipse
 10
134.9337395168
 20
18.0314051059
 30
0.0
 11
-1.619685838672268
 21
1.904438180420541
 31
0.0
210
0.0
220
0.0
230
1.0
 40
0.8891721567999998
 41
3.396726396878565
 42
4.408261048114464
  0
ARC
  5
B6
330
1F
100
AcDbEntity
  8
1
 62
     4
420
    65535
100
AcDbCircle
 10
138.0018855587
 20
1.4169318066
 30
0.0
 40
17.44510194479403
100
AcDbArc
 50
93.1790763875
 51
96.7442034235
  0
LINE
  5
B7
330
1F
100
AcDbEntity
  8
1
 62
     4
420
    65535
100
AcDbLine
 10
131.2813127007
 20
24.5714347033
 30
0.0
 11
133.0786184204
 21
24.6386741302
 31
0.0
  0
ARC
  5
B8
330
1F
100
AcDbEntity
  8
1
 62
     4
420
    65535
100
AcDbCircle
 10
127.7152373256
 20
22.9791451177
 30
0.0
 40
5.614258037450981
100
AcDbArc
 50
358.6560032896
 51
17.1930316654
  0
ARC
  5
B9
330
1F
100
AcDbEntity
  8
1
 62
     4
420
    65535
100
AcDbCircle
 10
127.3949998756
 20
23.2306186235
 30
0.0
 40
4.111108747498661
100
AcDbArc
 50
359.5918394958001
 51
19.0349370414
  0
LINE
  5
BA
330
1F
100
AcDbEntity
  8
1
 62
     4
420
    65535
100
AcDbLine
 10
136.7794296415
 20
20.8814493784
 30
0.0
 11
137.0344345506
 21
18.8351871845
 31
0.0
  0
ARC
  5
BB
330
1F
100
AcDbEntity
  8
1
 62
     4
420
    65535
100
AcDbCircle
 10
137.7468806497
 20
3.4631940005
 30
0.0
 40
17.44510194479186
100
AcDbArc
 50
93.1790763875
 51
96.7442034235
  0
LINE
  5
BC
330
1F
100
AcDbEntity
  8
1
 62
     4
420
    65535
100
AcDbLine
 10
122.8994592575
 20
13.7197387915
 30
0.0
 11
121.9977890775
 21
15.6137466551
 31
0.0
  0
LINE
  5
BD
330
1F
100
AcDbEntity
  8
1
 62
     4
420
    65535
100
AcDbLine
 10
121.9977890775
 20
15.6137466551
 30
0.0
 11
121.7423505247
 21
15.4546632452
 31
0.0
  0
ELLIPSE
  5
BE
330
1F
100
AcDbEntity
  8
1
 62
     4
420
    65535
100
AcDbEllipse
 10
121.6564771742
 20
15.6350449465
 30
0.0
 11
0.2393136995092675
 21
0.1801884358116066
 31
0.0
210
0.0
220
0.0
230
1.0
 40
0.6593385555
 41
3.008009051842543
 42
4.578805378637389
  0
LINE
  5
BF
330
1F
100
AcDbEntity
  8
1
 62
     4
420
    65535
100
AcDbLine
 10
120.2419955012
 20
17.9172230636
 30
0.0
 11
121.4034722613
 21
15.4774771721
 31
0.0
  0
LINE
  5
C0
330
1F
100
AcDbEntity
  8
1
 62
     4
420
    65535
100
AcDbLine
 10
121.2167782734
 20
17.8515988401
 30
0.0
 11
120.2419955012
 21
17.9172230636
 31
0.0
  0
LINE
  5
C1
330
1F
100
AcDbEntity
  8
1
 62
     4
420
    65535
100
AcDbLine
 10
122.4768891422
 20
13.2227059059
 30
0.0
 11
123.6383659023
 21
10.7829600144
 31
0.0
  0
ELLIPSE
  5
C2
330
1F
100
AcDbEntity
  8
1
 62
     4
420
    65535
100
AcDbEllipse
 10
122.7298940551
 20
13.3802736803
 30
0.0
 11
0.2393136995092533
 21
0.1801884358116066
 31
0.0
210
0.0
220
0.0
230
1.0
 40
0.6593385555
 41
1.437212725047597
 42
3.008009051842423
  0
LINE
  5
C3
330
1F
100
AcDbEntity
  8
1
 62
     4
420
    65535
100
AcDbLine
 10
122.6440207047
 20
13.5606553816
 30
0.0
 11
122.8994592575
 21
13.7197387915
 31
0.0
  0
ARC
  5
C4
330
1F
100
AcDbEntity
  8
1
 62
     4
420
    65535
100
AcDbCircle
 10
130.2990246996
 20
22.6911639242
 30
0.0
 40
1.88308244921471
100
AcDbArc
 50
93.5019145712
 51
116.5277127314
  0
ELLIPSE
  5
C5
330
1F
100
AcDbEntity
  8
1
 62
     4
420
    65535
100
AcDbEllipse
 10
131.4682739229
 20
24.632865564
 30
0.0
 11
1.293064933251713
 21
0.05634354826943877
 31
0.0
210
0.0
220
0.0
230
1.0
 40
0.0415774991
 41
3.256484367523407
 42
4.565481306518905
  0
ELLIPSE
  5
C6
330
1F
100
AcDbEntity
  8
1
 62
     4
420
    65535
100
AcDbEllipse
 10
132.9794170911
 20
22.1365669762
 30
0.0
 11
0.03818664049663312
 21
2.504025452864489
 31
0.0
210
0.0
220
0.0
230
1.0
 40
0.8678844577
 41
5.243564129030394
 42
6.255098780266219
  0
ARC
  5
C7
330
1F
100
AcDbEntity
  8
1
 62
     4
420
    65535
100
AcDbCircle
 10
455.7489084469
 20
-313.672135021
 30
0.0
 40
465.363693850129
100
AcDbArc
 50
133.5919223767
 51
133.7236799254
  0
ELLIPSE
  5
C8
330
1F
100
AcDbEntity
  8
1
 62
     4
420
    65535
100
AcDbEllipse
 10
133.6329584788
 20
19.9323810465
 30
0.0
 11
2.750044420006446
 21
1.835592514573861
 31
0.0
210
0.0
220
0.0
230
1.0
 40
0.9353353875999999
 41
5.968420138847981
 42
6.327878141387921
  0
ARC
  5
C9
330
1F
100
AcDbEntity
  8
1
 62
     4
420
    65535
100
AcDbCircle
 10
457.1799333942
 20
-315.1674713948
 30
0.0
 40
465.3636938323759
100
AcDbArc
 50
133.5919223767
 51
133.7236799254
  0
LINE
  5
CA
330
1F
100
AcDbEntity
  8
1
 62
     4
420
    65535
100
AcDbLine
 10
134.8725245142
 20
23.3763982618
 30
0.0
 11
136.3035494737
 21
21.8810618752
 31
0.0
  0
LINE
  5
CB
330
1F
100
AcDbEntity
  8
1
 62
     4
420
    65535
100
AcDbLine
 10
134.0749797862
 20
12.2257870727
 30
0.0
 11
134.4340058864
 21
13.9235812101
 31
0.0
  0
LINE
  5
CC
330
1F
100
AcDbEntity
  8
1
 62
     4
420
    65535
100
AcDbLine
 10
134.0749797862
 20
12.2257870727
 30
0.0
 11
129.5772934047
 21
10.1187724013
 31
0.0
  0
ELLIPSE
  5
CD
330
1F
100
AcDbEntity
  8
1
 62
     4
420
    65535
100
AcDbEllipse
 10
129.6022507513
 20
9.6086585522
 30
0.0
 11
1.329182817069096
 21
0.6973843601674725
 31
0.0
210
0.0
220
0.0
230
1.0
 40
0.3118756881
 41
1.427132544212134
 42
2.474330095408739
  0
LINE
  5
CE
330
1F
100
AcDbEntity
  8
1
 62
     4
420
    65535
100
AcDbLine
 10
128.4235573242
 20
9.317383121
 30
0.0
 11
126.1713713826
 21
8.262309819
 31
0.0
  0
ELLIPSE
  5
CF
330
1F
100
AcDbEntity
  8
1
 62
     4
420
    65535
100
AcDbEllipse
 10
118.2545844564
 20
19.1445949049
 30
0.0
 11
-2.148991613016207
 21
2.556264080705944
 31
0.0
210
0.0
220
0.0
230
1.0
 40
0.2930174378
 41
3.985866818471479
 42
4.795979042925967
  0
ELLIPSE
  5
D0
330
1F
100
AcDbEntity
  8
1
 62
     4
420
    65535
100
AcDbEllipse
 10
121.2779595281
 20
18.9410555656
 30
0.0
 11
2.463077498626802
 21
-1.028604971607702
 31
0.0
210
0.0
220
0.0
230
1.0
 40
0.9289604928999999
 41
2.441004849864223
 42
3.134651453999676
  0
LINE
  5
D1
330
1F
100
AcDbEntity
  8
1
 62
     4
420
    65535
100
AcDbLine
 10
120.0110279589
 20
21.202450401
 30
0.0
 11
122.3478430861
 21
21.0451315782
 31
0.0
  0
ARC
  5
D2
330
1F
100
AcDbEntity
  8
1
 62
     4
420
    65535
100
AcDbCircle
 10
140.0782500417
 20
21.8059392451
 30
0.0
 40
2.163959435979569
100
AcDbArc
 50
340.9677901348001
 51
35.0872553844
  0
LINE
  5
D3
330
1F
100
AcDbEntity
  8
1
 62
     4
420
    65535
100
AcDbLine
 10
142.1239175053
 20
21.1002728445
 30
0.0
 11
136.9283602138
 21
16.5520795065
 31
0.0
  0
LINE
  5
D4
330
1F
100
AcDbEntity
  8
1
 62
     4
420
    65535
100
AcDbLine
 10
137.0344345506
 20
18.8351871845
 30
0.0
 11
141.8489695728
 21
23.0498334458
 31
0.0
  0
LINE
  5
D5
330
1F
100
AcDbEntity
  8
1
 62
     4
420
    65535
100
AcDbLine
 10
141.8489695728
 20
23.0498334458
 30
0.0
 11
136.7794296415
 21
20.8814493784
 31
0.0
  0
ELLIPSE
  5
D6
330
1F
100
AcDbEntity
  8
1
 62
     4
420
    65535
100
AcDbEllipse
 10
140.9273972419
 20
23.052416594
 30
0.0
 11
3.250165092469217
 21
-1.907709624088181
 31
0.0
210
0.0
220
0.0
230
1.0
 40
0.288169279
 41
1.423000629420635
 42
1.602729630692767
  0
ELLIPSE
  5
D7
330
1F
100
AcDbEntity
  8
1
 62
     4
420
    65535
100
AcDbEllipse
 10
140.9273972419
 20
23.052416594
 30
0.0
 11
0.6885938145052251
 21
3.620967252363585
 31
0.0
210
0.0
220
0.0
230
1.0
 40
0.2460187209
 41
4.758427287999954
 42
4.938156289267781
  0
LINE
  5
D8
330
1F
100
AcDbEntity
  8
1
 62
     4
420
    65535
100
AcDbLine
 10
136.3035494737
 20
21.8810618752
 30
0.0
 11
141.373089405
 21
24.0494459426
 31
0.0
  0
LINE
  5
D9
330
1F
100
AcDbEntity
  8
1
 62
     4
420
    65535
100
AcDbLine
 10
141.373089405
 20
24.0494459426
 30
0.0
 11
134.8725245142
 21
23.3763982618
 31
0.0
  0
ARC
  5
DA
330
1F
100
AcDbEntity
  8
1
 62
     4
420
    65535
100
AcDbCircle
 10
139.5892491527
 20
23.5944884968
 30
0.0
 40
1.840943324281618
100
AcDbArc
 50
14.3079096415
 51
74.09852997520001
  0
LINE
  5
DB
330
1F
100
AcDbEntity
  8
1
 62
     4
420
    65535
100
AcDbLine
 10
133.0786184204
 20
24.6386741302
 30
0.0
 11
140.093637973
 21
25.3649867999
 31
0.0
  0
LINE
  5
DC
330
1F
100
AcDbEntity
  8
1
 62
     4
420
    65535
100
AcDbLine
 10
128.0872090742
 20
24.8034291707
 30
0.0
 11
123.5895226927
 21
22.6964144993
 31
0.0
  0
LINE
  5
DD
330
1F
100
AcDbEntity
  8
1
 62
     4
420
    65535
100
AcDbLine
 10
129.4579824153
 20
24.3759925168
 30
0.0
 11
128.0872090742
 21
24.8034291707
 31
0.0
  0
LINE
  5
DE
330
1F
100
AcDbEntity
  8
1
 62
     4
420
    65535
100
AcDbLine
 10
122.2632139005
 20
22.2575237029
 30
0.0
 11
120.0110279589
 21
21.202450401
 31
0.0
  0
ELLIPSE
  5
DF
330
1F
100
AcDbEntity
  8
1
 62
     4
420
    65535
100
AcDbEllipse
 10
123.2693346157
 20
22.9112976181
 30
0.0
 11
1.378078249498685
 21
0.59482073701421
 31
0.0
210
0.0
220
0.0
230
1.0
 40
0.2180993611
 41
3.804765159581595
 42
4.851962710778194
  0
LINE
  5
E0
330
1F
100
AcDbEntity
  8
1
 62
     4
420
    65535
100
AcDbLine
 10
121.7423505247
 20
15.4546632452
 30
0.0
 11
121.3736653887
 21
15.0859781092
 31
0.0
  0
LINE
  5
E1
330
1F
100
AcDbEntity
  8
1
 62
     4
420
    65535
100
AcDbLine
 10
122.0894144747
 20
15.4212824629
 30
0.0
 11
121.3736653887
 21
15.0859781092
 31
0.0
  0
ELLIPSE
  5
E2
330
1F
100
AcDbEntity
  8
1
 62
     4
420
    65535
100
AcDbEllipse
 10
142.799931016
 20
21.4662160437
 30
0.0
 11
1.594488537198345
 21
1.313333914486826
 31
0.0
210
0.0
220
0.0
230
1.0
 40
0.0766123586
 41
1.274036774015546
 42
1.944670513135043
  0
LINE
  5
E3
330
1F
100
AcDbEntity
  8
1
 62
     4
420
    65535
100
AcDbLine
 10
139.987123156
 20
18.5146546426
 30
0.0
 11
143.1699765252
 21
21.967082923
 31
0.0
  0
ELLIPSE
  5
E4
330
1F
100
AcDbEntity
  8
1
 62
     4
420
    65535
100
AcDbEllipse
 10
139.35505214
 20
17.4495046728
 30
0.0
 11
1.051933478151568
 21
1.268571921506759
 31
0.0
210
0.0
220
0.0
230
1.0
 40
0.1751120942
 41
0.7342181519445681
 42
1.358243683741441
  0
LINE
  5
E5
330
1F
100
AcDbEntity
  8
1
 62
     4
420
    65535
100
AcDbLine
 10
134.7021595726
 20
12.6934782173
 30
0.0
 11
139.3598204811
 21
17.8971780779
 31
0.0
  0
LINE
  5
E6
330
1F
100
AcDbEntity
  8
1
 62
     4
420
    65535
100
AcDbLine
 10
135.051619145
 20
14.3460333182
 30
0.0
 11
134.7021595726
 21
12.6934782173
 31
0.0
  0
ELLIPSE
  5
E7
330
1F
100
AcDbEntity
  8
1
 62
     4
420
    65535
100
AcDbEllipse
 10
133.2368320188
 20
14.11707076
 30
0.0
 11
-0.3490462742690852
 21
2.044613637546165
 31
0.0
210
0.0
220
0.0
230
1.0
 40
0.9584855288
 41
3.399943636556847
 42
3.792671185675868
  0
LINE
  5
E8
330
1F
100
AcDbEntity
  8
1
 62
     4
420
    65535
100
AcDbLine
 10
122.4768891422
 20
13.2227059059
 30
0.0
 11
122.1816584119
 21
12.9274751755
 31
0.0
  0
ARC
  5
E9
330
1F
100
AcDbEntity
  8
1
 62
     4
420
    65535
100
AcDbCircle
 10
122.3603720339
 20
13.013252093
 30
0.0
 40
0.1982327880399036
100
AcDbArc
 50
135.1689513054
 51
205.6395411303
  0
ARC
  5
EA
330
1F
100
AcDbEntity
  8
1
 62
     4
420
    65535
100
AcDbCircle
 10
121.2894913798
 20
15.267937404
 30
0.0
 40
0.2004855324434043
100
AcDbArc
 50
205.3037596267
 51
294.8251674809
  0
LINE
  5
EB
330
1F
100
AcDbEntity
  8
1
 62
     4
420
    65535
100
AcDbLine
 10
121.108241531
 20
15.1822464418
 30
0.0
 11
121.4034722613
 21
15.4774771721
 31
0.0
  0
ELLIPSE
  5
EC
330
1F
100
AcDbEntity
  8
1
 62
     4
420
    65535
100
AcDbEllipse
 10
135.5693992993
 20
25.4014769223
 30
0.0
 11
1.643994854230215
 21
0.03296539191449811
 31
0.0
210
0.0
220
0.0
230
1.0
 40
0.0977349752
 41
4.888042067063211
 42
5.512067598870074
  0
LINE
  5
ED
330
1F
100
AcDbEntity
  8
1
 62
     4
420
    65535
100
AcDbLine
 10
136.7506062981
 20
25.313136522
 30
0.0
 11
141.4746993693
 21
25.5281059397
 31
0.0
  0
ELLIPSE
  5
EE
330
1F
100
AcDbEntity
  8
1
 62
     4
420
    65535
100
AcDbEllipse
 10
140.8617573225
 20
25.5374566127
 30
0.0
 11
2.100024246052953
 21
0.251845031519739
 31
0.0
210
0.0
220
0.0
230
1.0
 40
0.0406070191
 41
4.333067226310961
 42
5.0037009654425
  0
LINE
  5
EF
330
1F
100
AcDbEntity
  8
1
 62
     4
420
    65535
100
AcDbLine
 10
128.8497544331
 20
24.9867774765
 30
0.0
 11
130.1840024594
 21
24.5707302025
 31
0.0
  0
LINE
  5
F0
330
1F
100
AcDbEntity
  8
1
 62
     4
420
    65535
100
AcDbLine
 10
128.8497544331
 20
24.9867774765
 30
0.0
 11
135.8598616885
 21
25.2490342475
 31
0.0
  0
ELLIPSE
  5
F1
330
1F
100
AcDbEntity
  8
1
 62
     4
420
    65535
100
AcDbEllipse
 10
129.0271139925
 20
22.9598152833
 30
0.0
 11
1.523105553770847
 21
-1.41956102908609
 31
0.0
210
0.0
220
0.0
230
1.0
 40
0.9512497293
 41
2.383391400168946
 42
2.776118949288189
  0
LINE
  5
F2
330
1F
100
AcDbEntity
  8
1
 62
     4
420
    65535
100
AcDbLine
 10
122.1816584119
 20
12.9274751755
 30
0.0
 11
124.4683260832
 21
8.1242038163
 31
0.0
  0
LINE
  5
F3
330
1F
100
AcDbEntity
  8
1
 62
     4
420
    65535
100
AcDbLine
 10
118.8215738597
 20
19.985517801
 30
0.0
 11
121.108241531
 21
15.1822464418
 31
0.0
  0
LINE
  5
F4
330
1F
100
AcDbEntity
  8
1
 62
     4
420
    65535
100
AcDbLine
 10
126.6022418662
 20
-0.0019940657
 30
0.0
 11
141.3206738223
 21
14.7164378904
 31
0.0
  0
LINE
  5
F5
330
1F
100
AcDbEntity
  8
1
 62
     4
420
    65535
100
AcDbLine
 10
126.6022418662
 20
-0.0019940657
 30
0.0
 11
120.2772123041
 21
-0.0019940657
 31
0.0
  0
LINE
  5
F6
330
1F
100
AcDbEntity
  8
1
 62
     4
420
    65535
100
AcDbLine
 10
118.0173564232
 20
24.9980059343
 30
0.0
 11
120.2772123041
 21
-0.0019940657
 31
0.0
  0
LINE
  5
F7
330
1F
100
AcDbEntity
  8
1
 62
     4
420
    65535
100
AcDbLine
 10
118.0173564232
 20
24.9980059343
 30
0.0
 11
125.0027086782
 21
24.9980059343
 31
0.0
  0
LINE
  5
F8
330
1F
100
AcDbEntity
  8
1
 62
     4
420
    65535
100
AcDbLine
 10
131.0027086782
 20
30.9980059343
 30
0.0
 11
125.0027086782
 21
24.9980059343
 31
0.0
  0
LINE
  5
F9
330
1F
100
AcDbEntity
  8
1
 62
     4
420
    65535
100
AcDbLine
 10
140.0743652823
 20
30.9980059343
 30
0.0
 11
131.0027086782
 21
30.9980059343
 31
0.0
  0
LINE
  5
FA
330
1F
100
AcDbEntity
  8
1
 62
     4
420
    65535
100
AcDbLine
 10
140.0743652823
 20
30.9980059343
 30
0.0
 11
134.325033793
 21
25.1916144402
 31
0.0
  0
ARC
  5
FB
330
1F
100
AcDbEntity
  8
1
 62
     4
420
    65535
100
AcDbCircle
 10
141.4815235863
 20
15.5057461533
 30
0.0
 40
0.8055309929048688
100
AcDbArc
 50
225.2564677012
 51
258.481656136
  0
LINE
  5
FC
330
1F
100
AcDbEntity
  8
1
 62
     4
420
    65535
100
AcDbLine
 10
115.0027086782
 20
-0.0019940657
 30
0.0
 11
120.2772123041
 21
-0.0019940657
 31
0.0
  0
LINE
  5
FD
330
1F
100
AcDbEntity
  8
1
 62
     4
420
    65535
100
AcDbLine
 10
115.0027086782
 20
-0.0019940657
 30
0.0
 11
115.0027086782
 21
24.9980059343
 31
0.0
  0
LINE
  5
FE
330
1F
100
AcDbEntity
  8
1
 62
     4
420
    65535
100
AcDbLine
 10
118.0173564232
 20
24.9980059343
 30
0.0
 11
115.0027086782
 21
24.9980059343
 31
0.0
  0
SPLINE
  5
FF
330
1F
100
AcDbEntity
  8
1
 62
     4
420
    65535
100
AcDbSpline
210
0.0
220
0.0
230
1.0
 70
     8
 71
     3
 72
    22
 73
    18
 74
     0
 42
0.000000001
 43
0.00000001
 40
0.0
 40
0.0
 40
0.0
 40
0.0
 40
0.2499999999999775
 40
0.2499999999999775
 40
0.374999999999963
 40
0.374999999999963
 40
0.4374999999999715
 40
0.4374999999999715
 40
0.49999999999998
 40
0.49999999999998
 40
0.5624999999999886
 40
0.5624999999999886
 40
0.6249999999999971
 40
0.6249999999999971
 40
0.7499999999999967
 40
0.7499999999999967
 40
1.0
 40
1.0
 40
1.0
 40
1.0
 10
142.9701750818443
 20
22.42055892067607
 30
0.0
 10
142.8899141870931
 20
22.36363854182589
 30
0.0
 10
142.8090755014118
 20
22.31238207245277
 30
0.0
 10
142.6890617059207
 20
22.25791139126844
 30
0.0
 10
142.6493610485958
 20
22.24322348919848
 30
0.0
 10
142.5911262386124
 20
22.23621363376208
 30
0.0
 10
142.5716962816801
 20
22.23637707073181
 30
0.0
 10
142.5364659332166
 20
22.24950802131029
 30
0.0
 10
142.5199439909485
 20
22.26349251929743
 30
0.0
 10
142.5072052468873
 20
22.31869366998098
 30
0.0
 10
142.513023499677
 20
22.35711221926571
 30
0.0
 10
142.5341376475044
 20
22.42628522013328
 30
0.0
 10
142.5484088837269
 20
22.45821926909937
 30
0.0
 10
142.5944821103984
 20
22.54909282659222
 30
0.0
 10
142.6290763367235
 20
22.60182307525998
 30
0.0
 10
142.7370753233787
 20
22.75147833023863
 30
0.0
 10
142.8137402260863
 20
22.83660446135737
 30
0.0
 10
142.891836255095
 20
22.91360926488309
 30
0.0
  0
SPLINE
  5
100
330
1F
100
AcDbEntity
  8
1
 62
     4
420
    65535
100
AcDbSpline
210
0.0
220
0.0
230
1.0
 70
     8
 71
     3
 72
    14
 73
    10
 74
     0
 42
0.000000001
 43
0.00000001
 40
0.0
 40
0.0
 40
0.0
 40
0.0
 40
0.25
 40
0.25
 40
0.5
 40
0.5
 40
0.75
 40
0.75
 40
1.0
 40
1.0
 40
1.0
 40
1.0
 10
143.4488407763433
 20
22.31883285486521
 30
0.0
 10
143.4318216289301
 20
22.34655626759744
 30
0.0
 10
143.4102071236554
 20
22.37453944210797
 30
0.0
 10
143.3564527824249
 20
22.42766796131983
 30
0.0
 10
143.3241730804267
 20
22.45315815429984
 30
0.0
 10
143.2470199474249
 20
22.491306325617
 30
0.0
 10
143.2014607135186
 20
22.50431988466283
 30
0.0
 10
143.0941727439689
 20
22.49257846376655
 30
0.0
 10
143.0333228322579
 20
22.46534279566544
 30
0.0
 10
142.9701750818444
 20
22.42055892067607
 30
0.0
  0
SPLINE
  5
101
330
1F
100
AcDbEntity
  8
1
 62
     4
420
    65535
100
AcDbSpline
210
0.0
220
0.0
230
1.0
 70
     8
 71
     3
 72
     8
 73
     4
 74
     0
 42
0.000000001
 43
0.00000001
 40
0.0
 40
0.0
 40
0.0
 40
0.0
 40
1.0
 40
1.0
 40
1.0
 40
1.0
 10
143.4488407763453
 20
22.31883285487003
 30
0.0
 10
143.3808407950877
 20
22.2131288914551
 30
0.0
 10
143.3018649209802
 20
22.11020117419392
 30
0.0
 10
143.2178305289636
 20
22.01900337496323
 30
0.0
  0
SPLINE
  5
102
330
1F
100
AcDbEntity
  8
1
 62
     4
420
    65535
100
AcDbSpline
210
0.0
220
0.0
230
1.0
 70
     8
 71
     3
 72
     8
 73
     4
 74
     0
 42
0.000000001
 43
0.00000001
 40
0.0
 40
0.0
 40
0.0
 40
0.0
 40
0.0000726015470976
 40
0.0000726015470976
 40
0.0000726015470976
 40
0.0000726015470976
 10
143.2178305289636
 20
22.01900337496323
 30
0.0
 10
143.2019644779834
 20
22.00178484220356
 30
0.0
 10
143.1860105031126
 20
21.984474914567
 30
0.0
 10
143.1699765251807
 20
21.96708292302977
 30
0.0
  0
SPLINE
  5
103
330
1F
100
AcDbEntity
  8
1
 62
     4
420
    65535
100
AcDbSpline
210
0.0
220
0.0
230
1.0
 70
     8
 71
     3
 72
    10
 73
     6
 74
     0
 42
0.000000001
 43
0.00000001
 40
0.0
 40
0.0
 40
0.0
 40
0.0
 40
0.5
 40
0.5
 40
1.0
 40
1.0
 40
1.0
 40
1.0
 10
143.0075720386665
 20
23.29216787483427
 30
0.0
 10
142.8623690924233
 20
23.37099596745539
 30
0.0
 10
142.6992899098499
 20
23.44488632381575
 30
0.0
 10
142.3460304769471
 20
23.58028791436637
 30
0.0
 10
142.1552096116309
 20
23.64219171416648
 30
0.0
 10
141.9497608203421
 20
23.69787768932742
 30
0.0
  0
SPLINE
  5
104
330
1F
100
AcDbEntity
  8
1
 62
     4
420
    65535
100
AcDbSpline
210
0.0
220
0.0
230
1.0
 70
     8
 71
     3
 72
    10
 73
     6
 74
     0
 42
0.000000001
 43
0.00000001
 40
0.0
 40
0.0
 40
0.0
 40
0.0
 40
0.5
 40
0.5
 40
1.0
 40
1.0
 40
1.0
 40
1.0
 10
143.0075720386774
 20
23.29216787483492
 30
0.0
 10
143.0092368700911
 20
23.22020986907061
 30
0.0
 10
143.003838375213
 20
23.14693203989354
 30
0.0
 10
142.966231010583
 20
23.01116162748707
 30
0.0
 10
142.9318076115923
 20
22.95302210690324
 30
0.0
 10
142.891836255095
 20
22.91360926488309
 30
0.0
  0
SPLINE
  5
105
330
1F
100
AcDbEntity
  8
1
 62
     4
420
    65535
100
AcDbSpline
210
0.0
220
0.0
230
1.0
 70
     8
 71
     3
 72
    10
 73
     6
 74
     0
 42
0.000000001
 43
0.00000001
 40
0.0
 40
0.0
 40
0.0
 40
0.0
 40
0.5
 40
0.5
 40
1.0
 40
1.0
 40
1.0
 40
1.0
 10
142.3422622972011
 20
24.6896876222115
 30
0.0
 10
142.3040718244864
 20
24.5437301215236
 30
0.0
 10
142.2512381055516
 20
24.38604381082167
 30
0.0
 10
142.1200939684852
 20
24.05487999163925
 30
0.0
 10
142.0416446595339
 20
23.88074114951974
 30
0.0
 10
141.9497608203421
 20
23.69787768932742
 30
0.0
  0
SPLINE
  5
106
330
1F
100
AcDbEntity
  8
1
 62
     4
420
    65535
100
AcDbSpline
210
0.0
220
0.0
230
1.0
 70
     8
 71
     3
 72
     8
 73
     4
 74
     0
 42
0.000000001
 43
0.00000001
 40
0.0
 40
0.0
 40
0.0
 40
0.0
 40
0.00007260154708
 40
0.00007260154708
 40
0.00007260154708
 40
0.00007260154708
 10
141.4746993693104
 20
25.52810593969043
 30
0.0
 10
141.4984975136947
 20
25.52918887204679
 30
0.0
 10
141.5222038725874
 20
25.53021449014855
 30
0.0
 10
141.5458024629309
 20
25.53119039816976
 30
0.0
  0
SPLINE
  5
107
330
1F
100
AcDbEntity
  8
1
 62
     4
420
    65535
100
AcDbSpline
210
0.0
220
0.0
230
1.0
 70
     8
 71
     3
 72
     8
 73
     4
 74
     0
 42
0.000000001
 43
0.00000001
 40
0.0
 40
0.0
 40
0.0
 40
0.0
 40
1.0
 40
1.0
 40
1.0
 40
1.0
 10
141.5458024629307
 20
25.53119039816961
 30
0.0
 10
141.6716390092248
 20
25.53639430624642
 30
0.0
 10
141.7996729873434
 20
25.53349719419929
 30
0.0
 10
141.9243541469562
 20
25.52110096603223
 30
0.0
  0
SPLINE
  5
108
330
1F
100
AcDbEntity
  8
1
 62
     4
420
    65535
100
AcDbSpline
210
0.0
220
0.0
230
1.0
 70
     8
 71
     3
 72
    14
 73
    10
 74
     0
 42
0.000000001
 43
0.00000001
 40
0.0
 40
0.0
 40
0.0
 40
0.0
 40
0.25
 40
0.25
 40
0.5
 40
0.5
 40
0.75
 40
0.75
 40
1.0
 40
1.0
 40
1.0
 40
1.0
 10
141.9243541469509
 20
25.52110096603393
 30
0.0
 10
141.9308231026386
 20
25.49948632482812
 30
0.0
 10
141.9346299666813
 20
25.47407051325694
 30
0.0
 10
141.933452240894
 20
25.41675895659426
 30
0.0
 10
141.928626820855
 20
25.38457991854643
 30
0.0
 10
141.9012427118798
 20
25.31818551436153
 30
0.0
 10
141.8784634082042
 20
25.28334857558061
 30
0.0
 10
141.7937933670964
 20
25.22409695053646
 30
0.0
 10
141.7306437632186
 20
25.20169191246434
 30
0.0
 10
141.652821306487
 20
25.18773306615996
 30
0.0
  0
SPLINE
  5
109
330
1F
100
AcDbEntity
  8
1
 62
     4
420
    65535
100
AcDbSpline
210
0.0
220
0.0
230
1.0
 70
     8
 71
     3
 72
    22
 73
    18
 74
     0
 42
0.000000001
 43
0.00000001
 40
0.0
 40
0.0
 40
0.0
 40
0.0
 40
0.2500000000000334
 40
0.2500000000000334
 40
0.3750000000000476
 40
0.3750000000000476
 40
0.4375000000000435
 40
0.4375000000000435
 40
0.5000000000000392
 40
0.5000000000000392
 40
0.562500000000035
 40
0.562500000000035
 40
0.6250000000000308
 40
0.6250000000000308
 40
0.7500000000000207
 40
0.7500000000000207
 40
1.0
 40
1.0
 40
1.0
 40
1.0
 10
141.652821306487
 20
25.18773306615996
 30
0.0
 10
141.5539088358481
 20
25.16999134952413
 30
0.0
 10
141.4588834837684
 20
25.14853475412206
 30
0.0
 10
141.3341832661865
 20
25.10390816061118
 30
0.0
 10
141.2954547082822
 20
25.0871783101837
 30
0.0
 10
141.2496522303873
 20
25.05405365661256
 30
0.0
 10
141.2362650973399
 20
25.04152380926381
 30
0.0
 10
141.2217103571238
 20
25.01122450620481
 30
0.0
 10
141.2208111026704
 20
24.99239268816608
 30
0.0
 10
141.2537531169932
 20
24.95163889042961
 30
0.0
 10
141.2868906760019
 20
24.93267173264939
 30
0.0
 10
141.3539527052084
 20
24.90532867855229
 30
0.0
 10
141.388057893437
 20
24.89560041916407
 30
0.0
 10
141.4889079239619
 20
24.87141228387011
 30
0.0
 10
141.5528925362406
 20
24.8624064084513
 30
0.0
 10
141.7413148946329
 20
24.8431279425497
 30
0.0
 10
141.8590851404131
 20
24.8419100370763
 30
0.0
 10
141.971700810666
 20
24.84640443333283
 30
0.0
  0
SPLINE
  5
10A
330
1F
100
AcDbEntity
  8
1
 62
     4
420
    65535
100
AcDbSpline
210
0.0
220
0.0
230
1.0
 70
     8
 71
     3
 72
    10
 73
     6
 74
     0
 42
0.000000001
 43
0.00000001
 40
0.0
 40
0.0
 40
0.0
 40
0.0
 40
0.5
 40
0.5
 40
1.0
 40
1.0
 40
1.0
 40
1.0
 10
141.971700810666
 20
24.84640443333282
 30
0.0
 10
142.0292522633068
 20
24.84870126318541
 30
0.0
 10
142.0962546170099
 20
24.83641236698705
 30
0.0
 10
142.2277579289365
 20
24.77741768267502
 30
0.0
 10
142.2879821668369
 20
24.73550475938795
 30
0.0
 10
142.3422622972011
 20
24.68968762221161
 30
0.0
  0
SPLINE
  5
10B
330
1F
100
AcDbEntity
  8
1
 62
     4
420
    65535
100
AcDbSpline
210
0.0
220
0.0
230
1.0
 70
     8
 71
     3
 72
    12
 73
     8
 74
     0
 42
0.000000001
 43
0.00000001
 40
0.0
 40
0.0
 40
0.0
 40
0.0
 40
0.2500000000000056
 40
0.2500000000000056
 40
0.5000000000000111
 40
0.5000000000000111
 40
1.0
 40
1.0
 40
1.0
 40
1.0
 10
142.3422622971981
 20
24.68968762220059
 30
0.0
 10
142.4438186070292
 20
24.6039652897862
 30
0.0
 10
142.5354595444968
 20
24.50917650450268
 30
0.0
 10
142.6977558773551
 20
24.30079563762756
 30
0.0
 10
142.7690203409304
 20
24.18566751184411
 30
0.0
 10
142.9403612599543
 20
23.82606156034479
 30
0.0
 10
143.0013635917077
 20
23.56051184001094
 30
0.0
 10
143.0075720386774
 20
23.29216787483644
 30
0.0
  0
LINE
  5
10C
330
1F
100
AcDbEntity
  8
1
 62
     4
420
    65535
100
AcDbLine
 10
142.8918362551
 20
22.9136092649
 30
0.0
 11
143.1002993023
 21
22.7879613483
 31
0.0
  0
LINE
  5
10D
330
1F
100
AcDbEntity
  8
1
 62
     4
420
    65535
100
AcDbLine
 10
142.9701750818
 20
22.4205589207
 30
0.0
 11
143.1002993023
 21
22.7879613483
 31
0.0
  0
LINE
  5
10E
330
1F
100
AcDbEntity
  8
1
 62
     4
420
    65535
100
AcDbLine
 10
141.6528213065
 20
25.1877330662
 30
0.0
 11
142.021513886
 21
25.0540095185
 31
0.0
  0
LINE
  5
10F
330
1F
100
AcDbEntity
  8
1
 62
     4
420
    65535
100
AcDbLine
 10
141.9717008107
 20
24.8464044333
 30
0.0
 11
142.021513886
 21
25.0540095185
 31
0.0
  0
ARC
  5
110
330
1F
100
AcDbEntity
  8
1
 62
     4
420
    65535
100
AcDbCircle
 10
141.4163402717
 20
23.3760978742
 30
0.0
 40
1.783710343584389
100
AcDbArc
 50
340.7478254514
 51
70.16711012869999
  0
ARC
  5
111
330
1F
100
AcDbEntity
  8
1
 62
     4
420
    65535
100
AcDbCircle
 10
142.2620844859
 20
21.2387209563
 30
0.0
 40
1.761462423771044
100
AcDbArc
 50
44.08586111249999
 51
61.58444439579999
  0
SPLINE
  5
112
330
1F
100
AcDbEntity
  8
1
 62
     4
420
    65535
100
AcDbSpline
210
0.0
220
0.0
230
1.0
 70
     8
 71
     3
 72
     8
 73
     4
 74
     0
 42
0.000000001
 43
0.00000001
 40
0.0
 40
0.0
 40
0.0
 40
0.0
 40
1.0
 40
1.0
 40
1.0
 40
1.0
 10
143.4488407763452
 20
22.31883285487047
 30
0.0
 10
143.4750426020004
 20
22.36266481273567
 30
0.0
 10
143.5009286981307
 20
22.41003660611356
 30
0.0
 10
143.5273394332437
 20
22.46423300791996
 30
0.0
  0
SPLINE
  5
113
330
1F
100
AcDbEntity
  8
1
 62
     4
420
    65535
100
AcDbSpline
210
0.0
220
0.0
230
1.0
 70
     8
 71
     3
 72
    10
 73
     6
 74
     0
 42
0.000000001
 43
0.00000001
 40
0.0
 40
0.0
 40
0.0
 40
0.0
 40
0.1481806815079418
 40
0.8667692771938369
 40
1.0
 40
1.0
 40
1.0
 40
1.0
 10
143.6824319604238
 20
23.49415734116054
 30
0.0
 10
143.6922094453788
 20
23.44236221034497
 30
0.0
 10
143.749401944975
 20
23.13939135312987
 30
0.0
 10
143.6700146509963
 20
22.77899525485176
 30
0.0
 10
143.546636648198
 20
22.50680546608231
 30
0.0
 10
143.5273394332437
 20
22.46423300792017
 30
0.0
  0
ARC
  5
114
330
1F
100
AcDbEntity
  8
1
 62
     4
420
    65535
100
AcDbCircle
 10
140.210878171
 20
25.5728776311
 30
0.0
 40
1.883514218371247
100
AcDbArc
 50
344.0094543866999
 51
357.1468031453001
  0
SPLINE
  5
115
330
1F
100
AcDbEntity
  8
1
 62
     4
420
    65535
100
AcDbSpline
210
0.0
220
0.0
230
1.0
 70
     8
 71
     3
 72
     9
 73
     5
 74
     0
 42
0.000000001
 43
0.00000001
 40
0.0
 40
0.0
 40
0.0
 40
0.0
 40
0.7184855985789941
 40
1.0
 40
1.0
 40
1.0
 40
1.0
 10
142.0920574943148
 20
25.47912175468278
 30
0.0
 10
142.299773688867
 20
25.41115374322449
 30
0.0
 10
142.5888764836384
 20
25.31655475391598
 30
0.0
 10
142.7939959375177
 20
25.09026753794769
 30
0.0
 10
142.8517400177963
 20
25.02656442779515
 30
0.0
  0
SPLINE
  5
116
330
1F
100
AcDbEntity
  8
1
 62
     4
420
    65535
100
AcDbSpline
210
0.0
220
0.0
230
1.0
 70
     8
 71
     3
 72
     8
 73
     4
 74
     0
 42
0.000000001
 43
0.00000001
 40
0.0
 40
0.0
 40
0.0
 40
0.0
 40
1.0
 40
1.0
 40
1.0
 40
1.0
 10
141.9243541469563
 20
25.52110096603203
 30
0.0
 10
141.9768349904347
 20
25.50973239989597
 30
0.0
 10
142.0317520844048
 20
25.49612298370937
 30
0.0
 10
142.0920574943147
 20
25.47912175468288
 30
0.0
  0
LINE
  5
117
330
1F
100
AcDbEntity
  8
1
 62
     4
420
    65535
100
AcDbLine
 10
1.0027086782
 20
24.9980059343
 30
0.0
 11
1.0027086782
 21
-0.0019940657
 31
0.0
  0
LINE
  5
118
330
1F
100
AcDbEntity
  8
1
 62
     4
420
    65535
100
AcDbLine
 10
115.0027086782
 20
24.9980059343
 30
0.0
 11
1.0027086782
 21
24.9980059343
 31
0.0
  0
LINE
  5
119
330
1F
100
AcDbEntity
  8
1
 62
     4
420
    65535
100
AcDbLine
 10
115.0027086782
 20
-0.0019940657
 30
0.0
 11
1.0027086782
 21
-0.0019940657
 31
0.0
  0
LINE
  5
11A
330
1F
100
AcDbEntity
  8
1
 62
     4
420
    65535
100
AcDbLine
 10
0.0027086782
 20
0.9980059343
 30
0.0
 11
0.0027086782
 21
23.9980059343
 31
0.0
  0
LINE
  5
11B
330
1F
100
AcDbEntity
  8
1
 62
     4
420
    65535
100
AcDbLine
 10
0.0027086782
 20
23.9980059343
 30
0.0
 11
1.0027086782
 21
24.9980059343
 31
0.0
  0
LINE
  5
11C
330
1F
100
AcDbEntity
  8
1
 62
     4
420
    65535
100
AcDbLine
 10
0.0027086782
 20
0.9980059343
 30
0.0
 11
1.0027086782
 21
-0.0019940657
 31
0.0
  0
DIMENSION
  5
11D
330
1F
100
AcDbEntity
  8
2
  6
SLD-Durchgehend
 62
     7
370
    15
100
AcDbDimension
  2
_D
 10
0.0027086781999941
 20
43.9142343518
 30
0.0
 11
75.0027086782
 21
43.9142343518
 31
0.0
 70
   160
  1
<>
 71
     2
 42
150.0
  3
SLDDIMSTYLE0
100
AcDbAlignedDimension
 13
150.0027086782
 23
31.9980059343
 33
0.0
 14
0.0027086782
 24
-0.0019940657
 34
0.0
100
AcDbRotatedDimension
  0
DIMENSION
  5
129
330
1F
100
AcDbEntity
  8
2
  6
SLD-Durchgehend
 62
     7
370
    15
100
AcDbDimension
  2
_D_1
 10
-5.997291321800001
 20
-0.0019940656999999
 30
0.0
 11
-5.9972913218
 21
12.4980059343
 31
0.0
 70
   160
  1
<>
 71
     2
 42
25.0
  3
SLDDIMSTYLE0
100
AcDbAlignedDimension
 13
1.0027086782
 23
24.9980059343
 33
0.0
 14
1.0027086782
 24
-0.0019940657
 34
0.0
 50
90.0
100
AcDbRotatedDimension
  0
DIMENSION
  5
133
330
1F
100
AcDbEntity
  8
2
  6
SLD-Durchgehend
 62
     7
370
    15
100
AcDbDimension
  2
_D_2
 10
156.0020352505
 20
-0.0019940656999999
 30
0.0
 11
156.0020352505
 21
15.9980059343
 31
0.0
 70
   160
  1
<>
 71
     2
 42
32.0
  3
SLDDIMSTYLE0
100
AcDbAlignedDimension
 13
150.0027086782
 23
31.9980059343
 33
0.0
 14
150.0027086782
 24
-0.0019940657
 34
0.0
 50
90.0
100
AcDbRotatedDimension
  0
DIMENSION
  5
13D
330
1F
100
AcDbEntity
  8
2
  6
SLD-Durchgehend
 62
     7
370
    15
100
AcDbDimension
  2
_D_3
 10
150.0027086782
 20
37.9142343518
 30
0.0
 11
132.5027086782
 21
37.9142343518
 31
0.0
 70
   160
  1
<>
 71
     2
 42
35.00000000000001
  3
SLDDIMSTYLE0
100
AcDbAlignedDimension
 13
115.0027086782
 23
-0.0019940657
 33
0.0
 14
150.0027086782
 24
31.9980059343
 34
0.0
100
AcDbRotatedDimension
  0
ENDSEC
  0
SECTION
  2
OBJECTS
  0
DICTIONARY
  5
C
330
0
100
AcDbDictionary
281
     1
  3
ACAD_DETAILVIEWSTYLE
350
163
  3
ACAD_GROUP
350
D
  3
ACAD_IMAGE_VARS
350
181
  3
ACAD_LAYOUT
350
1A
  3
ACAD_MATERIAL
350
43
  3
ACAD_MLEADERSTYLE
350
162
  3
ACAD_MLINESTYLE
350
17
  3
ACAD_PLOTSETTINGS
350
19
  3
ACAD_PLOTSTYLENAME
350
E
  3
ACAD_SCALELIST
350
47
  3
ACAD_SECTIONVIEWSTYLE
350
164
  3
ACAD_TABLESTYLE
350
161
  3
ACDB_RECOMPOSE_DATA
350
192
  3
AcDbVariableDictionary
350
15F
  3
APPDATA
350
17F
  0
DICTIONARY
  5
163
102
{ACAD_REACTORS
330
C
102
}
330
C
100
AcDbDictionary
281
     1
  0
DICTIONARY
  5
D
102
{ACAD_REACTORS
330
C
102
}
330
C
100
AcDbDictionary
281
     1
  0
RASTERVARIABLES
  5
181
102
{ACAD_REACTORS
330
C
102
}
330
C
100
AcDbRasterVariables
 90
        0
 70
     1
 71
     1
 72
     1
  0
DICTIONARY
  5
1A
102
{ACAD_REACTORS
330
C
102
}
330
C
100
AcDbDictionary
281
     1
  3
Layout1
350
1E
  3
Layout2
350
26
  3
Model
350
22
  0
DICTIONARY
  5
43
102
{ACAD_REACTORS
330
C
102
}
330
C
100
AcDbDictionary
281
     1
  3
ByBlock
350
45
  3
ByLayer
350
44
  3
Global
350
46
  0
DICTIONARY
  5
162
102
{ACAD_REACTORS
330
C
102
}
330
C
100
AcDbDictionary
281
     1
  0
DICTIONARY
  5
17
102
{ACAD_REACTORS
330
C
102
}
330
C
100
AcDbDictionary
281
     1
  3
Standard
350
18
  0
DICTIONARY
  5
19
102
{ACAD_REACTORS
330
C
102
}
330
C
100
AcDbDictionary
281
     1
  0
ACDBDICTIONARYWDFLT
  5
E
102
{ACAD_REACTORS
330
C
102
}
330
C
100
AcDbDictionary
281
     1
  3
Normal
350
F
100
AcDbDictionaryWithDefault
340
F
  0
DICTIONARY
  5
47
102
{ACAD_REACTORS
330
C
102
}
330
C
100
AcDbDictionary
281
     1
  3
A0
350
48
  3
A1
350
49
  3
A2
350
4A
  3
A3
350
4B
  3
A4
350
4C
  3
A5
350
4D
  3
A6
350
4E
  3
A7
350
4F
  3
A8
350
50
  3
A9
350
51
  3
B0
350
52
  3
B1
350
53
  3
B2
350
54
  3
B3
350
55
  3
B4
350
56
  3
B5
350
57
  3
B6
350
58
  3
B7
350
59
  3
B8
350
5A
  3
B9
350
5B
  3
C0
350
5C
  3
C1
350
5D
  3
C2
350
5E
  3
C3
350
5F
  3
C4
350
60
  3
C5
350
61
  3
C6
350
62
  3
C7
350
63
  3
C8
350
64
  3
C9
350
65
  3
D0
350
66
  3
D1
350
67
  3
D2
350
68
  0
DICTIONARY
  5
164
102
{ACAD_REACTORS
330
C
102
}
330
C
100
AcDbDictionary
281
     1
  0
DICTIONARY
  5
161
102
{ACAD_REACTORS
330
C
102
}
330
C
100
AcDbDictionary
281
     1
  3
Standard
350
17E
  0
XRECORD
  5
192
102
{ACAD_REACTORS
330
C
102
}
330
C
100
AcDbXrecord
280
     1
 90
        1
330
17E
  0
DICTIONARY
  5
15F
102
{ACAD_REACTORS
330
C
102
}
330
C
100
AcDbDictionary
281
     1
  3
CANNOSCALE
350
160
  3
CTABLESTYLE
350
193
  3
MSLTSCALE
350
194
  3
XCLIPFRAME
350
195
  0
DICTIONARY
  5
17F
102
{ACAD_REACTORS
330
C
102
}
330
C
100
AcDbDictionary
281
     1
  0
LAYOUT
  5
1E
102
{ACAD_REACTORS
330
1A
102
}
330
1A
100
AcDbPlotSettings
  1

  2
none_device
  4

  6

 40
0.0
 41
0.0
 42
0.0
 43
0.0
 44
0.0
 45
0.0
 46
0.0
 47
0.0
 48
0.0
 49
0.0
140
0.0
141
0.0
142
1.0
143
1.0
 70
   688
 72
     1
 73
     0
 74
     5
  7

 75
    16
 76
     0
 77
     2
 78
   300
147
1.0
148
0.0
149
0.0
100
AcDbLayout
  1
Layout1
 70
     1
 71
     1
 10
0.0
 20
0.0
 11
420.0
 21
297.0
 12
0.0
 22
0.0
 32
0.0
 14
1.000000000000000E+20
 24
1.000000000000000E+20
 34
1.000000000000000E+20
 15
-1.000000000000000E+20
 25
-1.000000000000000E+20
 35
-1.000000000000000E+20
146
0.0
 13
0.0
 23
0.0
 33
0.0
 16
1.0
 26
0.0
 36
0.0
 17
0.0
 27
1.0
 37
0.0
 76
     0
330
1B
  0
LAYOUT
  5
26
102
{ACAD_REACTORS
330
1A
102
}
330
1A
100
AcDbPlotSettings
  1

  2
none_device
  4

  6

 40
0.0
 41
0.0
 42
0.0
 43
0.0
 44
0.0
 45
0.0
 46
0.0
 47
0.0
 48
0.0
 49
0.0
140
0.0
141
0.0
142
1.0
143
1.0
 70
   688
 72
     1
 73
     0
 74
     5
  7

 75
    16
 76
     0
 77
     2
 78
   300
147
1.0
148
0.0
149
0.0
100
AcDbLayout
  1
Layout2
 70
     1
 71
     2
 10
0.0
 20
0.0
 11
0.0
 21
0.0
 12
0.0
 22
0.0
 32
0.0
 14
0.0
 24
0.0
 34
0.0
 15
0.0
 25
0.0
 35
0.0
146
0.0
 13
0.0
 23
0.0
 33
0.0
 16
1.0
 26
0.0
 36
0.0
 17
0.0
 27
1.0
 37
0.0
 76
     0
330
23
  0
LAYOUT
  5
22
102
{ACAD_REACTORS
330
1A
102
}
330
1A
100
AcDbPlotSettings
  1

  2
none_device
  4
Letter_(8.50_x_11.00_Inches)
  6

 40
6.35
 41
6.35
 42
6.35000508
 43
6.35000508
 44
215.9
 45
279.4
 46
0.0
 47
0.0
 48
0.0
 49
0.0
140
0.0
141
0.0
142
1.0
143
1.0
 70
  1712
 72
     1
 73
     0
 74
     0
  7

 75
     0
 76
     0
 77
     2
 78
   300
147
1.0
148
0.0
149
0.0
100
AcDbLayout
  1
Model
 70
     1
 71
     0
 10
0.0
 20
0.0
 11
297.0
 21
210.0
 12
0.0
 22
0.0
 32
0.0
 14
0.0
 24
0.0
 34
0.0
 15
297.0
 25
210.0
 35
0.0
146
0.0
 13
0.0
 23
0.0
 33
0.0
 16
1.0
 26
0.0
 36
0.0
 17
0.0
 27
1.0
 37
0.0
 76
     0
330
1F
331
29
  0
MATERIAL
  5
45
102
{ACAD_REACTORS
330
43
102
}
330
43
100
AcDbMaterial
  1
ByBlock
  0
MATERIAL
  5
44
102
{ACAD_REACTORS
330
43
102
}
330
43
100
AcDbMaterial
  1
ByLayer
  0
MATERIAL
  5
46
102
{ACAD_REACTORS
330
43
102
}
330
43
100
AcDbMaterial
  1
Global
  0
MLINESTYLE
  5
18
102
{ACAD_REACTORS
330
17
102
}
330
17
100
AcDbMlineStyle
  2
Standard
 70
     0
  3

 62
   256
 51
90.0
 52
90.0
 71
     2
 49
0.5
 62
   256
  6
BYLAYER
 49
-0.5
 62
   256
  6
BYLAYER
  0
ACDBPLACEHOLDER
  5
F
102
{ACAD_REACTORS
330
E
102
}
330
E
  0
SCALE
  5
48
102
{ACAD_REACTORS
330
47
102
}
330
47
100
AcDbScale
 70
     0
300
1:1
140
1.0
141
1.0
290
     1
  0
SCALE
  5
49
102
{ACAD_REACTORS
330
47
102
}
330
47
100
AcDbScale
 70
     0
300
1:2
140
1.0
141
2.0
290
     0
  0
SCALE
  5
4A
102
{ACAD_REACTORS
330
47
102
}
330
47
100
AcDbScale
 70
     0
300
1:4
140
1.0
141
4.0
290
     0
  0
SCALE
  5
4B
102
{ACAD_REACTORS
330
47
102
}
330
47
100
AcDbScale
 70
     0
300
1:5
140
1.0
141
5.0
290
     0
  0
SCALE
  5
4C
102
{ACAD_REACTORS
330
47
102
}
330
47
100
AcDbScale
 70
     0
300
1:8
140
1.0
141
8.0
290
     0
  0
SCALE
  5
4D
102
{ACAD_REACTORS
330
47
102
}
330
47
100
AcDbScale
 70
     0
300
1:10
140
1.0
141
10.0
290
     0
  0
SCALE
  5
4E
102
{ACAD_REACTORS
330
47
102
}
330
47
100
AcDbScale
 70
     0
300
1:16
140
1.0
141
16.0
290
     0
  0
SCALE
  5
4F
102
{ACAD_REACTORS
330
47
102
}
330
47
100
AcDbScale
 70
     0
300
1:20
140
1.0
141
20.0
290
     0
  0
SCALE
  5
50
102
{ACAD_REACTORS
330
47
102
}
330
47
100
AcDbScale
 70
     0
300
1:30
140
1.0
141
30.0
290
     0
  0
SCALE
  5
51
102
{ACAD_REACTORS
330
47
102
}
330
47
100
AcDbScale
 70
     0
300
1:40
140
1.0
141
40.0
290
     0
  0
SCALE
  5
52
102
{ACAD_REACTORS
330
47
102
}
330
47
100
AcDbScale
 70
     0
300
1:50
140
1.0
141
50.0
290
     0
  0
SCALE
  5
53
102
{ACAD_REACTORS
330
47
102
}
330
47
100
AcDbScale
 70
     0
300
1:100
140
1.0
141
100.0
290
     0
  0
SCALE
  5
54
102
{ACAD_REACTORS
330
47
102
}
330
47
100
AcDbScale
 70
     0
300
2:1
140
2.0
141
1.0
290
     0
  0
SCALE
  5
55
102
{ACAD_REACTORS
330
47
102
}
330
47
100
AcDbScale
 70
     0
300
4:1
140
4.0
141
1.0
290
     0
  0
SCALE
  5
56
102
{ACAD_REACTORS
330
47
102
}
330
47
100
AcDbScale
 70
     0
300
8:1
140
8.0
141
1.0
290
     0
  0
SCALE
  5
57
102
{ACAD_REACTORS
330
47
102
}
330
47
100
AcDbScale
 70
     0
300
10:1
140
10.0
141
1.0
290
     0
  0
SCALE
  5
58
102
{ACAD_REACTORS
330
47
102
}
330
47
100
AcDbScale
 70
     0
300
100:1
140
100.0
141
1.0
290
     0
  0
SCALE
  5
59
102
{ACAD_REACTORS
330
47
102
}
330
47
100
AcDbScale
 70
     0
300
1/128" = 1'-0"
140
0.0078125
141
12.0
290
     0
  0
SCALE
  5
5A
102
{ACAD_REACTORS
330
47
102
}
330
47
100
AcDbScale
 70
     0
300
1/64" = 1'-0"
140
0.015625
141
12.0
290
     0
  0
SCALE
  5
5B
102
{ACAD_REACTORS
330
47
102
}
330
47
100
AcDbScale
 70
     0
300
1/32" = 1'-0"
140
0.03125
141
12.0
290
     0
  0
SCALE
  5
5C
102
{ACAD_REACTORS
330
47
102
}
330
47
100
AcDbScale
 70
     0
300
1/16" = 1'-0"
140
0.0625
141
12.0
290
     0
  0
SCALE
  5
5D
102
{ACAD_REACTORS
330
47
102
}
330
47
100
AcDbScale
 70
     0
300
3/32" = 1'-0"
140
0.09375
141
12.0
290
     0
  0
SCALE
  5
5E
102
{ACAD_REACTORS
330
47
102
}
330
47
100
AcDbScale
 70
     0
300
1/8" = 1'-0"
140
0.125
141
12.0
290
     0
  0
SCALE
  5
5F
102
{ACAD_REACTORS
330
47
102
}
330
47
100
AcDbScale
 70
     0
300
3/16" = 1'-0"
140
0.1875
141
12.0
290
     0
  0
SCALE
  5
60
102
{ACAD_REACTORS
330
47
102
}
330
47
100
AcDbScale
 70
     0
300
1/4" = 1'-0"
140
0.25
141
12.0
290
     0
  0
SCALE
  5
61
102
{ACAD_REACTORS
330
47
102
}
330
47
100
AcDbScale
 70
     0
300
3/8" = 1'-0"
140
0.375
141
12.0
290
     0
  0
SCALE
  5
62
102
{ACAD_REACTORS
330
47
102
}
330
47
100
AcDbScale
 70
     0
300
1/2" = 1'-0"
140
0.5
141
12.0
290
     0
  0
SCALE
  5
63
102
{ACAD_REACTORS
330
47
102
}
330
47
100
AcDbScale
 70
     0
300
3/4" = 1'-0"
140
0.75
141
12.0
290
     0
  0
SCALE
  5
64
102
{ACAD_REACTORS
330
47
102
}
330
47
100
AcDbScale
 70
     0
300
1" = 1'-0"
140
1.0
141
12.0
290
     0
  0
SCALE
  5
65
102
{ACAD_REACTORS
330
47
102
}
330
47
100
AcDbScale
 70
     0
300
1-1/2" = 1'-0"
140
1.5
141
12.0
290
     0
  0
SCALE
  5
66
102
{ACAD_REACTORS
330
47
102
}
330
47
100
AcDbScale
 70
     0
300
3" = 1'-0"
140
3.0
141
12.0
290
     0
  0
SCALE
  5
67
102
{ACAD_REACTORS
330
47
102
}
330
47
100
AcDbScale
 70
     0
300
6" = 1'-0"
140
6.0
141
12.0
290
     0
  0
SCALE
  5
68
102
{ACAD_REACTORS
330
47
102
}
330
47
100
AcDbScale
 70
     0
300
1'-0" = 1'-0"
140
12.0
141
12.0
290
     0
  0
TABLESTYLE
  5
17E
102
{ACAD_REACTORS
330
161
102
}
102
{ACAD_XDICTIONARY
360
18F
102
}
330
161
100
AcDbTableStyle
  3
Standard
 70
     0
 71
     0
 40
0.06
 41
0.06
280
     0
281
     0
  7
Standard
140
4.5
170
     2
 62
     0
 63
   257
283
     0
274
    -2
284
     1
 64
     0
275
    -2
285
     1
 65
     0
276
    -2
286
     1
 66
     0
277
    -2
287
     1
 67
     0
278
    -2
288
     1
 68
     0
279
    -2
289
     1
 69
     0
  7
Standard
140
6.0
170
     5
 62
     0
 63
   257
283
     0
274
    -2
284
     1
 64
     0
275
    -2
285
     1
 65
     0
276
    -2
286
     1
 66
     0
277
    -2
287
     1
 67
     0
278
    -2
288
     1
 68
     0
279
    -2
289
     1
 69
     0
  7
Standard
140
4.5
170
     5
 62
     0
 63
   257
283
     0
274
    -2
284
     1
 64
     0
275
    -2
285
     1
 65
     0
276
    -2
286
     1
 66
     0
277
    -2
287
     1
 67
     0
278
    -2
288
     1
 68
     0
279
    -2
289
     1
 69
     0
  0
DICTIONARYVAR
  5
160
102
{ACAD_REACTORS
330
15F
102
}
330
15F
100
DictionaryVariables
280
     0
  1
1:1
  0
DICTIONARYVAR
  5
193
102
{ACAD_REACTORS
330
15F
102
}
330
15F
100
DictionaryVariables
280
     0
  1
Standard
  0
DICTIONARYVAR
  5
194
102
{ACAD_REACTORS
330
15F
102
}
330
15F
100
DictionaryVariables
280
     0
  1
0
  0
DICTIONARYVAR
  5
195
102
{ACAD_REACTORS
330
15F
102
}
330
15F
100
DictionaryVariables
280
     0
  1
0
  0
DICTIONARY
  5
18F
330
17E
100
AcDbDictionary
280
     1
281
     1
  3
ACAD_ROUNDTRIP_2008_TABLESTYLE_CELLSTYLEMAP
360
191
  3
ACAD_XREC_ROUNDTRIP
360
190
  0
CELLSTYLEMAP
  5
191
102
{ACAD_REACTORS
330
18F
102
}
330
18F
100
AcDbCellStyleMap
 90
        3
300
CELLSTYLE
  1
TABLEFORMAT_BEGIN
 90
        5
170
     1
 91
        0
 92
        0
 62
   257
 93
        1
300
CONTENTFORMAT
  1
CONTENTFORMAT_BEGIN
 90
        0
 91
        0
 92
        4
 93
        0
300

 40
0.0
140
1.0
 94
        5
 62
     0
340
11
144
6.0
309
CONTENTFORMAT_END
171
     1
301
MARGIN
  1
CELLMARGIN_BEGIN
 40
1.5
 40
1.5
 40
1.5
 40
1.5
 40
1.5
 40
1.5
309
CELLMARGIN_END
 94
        6
 95
        1
302
GRIDFORMAT
  1
GRIDFORMAT_BEGIN
 90
        0
 91
        1
 62
     0
 92
       -2
340
14
 93
        0
 40
0.045
309
GRIDFORMAT_END
 95
        2
302
GRIDFORMAT
  1
GRIDFORMAT_BEGIN
 90
        0
 91
        1
 62
     0
 92
       -2
340
14
 93
        0
 40
0.045
309
GRIDFORMAT_END
 95
        4
302
GRIDFORMAT
  1
GRIDFORMAT_BEGIN
 90
        0
 91
        1
 62
     0
 92
       -2
340
14
 93
        0
 40
0.045
309
GRIDFORMAT_END
 95
        8
302
GRIDFORMAT
  1
GRIDFORMAT_BEGIN
 90
        0
 91
        1
 62
     0
 92
       -2
340
14
 93
        0
 40
0.045
309
GRIDFORMAT_END
 95
       16
302
GRIDFORMAT
  1
GRIDFORMAT_BEGIN
 90
        0
 91
        1
 62
     0
 92
       -2
340
14
 93
        0
 40
0.045
309
GRIDFORMAT_END
 95
       32
302
GRIDFORMAT
  1
GRIDFORMAT_BEGIN
 90
        0
 91
        1
 62
     0
 92
       -2
340
14
 93
        0
 40
0.045
309
GRIDFORMAT_END
309
TABLEFORMAT_END
  1
CELLSTYLE_BEGIN
 90
        1
 91
        1
300
_TITLE
309
CELLSTYLE_END
300
CELLSTYLE
  1
TABLEFORMAT_BEGIN
 90
        5
170
     1
 91
        0
 92
        0
 62
   257
 93
        1
300
CONTENTFORMAT
  1
CONTENTFORMAT_BEGIN
 90
        0
 91
        0
 92
        4
 93
        0
300

 40
0.0
140
1.0
 94
        5
 62
     0
340
11
144
4.5
309
CONTENTFORMAT_END
171
     1
301
MARGIN
  1
CELLMARGIN_BEGIN
 40
1.5
 40
1.5
 40
1.5
 40
1.5
 40
1.5
 40
1.5
309
CELLMARGIN_END
 94
        6
 95
        1
302
GRIDFORMAT
  1
GRIDFORMAT_BEGIN
 90
        0
 91
        1
 62
     0
 92
       -2
340
14
 93
        0
 40
0.045
309
GRIDFORMAT_END
 95
        2
302
GRIDFORMAT
  1
GRIDFORMAT_BEGIN
 90
        0
 91
        1
 62
     0
 92
       -2
340
14
 93
        0
 40
0.045
309
GRIDFORMAT_END
 95
        4
302
GRIDFORMAT
  1
GRIDFORMAT_BEGIN
 90
        0
 91
        1
 62
     0
 92
       -2
340
14
 93
        0
 40
0.045
309
GRIDFORMAT_END
 95
        8
302
GRIDFORMAT
  1
GRIDFORMAT_BEGIN
 90
        0
 91
        1
 62
     0
 92
       -2
340
14
 93
        0
 40
0.045
309
GRIDFORMAT_END
 95
       16
302
GRIDFORMAT
  1
GRIDFORMAT_BEGIN
 90
        0
 91
        1
 62
     0
 92
       -2
340
14
 93
        0
 40
0.045
309
GRIDFORMAT_END
 95
       32
302
GRIDFORMAT
  1
GRIDFORMAT_BEGIN
 90
        0
 91
        1
 62
     0
 92
       -2
340
14
 93
        0
 40
0.045
309
GRIDFORMAT_END
309
TABLEFORMAT_END
  1
CELLSTYLE_BEGIN
 90
        2
 91
        1
300
_HEADER
309
CELLSTYLE_END
300
CELLSTYLE
  1
TABLEFORMAT_BEGIN
 90
        5
170
     1
 91
        0
 92
        0
 62
   257
 93
        1
300
CONTENTFORMAT
  1
CONTENTFORMAT_BEGIN
 90
        0
 91
        0
 92
        4
 93
        0
300

 40
0.0
140
1.0
 94
        2
 62
     0
340
11
144
4.5
309
CONTENTFORMAT_END
171
     1
301
MARGIN
  1
CELLMARGIN_BEGIN
 40
1.5
 40
1.5
 40
1.5
 40
1.5
 40
1.5
 40
1.5
309
CELLMARGIN_END
 94
        6
 95
        1
302
GRIDFORMAT
  1
GRIDFORMAT_BEGIN
 90
        0
 91
        1
 62
     0
 92
       -2
340
14
 93
        0
 40
0.045
309
GRIDFORMAT_END
 95
        2
302
GRIDFORMAT
  1
GRIDFORMAT_BEGIN
 90
        0
 91
        1
 62
     0
 92
       -2
340
14
 93
        0
 40
0.045
309
GRIDFORMAT_END
 95
        4
302
GRIDFORMAT
  1
GRIDFORMAT_BEGIN
 90
        0
 91
        1
 62
     0
 92
       -2
340
14
 93
        0
 40
0.045
309
GRIDFORMAT_END
 95
        8
302
GRIDFORMAT
  1
GRIDFORMAT_BEGIN
 90
        0
 91
        1
 62
     0
 92
       -2
340
14
 93
        0
 40
0.045
309
GRIDFORMAT_END
 95
       16
302
GRIDFORMAT
  1
GRIDFORMAT_BEGIN
 90
        0
 91
        1
 62
     0
 92
       -2
340
14
 93
        0
 40
0.045
309
GRIDFORMAT_END
 95
       32
302
GRIDFORMAT
  1
GRIDFORMAT_BEGIN
 90
        0
 91
        1
 62
     0
 92
       -2
340
14
 93
        0
 40
0.045
309
GRIDFORMAT_END
309
TABLEFORMAT_END
  1
CELLSTYLE_BEGIN
 90
        3
 91
        2
300
_DATA
309
CELLSTYLE_END
  0
XRECORD
  5
190
102
{ACAD_REACTORS
330
18F
102
}
330
18F
100
AcDbXrecord
280
     1
102
ACAD_ROUNDTRIP_PRE2007_TABLESTYLE
 90
        4
 91
        0
  1

 92
        4
 93
        0
  2

 94
        4
 95
        0
  3

  0
ENDSEC
  0
EOF
