  0
SECTION
  2
HEADER
  9
$ACADVER
  1
AC1018
  9
$ACADMAINTVER
 70
     0
  9
$DWGCODEPAGE
  3
ANSI_1252
  9
$LASTSAVEDBY
  1
piechottad
  9
$INSBASE
 10
0.0
 20
0.0
 30
0.0
  9
$EXTMIN
 10
0.0
 20
0.0
 30
0.0
  9
$EXTMAX
 10
297.0
 20
210.0
 30
0.0
  9
$LIMMIN
 10
0.0
 20
0.0
  9
$LIMMAX
 10
297.0
 20
210.0
  9
$ORTHOMODE
 70
     0
  9
$REGENMODE
 70
     1
  9
$FILLMODE
 70
     1
  9
$QTEXTMODE
 70
     0
  9
$MIRRTEXT
 70
     1
  9
$LTSCALE
 40
1.0
  9
$ATTMODE
 70
     1
  9
$TEXTSIZE
 40
3.5
  9
$TRACEWID
 40
1.0
  9
$TEXTSTYLE
  7
Standard
  9
$CLAYER
  8
0
  9
$CELTYPE
  6
ByLayer
  9
$CECOLOR
 62
   256
  9
$CELTSCALE
 40
1.0
  9
$DISPSILH
 70
     0
  9
$DIMSCALE
 40
1.0
  9
$DIMASZ
 40
3.302
  9
$DIMEXO
 40
1.0
  9
$DIMDLI
 40
3.75
  9
$DIMRND
 40
0.0
  9
$DIMDLE
 40
0.0
  9
$DIMEXE
 40
1.0
  9
$DIMTP
 40
0.0
  9
$DIMTM
 40
0.0
  9
$DIMTXT
 40
3.5
  9
$DIMCEN
 40
2.5
  9
$DIMTSZ
 40
0.0
  9
$DIMTOL
 70
     0
  9
$DIMLIM
 70
     0
  9
$DIMTIH
 70
     1
  9
$DIMTOH
 70
     1
  9
$DIMSE1
 70
     0
  9
$DIMSE2
 70
     0
  9
$DIMTAD
 70
     1
  9
$DIMZIN
 70
     0
  9
$DIMBLK
  1

  9
$DIMASO
 70
     1
  9
$DIMSHO
 70
     1
  9
$DIMPOST
  1

  9
$DIMAPOST
  1

  9
$DIMALT
 70
     0
  9
$DIMALTD
 70
     3
  9
$DIMALTF
 40
0.0393700787
  9
$DIMLFAC
 40
1.0
  9
$DIMTOFL
 70
     1
  9
$DIMTVP
 40
0.0
  9
$DIMTIX
 70
     0
  9
$DIMSOXD
 70
     0
  9
$DIMSAH
 70
     0
  9
$DIMBLK1
  1

  9
$DIMBLK2
  1

  9
$DIMSTYLE
  2
ISO-25
  9
$DIMCLRD
 70
     0
  9
$DIMCLRE
 70
     0
  9
$DIMCLRT
 70
     0
  9
$DIMTFAC
 40
1.0
  9
$DIMGAP
 40
1.524
  9
$DIMJUST
 70
     0
  9
$DIMSD1
 70
     0
  9
$DIMSD2
 70
     0
  9
$DIMTOLJ
 70
     0
  9
$DIMTZIN
 70
     0
  9
$DIMALTZ
 70
     0
  9
$DIMALTTZ
 70
     0
  9
$DIMUPT
 70
     0
  9
$DIMDEC
 70
     2
  9
$DIMTDEC
 70
     2
  9
$DIMALTU
 70
     2
  9
$DIMALTTD
 70
     3
  9
$DIMTXSTY
  7
Standard
  9
$DIMAUNIT
 70
     0
  9
$DIMADEC
 70
     2
  9
$DIMALTRND
 40
0.0
  9
$DIMAZIN
 70
     0
  9
$DIMDSEP
 70
    44
  9
$DIMATFIT
 70
     3
  9
$DIMFRAC
 70
     0
  9
$DIMLDRBLK
  1

  9
$DIMLUNIT
 70
     2
  9
$DIMLWD
 70
    -2
  9
$DIMLWE
 70
    -2
  9
$DIMTMOVE
 70
     0
  9
$LUNITS
 70
     2
  9
$LUPREC
 70
     2
  9
$SKETCHINC
 40
1.0
  9
$FILLETRAD
 40
10.0
  9
$AUNITS
 70
     0
  9
$AUPREC
 70
     2
  9
$MENU
  1
.
  9
$ELEVATION
 40
0.0
  9
$PELEVATION
 40
0.0
  9
$THICKNESS
 40
0.0
  9
$LIMCHECK
 70
     0
  9
$CHAMFERA
 40
0.0
  9
$CHAMFERB
 40
0.0
  9
$CHAMFERC
 40
0.0
  9
$CHAMFERD
 40
0.0
  9
$SKPOLY
 70
     0
  9
$TDCREATE
 40
2457009.58196515
  9
$TDUCREATE
 40
2457009.540298484
  9
$TDUPDATE
 40
2457031.475761991
  9
$TDUUPDATE
 40
2457031.434095324
  9
$TDINDWG
 40
0.00027375
  9
$TDUSRTIMER
 40
2457031.433821806
  9
$USRTIMER
 70
     1
  9
$ANGBASE
 50
0.0
  9
$ANGDIR
 70
     0
  9
$PDMODE
 70
     0
  9
$PDSIZE
 40
-1.0
  9
$PLINEWID
 40
0.0
  9
$SPLFRAME
 70
     0
  9
$SPLINETYPE
 70
     6
  9
$SPLINESEGS
 70
     8
  9
$HANDSEED
  5
197
  9
$SURFTAB1
 70
     6
  9
$SURFTAB2
 70
     6
  9
$SURFTYPE
 70
     6
  9
$SURFU
 70
     6
  9
$SURFV
 70
     6
  9
$UCSBASE
  2

  9
$UCSNAME
  2

  9
$UCSORG
 10
0.0
 20
0.0
 30
0.0
  9
$UCSXDIR
 10
1.0
 20
0.0
 30
0.0
  9
$UCSYDIR
 10
0.0
 20
1.0
 30
0.0
  9
$UCSORTHOREF
  2

  9
$UCSORTHOVIEW
 70
     0
  9
$UCSORGTOP
 10
0.0
 20
0.0
 30
0.0
  9
$UCSORGBOTTOM
 10
0.0
 20
0.0
 30
0.0
  9
$UCSORGLEFT
 10
0.0
 20
0.0
 30
0.0
  9
$UCSORGRIGHT
 10
0.0
 20
0.0
 30
0.0
  9
$UCSORGFRONT
 10
0.0
 20
0.0
 30
0.0
  9
$UCSORGBACK
 10
0.0
 20
0.0
 30
0.0
  9
$PUCSBASE
  2

  9
$PUCSNAME
  2

  9
$PUCSORG
 10
0.0
 20
0.0
 30
0.0
  9
$PUCSXDIR
 10
1.0
 20
0.0
 30
0.0
  9
$PUCSYDIR
 10
0.0
 20
1.0
 30
0.0
  9
$PUCSORTHOREF
  2

  9
$PUCSORTHOVIEW
 70
     0
  9
$PUCSORGTOP
 10
0.0
 20
0.0
 30
0.0
  9
$PUCSORGBOTTOM
 10
0.0
 20
0.0
 30
0.0
  9
$PUCSORGLEFT
 10
0.0
 20
0.0
 30
0.0
  9
$PUCSORGRIGHT
 10
0.0
 20
0.0
 30
0.0
  9
$PUCSORGFRONT
 10
0.0
 20
0.0
 30
0.0
  9
$PUCSORGBACK
 10
0.0
 20
0.0
 30
0.0
  9
$USERI1
 70
     0
  9
$USERI2
 70
     0
  9
$USERI3
 70
     0
  9
$USERI4
 70
     0
  9
$USERI5
 70
     0
  9
$USERR1
 40
0.0
  9
$USERR2
 40
0.0
  9
$USERR3
 40
0.0
  9
$USERR4
 40
0.0
  9
$USERR5
 40
0.0
  9
$WORLDVIEW
 70
     1
  9
$SHADEDGE
 70
     3
  9
$SHADEDIF
 70
    70
  9
$TILEMODE
 70
     1
  9
$MAXACTVP
 70
    64
  9
$PINSBASE
 10
0.0
 20
0.0
 30
0.0
  9
$PLIMCHECK
 70
     0
  9
$PEXTMIN
 10
1.000000000000000E+20
 20
1.000000000000000E+20
 30
1.000000000000000E+20
  9
$PEXTMAX
 10
-1.000000000000000E+20
 20
-1.000000000000000E+20
 30
-1.000000000000000E+20
  9
$PLIMMIN
 10
0.0
 20
0.0
  9
$PLIMMAX
 10
0.0
 20
0.0
  9
$UNITMODE
 70
     0
  9
$VISRETAIN
 70
     1
  9
$PLINEGEN
 70
     0
  9
$PSLTSCALE
 70
     1
  9
$TREEDEPTH
 70
  3020
  9
$CMLSTYLE
  2
Standard
  9
$CMLJUST
 70
     0
  9
$CMLSCALE
 40
20.0
  9
$PROXYGRAPHICS
 70
     1
  9
$MEASUREMENT
 70
     1
  9
$CELWEIGHT
370
    -1
  9
$ENDCAPS
280
     0
  9
$JOINSTYLE
280
     0
  9
$LWDISPLAY
290
     1
  9
$INSUNITS
 70
     4
  9
$HYPERLINKBASE
  1

  9
$STYLESHEET
  1

  9
$XEDIT
290
     1
  9
$CEPSNTYPE
380
     0
  9
$PSTYLEMODE
290
     1
  9
$FINGERPRINTGUID
  2
{AD5F98D6-1849-4818-92D6-7E33DC5C793B}
  9
$VERSIONGUID
  2
{FAEB1C32-E019-11D5-929B-00C0DF256EC4}
  9
$EXTNAMES
290
     1
  9
$PSVPSCALE
 40
0.0
  9
$OLESTARTUP
290
     0
  9
$SORTENTS
280
   127
  9
$INDEXCTL
280
     0
  9
$HIDETEXT
280
     1
  9
$XCLIPFRAME
290
     0
  9
$HALOGAP
280
     0
  9
$OBSCOLOR
 70
   257
  9
$OBSLTYPE
280
     0
  9
$INTERSECTIONDISPLAY
280
     0
  9
$INTERSECTIONCOLOR
 70
   257
  9
$DIMASSOC
280
     2
  9
$PROJECTNAME
  1

  0
ENDSEC
  0
SECTION
  2
CLASSES
  0
CLASS
  1
ACDBDICTIONARYWDFLT
  2
AcDbDictionaryWithDefault
  3
ObjectDBX Classes
 90
        0
 91
       23
280
     0
281
     0
  0
CLASS
  1
VISUALSTYLE
  2
AcDbVisualStyle
  3
ObjectDBX Classes
 90
     4095
 91
       23
280
     0
281
     0
  0
CLASS
  1
MATERIAL
  2
AcDbMaterial
  3
ObjectDBX Classes
 90
     1153
 91
       23
280
     0
281
     0
  0
CLASS
  1
SCALE
  2
AcDbScale
  3
ObjectDBX Classes
 90
     1153
 91
       23
280
     0
281
     0
  0
CLASS
  1
SUN
  2
AcDbSun
  3
SCENEOE
 90
     1153
 91
       23
280
     0
281
     0
  0
CLASS
  1
DICTIONARYVAR
  2
AcDbDictionaryVar
  3
ObjectDBX Classes
 90
        0
 91
       13
280
     0
281
     0
  0
CLASS
  1
TABLESTYLE
  2
AcDbTableStyle
  3
ObjectDBX Classes
 90
     4095
 91
       23
280
     0
281
     0
  0
CLASS
  1
RASTERVARIABLES
  2
AcDbRasterVariables
  3
ISM
 90
        0
 91
       23
280
     0
281
     0
  0
CLASS
  1
CELLSTYLEMAP
  2
AcDbCellStyleMap
  3
ObjectDBX Classes
 90
     1152
 91
        4
280
     0
281
     0
  0
ENDSEC
  0
SECTION
  2
TABLES
  0
TABLE
  2
VPORT
  5
8
330
0
100
AcDbSymbolTable
 70
     1
  0
VPORT
  5
29
330
8
100
AcDbSymbolTableRecord
100
AcDbViewportTableRecord
  2
*Active
 70
     0
 10
0.0
 20
0.0
 11
1.0
 21
1.0
 12
126.1229508196721
 22
29.26229508196721
 13
0.0
 23
0.0
 14
10.0
 24
10.0
 15
10.0
 25
10.0
 16
0.0
 26
0.0
 36
1.0
 17
0.0
 27
0.0
 37
0.0
 40
210.0
 41
1.497950819672131
 42
50.0
 43
0.0
 44
0.0
 50
0.0
 51
0.0
 71
    16
 72
  2000
 73
     1
 74
     3
 75
     0
 76
     0
 77
     0
 78
     0
281
     0
 65
     1
110
0.0
120
0.0
130
0.0
111
1.0
121
0.0
131
0.0
112
0.0
122
1.0
132
0.0
 79
     0
146
0.0
  0
ENDTAB
  0
TABLE
  2
LTYPE
  5
5
330
0
100
AcDbSymbolTable
 70
     8
  0
LTYPE
  5
14
330
5
100
AcDbSymbolTableRecord
100
AcDbLinetypeTableRecord
  2
ByBlock
 70
     0
  3

 72
    65
 73
     0
 40
0.0
  0
LTYPE
  5
15
330
5
100
AcDbSymbolTableRecord
100
AcDbLinetypeTableRecord
  2
ByLayer
 70
     0
  3

 72
    65
 73
     0
 40
0.0
  0
LTYPE
  5
16
330
5
100
AcDbSymbolTableRecord
100
AcDbLinetypeTableRecord
  2
Continuous
 70
     0
  3
Solid line
 72
    65
 73
     0
 40
0.0
  0
LTYPE
  5
6A
330
5
100
AcDbSymbolTableRecord
100
AcDbLinetypeTableRecord
  2
SLD-Durchgehend
 70
     0
  3
SolidWorks Line Style
 72
    65
 73
     0
 40
0.0
  0
LTYPE
  5
6B
330
5
100
AcDbSymbolTableRecord
100
AcDbLinetypeTableRecord
  2
SLD-Gestrichelt
 70
     0
  3
SolidWorks Line Style
 72
    65
 73
     2
 40
1.905
 49
1.27
 74
     0
 49
-0.635
 74
     0
  0
LTYPE
  5
6C
330
5
100
AcDbSymbolTableRecord
100
AcDbLinetypeTableRecord
  2
SLD-Phantom
 70
     0
  3
SolidWorks Line Style
 72
    65
 73
     6
 40
12.7
 49
6.35
 74
     0
 49
-1.27
 74
     0
 49
1.27
 74
     0
 49
-1.27
 74
     0
 49
1.27
 74
     0
 49
-1.27
 74
     0
  0
LTYPE
  5
6D
330
5
100
AcDbSymbolTableRecord
100
AcDbLinetypeTableRecord
  2
SLD-Kette
 70
     0
  3
SolidWorks Line Style
 72
    65
 73
     4
 40
10.16
 49
6.35
 74
     0
 49
-1.27
 74
     0
 49
1.27
 74
     0
 49
-1.27
 74
     0
  0
LTYPE
  5
6E
330
5
100
AcDbSymbolTableRecord
100
AcDbLinetypeTableRecord
  2
SLD-Punktstrich
 70
     0
  3
SolidWorks Line Style
 72
    65
 73
     4
 40
19.05
 49
15.24
 74
     0
 49
-1.27
 74
     0
 49
1.27
 74
     0
 49
-1.27
 74
     0
  0
LTYPE
  5
6F
330
5
100
AcDbSymbolTableRecord
100
AcDbLinetypeTableRecord
  2
SLD-Naht
 70
     0
  3
SolidWorks Line Style
 72
    65
 73
     2
 40
0.635
 49
0.0
 74
     0
 49
-0.635
 74
     0
  0
LTYPE
  5
70
330
5
100
AcDbSymbolTableRecord
100
AcDbLinetypeTableRecord
  2
SLD-Dicke-Dünne-Kette
 70
     0
  3
SolidWorks Line Style
 72
    65
 73
     4
 40
10.16
 49
6.35
 74
     0
 49
-1.27
 74
     0
 49
1.27
 74
     0
 49
-1.27
 74
     0
  0
ENDTAB
  0
TABLE
  2
LAYER
  5
2
330
0
100
AcDbSymbolTable
 70
     4
  0
LAYER
  5
10
330
2
100
AcDbSymbolTableRecord
100
AcDbLayerTableRecord
  2
0
 70
     0
 62
     7
  6
Continuous
370
    -3
390
F
  0
LAYER
  5
71
330
2
100
AcDbSymbolTableRecord
100
AcDbLayerTableRecord
  2
1
 70
     0
 62
     4
  6
Continuous
370
    -1
390
F
  0
LAYER
  5
72
330
2
100
AcDbSymbolTableRecord
100
AcDbLayerTableRecord
  2
2
 70
     0
 62
     7
  6
SLD-Durchgehend
370
    -3
390
F
  0
LAYER
  5
183
330
2
100
AcDbSymbolTableRecord
100
AcDbLayerTableRecord
  2
Defpoints
 70
     0
 62
     7
  6
Continuous
290
     0
370
    -3
390
F
  0
ENDTAB
  0
TABLE
  2
STYLE
  5
3
330
0
100
AcDbSymbolTable
 70
     2
  0
STYLE
  5
11
330
3
100
AcDbSymbolTableRecord
100
AcDbTextStyleTableRecord
  2
Standard
 70
     0
 40
0.0
 41
1.0
 50
0.0
 71
     0
 42
3.5
  3
txt
  4

  0
STYLE
  5
11F
330
3
100
AcDbSymbolTableRecord
100
AcDbTextStyleTableRecord
  2
SLDTEXTSTYLE0
 70
     0
 40
0.0
 41
0.75
 50
0.0
 71
     0
 42
3.5
  3
TXT
  4

  0
ENDTAB
  0
TABLE
  2
VIEW
  5
6
330
0
100
AcDbSymbolTable
 70
     0
  0
ENDTAB
  0
TABLE
  2
UCS
  5
7
330
0
100
AcDbSymbolTable
 70
     0
  0
ENDTAB
  0
TABLE
  2
APPID
  5
9
330
0
100
AcDbSymbolTable
 70
     1
  0
APPID
  5
12
330
9
100
AcDbSymbolTableRecord
100
AcDbRegAppTableRecord
  2
ACAD
 70
     0
  0
ENDTAB
  0
TABLE
  2
DIMSTYLE
  5
A
330
0
100
AcDbSymbolTable
 70
     2
100
AcDbDimStyleTable
  0
DIMSTYLE
105
27
330
A
100
AcDbSymbolTableRecord
100
AcDbDimStyleTableRecord
  2
ISO-25
 70
     0
 41
2.5
 42
0.625
 43
3.75
 44
1.25
 73
     0
 74
     0
 77
     1
 78
     8
140
2.5
141
2.5
143
0.0393700787
147
0.625
171
     3
172
     1
178
     0
271
     2
272
     2
274
     3
278
    44
283
     0
284
     8
340
11
  0
DIMSTYLE
105
120
102
{ACAD_REACTORS
330
11E
330
12A
330
134
330
13E
102
}
330
A
100
AcDbSymbolTableRecord
100
AcDbDimStyleTableRecord
  2
SLDDIMSTYLE0
 70
     0
 41
3.302
 44
0.0
 45
0.000000001
 73
     0
 74
     0
 77
     1
 78
    12
 79
     3
140
3.5
147
0.875
173
     1
178
     0
271
     2
272
     2
276
     2
284
    12
340
11F
  0
ENDTAB
  0
TABLE
  2
BLOCK_RECORD
  5
1
330
0
100
AcDbSymbolTable
 70
     7
  0
BLOCK_RECORD
  5
1F
330
1
100
AcDbSymbolTableRecord
100
AcDbBlockTableRecord
  2
*Model_Space
340
22
  0
BLOCK_RECORD
  5
1B
330
1
100
AcDbSymbolTableRecord
100
AcDbBlockTableRecord
  2
*Paper_Space
340
1E
  0
BLOCK_RECORD
  5
23
330
1
100
AcDbSymbolTableRecord
100
AcDbBlockTableRecord
  2
*Paper_Space0
340
26
  0
BLOCK_RECORD
  5
121
330
1
100
AcDbSymbolTableRecord
100
AcDbBlockTableRecord
  2
_D
340
0
  0
BLOCK_RECORD
  5
12B
330
1
100
AcDbSymbolTableRecord
100
AcDbBlockTableRecord
  2
_D_1
340
0
  0
BLOCK_RECORD
  5
135
330
1
100
AcDbSymbolTableRecord
100
AcDbBlockTableRecord
  2
_D_2
340
0
  0
BLOCK_RECORD
  5
13F
330
1
100
AcDbSymbolTableRecord
100
AcDbBlockTableRecord
  2
_D_3
340
0
  0
BLOCK_RECORD
  5
148
330
1
100
AcDbSymbolTableRecord
100
AcDbBlockTableRecord
  2
SW_CENTERMARKSYMBOL_0
340
0
102
{BLKREFS
331
0
102
}
  0
BLOCK_RECORD
  5
154
330
1
100
AcDbSymbolTableRecord
100
AcDbBlockTableRecord
  2
SW_CENTERMARKSYMBOL_1
340
0
102
{BLKREFS
331
0
102
}
  0
ENDTAB
  0
ENDSEC
  0
SECTION
  2
BLOCKS
  0
BLOCK
  5
20
330
1F
100
AcDbEntity
  8
0
100
AcDbBlockBegin
  2
*Model_Space
 70
     0
 10
0.0
 20
0.0
 30
0.0
  3
*Model_Space
  1
*Model_Space
  0
ENDBLK
  5
21
330
1F
100
AcDbEntity
  8
0
100
AcDbBlockEnd
  0
BLOCK
  5
1C
330
1B
100
AcDbEntity
 67
     1
  8
0
100
AcDbBlockBegin
  2
*Paper_Space
 70
     0
 10
0.0
 20
0.0
 30
0.0
  3
*Paper_Space
  1
*Paper_Space
  0
ENDBLK
  5
1D
330
1B
100
AcDbEntity
 67
     1
  8
0
100
AcDbBlockEnd
  0
BLOCK
  5
24
330
23
100
AcDbEntity
  8
0
100
AcDbBlockBegin
  2
*Paper_Space0
 70
     0
 10
0.0
 20
0.0
 30
0.0
  3
*Paper_Space0
  1
*Paper_Space0
  0
ENDBLK
  5
25
330
23
100
AcDbEntity
  8
0
100
AcDbBlockEnd
  0
BLOCK
  5
122
330
121
100
AcDbEntity
  8
0
100
AcDbBlockBegin
  2
_D
 70
     0
 10
0.0
 20
0.0
 30
0.0
  3
_D
  1
_D
  0
LINE
  5
124
330
121
100
AcDbEntity
  8
2
  6
SLD-Durchgehend
 62
     0
370
    -2
100
AcDbLine
 10
170.0027086782
 20
32.0605059343
 30
0.0
 11
170.0027086782
 21
43.9142343518
 31
0.0
  0
LINE
  5
125
330
121
100
AcDbEntity
  8
2
  6
SLD-Durchgehend
 62
     0
370
    -2
100
AcDbLine
 10
0.0027086782
 20
0.0605059343
 30
0.0
 11
0.0027086781999941
 21
43.9142343518
 31
0.0
  0
LINE
  5
126
330
121
100
AcDbEntity
  8
2
  6
SLD-Durchgehend
 62
     0
370
    -2
100
AcDbLine
 10
166.7007086782
 20
43.9142343518
 30
0.0
 11
3.304708678199994
 21
43.9142343518
 31
0.0
  0
SOLID
  5
127
330
121
100
AcDbEntity
  8
2
 62
     0
100
AcDbTrace
 10
166.7007086782
 20
43.36390101846666
 30
0.0
 11
166.7007086782
 21
44.46456768513333
 31
0.0
 12
170.0027086782
 22
43.9142343518
 32
0.0
 13
170.0027086782
 23
43.9142343518
 33
0.0
  0
SOLID
  5
128
330
121
100
AcDbEntity
  8
2
 62
     0
100
AcDbTrace
 10
3.304708678199994
 20
44.46456768513333
 30
0.0
 11
3.304708678199994
 21
43.36390101846666
 31
0.0
 12
0.0027086781999941
 22
43.9142343518
 32
0.0
 13
0.0027086781999941
 23
43.9142343518
 33
0.0
  0
MTEXT
  5
129
330
121
100
AcDbEntity
  8
2
 62
     0
370
    15
100
AcDbMText
 10
85.0027086782
 20
48.2892343518
 30
0.0
 40
3.5
 41
0.0
 71
     2
 72
     1
  1
\A1;170
  7
SLDTEXTSTYLE0
 73
     1
 44
1.0
  0
POINT
  5
184
330
121
100
AcDbEntity
  8
Defpoints
 62
     0
100
AcDbPoint
 10
170.0027086782
 20
31.9980059343
 30
0.0
  0
POINT
  5
185
330
121
100
AcDbEntity
  8
Defpoints
 62
     0
100
AcDbPoint
 10
0.0027086782
 20
-0.0019940657
 30
0.0
  0
POINT
  5
186
330
121
100
AcDbEntity
  8
Defpoints
 62
     0
100
AcDbPoint
 10
0.0027086782
 20
43.9142343518
 30
0.0
  0
ENDBLK
  5
123
330
121
100
AcDbEntity
  8
0
100
AcDbBlockEnd
  0
BLOCK
  5
12C
330
12B
100
AcDbEntity
  8
0
100
AcDbBlockBegin
  2
_D_1
 70
     0
 10
0.0
 20
0.0
 30
0.0
  3
_D_1
  1
_D_1
  0
LINE
  5
12E
330
12B
100
AcDbEntity
  8
2
  6
SLD-Durchgehend
 62
     0
370
    -2
100
AcDbLine
 10
0.9402086782000001
 20
24.9980059343
 30
0.0
 11
-5.997291321799999
 21
24.9980059343
 31
0.0
  0
LINE
  5
12F
330
12B
100
AcDbEntity
  8
2
  6
SLD-Durchgehend
 62
     0
370
    -2
100
AcDbLine
 10
0.9402086782000001
 20
-0.0019940657
 30
0.0
 11
-5.997291321800001
 21
-0.0019940656999999
 31
0.0
  0
LINE
  5
130
330
12B
100
AcDbEntity
  8
2
  6
SLD-Durchgehend
 62
     0
370
    -2
100
AcDbLine
 10
-5.997291321799999
 20
21.6960059343
 30
0.0
 11
-5.997291321800001
 21
3.3000059343
 31
0.0
  0
SOLID
  5
131
330
12B
100
AcDbEntity
  8
2
 62
     0
100
AcDbTrace
 10
-5.446957988466665
 20
21.6960059343
 30
0.0
 11
-6.547624655133332
 21
21.6960059343
 31
0.0
 12
-5.997291321799999
 22
24.9980059343
 32
0.0
 13
-5.997291321799999
 23
24.9980059343
 33
0.0
  0
SOLID
  5
132
330
12B
100
AcDbEntity
  8
2
 62
     0
100
AcDbTrace
 10
-6.547624655133334
 20
3.3000059343
 30
0.0
 11
-5.446957988466667
 21
3.3000059343
 31
0.0
 12
-5.997291321800001
 22
-0.0019940656999999
 32
0.0
 13
-5.997291321800001
 23
-0.0019940656999999
 33
0.0
  0
MTEXT
  5
133
330
12B
100
AcDbEntity
  8
2
 62
     0
370
    15
100
AcDbMText
 10
-10.3722913218
 20
12.4980059343
 30
0.0
 40
3.5
 41
0.0
 71
     2
 72
     1
  1
\A1;25
  7
SLDTEXTSTYLE0
 11
7.105427357601002E-17
 21
1.0
 31
0.0
 73
     1
 44
1.0
  0
POINT
  5
187
330
12B
100
AcDbEntity
  8
Defpoints
 62
     0
100
AcDbPoint
 10
1.0027086782
 20
24.9980059343
 30
0.0
  0
POINT
  5
188
330
12B
100
AcDbEntity
  8
Defpoints
 62
     0
100
AcDbPoint
 10
1.0027086782
 20
-0.0019940657
 30
0.0
  0
POINT
  5
189
330
12B
100
AcDbEntity
  8
Defpoints
 62
     0
100
AcDbPoint
 10
-5.9972913218
 20
-0.0019940656999996
 30
0.0
  0
ENDBLK
  5
12D
330
12B
100
AcDbEntity
  8
0
100
AcDbBlockEnd
  0
BLOCK
  5
136
330
135
100
AcDbEntity
  8
0
100
AcDbBlockBegin
  2
_D_2
 70
     0
 10
0.0
 20
0.0
 30
0.0
  3
_D_2
  1
_D_2
  0
LINE
  5
138
330
135
100
AcDbEntity
  8
2
  6
SLD-Durchgehend
 62
     0
370
    -2
100
AcDbLine
 10
170.0652086782
 20
31.9980059343
 30
0.0
 11
176.0020352505
 21
31.9980059343
 31
0.0
  0
LINE
  5
139
330
135
100
AcDbEntity
  8
2
  6
SLD-Durchgehend
 62
     0
370
    -2
100
AcDbLine
 10
170.0652086782
 20
-0.0019940657
 30
0.0
 11
176.0020352505
 21
-0.0019940656999999
 31
0.0
  0
LINE
  5
13A
330
135
100
AcDbEntity
  8
2
  6
SLD-Durchgehend
 62
     0
370
    -2
100
AcDbLine
 10
176.0020352505
 20
28.6960059343
 30
0.0
 11
176.0020352505
 21
3.3000059343
 31
0.0
  0
SOLID
  5
13B
330
135
100
AcDbEntity
  8
2
 62
     0
100
AcDbTrace
 10
176.5523685838333
 20
28.6960059343
 30
0.0
 11
175.4517019171667
 21
28.6960059343
 31
0.0
 12
176.0020352505
 22
31.9980059343
 32
0.0
 13
176.0020352505
 23
31.9980059343
 33
0.0
  0
SOLID
  5
13C
330
135
100
AcDbEntity
  8
2
 62
     0
100
AcDbTrace
 10
175.4517019171667
 20
3.3000059343
 30
0.0
 11
176.5523685838333
 21
3.3000059343
 31
0.0
 12
176.0020352505
 22
-0.0019940656999999
 32
0.0
 13
176.0020352505
 23
-0.0019940656999999
 33
0.0
  0
MTEXT
  5
13D
330
135
100
AcDbEntity
  8
2
 62
     0
370
    15
100
AcDbMText
 10
171.6270352505
 20
15.9980059343
 30
0.0
 40
3.5
 41
0.0
 71
     2
 72
     1
  1
\A1;32
  7
SLDTEXTSTYLE0
 11
0.0
 21
1.0
 31
0.0
 73
     1
 44
1.0
  0
POINT
  5
18A
330
135
100
AcDbEntity
  8
Defpoints
 62
     0
100
AcDbPoint
 10
170.0027086782
 20
31.9980059343
 30
0.0
  0
POINT
  5
18B
330
135
100
AcDbEntity
  8
Defpoints
 62
     0
100
AcDbPoint
 10
170.0027086782
 20
-0.0019940657
 30
0.0
  0
POINT
  5
18C
330
135
100
AcDbEntity
  8
Defpoints
 62
     0
100
AcDbPoint
 10
176.0020352505
 20
-0.0019940657000004
 30
0.0
  0
ENDBLK
  5
137
330
135
100
AcDbEntity
  8
0
100
AcDbBlockEnd
  0
BLOCK
  5
140
330
13F
100
AcDbEntity
  8
0
100
AcDbBlockBegin
  2
_D_3
 70
     0
 10
0.0
 20
0.0
 30
0.0
  3
_D_3
  1
_D_3
  0
LINE
  5
142
330
13F
100
AcDbEntity
  8
2
  6
SLD-Durchgehend
 62
     0
370
    -2
100
AcDbLine
 10
135.0027086782
 20
0.0605059343
 30
0.0
 11
135.0027086782
 21
37.9142343518
 31
0.0
  0
LINE
  5
143
330
13F
100
AcDbEntity
  8
2
  6
SLD-Durchgehend
 62
     0
370
    -2
100
AcDbLine
 10
170.0027086782
 20
32.0605059343
 30
0.0
 11
170.0027086782
 21
37.9142343518
 31
0.0
  0
LINE
  5
144
330
13F
100
AcDbEntity
  8
2
  6
SLD-Durchgehend
 62
     0
370
    -2
100
AcDbLine
 10
138.3047086782
 20
37.9142343518
 30
0.0
 11
166.7007086782
 21
37.9142343518
 31
0.0
  0
SOLID
  5
145
330
13F
100
AcDbEntity
  8
2
 62
     0
100
AcDbTrace
 10
138.3047086782
 20
38.46456768513333
 30
0.0
 11
138.3047086782
 21
37.36390101846666
 31
0.0
 12
135.0027086782
 22
37.9142343518
 32
0.0
 13
135.0027086782
 23
37.9142343518
 33
0.0
  0
SOLID
  5
146
330
13F
100
AcDbEntity
  8
2
 62
     0
100
AcDbTrace
 10
166.7007086782
 20
37.36390101846666
 30
0.0
 11
166.7007086782
 21
38.46456768513333
 31
0.0
 12
170.0027086782
 22
37.9142343518
 32
0.0
 13
170.0027086782
 23
37.9142343518
 33
0.0
  0
MTEXT
  5
147
330
13F
100
AcDbEntity
  8
2
 62
     0
370
    15
100
AcDbMText
 10
152.5027086782
 20
42.2892343518
 30
0.0
 40
3.5
 41
0.0
 71
     2
 72
     1
  1
\A1;35
  7
SLDTEXTSTYLE0
 73
     1
 44
1.0
  0
POINT
  5
18D
330
13F
100
AcDbEntity
  8
Defpoints
 62
     0
100
AcDbPoint
 10
135.0027086782
 20
-0.0019940657
 30
0.0
  0
POINT
  5
18E
330
13F
100
AcDbEntity
  8
Defpoints
 62
     0
100
AcDbPoint
 10
170.0027086782
 20
31.9980059343
 30
0.0
  0
POINT
  5
18F
330
13F
100
AcDbEntity
  8
Defpoints
 62
     0
100
AcDbPoint
 10
170.0027086782
 20
37.9142343518
 30
0.0
  0
ENDBLK
  5
141
330
13F
100
AcDbEntity
  8
0
100
AcDbBlockEnd
  0
BLOCK
  5
149
330
148
100
AcDbEntity
  8
0
100
AcDbBlockBegin
  2
SW_CENTERMARKSYMBOL_0
 70
     0
 10
0.0
 20
0.0
 30
0.0
  3
SW_CENTERMARKSYMBOL_0
  1
SW_CENTERMARKSYMBOL_0
  0
LINE
  5
14B
330
148
100
AcDbEntity
  8
0
  6
SLD-Punktstrich
 62
     0
370
    15
100
AcDbLine
 10
0.0
 20
0.0
 30
0.0
 11
0.0
 21
2.5
 31
0.0
  0
LINE
  5
14C
330
148
100
AcDbEntity
  8
0
  6
SLD-Punktstrich
 62
     0
370
    15
100
AcDbLine
 10
0.0
 20
0.0
 30
0.0
 11
-2.5
 21
0.0
 31
0.0
  0
LINE
  5
14D
330
148
100
AcDbEntity
  8
0
  6
SLD-Punktstrich
 62
     0
370
    15
100
AcDbLine
 10
0.0
 20
0.0
 30
0.0
 11
0.0
 21
-2.5
 31
0.0
  0
LINE
  5
14E
330
148
100
AcDbEntity
  8
0
  6
SLD-Punktstrich
 62
     0
370
    15
100
AcDbLine
 10
0.0
 20
0.0
 30
0.0
 11
2.5
 21
0.0
 31
0.0
  0
LINE
  5
14F
330
148
100
AcDbEntity
  8
0
  6
SLD-Punktstrich
 62
     0
370
    15
100
AcDbLine
 10
0.0
 20
2.5
 30
0.0
 11
0.0
 21
4.7
 31
0.0
  0
LINE
  5
150
330
148
100
AcDbEntity
  8
0
  6
SLD-Punktstrich
 62
     0
370
    15
100
AcDbLine
 10
-2.5
 20
0.0
 30
0.0
 11
-4.7
 21
0.0
 31
0.0
  0
LINE
  5
151
330
148
100
AcDbEntity
  8
0
  6
SLD-Punktstrich
 62
     0
370
    15
100
AcDbLine
 10
0.0
 20
-2.5
 30
0.0
 11
0.0
 21
-4.7
 31
0.0
  0
LINE
  5
152
330
148
100
AcDbEntity
  8
0
  6
SLD-Punktstrich
 62
     0
370
    15
100
AcDbLine
 10
2.5
 20
0.0
 30
0.0
 11
4.7
 21
0.0
 31
0.0
  0
ENDBLK
  5
14A
330
148
100
AcDbEntity
  8
0
100
AcDbBlockEnd
  0
BLOCK
  5
155
330
154
100
AcDbEntity
  8
0
100
AcDbBlockBegin
  2
SW_CENTERMARKSYMBOL_1
 70
     0
 10
0.0
 20
0.0
 30
0.0
  3
SW_CENTERMARKSYMBOL_1
  1
SW_CENTERMARKSYMBOL_1
  0
LINE
  5
157
330
154
100
AcDbEntity
  8
0
  6
SLD-Punktstrich
 62
     0
370
    15
100
AcDbLine
 10
0.0
 20
0.0
 30
0.0
 11
0.0
 21
2.5
 31
0.0
  0
LINE
  5
158
330
154
100
AcDbEntity
  8
0
  6
SLD-Punktstrich
 62
     0
370
    15
100
AcDbLine
 10
0.0
 20
0.0
 30
0.0
 11
-2.5
 21
0.0
 31
0.0
  0
LINE
  5
159
330
154
100
AcDbEntity
  8
0
  6
SLD-Punktstrich
 62
     0
370
    15
100
AcDbLine
 10
0.0
 20
0.0
 30
0.0
 11
0.0
 21
-2.5
 31
0.0
  0
LINE
  5
15A
330
154
100
AcDbEntity
  8
0
  6
SLD-Punktstrich
 62
     0
370
    15
100
AcDbLine
 10
0.0
 20
0.0
 30
0.0
 11
2.5
 21
0.0
 31
0.0
  0
LINE
  5
15B
330
154
100
AcDbEntity
  8
0
  6
SLD-Punktstrich
 62
     0
370
    15
100
AcDbLine
 10
0.0
 20
2.5
 30
0.0
 11
0.0
 21
4.7
 31
0.0
  0
LINE
  5
15C
330
154
100
AcDbEntity
  8
0
  6
SLD-Punktstrich
 62
     0
370
    15
100
AcDbLine
 10
-2.5
 20
0.0
 30
0.0
 11
-4.7
 21
0.0
 31
0.0
  0
LINE
  5
15D
330
154
100
AcDbEntity
  8
0
  6
SLD-Punktstrich
 62
     0
370
    15
100
AcDbLine
 10
0.0
 20
-2.5
 30
0.0
 11
0.0
 21
-4.7
 31
0.0
  0
LINE
  5
15E
330
154
100
AcDbEntity
  8
0
  6
SLD-Punktstrich
 62
     0
370
    15
100
AcDbLine
 10
2.5
 20
0.0
 30
0.0
 11
4.7
 21
0.0
 31
0.0
  0
ENDBLK
  5
156
330
154
100
AcDbEntity
  8
0
100
AcDbBlockEnd
  0
ENDSEC
  0
SECTION
  2
ENTITIES
  0
LINE
  5
73
330
1F
100
AcDbEntity
  8
0
  6
SLD-Punktstrich
 62
     7
100
AcDbLine
 10
0.0027086782
 20
-0.0019940657
 30
0.0
 11
170.0027086782
 21
-0.0019940657
 31
0.0
  0
LINE
  5
74
330
1F
100
AcDbEntity
  8
0
  6
SLD-Punktstrich
 62
     7
100
AcDbLine
 10
170.0027086782
 20
31.9980059343
 30
0.0
 11
161.3527086782
 21
31.9980059343
 31
0.0
  0
LINE
  5
75
330
1F
100
AcDbEntity
  8
0
  6
SLD-Punktstrich
 62
     7
100
AcDbLine
 10
170.0027086782
 20
31.9980059343
 30
0.0
 11
163.8862350209
 21
25.881532277
 31
0.0
  0
LINE
  5
76
330
1F
100
AcDbEntity
  8
0
  6
SLD-Punktstrich
 62
     7
100
AcDbLine
 10
161.3527086782
 20
31.9980059343
 30
0.0
 11
165.6777086782
 21
27.6730059343
 31
0.0
  0
POINT
  5
77
330
1F
100
AcDbEntity
  8
1
 62
     4
420
    65535
100
AcDbPoint
 10
170.0027086782
 20
-0.0019940657
 30
0.0
  0
POINT
  5
78
330
1F
100
AcDbEntity
  8
1
 62
     4
420
    65535
100
AcDbPoint
 10
135.0027086782
 20
-0.0019940657
 30
0.0
  0
POINT
  5
79
330
1F
100
AcDbEntity
  8
1
 62
     4
420
    65535
100
AcDbPoint
 10
170.0027086782
 20
31.9980059343
 30
0.0
  0
POINT
  5
7A
330
1F
100
AcDbEntity
  8
1
 62
     4
420
    65535
100
AcDbPoint
 10
165.6777086782
 20
27.6730059343
 30
0.0
  0
LINE
  5
7B
330
1F
100
AcDbEntity
  8
1
 62
     4
420
    65535
100
AcDbLine
 10
142.5636876223
 20
13.4969099599
 30
0.0
 11
142.2197875629
 21
13.1530099005
 31
0.0
  0
SPLINE
  5
7C
330
1F
100
AcDbEntity
  8
1
 62
     4
420
    65535
100
AcDbSpline
210
0.0
220
0.0
230
1.0
 70
     8
 71
     3
 72
    11
 73
     7
 74
     0
 42
0.000000001
 43
0.00000001
 40
0.0
 40
0.0
 40
0.0
 40
0.0
 40
0.1306871009306293
 40
0.4216854739411127
 40
0.7125175737258089
 40
1.0
 40
1.0
 40
1.0
 40
1.0
 10
163.6819938084089
 20
23.49014385661797
 30
0.0
 10
163.6753728584363
 20
23.56776910793394
 30
0.0
 10
163.6540091706108
 20
23.81824096520122
 30
0.0
 10
163.5031071899577
 20
24.22064139628123
 30
0.0
 10
163.2481902478364
 20
24.67568232338994
 30
0.0
 10
163.0033900574543
 20
24.92033957903071
 30
0.0
 10
162.8816989196524
 20
25.04195966341024
 30
0.0
  0
LINE
  5
7D
330
1F
100
AcDbEntity
  8
1
 62
     4
420
    65535
100
AcDbLine
 10
162.8383262975
 20
21.589689689
 30
0.0
 11
162.7861403973
 21
21.5578791615
 31
0.0
  0
LINE
  5
7E
330
1F
100
AcDbEntity
  8
1
 62
     4
420
    65535
100
AcDbLine
 10
158.6842198051
 20
17.1423736358
 30
0.0
 11
160.9144824874
 21
14.9336058098
 31
0.0
  0
LINE
  5
7F
330
1F
100
AcDbEntity
  8
1
 62
     4
420
    65535
100
AcDbLine
 10
160.7507040894
 20
31.6810571558
 30
0.0
 11
154.325033793
 21
25.1916144402
 31
0.0
  0
ARC
  5
80
330
1F
100
AcDbEntity
  8
1
 62
     4
420
    65535
100
AcDbCircle
 10
161.3136167194
 20
31.1181898794
 30
0.0
 40
0.796046606601352
100
AcDbArc
 50
44.9976917587
 51
135.0023082413
  0
LINE
  5
81
330
1F
100
AcDbEntity
  8
1
 62
     4
420
    65535
100
AcDbLine
 10
169.7633259899
 20
23.8702709153
 30
0.0
 11
161.8765293495
 21
31.6810571558
 31
0.0
  0
ARC
  5
82
330
1F
100
AcDbEntity
  8
1
 62
     4
420
    65535
100
AcDbCircle
 10
169.2057923908
 20
23.3018252505
 30
0.0
 40
0.7962249606049959
100
AcDbArc
 50
315.5653414766
 51
45.55524622890001
  0
LINE
  5
83
330
1F
100
AcDbEntity
  8
1
 62
     4
420
    65535
100
AcDbLine
 10
162.0403077079
 20
14.933605849
 30
0.0
 11
169.7743362816
 21
22.7443918176
 31
0.0
  0
ARC
  5
84
330
1F
100
AcDbEntity
  8
1
 62
     4
420
    65535
100
AcDbCircle
 10
161.4773950781
 20
15.4964731247
 30
0.0
 40
0.7960466059658861
100
AcDbArc
 50
224.9976957214
 51
315.0023082675
  0
ARC
  5
85
330
1F
100
AcDbEntity
  8
1
 62
     4
420
    65535
100
AcDbCircle
 10
161.3860151617
 20
23.3078089171
 30
0.0
 40
2.773342046988825
100
AcDbArc
 50
280.5157172558
 51
129.6369792554
  0
LINE
  5
86
330
1F
100
AcDbEntity
  8
1
 62
     4
420
    65535
100
AcDbLine
 10
161.5718749491
 20
14.4651730902
 30
0.0
 11
162.0403077079
 21
14.933605849
 31
0.0
  0
ARC
  5
87
330
1F
100
AcDbEntity
  8
1
 62
     4
420
    65535
100
AcDbCircle
 10
161.0110227308
 20
15.0227637959
 30
0.0
 40
0.7908619385155208
100
AcDbArc
 50
258.4179864948
 51
315.1670808314
  0
LINE
  5
88
330
1F
100
AcDbEntity
  8
1
 62
     4
420
    65535
100
AcDbLine
 10
160.2822713306
 20
31.212624397
 30
0.0
 11
160.0697619455
 21
30.9980059343
 31
0.0
  0
LINE
  5
89
330
1F
100
AcDbEntity
  8
1
 62
     4
420
    65535
100
AcDbLine
 10
160.2822713306
 20
31.212624397
 30
0.0
 11
160.7507040894
 21
31.6810571558
 31
0.0
  0
ARC
  5
8A
330
1F
100
AcDbEntity
  8
1
 62
     4
420
    65535
100
AcDbCircle
 10
161.3729824641
 20
23.2933824763
 30
0.0
 40
2.57501244543222
100
AcDbArc
 50
286.8917508563
 51
122.7048284052
  0
ARC
  5
8B
330
1F
100
AcDbEntity
  8
1
 62
     4
420
    65535
100
AcDbCircle
 10
160.9664395888
 20
22.8198590073
 30
0.0
 40
2.538845985229045
100
AcDbArc
 50
322.1694487079
 51
346.7634906197
  0
LINE
  5
8C
330
1F
100
AcDbEntity
  8
1
 62
     4
420
    65535
100
AcDbLine
 10
152.6018932746
 20
14.3146038897
 30
0.0
 11
151.3122063656
 21
13.7104289854
 31
0.0
  0
SPLINE
  5
8D
330
1F
100
AcDbEntity
  8
1
 62
     4
420
    65535
100
AcDbSpline
210
0.0
220
0.0
230
1.0
 70
     8
 71
     3
 72
    22
 73
    18
 74
     0
 42
0.000000001
 43
0.00000001
 40
0.0
 40
0.0
 40
0.0
 40
0.0
 40
0.0495288470540289
 40
0.0989925544613345
 40
0.1484572953599006
 40
0.1979892422692155
 40
0.2476543024440445
 40
0.2975178585179319
 40
0.3476445194469852
 40
0.3980978863006951
 40
0.4489403367975374
 40
0.5002328317000628
 40
0.6054716722109387
 40
0.7073533245297738
 40
0.806564972181242
 40
0.9038508013097322
 40
1.0
 40
1.0
 40
1.0
 40
1.0
 10
147.8636861946395
 20
13.60619944203304
 30
0.0
 10
147.9200068448393
 20
13.58630797691828
 30
0.0
 10
148.0325740731077
 20
13.54655120766539
 30
0.0
 10
148.2030574219881
 20
13.49431567364454
 30
0.0
 10
148.3744438506478
 20
13.44795663282786
 30
0.0
 10
148.5468734859146
 20
13.40818462931306
 30
0.0
 10
148.7203318921162
 20
13.37502451343449
 30
0.0
 10
148.8948703189855
 20
13.34862153388663
 30
0.0
 10
149.0705432630548
 20
13.32903472210718
 30
0.0
 10
149.2474195700776
 20
13.31629007354311
 30
0.0
 10
149.4255836547398
 20
13.31040851986537
 30
0.0
 10
149.6674206621897
 20
13.31157015320835
 30
0.0
 10
149.9681252109596
 20
13.33074931742076
 30
0.0
 10
150.3225380274856
 20
13.38345980296596
 30
0.0
 10
150.6642105044453
 20
13.46465562715017
 30
0.0
 10
150.9949502574643
 20
13.57082213520443
 30
0.0
 10
151.2068694107932
 20
13.6640760229676
 30
0.0
 10
151.3122063655808
 20
13.71042898542889
 30
0.0
  0
SPLINE
  5
8E
330
1F
100
AcDbEntity
  8
1
 62
     4
420
    65535
100
AcDbSpline
210
0.0
220
0.0
230
1.0
 70
     8
 71
     3
 72
    25
 73
    21
 74
     0
 42
0.000000001
 43
0.00000001
 40
0.0
 40
0.0
 40
0.0
 40
0.0
 40
0.0250753561475984
 40
0.0500903263121878
 40
0.0750864594873806
 40
0.1001053985148199
 40
0.1251886726507005
 40
0.1876893090622349
 40
0.2502420077528356
 40
0.3127043930371722
 40
0.3752255397006723
 40
0.5000074543155749
 40
0.6247893689304784
 40
0.6872378109424528
 40
0.7497729009208279
 40
0.812252853938591
 40
0.874826236085887
 40
0.9165561765305202
 40
0.9582163984891743
 40
0.9999999999999999
 40
0.9999999999999999
 40
0.9999999999999999
 40
0.9999999999999999
 10
144.9613448988009
 20
19.70272715185612
 30
0.0
 10
144.9392935099396
 20
19.64397606245949
 30
0.0
 10
144.895243835941
 20
19.52661536689243
 30
0.0
 10
144.8383774333519
 20
19.34738265416042
 30
0.0
 10
144.7884211815388
 20
19.16622919066337
 30
0.0
 10
144.7460238856625
 20
18.98289310239876
 30
0.0
 10
144.6936431299315
 20
18.70558265008412
 30
0.0
 10
144.6501491509241
 20
18.33090602940653
 30
0.0
 10
144.6441222953432
 20
17.85950410557577
 30
0.0
 10
144.6858023970129
 20
17.38931850355171
 30
0.0
 10
144.8050527947145
 20
16.7716861265852
 30
0.0
 10
145.0709720663131
 20
16.02599572274336
 30
0.0
 10
145.4824638893819
 20
15.34870195850436
 30
0.0
 10
145.8875062591143
 20
14.864947686887
 30
0.0
 10
146.2269160408042
 20
14.53441066877824
 30
0.0
 10
146.5978756226579
 20
14.23943658073547
 30
0.0
 10
146.9525331588376
 20
14.01192974967879
 30
0.0
 10
147.2780462150683
 20
13.84008241293149
 30
0.0
 10
147.5660097718386
 20
13.71055796368748
 30
0.0
 10
147.7643629590828
 20
13.64101988878227
 30
0.0
 10
147.8636861946395
 20
13.60619944203306
 30
0.0
  0
SPLINE
  5
8F
330
1F
100
AcDbEntity
  8
1
 62
     4
420
    65535
100
AcDbSpline
210
0.0
220
0.0
230
1.0
 70
     8
 71
     3
 72
    21
 73
    17
 74
     0
 42
0.000000001
 43
0.00000001
 40
0.0
 40
0.0
 40
0.0
 40
0.0
 40
0.0533688462573827
 40
0.1069773869944795
 40
0.1609649639492918
 40
0.2154680074075682
 40
0.2706191158335024
 40
0.326546269761305
 40
0.3833721960722321
 40
0.4412138884862732
 40
0.5001822808968805
 40
0.6022400811933463
 40
0.7027414417212682
 40
0.8021885031628178
 40
0.9010992779493339
 40
1.0
 40
1.0
 40
1.0
 40
1.0
 10
147.2494719833728
 20
22.24442627041231
 30
0.0
 10
147.1919512363848
 20
22.21661361680747
 30
0.0
 10
147.0766514005767
 20
22.16086339515794
 30
0.0
 10
146.908885061852
 20
22.06822793698715
 30
0.0
 10
146.7446824814891
 20
21.9687742337756
 30
0.0
 10
146.5844694784908
 20
21.86168906092934
 30
0.0
 10
146.4281997498355
 20
21.74692410138917
 30
0.0
 10
146.2759658293515
 20
21.62415364514249
 30
0.0
 10
146.1278361819295
 20
21.49306309646558
 30
0.0
 10
145.9838602584696
 20
21.35329910505305
 30
0.0
 10
145.8111537861422
 20
21.16923390113978
 30
0.0
 10
145.6183391028385
 20
20.93711284413249
 30
0.0
 10
145.4168542318062
 20
20.65113890376796
 30
0.0
 10
145.2403790940605
 20
20.35017547459476
 30
0.0
 10
145.0862958218096
 20
20.0350211841585
 30
0.0
 10
145.0029937953404
 20
19.81348807653598
 30
0.0
 10
144.9613448988009
 20
19.70272715185612
 30
0.0
  0
LINE
  5
90
330
1F
100
AcDbEntity
  8
1
 62
     4
420
    65535
100
AcDbLine
 10
147.2494719834
 20
22.2444262704
 30
0.0
 11
148.5391588924
 21
22.8486011746
 31
0.0
  0
SPLINE
  5
91
330
1F
100
AcDbEntity
  8
1
 62
     4
420
    65535
100
AcDbSpline
210
0.0
220
0.0
230
1.0
 70
     8
 71
     3
 72
    17
 73
    13
 74
     0
 42
0.000000001
 43
0.00000001
 40
0.0
 40
0.0
 40
0.0
 40
0.0
 40
0.0854702574593872
 40
0.1699134423335367
 40
0.2534630131654868
 40
0.3362567675758262
 40
0.4184363214571629
 40
0.5001464989185326
 40
0.6287235255863863
 40
0.7544089986397021
 40
0.8779170071162196
 40
1.0
 40
1.0
 40
1.0
 40
1.0
 10
150.9187642428611
 20
23.27672165269757
 30
0.0
 10
150.8492771882518
 20
23.28135021243429
 30
0.0
 10
150.711138085864
 20
23.29055171177793
 30
0.0
 10
150.5046345524403
 20
23.2927585793222
 30
0.0
 10
150.3004137553367
 20
23.28663637420575
 30
0.0
 10
150.0984078799976
 20
23.27167335962052
 30
0.0
 10
149.8985943892913
 20
23.24838306332128
 30
0.0
 10
149.6629145996447
 20
23.21101897114294
 30
0.0
 10
149.3944273704995
 20
23.15394970518768
 30
0.0
 10
149.0976041999988
 20
23.06985861049805
 30
0.0
 10
148.811565367207
 20
22.96990679390744
 30
0.0
 10
148.6296091234389
 20
22.88887966397489
 30
0.0
 10
148.5391588924041
 20
22.8486011746485
 30
0.0
  0
SPLINE
  5
92
330
1F
100
AcDbEntity
  8
1
 62
     4
420
    65535
100
AcDbSpline
210
0.0
220
0.0
230
1.0
 70
     8
 71
     3
 72
    11
 73
     7
 74
     0
 42
0.000000001
 43
0.00000001
 40
0.0
 40
0.0
 40
0.0
 40
0.0
 40
0.270266362751177
 40
0.5262286936962178
 40
0.769107481592757
 40
1.0
 40
1.0
 40
1.0
 40
1.0
 10
151.506004308849
 20
23.20133238212878
 30
0.0
 10
151.4535456876648
 20
23.21129434102278
 30
0.0
 10
151.3514048536449
 20
23.23069101533355
 30
0.0
 10
151.2008647689025
 20
23.25175244078914
 30
0.0
 10
151.05754255028
 20
23.2674579612815
 30
0.0
 10
150.9642368097456
 20
23.27368628041677
 30
0.0
 10
150.9187642428611
 20
23.27672165269755
 30
0.0
  0
SPLINE
  5
93
330
1F
100
AcDbEntity
  8
1
 62
     4
420
    65535
100
AcDbSpline
210
0.0
220
0.0
230
1.0
 70
     8
 71
     3
 72
    13
 73
     9
 74
     0
 42
0.000000001
 43
0.00000001
 40
0.0
 40
0.0
 40
0.0
 40
0.0
 40
0.1667987798628371
 40
0.3331360851113874
 40
0.4993182245957747
 40
0.6656524036800187
 40
0.8324450230612894
 40
1.0
 40
1.0
 40
1.0
 40
1.0
 10
152.5954013948394
 20
22.82005702247052
 30
0.0
 10
152.5377221462549
 20
22.84856687584303
 30
0.0
 10
152.4225232276451
 20
22.90550770567063
 30
0.0
 10
152.2450645364734
 20
22.98080143258455
 30
0.0
 10
152.0647901220682
 20
23.04848829462974
 30
0.0
 10
151.8813784362895
 20
23.10774829808186
 30
0.0
 10
151.695151969596
 20
23.15959454484102
 30
0.0
 10
151.5691492967871
 20
23.1873986373408
 30
0.0
 10
151.506004308849
 20
23.20133238212879
 30
0.0
  0
SPLINE
  5
94
330
1F
100
AcDbEntity
  8
1
 62
     4
420
    65535
100
AcDbSpline
210
0.0
220
0.0
230
1.0
 70
     8
 71
     3
 72
    21
 73
    17
 74
     0
 42
0.000000001
 43
0.00000001
 40
0.0
 40
0.0
 40
0.0
 40
0.0
 40
0.0313130422067684
 40
0.0625733488225336
 40
0.0938395435438494
 40
0.125170217015089
 40
0.1876706307054871
 40
0.2502409020659607
 40
0.375141594081686
 40
0.5000144650886047
 40
0.624887336095526
 40
0.7497880281112504
 40
0.8122727341496166
 40
0.8748587132026199
 40
0.937398304353521
 40
1.0
 40
1.0
 40
1.0
 40
1.0
 10
155.1404326081667
 20
17.47407881630169
 30
0.0
 10
155.1559373742171
 20
17.53885173450617
 30
0.0
 10
155.1869207940992
 20
17.66828848416147
 30
0.0
 10
155.2226696172761
 20
17.86482047359813
 30
0.0
 10
155.2504529595289
 20
18.0627070336118
 30
0.0
 10
155.2758364377178
 20
18.3279475036203
 30
0.0
 10
155.2861257017559
 20
18.6615088371852
 30
0.0
 10
155.2561990821537
 20
19.19427837340306
 30
0.0
 10
155.132525937214
 20
19.8533220671276
 30
0.0
 10
154.8502203388486
 20
20.607239561179
 30
0.0
 10
154.4426405848043
 20
21.30249676854648
 30
0.0
 10
154.0082317798629
 20
21.81570873459474
 30
0.0
 10
153.6125597316826
 20
22.17728353088993
 30
0.0
 10
153.2930580466393
 20
22.42155317671372
 30
0.0
 10
152.9548152745538
 20
22.64002861965469
 30
0.0
 10
152.7152456522179
 20
22.76002770401561
 30
0.0
 10
152.5954013948394
 20
22.82005702247052
 30
0.0
  0
SPLINE
  5
95
330
1F
100
AcDbEntity
  8
1
 62
     4
420
    65535
100
AcDbSpline
210
0.0
220
0.0
230
1.0
 70
     8
 71
     3
 72
    12
 73
     8
 74
     0
 42
0.000000001
 43
0.00000001
 40
0.0
 40
0.0
 40
0.0
 40
0.0
 40
0.1663343647289602
 40
0.3329022696983296
 40
0.5000065250608858
 40
0.7508355279117437
 40
1.0
 40
1.0
 40
1.0
 40
1.0
 10
154.7470556686035
 20
16.3933255319235
 30
0.0
 10
154.7759479977488
 20
16.45043802640528
 30
0.0
 10
154.8337732220495
 20
16.56474320364331
 30
0.0
 10
154.9111137832411
 20
16.7410462805518
 30
0.0
 10
154.9927387508434
 20
16.95061625001004
 30
0.0
 10
155.0736608959279
 20
17.19443816016788
 30
0.0
 10
155.118224823418
 20
17.38107237255178
 30
0.0
 10
155.1404326081667
 20
17.47407881630168
 30
0.0
  0
SPLINE
  5
96
330
1F
100
AcDbEntity
  8
1
 62
     4
420
    65535
100
AcDbSpline
210
0.0
220
0.0
230
1.0
 70
     8
 71
     3
 72
    10
 73
     6
 74
     0
 42
0.000000001
 43
0.00000001
 40
0.0
 40
0.0
 40
0.0
 40
0.0
 40
0.3104706287607395
 40
0.6428895184045951
 40
1.0
 40
1.0
 40
1.0
 40
1.0
 10
154.4350399580141
 20
15.89059088870135
 30
0.0
 10
154.4701746359215
 20
15.94087522400493
 30
0.0
 10
154.54292778571
 20
16.04499867115884
 30
0.0
 10
154.6477771020899
 20
16.21250679313506
 30
0.0
 10
154.7131821097057
 20
16.33163070278498
 30
0.0
 10
154.7470556686035
 20
16.39332553192352
 30
0.0
  0
SPLINE
  5
97
330
1F
100
AcDbEntity
  8
1
 62
     4
420
    65535
100
AcDbSpline
210
0.0
220
0.0
230
1.0
 70
     8
 71
     3
 72
    16
 73
    12
 74
     0
 42
0.000000001
 43
0.00000001
 40
0.0
 40
0.0
 40
0.0
 40
0.0
 40
0.0816171656017525
 40
0.1637581576449645
 40
0.2466533009416788
 40
0.3305266991250066
 40
0.4155947122744795
 40
0.5020647171970245
 40
0.665251635523331
 40
0.8308633247262616
 40
1.0
 40
1.0
 40
1.0
 40
1.0
 10
152.6018932746122
 20
14.31460388966505
 30
0.0
 10
152.661385807314
 20
14.34346825175097
 30
0.0
 10
152.7807527012397
 20
14.40138223004142
 30
0.0
 10
152.9557982731559
 20
14.49947968885966
 30
0.0
 10
153.1283069000627
 20
14.60608680369604
 30
0.0
 10
153.29786278409
 20
14.72214345052205
 30
0.0
 10
153.4643967609998
 20
14.84761030295203
 30
0.0
 10
153.6749781550375
 20
15.02184007373995
 30
0.0
 10
153.92163255608
 20
15.25477114287072
 30
0.0
 10
154.1944321412807
 20
15.55680656116786
 30
0.0
 10
154.3542762858335
 20
15.77855110390149
 30
0.0
 10
154.4350399580141
 20
15.89059088870132
 30
0.0
  0
ARC
  5
98
330
1F
100
AcDbEntity
  8
1
 62
     4
420
    65535
100
AcDbCircle
 10
158.6765207631
 20
-13.9008203886
 30
0.0
 40
29.49818128542078
100
AcDbArc
 50
114.4454729044
 51
119.5709960176
  0
ARC
  5
99
330
1F
100
AcDbEntity
  8
1
 62
     4
420
    65535
100
AcDbCircle
 10
138.4777055031
 20
8.7249826673
 30
0.0
 40
9.041184057131561
100
AcDbArc
 50
11.9220698874
 51
27.8812812852
  0
ARC
  5
9A
330
1F
100
AcDbEntity
  8
1
 62
     4
420
    65535
100
AcDbCircle
 10
146.4473754873
 20
13.1752445145
 30
0.0
 40
2.727208840776523
100
AcDbArc
 50
211.3820660415
 51
288.7468610661
  0
LINE
  5
9B
330
1F
100
AcDbEntity
  8
1
 62
     4
420
    65535
100
AcDbLine
 10
143.5670336693
 20
19.0495392753
 30
0.0
 11
146.4693749652
 21
12.9530115655
 31
0.0
  0
LINE
  5
9C
330
1F
100
AcDbEntity
  8
1
 62
     4
420
    65535
100
AcDbLine
 10
144.1191195692
 20
11.7550711303
 30
0.0
 11
141.2167782734
 21
17.8515988401
 31
0.0
  0
ARC
  5
9D
330
1F
100
AcDbEntity
  8
1
 62
     4
420
    65535
100
AcDbCircle
 10
155.7741794672
 20
-7.8042926788
 30
0.0
 40
29.49818128541338
100
AcDbArc
 50
114.4454729044
 51
119.5709960176
  0
ELLIPSE
  5
9E
330
1F
100
AcDbEntity
  8
1
 62
     4
420
    65535
100
AcDbEllipse
 10
154.4231271543
 20
16.5483058392
 30
0.0
 11
-0.008126242493744941
 21
2.756918863316841
 31
0.0
210
0.0
220
0.0
230
1.0
 40
0.0037254031
 41
3.452509856697092
 42
4.471486122682792
  0
LINE
  5
9F
330
1F
100
AcDbEntity
  8
1
 62
     4
420
    65535
100
AcDbLine
 10
154.4340058864
 20
13.9235812101
 30
0.0
 11
147.3238665573
 21
10.5927202715
 31
0.0
  0
LINE
  5
A0
330
1F
100
AcDbEntity
  8
1
 62
     4
420
    65535
100
AcDbLine
 10
146.4693749652
 20
12.9530115655
 30
0.0
 11
147.8636861946
 21
13.606199442
 31
0.0
  0
LINE
  5
A1
330
1F
100
AcDbEntity
  8
1
 62
     4
420
    65535
100
AcDbLine
 10
144.9613448988
 20
19.7027271519
 30
0.0
 11
143.5670336693
 21
19.0495392753
 31
0.0
  0
ARC
  5
A2
330
1F
100
AcDbEntity
  8
1
 62
     4
420
    65535
100
AcDbCircle
 10
136.9235360378
 20
16.3609727855
 30
0.0
 40
7.166899647037706
100
AcDbArc
 50
22.0327568674
 51
40.812240045
  0
ARC
  5
A3
330
1F
100
AcDbEntity
  8
1
 62
     4
420
    65535
100
AcDbCircle
 10
143.6823760923
 20
18.7754123052
 30
0.0
 40
2.632983843988456
100
AcDbArc
 50
120.4543665414
 51
200.5400360371
  0
LINE
  5
A4
330
1F
100
AcDbEntity
  8
1
 62
     4
420
    65535
100
AcDbLine
 10
142.3478430861
 20
21.0451315782
 30
0.0
 11
149.4579824153
 21
24.3759925168
 31
0.0
  0
ELLIPSE
  5
A5
330
1F
100
AcDbEntity
  8
1
 62
     4
420
    65535
100
AcDbEllipse
 10
151.5207858585
 20
22.6448335491
 30
0.0
 11
2.137075124390464
 21
-1.759081369071634
 31
0.0
210
0.0
220
0.0
230
1.0
 40
0.0400451544
 41
1.889156313179634
 42
2.908132579164729
  0
ARC
  5
A6
330
1F
100
AcDbEntity
  8
1
 62
     4
420
    65535
100
AcDbCircle
 10
152.2571171558
 20
13.7157580471
 30
0.0
 40
5.464909068596139
100
AcDbArc
 50
31.26561012339999
 51
51.926753262
  0
LINE
  5
A7
330
1F
100
AcDbEntity
  8
1
 62
     4
420
    65535
100
AcDbLine
 10
156.9283602138
 20
16.5520795065
 30
0.0
 11
155.7341929513
 21
15.2179145383
 31
0.0
  0
ARC
  5
A8
330
1F
100
AcDbEntity
  8
1
 62
     4
420
    65535
100
AcDbCircle
 10
152.0363267641
 20
13.1145769963
 30
0.0
 40
4.254202998646767
100
AcDbArc
 50
29.6311165766
 51
50.41751457469999
  0
LINE
  5
A9
330
1F
100
AcDbEntity
  8
1
 62
     4
420
    65535
100
AcDbLine
 10
155.1404326082
 20
17.4740788163
 30
0.0
 11
155.6271536815
 21
18.0178604335
 31
0.0
  0
ELLIPSE
  5
AA
330
1F
100
AcDbEntity
  8
1
 62
     4
420
    65535
100
AcDbEllipse
 10
155.9211541735
 20
15.2793453991
 30
0.0
 11
0.8674494015642721
 21
0.9494869060625319
 31
0.0
210
0.0
220
0.0
230
1.0
 40
0.0757850533
 41
1.704512473005375
 42
3.013509412001222
  0
ARC
  5
AB
330
1F
100
AcDbEntity
  8
1
 62
     4
420
    65535
100
AcDbCircle
 10
153.6880796028
 20
15.676797513
 30
0.0
 40
1.905301400132702
100
AcDbArc
 50
293.0478916959
 51
315.6969505452
  0
LINE
  5
AC
330
1F
100
AcDbEntity
  8
1
 62
     4
420
    65535
100
AcDbLine
 10
143.6383659023
 20
10.7829600144
 30
0.0
 11
144.1191195692
 21
11.7550711303
 31
0.0
  0
LINE
  5
AD
330
1F
100
AcDbEntity
  8
1
 62
     4
420
    65535
100
AcDbLine
 10
147.3238665573
 20
10.5927202715
 30
0.0
 11
146.1713713826
 21
8.262309819
 31
0.0
  0
ELLIPSE
  5
AE
330
1F
100
AcDbEntity
  8
1
 62
     4
420
    65535
100
AcDbEllipse
 10
145.2157370949
 20
10.6695369521
 30
0.0
 11
0.73915410475567
 21
2.547745054057147
 31
0.0
210
0.0
220
0.0
230
1.0
 40
0.9405010029
 41
3.138144917401629
 42
3.831791521537074
  0
ELLIPSE
  5
AF
330
1F
100
AcDbEntity
  8
1
 62
     4
420
    65535
100
AcDbEllipse
 10
143.7246370328
 20
7.6544482587
 30
0.0
 11
-0.7647540011769252
 21
3.897054505786937
 31
0.0
210
0.0
220
0.0
230
1.0
 40
0.2071991863
 41
4.792485579524024
 42
5.602597803978562
  0
ELLIPSE
  5
B0
330
1F
100
AcDbEntity
  8
1
 62
     4
420
    65535
100
AcDbEllipse
 10
153.176237578
 20
22.3333874631
 30
0.0
 11
1.001588089866772
 21
0.1512994642327961
 31
0.0
210
0.0
220
0.0
230
1.0
 40
0.4919269134
 41
0.333451072183059
 42
1.344985723418829
  0
LINE
  5
B1
330
1F
100
AcDbEntity
  8
1
 62
     4
420
    65535
100
AcDbLine
 10
155.5293207505
 20
21.1422830329
 30
0.0
 11
154.098295791
 21
22.6376194196
 31
0.0
  0
ELLIPSE
  5
B2
330
1F
100
AcDbEntity
  8
1
 62
     4
420
    65535
100
AcDbEllipse
 10
153.8297789657
 20
20.1292015334
 30
0.0
 11
1.815460930130911
 21
0.8445633032280959
 31
0.0
210
0.0
220
0.0
230
1.0
 40
0.548748345
 41
6.108334550392078
 42
6.467792552932041
  0
LINE
  5
B3
330
1F
100
AcDbEntity
  8
1
 62
     4
420
    65535
100
AcDbLine
 10
155.9531863643
 20
18.7413196306
 30
0.0
 11
155.6981814552
 21
20.7875818244
 31
0.0
  0
ELLIPSE
  5
B4
330
1F
100
AcDbEntity
  8
1
 62
     4
420
    65535
100
AcDbEllipse
 10
155.1305600037
 20
18.2282255928
 30
0.0
 11
0.7563647857926412
 21
0.6686425981906616
 31
0.0
210
0.0
220
0.0
230
1.0
 40
0.4952571771
 41
4.945008740124678
 42
5.956543391360527
  0
LINE
  5
B5
330
1F
100
AcDbEntity
  8
1
 62
     4
420
    65535
100
AcDbLine
 10
153.3279508428
 20
22.8474626021
 30
0.0
 11
152.5954013948
 21
22.8200570225
 31
0.0
  0
ELLIPSE
  5
B6
330
1F
100
AcDbEntity
  8
1
 62
     4
420
    65535
100
AcDbEllipse
 10
154.9337395168
 20
18.0314051059
 30
0.0
 11
-1.619685838672211
 21
1.904438180420553
 31
0.0
210
0.0
220
0.0
230
1.0
 40
0.8891721567999998
 41
3.396726396878588
 42
4.408261048114461
  0
ARC
  5
B7
330
1F
100
AcDbEntity
  8
1
 62
     4
420
    65535
100
AcDbCircle
 10
158.0018855587
 20
1.4169318066
 30
0.0
 40
17.44510194479473
100
AcDbArc
 50
93.1790763875
 51
96.7442034235
  0
LINE
  5
B8
330
1F
100
AcDbEntity
  8
1
 62
     4
420
    65535
100
AcDbLine
 10
151.2813127007
 20
24.5714347033
 30
0.0
 11
153.0786184204
 21
24.6386741302
 31
0.0
  0
ARC
  5
B9
330
1F
100
AcDbEntity
  8
1
 62
     4
420
    65535
100
AcDbCircle
 10
147.7152373256
 20
22.9791451177
 30
0.0
 40
5.614258037451768
100
AcDbArc
 50
358.6560032896
 51
17.1930316654
  0
ARC
  5
BA
330
1F
100
AcDbEntity
  8
1
 62
     4
420
    65535
100
AcDbCircle
 10
147.3949998756
 20
23.2306186235
 30
0.0
 40
4.111108747500053
100
AcDbArc
 50
359.5918394958001
 51
19.0349370414
  0
LINE
  5
BB
330
1F
100
AcDbEntity
  8
1
 62
     4
420
    65535
100
AcDbLine
 10
156.7794296415
 20
20.8814493784
 30
0.0
 11
157.0344345506
 21
18.8351871845
 31
0.0
  0
ARC
  5
BC
330
1F
100
AcDbEntity
  8
1
 62
     4
420
    65535
100
AcDbCircle
 10
157.7468806497
 20
3.4631940005
 30
0.0
 40
17.44510194478968
100
AcDbArc
 50
93.1790763875
 51
96.7442034235
  0
LINE
  5
BD
330
1F
100
AcDbEntity
  8
1
 62
     4
420
    65535
100
AcDbLine
 10
142.8994592575
 20
13.7197387915
 30
0.0
 11
141.9977890775
 21
15.6137466551
 31
0.0
  0
LINE
  5
BE
330
1F
100
AcDbEntity
  8
1
 62
     4
420
    65535
100
AcDbLine
 10
141.9977890775
 20
15.6137466551
 30
0.0
 11
141.7423505247
 21
15.4546632452
 31
0.0
  0
ELLIPSE
  5
BF
330
1F
100
AcDbEntity
  8
1
 62
     4
420
    65535
100
AcDbEllipse
 10
141.6564771742
 20
15.6350449465
 30
0.0
 11
0.2393136995092391
 21
0.1801884358116066
 31
0.0
210
0.0
220
0.0
230
1.0
 40
0.6593385555
 41
3.008009051842538
 42
4.578805378637476
  0
LINE
  5
C0
330
1F
100
AcDbEntity
  8
1
 62
     4
420
    65535
100
AcDbLine
 10
140.2419955012
 20
17.9172230636
 30
0.0
 11
141.4034722613
 21
15.4774771721
 31
0.0
  0
LINE
  5
C1
330
1F
100
AcDbEntity
  8
1
 62
     4
420
    65535
100
AcDbLine
 10
141.2167782734
 20
17.8515988401
 30
0.0
 11
140.2419955012
 21
17.9172230636
 31
0.0
  0
LINE
  5
C2
330
1F
100
AcDbEntity
  8
1
 62
     4
420
    65535
100
AcDbLine
 10
142.4768891422
 20
13.2227059059
 30
0.0
 11
143.6383659023
 21
10.7829600144
 31
0.0
  0
ELLIPSE
  5
C3
330
1F
100
AcDbEntity
  8
1
 62
     4
420
    65535
100
AcDbEllipse
 10
142.7298940551
 20
13.3802736803
 30
0.0
 11
0.2393136995092391
 21
0.1801884358116066
 31
0.0
210
0.0
220
0.0
230
1.0
 40
0.6593385555
 41
1.437212725047492
 42
3.008009051842531
  0
LINE
  5
C4
330
1F
100
AcDbEntity
  8
1
 62
     4
420
    65535
100
AcDbLine
 10
142.6440207047
 20
13.5606553816
 30
0.0
 11
142.8994592575
 21
13.7197387915
 31
0.0
  0
ARC
  5
C5
330
1F
100
AcDbEntity
  8
1
 62
     4
420
    65535
100
AcDbCircle
 10
150.2990246996
 20
22.6911639242
 30
0.0
 40
1.883082449213927
100
AcDbArc
 50
93.5019145712
 51
116.5277127314
  0
ELLIPSE
  5
C6
330
1F
100
AcDbEntity
  8
1
 62
     4
420
    65535
100
AcDbEllipse
 10
151.4682739229
 20
24.632865564
 30
0.0
 11
1.293064933251713
 21
0.05634354826943165
 31
0.0
210
0.0
220
0.0
230
1.0
 40
0.0415774991
 41
3.25648436752327
 42
4.565481306518897
  0
ELLIPSE
  5
C7
330
1F
100
AcDbEntity
  8
1
 62
     4
420
    65535
100
AcDbEllipse
 10
152.9794170911
 20
22.1365669762
 30
0.0
 11
0.03818664049666154
 21
2.504025452864493
 31
0.0
210
0.0
220
0.0
230
1.0
 40
0.8678844577
 41
5.243564129030401
 42
6.25509878026622
  0
ARC
  5
C8
330
1F
100
AcDbEntity
  8
1
 62
     4
420
    65535
100
AcDbCircle
 10
475.7489084434
 20
-313.6721350174
 30
0.0
 40
465.363693845112
100
AcDbArc
 50
133.5919223767
 51
133.7236799254
  0
ELLIPSE
  5
C9
330
1F
100
AcDbEntity
  8
1
 62
     4
420
    65535
100
AcDbEllipse
 10
153.6329584788
 20
19.9323810465
 30
0.0
 11
2.750044420006446
 21
1.835592514573857
 31
0.0
210
0.0
220
0.0
230
1.0
 40
0.9353353876
 41
5.968420138847987
 42
6.32787814138792
  0
ARC
  5
CA
330
1F
100
AcDbEntity
  8
1
 62
     4
420
    65535
100
AcDbCircle
 10
477.1799334003
 20
-315.1674714013
 30
0.0
 40
465.3636938412671
100
AcDbArc
 50
133.5919223767
 51
133.7236799254
  0
LINE
  5
CB
330
1F
100
AcDbEntity
  8
1
 62
     4
420
    65535
100
AcDbLine
 10
154.8725245142
 20
23.3763982618
 30
0.0
 11
156.3035494737
 21
21.8810618752
 31
0.0
  0
LINE
  5
CC
330
1F
100
AcDbEntity
  8
1
 62
     4
420
    65535
100
AcDbLine
 10
154.0749797862
 20
12.2257870727
 30
0.0
 11
154.4340058864
 21
13.9235812101
 31
0.0
  0
LINE
  5
CD
330
1F
100
AcDbEntity
  8
1
 62
     4
420
    65535
100
AcDbLine
 10
154.0749797862
 20
12.2257870727
 30
0.0
 11
149.5772934047
 21
10.1187724013
 31
0.0
  0
ELLIPSE
  5
CE
330
1F
100
AcDbEntity
  8
1
 62
     4
420
    65535
100
AcDbEllipse
 10
149.6022507513
 20
9.6086585522
 30
0.0
 11
1.329182817069068
 21
0.6973843601674652
 31
0.0
210
0.0
220
0.0
230
1.0
 40
0.3118756881
 41
1.427132544212105
 42
2.474330095408755
  0
LINE
  5
CF
330
1F
100
AcDbEntity
  8
1
 62
     4
420
    65535
100
AcDbLine
 10
148.4235573242
 20
9.317383121
 30
0.0
 11
146.1713713826
 21
8.262309819
 31
0.0
  0
ELLIPSE
  5
D0
330
1F
100
AcDbEntity
  8
1
 62
     4
420
    65535
100
AcDbEllipse
 10
138.2545844564
 20
19.1445949049
 30
0.0
 11
-2.148991613016193
 21
2.556264080705948
 31
0.0
210
0.0
220
0.0
230
1.0
 40
0.2930174378
 41
3.985866818471463
 42
4.795979042925964
  0
ELLIPSE
  5
D1
330
1F
100
AcDbEntity
  8
1
 62
     4
420
    65535
100
AcDbEllipse
 10
141.2779595281
 20
18.9410555656
 30
0.0
 11
2.463077498626803
 21
-1.028604971607717
 31
0.0
210
0.0
220
0.0
230
1.0
 40
0.9289604928999999
 41
2.441004849864209
 42
3.134651453999684
  0
LINE
  5
D2
330
1F
100
AcDbEntity
  8
1
 62
     4
420
    65535
100
AcDbLine
 10
140.0110279589
 20
21.202450401
 30
0.0
 11
142.3478430861
 21
21.0451315782
 31
0.0
  0
ARC
  5
D3
330
1F
100
AcDbEntity
  8
1
 62
     4
420
    65535
100
AcDbCircle
 10
160.0782500417
 20
21.8059392451
 30
0.0
 40
2.163959435979971
100
AcDbArc
 50
340.9677901348001
 51
35.0872553844
  0
LINE
  5
D4
330
1F
100
AcDbEntity
  8
1
 62
     4
420
    65535
100
AcDbLine
 10
162.1239175053
 20
21.1002728445
 30
0.0
 11
156.9283602138
 21
16.5520795065
 31
0.0
  0
LINE
  5
D5
330
1F
100
AcDbEntity
  8
1
 62
     4
420
    65535
100
AcDbLine
 10
157.0344345506
 20
18.8351871845
 30
0.0
 11
161.8489695728
 21
23.0498334458
 31
0.0
  0
LINE
  5
D6
330
1F
100
AcDbEntity
  8
1
 62
     4
420
    65535
100
AcDbLine
 10
161.8489695728
 20
23.0498334458
 30
0.0
 11
156.7794296415
 21
20.8814493784
 31
0.0
  0
ELLIPSE
  5
D7
330
1F
100
AcDbEntity
  8
1
 62
     4
420
    65535
100
AcDbEllipse
 10
160.9273972419
 20
23.052416594
 30
0.0
 11
3.250165092469189
 21
-1.907709624088195
 31
0.0
210
0.0
220
0.0
230
1.0
 40
0.288169279
 41
1.423000629420633
 42
1.602729630692776
  0
ELLIPSE
  5
D8
330
1F
100
AcDbEntity
  8
1
 62
     4
420
    65535
100
AcDbEllipse
 10
160.9273972419
 20
23.052416594
 30
0.0
 11
0.6885938145051967
 21
3.620967252363581
 31
0.0
210
0.0
220
0.0
230
1.0
 40
0.2460187209
 41
4.75842728799995
 42
4.938156289267777
  0
LINE
  5
D9
330
1F
100
AcDbEntity
  8
1
 62
     4
420
    65535
100
AcDbLine
 10
156.3035494737
 20
21.8810618752
 30
0.0
 11
161.373089405
 21
24.0494459426
 31
0.0
  0
LINE
  5
DA
330
1F
100
AcDbEntity
  8
1
 62
     4
420
    65535
100
AcDbLine
 10
161.373089405
 20
24.0494459426
 30
0.0
 11
154.8725245142
 21
23.3763982618
 31
0.0
  0
ARC
  5
DB
330
1F
100
AcDbEntity
  8
1
 62
     4
420
    65535
100
AcDbCircle
 10
159.5892491527
 20
23.5944884968
 30
0.0
 40
1.840943324281529
100
AcDbArc
 50
14.3079096415
 51
74.09852997520001
  0
LINE
  5
DC
330
1F
100
AcDbEntity
  8
1
 62
     4
420
    65535
100
AcDbLine
 10
153.0786184204
 20
24.6386741302
 30
0.0
 11
160.093637973
 21
25.3649867999
 31
0.0
  0
LINE
  5
DD
330
1F
100
AcDbEntity
  8
1
 62
     4
420
    65535
100
AcDbLine
 10
148.0872090742
 20
24.8034291707
 30
0.0
 11
143.5895226927
 21
22.6964144993
 31
0.0
  0
LINE
  5
DE
330
1F
100
AcDbEntity
  8
1
 62
     4
420
    65535
100
AcDbLine
 10
149.4579824153
 20
24.3759925168
 30
0.0
 11
148.0872090742
 21
24.8034291707
 31
0.0
  0
LINE
  5
DF
330
1F
100
AcDbEntity
  8
1
 62
     4
420
    65535
100
AcDbLine
 10
142.2632139005
 20
22.2575237029
 30
0.0
 11
140.0110279589
 21
21.202450401
 31
0.0
  0
ELLIPSE
  5
E0
330
1F
100
AcDbEntity
  8
1
 62
     4
420
    65535
100
AcDbEllipse
 10
143.2693346157
 20
22.9112976181
 30
0.0
 11
1.378078249498685
 21
0.594820737014203
 31
0.0
210
0.0
220
0.0
230
1.0
 40
0.2180993611
 41
3.804765159581584
 42
4.85196271077819
  0
LINE
  5
E1
330
1F
100
AcDbEntity
  8
1
 62
     4
420
    65535
100
AcDbLine
 10
141.7423505247
 20
15.4546632452
 30
0.0
 11
141.3736653887
 21
15.0859781092
 31
0.0
  0
LINE
  5
E2
330
1F
100
AcDbEntity
  8
1
 62
     4
420
    65535
100
AcDbLine
 10
142.0894144747
 20
15.4212824629
 30
0.0
 11
141.3736653887
 21
15.0859781092
 31
0.0
  0
ELLIPSE
  5
E3
330
1F
100
AcDbEntity
  8
1
 62
     4
420
    65535
100
AcDbEllipse
 10
162.799931016
 20
21.4662160437
 30
0.0
 11
1.594488537198345
 21
1.313333914486808
 31
0.0
210
0.0
220
0.0
230
1.0
 40
0.0766123586
 41
1.274036774015512
 42
1.944670513135038
  0
LINE
  5
E4
330
1F
100
AcDbEntity
  8
1
 62
     4
420
    65535
100
AcDbLine
 10
159.987123156
 20
18.5146546426
 30
0.0
 11
163.1699765252
 21
21.967082923
 31
0.0
  0
ELLIPSE
  5
E5
330
1F
100
AcDbEntity
  8
1
 62
     4
420
    65535
100
AcDbEllipse
 10
159.35505214
 20
17.4495046728
 30
0.0
 11
1.05193347815154
 21
1.268571921506759
 31
0.0
210
0.0
220
0.0
230
1.0
 40
0.1751120942
 41
0.7342181519444517
 42
1.358243683741404
  0
LINE
  5
E6
330
1F
100
AcDbEntity
  8
1
 62
     4
420
    65535
100
AcDbLine
 10
154.7021595726
 20
12.6934782173
 30
0.0
 11
159.3598204811
 21
17.8971780779
 31
0.0
  0
LINE
  5
E7
330
1F
100
AcDbEntity
  8
1
 62
     4
420
    65535
100
AcDbLine
 10
155.051619145
 20
14.3460333182
 30
0.0
 11
154.7021595726
 21
12.6934782173
 31
0.0
  0
ELLIPSE
  5
E8
330
1F
100
AcDbEntity
  8
1
 62
     4
420
    65535
100
AcDbEllipse
 10
153.2368320188
 20
14.11707076
 30
0.0
 11
-0.3490462742690852
 21
2.044613637546165
 31
0.0
210
0.0
220
0.0
230
1.0
 40
0.9584855288
 41
3.399943636556856
 42
3.792671185675869
  0
LINE
  5
E9
330
1F
100
AcDbEntity
  8
1
 62
     4
420
    65535
100
AcDbLine
 10
142.4768891422
 20
13.2227059059
 30
0.0
 11
142.1816584119
 21
12.9274751755
 31
0.0
  0
ARC
  5
EA
330
1F
100
AcDbEntity
  8
1
 62
     4
420
    65535
100
AcDbCircle
 10
142.3603720339
 20
13.013252093
 30
0.0
 40
0.1982327880399451
100
AcDbArc
 50
135.1689513054
 51
205.6395411303
  0
ARC
  5
EB
330
1F
100
AcDbEntity
  8
1
 62
     4
420
    65535
100
AcDbCircle
 10
141.2894913798
 20
15.267937404
 30
0.0
 40
0.2004855324433076
100
AcDbArc
 50
205.3037596267
 51
294.8251674809
  0
LINE
  5
EC
330
1F
100
AcDbEntity
  8
1
 62
     4
420
    65535
100
AcDbLine
 10
141.108241531
 20
15.1822464418
 30
0.0
 11
141.4034722613
 21
15.4774771721
 31
0.0
  0
ELLIPSE
  5
ED
330
1F
100
AcDbEntity
  8
1
 62
     4
420
    65535
100
AcDbEllipse
 10
155.5693992993
 20
25.4014769223
 30
0.0
 11
1.643994854230243
 21
0.03296539191449455
 31
0.0
210
0.0
220
0.0
230
1.0
 40
0.0977349752
 41
4.888042067063173
 42
5.512067598870045
  0
LINE
  5
EE
330
1F
100
AcDbEntity
  8
1
 62
     4
420
    65535
100
AcDbLine
 10
156.7506062981
 20
25.313136522
 30
0.0
 11
161.4746993693
 21
25.5281059397
 31
0.0
  0
ELLIPSE
  5
EF
330
1F
100
AcDbEntity
  8
1
 62
     4
420
    65535
100
AcDbEllipse
 10
160.8617573225
 20
25.5374566127
 30
0.0
 11
2.100024246052982
 21
0.2518450315197285
 31
0.0
210
0.0
220
0.0
230
1.0
 40
0.0406070191
 41
4.333067226311012
 42
5.003700965442492
  0
LINE
  5
F0
330
1F
100
AcDbEntity
  8
1
 62
     4
420
    65535
100
AcDbLine
 10
148.8497544331
 20
24.9867774765
 30
0.0
 11
150.1840024594
 21
24.5707302025
 31
0.0
  0
LINE
  5
F1
330
1F
100
AcDbEntity
  8
1
 62
     4
420
    65535
100
AcDbLine
 10
148.8497544331
 20
24.9867774765
 30
0.0
 11
155.8598616885
 21
25.2490342475
 31
0.0
  0
ELLIPSE
  5
F2
330
1F
100
AcDbEntity
  8
1
 62
     4
420
    65535
100
AcDbEllipse
 10
149.0271139925
 20
22.9598152833
 30
0.0
 11
1.523105553770847
 21
-1.419561029086097
 31
0.0
210
0.0
220
0.0
230
1.0
 40
0.9512497293
 41
2.383391400168934
 42
2.776118949288166
  0
LINE
  5
F3
330
1F
100
AcDbEntity
  8
1
 62
     4
420
    65535
100
AcDbLine
 10
142.1816584119
 20
12.9274751755
 30
0.0
 11
144.4683260832
 21
8.1242038163
 31
0.0
  0
LINE
  5
F4
330
1F
100
AcDbEntity
  8
1
 62
     4
420
    65535
100
AcDbLine
 10
138.8215738597
 20
19.985517801
 30
0.0
 11
141.108241531
 21
15.1822464418
 31
0.0
  0
LINE
  5
F5
330
1F
100
AcDbEntity
  8
1
 62
     4
420
    65535
100
AcDbLine
 10
146.6022418662
 20
-0.0019940657
 30
0.0
 11
161.3206738223
 21
14.7164378904
 31
0.0
  0
LINE
  5
F6
330
1F
100
AcDbEntity
  8
1
 62
     4
420
    65535
100
AcDbLine
 10
146.6022418662
 20
-0.0019940657
 30
0.0
 11
140.2772123041
 21
-0.0019940657
 31
0.0
  0
LINE
  5
F7
330
1F
100
AcDbEntity
  8
1
 62
     4
420
    65535
100
AcDbLine
 10
138.0173564232
 20
24.9980059343
 30
0.0
 11
140.2772123041
 21
-0.0019940657
 31
0.0
  0
LINE
  5
F8
330
1F
100
AcDbEntity
  8
1
 62
     4
420
    65535
100
AcDbLine
 10
138.0173564232
 20
24.9980059343
 30
0.0
 11
145.0027086782
 21
24.9980059343
 31
0.0
  0
LINE
  5
F9
330
1F
100
AcDbEntity
  8
1
 62
     4
420
    65535
100
AcDbLine
 10
151.0027086782
 20
30.9980059343
 30
0.0
 11
145.0027086782
 21
24.9980059343
 31
0.0
  0
LINE
  5
FA
330
1F
100
AcDbEntity
  8
1
 62
     4
420
    65535
100
AcDbLine
 10
160.0743652823
 20
30.9980059343
 30
0.0
 11
151.0027086782
 21
30.9980059343
 31
0.0
  0
LINE
  5
FB
330
1F
100
AcDbEntity
  8
1
 62
     4
420
    65535
100
AcDbLine
 10
160.0743652823
 20
30.9980059343
 30
0.0
 11
154.325033793
 21
25.1916144402
 31
0.0
  0
ARC
  5
FC
330
1F
100
AcDbEntity
  8
1
 62
     4
420
    65535
100
AcDbCircle
 10
161.4815235863
 20
15.5057461533
 30
0.0
 40
0.8055309929042237
100
AcDbArc
 50
225.2564677012
 51
258.481656136
  0
LINE
  5
FD
330
1F
100
AcDbEntity
  8
1
 62
     4
420
    65535
100
AcDbLine
 10
135.0027086782
 20
-0.0019940657
 30
0.0
 11
140.2772123041
 21
-0.0019940657
 31
0.0
  0
LINE
  5
FE
330
1F
100
AcDbEntity
  8
1
 62
     4
420
    65535
100
AcDbLine
 10
135.0027086782
 20
-0.0019940657
 30
0.0
 11
135.0027086782
 21
24.9980059343
 31
0.0
  0
LINE
  5
FF
330
1F
100
AcDbEntity
  8
1
 62
     4
420
    65535
100
AcDbLine
 10
138.0173564232
 20
24.9980059343
 30
0.0
 11
135.0027086782
 21
24.9980059343
 31
0.0
  0
SPLINE
  5
100
330
1F
100
AcDbEntity
  8
1
 62
     4
420
    65535
100
AcDbSpline
210
0.0
220
0.0
230
1.0
 70
     8
 71
     3
 72
    22
 73
    18
 74
     0
 42
0.000000001
 43
0.00000001
 40
0.0
 40
0.0
 40
0.0
 40
0.0
 40
0.2499999999999608
 40
0.2499999999999608
 40
0.3749999999999452
 40
0.3749999999999452
 40
0.4374999999999559
 40
0.4374999999999559
 40
0.4999999999999667
 40
0.4999999999999667
 40
0.5624999999999775
 40
0.5624999999999775
 40
0.6249999999999881
 40
0.6249999999999881
 40
0.7499999999999928
 40
0.7499999999999928
 40
1.0
 40
1.0
 40
1.0
 40
1.0
 10
162.9701750818443
 20
22.42055892067609
 30
0.0
 10
162.8899141870931
 20
22.36363854182591
 30
0.0
 10
162.8090755014119
 20
22.31238207245277
 30
0.0
 10
162.6890617059207
 20
22.25791139126845
 30
0.0
 10
162.6493610485958
 20
22.2432234891984
 30
0.0
 10
162.5911262386125
 20
22.23621363376195
 30
0.0
 10
162.57169628168
 20
22.23637707073166
 30
0.0
 10
162.5364659332166
 20
22.24950802131013
 30
0.0
 10
162.5199439909485
 20
22.26349251929743
 30
0.0
 10
162.5072052468874
 20
22.31869366998098
 30
0.0
 10
162.5130234996768
 20
22.35711221926584
 30
0.0
 10
162.5341376475043
 20
22.42628522013339
 30
0.0
 10
162.5484088837269
 20
22.45821926909947
 30
0.0
 10
162.5944821103982
 20
22.54909282659228
 30
0.0
 10
162.6290763367235
 20
22.60182307526
 30
0.0
 10
162.7370753233787
 20
22.75147833023864
 30
0.0
 10
162.8137402260863
 20
22.83660446135737
 30
0.0
 10
162.891836255095
 20
22.91360926488311
 30
0.0
  0
SPLINE
  5
101
330
1F
100
AcDbEntity
  8
1
 62
     4
420
    65535
100
AcDbSpline
210
0.0
220
0.0
230
1.0
 70
     8
 71
     3
 72
    14
 73
    10
 74
     0
 42
0.000000001
 43
0.00000001
 40
0.0
 40
0.0
 40
0.0
 40
0.0
 40
0.25
 40
0.25
 40
0.5
 40
0.5
 40
0.75
 40
0.75
 40
1.0
 40
1.0
 40
1.0
 40
1.0
 10
163.4488407763433
 20
22.31883285486528
 30
0.0
 10
163.4318216289302
 20
22.34655626759752
 30
0.0
 10
163.4102071236554
 20
22.37453944210807
 30
0.0
 10
163.356452782425
 20
22.42766796131995
 30
0.0
 10
163.3241730804267
 20
22.45315815429986
 30
0.0
 10
163.2470199474249
 20
22.49130632561702
 30
0.0
 10
163.2014607135186
 20
22.50431988466297
 30
0.0
 10
163.094172743969
 20
22.49257846376668
 30
0.0
 10
163.0333228322579
 20
22.46534279566546
 30
0.0
 10
162.9701750818443
 20
22.42055892067609
 30
0.0
  0
SPLINE
  5
102
330
1F
100
AcDbEntity
  8
1
 62
     4
420
    65535
100
AcDbSpline
210
0.0
220
0.0
230
1.0
 70
     8
 71
     3
 72
     8
 73
     4
 74
     0
 42
0.000000001
 43
0.00000001
 40
0.0
 40
0.0
 40
0.0
 40
0.0
 40
1.0
 40
1.0
 40
1.0
 40
1.0
 10
163.4488407763453
 20
22.31883285487005
 30
0.0
 10
163.3808407950878
 20
22.21312889145512
 30
0.0
 10
163.3018649209802
 20
22.11020117419393
 30
0.0
 10
163.2178305289636
 20
22.01900337496325
 30
0.0
  0
SPLINE
  5
103
330
1F
100
AcDbEntity
  8
1
 62
     4
420
    65535
100
AcDbSpline
210
0.0
220
0.0
230
1.0
 70
     8
 71
     3
 72
     8
 73
     4
 74
     0
 42
0.000000001
 43
0.00000001
 40
0.0
 40
0.0
 40
0.0
 40
0.0
 40
0.0000726015470976
 40
0.0000726015470976
 40
0.0000726015470976
 40
0.0000726015470976
 10
163.2178305289636
 20
22.01900337496324
 30
0.0
 10
163.2019644779834
 20
22.00178484220358
 30
0.0
 10
163.1860105031126
 20
21.98447491456702
 30
0.0
 10
163.1699765251807
 20
21.96708292302979
 30
0.0
  0
SPLINE
  5
104
330
1F
100
AcDbEntity
  8
1
 62
     4
420
    65535
100
AcDbSpline
210
0.0
220
0.0
230
1.0
 70
     8
 71
     3
 72
    10
 73
     6
 74
     0
 42
0.000000001
 43
0.00000001
 40
0.0
 40
0.0
 40
0.0
 40
0.0
 40
0.5
 40
0.5
 40
1.0
 40
1.0
 40
1.0
 40
1.0
 10
163.0075720386665
 20
23.29216787483417
 30
0.0
 10
162.8623690924233
 20
23.37099596745529
 30
0.0
 10
162.6992899098499
 20
23.44488632381574
 30
0.0
 10
162.3460304769471
 20
23.58028791436623
 30
0.0
 10
162.1552096116309
 20
23.64219171416651
 30
0.0
 10
161.9497608203422
 20
23.69787768932744
 30
0.0
  0
SPLINE
  5
105
330
1F
100
AcDbEntity
  8
1
 62
     4
420
    65535
100
AcDbSpline
210
0.0
220
0.0
230
1.0
 70
     8
 71
     3
 72
    10
 73
     6
 74
     0
 42
0.000000001
 43
0.00000001
 40
0.0
 40
0.0
 40
0.0
 40
0.0
 40
0.5
 40
0.5
 40
1.0
 40
1.0
 40
1.0
 40
1.0
 10
163.0075720386773
 20
23.29216787483493
 30
0.0
 10
163.0092368700909
 20
23.22020986907061
 30
0.0
 10
163.0038383752128
 20
23.14693203989359
 30
0.0
 10
162.9662310105828
 20
23.01116162748715
 30
0.0
 10
162.9318076115922
 20
22.95302210690324
 30
0.0
 10
162.891836255095
 20
22.91360926488311
 30
0.0
  0
SPLINE
  5
106
330
1F
100
AcDbEntity
  8
1
 62
     4
420
    65535
100
AcDbSpline
210
0.0
220
0.0
230
1.0
 70
     8
 71
     3
 72
    10
 73
     6
 74
     0
 42
0.000000001
 43
0.00000001
 40
0.0
 40
0.0
 40
0.0
 40
0.0
 40
0.5
 40
0.5
 40
1.0
 40
1.0
 40
1.0
 40
1.0
 10
162.3422622972012
 20
24.6896876222115
 30
0.0
 10
162.3040718244865
 20
24.54373012152359
 30
0.0
 10
162.2512381055516
 20
24.38604381082167
 30
0.0
 10
162.1200939684852
 20
24.05487999163927
 30
0.0
 10
162.0416446595338
 20
23.88074114951976
 30
0.0
 10
161.9497608203422
 20
23.69787768932744
 30
0.0
  0
SPLINE
  5
107
330
1F
100
AcDbEntity
  8
1
 62
     4
420
    65535
100
AcDbSpline
210
0.0
220
0.0
230
1.0
 70
     8
 71
     3
 72
     8
 73
     4
 74
     0
 42
0.000000001
 43
0.00000001
 40
0.0
 40
0.0
 40
0.0
 40
0.0
 40
0.00007260154708
 40
0.00007260154708
 40
0.00007260154708
 40
0.00007260154708
 10
161.4746993693105
 20
25.52810593969045
 30
0.0
 10
161.4984975136948
 20
25.52918887204681
 30
0.0
 10
161.5222038725874
 20
25.53021449014858
 30
0.0
 10
161.545802462931
 20
25.53119039816979
 30
0.0
  0
SPLINE
  5
108
330
1F
100
AcDbEntity
  8
1
 62
     4
420
    65535
100
AcDbSpline
210
0.0
220
0.0
230
1.0
 70
     8
 71
     3
 72
     8
 73
     4
 74
     0
 42
0.000000001
 43
0.00000001
 40
0.0
 40
0.0
 40
0.0
 40
0.0
 40
1.0
 40
1.0
 40
1.0
 40
1.0
 10
161.5458024629307
 20
25.53119039816963
 30
0.0
 10
161.6716390092248
 20
25.53639430624644
 30
0.0
 10
161.7996729873434
 20
25.53349719419932
 30
0.0
 10
161.9243541469562
 20
25.52110096603225
 30
0.0
  0
SPLINE
  5
109
330
1F
100
AcDbEntity
  8
1
 62
     4
420
    65535
100
AcDbSpline
210
0.0
220
0.0
230
1.0
 70
     8
 71
     3
 72
    14
 73
    10
 74
     0
 42
0.000000001
 43
0.00000001
 40
0.0
 40
0.0
 40
0.0
 40
0.0
 40
0.25
 40
0.25
 40
0.5
 40
0.5
 40
0.75
 40
0.75
 40
1.0
 40
1.0
 40
1.0
 40
1.0
 10
161.9243541469509
 20
25.52110096603396
 30
0.0
 10
161.9308231026386
 20
25.49948632482814
 30
0.0
 10
161.9346299666813
 20
25.47407051325696
 30
0.0
 10
161.9334522408941
 20
25.41675895659428
 30
0.0
 10
161.928626820855
 20
25.38457991854644
 30
0.0
 10
161.9012427118799
 20
25.31818551436155
 30
0.0
 10
161.8784634082043
 20
25.2833485755806
 30
0.0
 10
161.7937933670965
 20
25.22409695053643
 30
0.0
 10
161.7306437632186
 20
25.20169191246437
 30
0.0
 10
161.652821306487
 20
25.18773306615999
 30
0.0
  0
SPLINE
  5
10A
330
1F
100
AcDbEntity
  8
1
 62
     4
420
    65535
100
AcDbSpline
210
0.0
220
0.0
230
1.0
 70
     8
 71
     3
 72
    22
 73
    18
 74
     0
 42
0.000000001
 43
0.00000001
 40
0.0
 40
0.0
 40
0.0
 40
0.0
 40
0.249999999999967
 40
0.249999999999967
 40
0.3749999999999458
 40
0.3749999999999458
 40
0.4374999999999352
 40
0.4374999999999352
 40
0.4999999999999245
 40
0.4999999999999245
 40
0.5624999999999138
 40
0.5624999999999138
 40
0.6249999999999032
 40
0.6249999999999032
 40
0.7499999999999227
 40
0.7499999999999227
 40
1.0
 40
1.0
 40
1.0
 40
1.0
 10
161.652821306487
 20
25.18773306615999
 30
0.0
 10
161.5539088358481
 20
25.16999134952416
 30
0.0
 10
161.4588834837685
 20
25.1485347541221
 30
0.0
 10
161.3341832661864
 20
25.10390816061122
 30
0.0
 10
161.2954547082822
 20
25.08717831018377
 30
0.0
 10
161.2496522303873
 20
25.05405365661263
 30
0.0
 10
161.2362650973399
 20
25.04152380926381
 30
0.0
 10
161.2217103571239
 20
25.01122450620482
 30
0.0
 10
161.2208111026704
 20
24.99239268816611
 30
0.0
 10
161.2537531169932
 20
24.95163889042962
 30
0.0
 10
161.286890676002
 20
24.93267173264946
 30
0.0
 10
161.3539527052085
 20
24.90532867855234
 30
0.0
 10
161.388057893437
 20
24.89560041916402
 30
0.0
 10
161.488907923962
 20
24.87141228387011
 30
0.0
 10
161.5528925362407
 20
24.86240640845135
 30
0.0
 10
161.7413148946329
 20
24.84312794254973
 30
0.0
 10
161.8590851404132
 20
24.84191003707632
 30
0.0
 10
161.971700810666
 20
24.84640443333285
 30
0.0
  0
SPLINE
  5
10B
330
1F
100
AcDbEntity
  8
1
 62
     4
420
    65535
100
AcDbSpline
210
0.0
220
0.0
230
1.0
 70
     8
 71
     3
 72
    10
 73
     6
 74
     0
 42
0.000000001
 43
0.00000001
 40
0.0
 40
0.0
 40
0.0
 40
0.0
 40
0.5
 40
0.5
 40
1.0
 40
1.0
 40
1.0
 40
1.0
 10
161.971700810666
 20
24.84640443333285
 30
0.0
 10
162.0292522633067
 20
24.84870126318544
 30
0.0
 10
162.0962546170099
 20
24.83641236698708
 30
0.0
 10
162.2277579289365
 20
24.77741768267501
 30
0.0
 10
162.2879821668369
 20
24.73550475938795
 30
0.0
 10
162.3422622972011
 20
24.6896876222116
 30
0.0
  0
SPLINE
  5
10C
330
1F
100
AcDbEntity
  8
1
 62
     4
420
    65535
100
AcDbSpline
210
0.0
220
0.0
230
1.0
 70
     8
 71
     3
 72
    12
 73
     8
 74
     0
 42
0.000000001
 43
0.00000001
 40
0.0
 40
0.0
 40
0.0
 40
0.0
 40
0.2499999999999944
 40
0.2499999999999944
 40
0.4999999999999888
 40
0.4999999999999888
 40
1.0
 40
1.0
 40
1.0
 40
1.0
 10
162.3422622971982
 20
24.6896876222006
 30
0.0
 10
162.4438186070292
 20
24.60396528978621
 30
0.0
 10
162.5354595444968
 20
24.50917650450265
 30
0.0
 10
162.6977558773551
 20
24.30079563762753
 30
0.0
 10
162.7690203409305
 20
24.18566751184409
 30
0.0
 10
162.9403612599543
 20
23.8260615603448
 30
0.0
 10
163.0013635917077
 20
23.56051184001096
 30
0.0
 10
163.0075720386774
 20
23.29216787483646
 30
0.0
  0
LINE
  5
10D
330
1F
100
AcDbEntity
  8
1
 62
     4
420
    65535
100
AcDbLine
 10
162.8918362551
 20
22.9136092649
 30
0.0
 11
163.1002993023
 21
22.7879613483
 31
0.0
  0
LINE
  5
10E
330
1F
100
AcDbEntity
  8
1
 62
     4
420
    65535
100
AcDbLine
 10
162.9701750818
 20
22.4205589207
 30
0.0
 11
163.1002993023
 21
22.7879613483
 31
0.0
  0
LINE
  5
10F
330
1F
100
AcDbEntity
  8
1
 62
     4
420
    65535
100
AcDbLine
 10
161.6528213065
 20
25.1877330662
 30
0.0
 11
162.021513886
 21
25.0540095185
 31
0.0
  0
LINE
  5
110
330
1F
100
AcDbEntity
  8
1
 62
     4
420
    65535
100
AcDbLine
 10
161.9717008107
 20
24.8464044333
 30
0.0
 11
162.021513886
 21
25.0540095185
 31
0.0
  0
ARC
  5
111
330
1F
100
AcDbEntity
  8
1
 62
     4
420
    65535
100
AcDbCircle
 10
161.4163402717
 20
23.3760978742
 30
0.0
 40
1.783710343584242
100
AcDbArc
 50
340.7478254514
 51
70.16711012869999
  0
ARC
  5
112
330
1F
100
AcDbEntity
  8
1
 62
     4
420
    65535
100
AcDbCircle
 10
162.2620844859
 20
21.2387209563
 30
0.0
 40
1.761462423767522
100
AcDbArc
 50
44.08586111249999
 51
61.58444439579999
  0
SPLINE
  5
113
330
1F
100
AcDbEntity
  8
1
 62
     4
420
    65535
100
AcDbSpline
210
0.0
220
0.0
230
1.0
 70
     8
 71
     3
 72
     8
 73
     4
 74
     0
 42
0.000000001
 43
0.00000001
 40
0.0
 40
0.0
 40
0.0
 40
0.0
 40
1.0
 40
1.0
 40
1.0
 40
1.0
 10
163.4488407763452
 20
22.31883285487057
 30
0.0
 10
163.4750426020004
 20
22.36266481273578
 30
0.0
 10
163.5009286981307
 20
22.41003660611358
 30
0.0
 10
163.5273394332437
 20
22.46423300791998
 30
0.0
  0
SPLINE
  5
114
330
1F
100
AcDbEntity
  8
1
 62
     4
420
    65535
100
AcDbSpline
210
0.0
220
0.0
230
1.0
 70
     8
 71
     3
 72
    10
 73
     6
 74
     0
 42
0.000000001
 43
0.00000001
 40
0.0
 40
0.0
 40
0.0
 40
0.0
 40
0.1457399555453881
 40
0.8663875299416941
 40
1.0
 40
1.0
 40
1.0
 40
1.0
 10
163.665310183657
 20
23.48803633274497
 30
0.0
 10
163.6813517436677
 20
23.43838446054732
 30
0.0
 10
163.77671479975
 20
23.14321651741649
 30
0.0
 10
163.6684322647468
 20
22.77871630223662
 30
0.0
 10
163.5464226261129
 20
22.50676773697518
 30
0.0
 10
163.5273394332437
 20
22.46423300792018
 30
0.0
  0
ARC
  5
115
330
1F
100
AcDbEntity
  8
1
 62
     4
420
    65535
100
AcDbCircle
 10
160.210878171
 20
25.5728776311
 30
0.0
 40
1.883514218369526
100
AcDbArc
 50
344.0094543866999
 51
357.1468031453001
  0
SPLINE
  5
116
330
1F
100
AcDbEntity
  8
1
 62
     4
420
    65535
100
AcDbSpline
210
0.0
220
0.0
230
1.0
 70
     8
 71
     3
 72
     9
 73
     5
 74
     0
 42
0.000000001
 43
0.00000001
 40
0.0
 40
0.0
 40
0.0
 40
0.0
 40
0.7115392008159322
 40
1.0
 40
1.0
 40
1.0
 40
1.0
 10
162.0920574943148
 20
25.4791217546828
 30
0.0
 10
162.2996339717525
 20
25.41093466288245
 30
0.0
 10
162.5913627720766
 20
25.31510425505367
 30
0.0
 10
162.7982883445781
 20
25.08630001493431
 30
0.0
 10
162.8579782605935
 20
25.02029896097278
 30
0.0
  0
SPLINE
  5
117
330
1F
100
AcDbEntity
  8
1
 62
     4
420
    65535
100
AcDbSpline
210
0.0
220
0.0
230
1.0
 70
     8
 71
     3
 72
     8
 73
     4
 74
     0
 42
0.000000001
 43
0.00000001
 40
0.0
 40
0.0
 40
0.0
 40
0.0
 40
1.0
 40
1.0
 40
1.0
 40
1.0
 10
161.9243541469563
 20
25.52110096603206
 30
0.0
 10
161.9768349904347
 20
25.509732399896
 30
0.0
 10
162.0317520844048
 20
25.49612298370939
 30
0.0
 10
162.0920574943147
 20
25.47912175468291
 30
0.0
  0
LINE
  5
118
330
1F
100
AcDbEntity
  8
1
 62
     4
420
    65535
100
AcDbLine
 10
1.0027086782
 20
24.9980059343
 30
0.0
 11
1.0027086782
 21
-0.0019940657
 31
0.0
  0
LINE
  5
119
330
1F
100
AcDbEntity
  8
1
 62
     4
420
    65535
100
AcDbLine
 10
135.0027086782
 20
24.9980059343
 30
0.0
 11
1.0027086782
 21
24.9980059343
 31
0.0
  0
LINE
  5
11A
330
1F
100
AcDbEntity
  8
1
 62
     4
420
    65535
100
AcDbLine
 10
135.0027086782
 20
-0.0019940657
 30
0.0
 11
1.0027086782
 21
-0.0019940657
 31
0.0
  0
LINE
  5
11B
330
1F
100
AcDbEntity
  8
1
 62
     4
420
    65535
100
AcDbLine
 10
0.0027086782
 20
0.9980059343
 30
0.0
 11
0.0027086782
 21
23.9980059343
 31
0.0
  0
LINE
  5
11C
330
1F
100
AcDbEntity
  8
1
 62
     4
420
    65535
100
AcDbLine
 10
0.0027086782
 20
23.9980059343
 30
0.0
 11
1.0027086782
 21
24.9980059343
 31
0.0
  0
LINE
  5
11D
330
1F
100
AcDbEntity
  8
1
 62
     4
420
    65535
100
AcDbLine
 10
0.0027086782
 20
0.9980059343
 30
0.0
 11
1.0027086782
 21
-0.0019940657
 31
0.0
  0
DIMENSION
  5
11E
330
1F
100
AcDbEntity
  8
2
  6
SLD-Durchgehend
 62
     7
370
    15
100
AcDbDimension
  2
_D
 10
0.0027086781999941
 20
43.9142343518
 30
0.0
 11
85.0027086782
 21
43.9142343518
 31
0.0
 70
   160
  1
<>
 71
     2
 42
170.0
  3
SLDDIMSTYLE0
100
AcDbAlignedDimension
 13
170.0027086782
 23
31.9980059343
 33
0.0
 14
0.0027086782
 24
-0.0019940657
 34
0.0
100
AcDbRotatedDimension
  0
DIMENSION
  5
12A
330
1F
100
AcDbEntity
  8
2
  6
SLD-Durchgehend
 62
     7
370
    15
100
AcDbDimension
  2
_D_1
 10
-5.997291321800001
 20
-0.0019940656999999
 30
0.0
 11
-5.9972913218
 21
12.4980059343
 31
0.0
 70
   160
  1
<>
 71
     2
 42
25.0
  3
SLDDIMSTYLE0
100
AcDbAlignedDimension
 13
1.0027086782
 23
24.9980059343
 33
0.0
 14
1.0027086782
 24
-0.0019940657
 34
0.0
 50
90.0
100
AcDbRotatedDimension
  0
DIMENSION
  5
134
330
1F
100
AcDbEntity
  8
2
  6
SLD-Durchgehend
 62
     7
370
    15
100
AcDbDimension
  2
_D_2
 10
176.0020352505
 20
-0.0019940656999999
 30
0.0
 11
176.0020352505
 21
15.9980059343
 31
0.0
 70
   160
  1
<>
 71
     2
 42
32.0
  3
SLDDIMSTYLE0
100
AcDbAlignedDimension
 13
170.0027086782
 23
31.9980059343
 33
0.0
 14
170.0027086782
 24
-0.0019940657
 34
0.0
 50
90.0
100
AcDbRotatedDimension
  0
DIMENSION
  5
13E
330
1F
100
AcDbEntity
  8
2
  6
SLD-Durchgehend
 62
     7
370
    15
100
AcDbDimension
  2
_D_3
 10
170.0027086782
 20
37.9142343518
 30
0.0
 11
152.5027086782
 21
37.9142343518
 31
0.0
 70
   160
  1
<>
 71
     2
 42
35.0
  3
SLDDIMSTYLE0
100
AcDbAlignedDimension
 13
135.0027086782
 23
-0.0019940657
 33
0.0
 14
170.0027086782
 24
31.9980059343
 34
0.0
100
AcDbRotatedDimension
  0
ENDSEC
  0
SECTION
  2
OBJECTS
  0
DICTIONARY
  5
C
330
0
100
AcDbDictionary
281
     1
  3
ACAD_DETAILVIEWSTYLE
350
164
  3
ACAD_GROUP
350
D
  3
ACAD_IMAGE_VARS
350
182
  3
ACAD_LAYOUT
350
1A
  3
ACAD_MATERIAL
350
43
  3
ACAD_MLEADERSTYLE
350
163
  3
ACAD_MLINESTYLE
350
17
  3
ACAD_PLOTSETTINGS
350
19
  3
ACAD_PLOTSTYLENAME
350
E
  3
ACAD_SCALELIST
350
47
  3
ACAD_SECTIONVIEWSTYLE
350
165
  3
ACAD_TABLESTYLE
350
162
  3
ACDB_RECOMPOSE_DATA
350
193
  3
AcDbVariableDictionary
350
160
  3
APPDATA
350
180
  0
DICTIONARY
  5
164
102
{ACAD_REACTORS
330
C
102
}
330
C
100
AcDbDictionary
281
     1
  0
DICTIONARY
  5
D
102
{ACAD_REACTORS
330
C
102
}
330
C
100
AcDbDictionary
281
     1
  0
RASTERVARIABLES
  5
182
102
{ACAD_REACTORS
330
C
102
}
330
C
100
AcDbRasterVariables
 90
        0
 70
     1
 71
     1
 72
     1
  0
DICTIONARY
  5
1A
102
{ACAD_REACTORS
330
C
102
}
330
C
100
AcDbDictionary
281
     1
  3
Layout1
350
1E
  3
Layout2
350
26
  3
Model
350
22
  0
DICTIONARY
  5
43
102
{ACAD_REACTORS
330
C
102
}
330
C
100
AcDbDictionary
281
     1
  3
ByBlock
350
45
  3
ByLayer
350
44
  3
Global
350
46
  0
DICTIONARY
  5
163
102
{ACAD_REACTORS
330
C
102
}
330
C
100
AcDbDictionary
281
     1
  0
DICTIONARY
  5
17
102
{ACAD_REACTORS
330
C
102
}
330
C
100
AcDbDictionary
281
     1
  3
Standard
350
18
  0
DICTIONARY
  5
19
102
{ACAD_REACTORS
330
C
102
}
330
C
100
AcDbDictionary
281
     1
  0
ACDBDICTIONARYWDFLT
  5
E
102
{ACAD_REACTORS
330
C
102
}
330
C
100
AcDbDictionary
281
     1
  3
Normal
350
F
100
AcDbDictionaryWithDefault
340
F
  0
DICTIONARY
  5
47
102
{ACAD_REACTORS
330
C
102
}
330
C
100
AcDbDictionary
281
     1
  3
A0
350
48
  3
A1
350
49
  3
A2
350
4A
  3
A3
350
4B
  3
A4
350
4C
  3
A5
350
4D
  3
A6
350
4E
  3
A7
350
4F
  3
A8
350
50
  3
A9
350
51
  3
B0
350
52
  3
B1
350
53
  3
B2
350
54
  3
B3
350
55
  3
B4
350
56
  3
B5
350
57
  3
B6
350
58
  3
B7
350
59
  3
B8
350
5A
  3
B9
350
5B
  3
C0
350
5C
  3
C1
350
5D
  3
C2
350
5E
  3
C3
350
5F
  3
C4
350
60
  3
C5
350
61
  3
C6
350
62
  3
C7
350
63
  3
C8
350
64
  3
C9
350
65
  3
D0
350
66
  3
D1
350
67
  3
D2
350
68
  0
DICTIONARY
  5
165
102
{ACAD_REACTORS
330
C
102
}
330
C
100
AcDbDictionary
281
     1
  0
DICTIONARY
  5
162
102
{ACAD_REACTORS
330
C
102
}
330
C
100
AcDbDictionary
281
     1
  3
Standard
350
17F
  0
XRECORD
  5
193
102
{ACAD_REACTORS
330
C
102
}
330
C
100
AcDbXrecord
280
     1
 90
        1
330
17F
  0
DICTIONARY
  5
160
102
{ACAD_REACTORS
330
C
102
}
330
C
100
AcDbDictionary
281
     1
  3
CANNOSCALE
350
161
  3
CTABLESTYLE
350
194
  3
MSLTSCALE
350
195
  3
XCLIPFRAME
350
196
  0
DICTIONARY
  5
180
102
{ACAD_REACTORS
330
C
102
}
330
C
100
AcDbDictionary
281
     1
  0
LAYOUT
  5
1E
102
{ACAD_REACTORS
330
1A
102
}
330
1A
100
AcDbPlotSettings
  1

  2
none_device
  4

  6

 40
0.0
 41
0.0
 42
0.0
 43
0.0
 44
0.0
 45
0.0
 46
0.0
 47
0.0
 48
0.0
 49
0.0
140
0.0
141
0.0
142
1.0
143
1.0
 70
   688
 72
     1
 73
     0
 74
     5
  7

 75
    16
 76
     0
 77
     2
 78
   300
147
1.0
148
0.0
149
0.0
100
AcDbLayout
  1
Layout1
 70
     1
 71
     1
 10
0.0
 20
0.0
 11
420.0
 21
297.0
 12
0.0
 22
0.0
 32
0.0
 14
1.000000000000000E+20
 24
1.000000000000000E+20
 34
1.000000000000000E+20
 15
-1.000000000000000E+20
 25
-1.000000000000000E+20
 35
-1.000000000000000E+20
146
0.0
 13
0.0
 23
0.0
 33
0.0
 16
1.0
 26
0.0
 36
0.0
 17
0.0
 27
1.0
 37
0.0
 76
     0
330
1B
  0
LAYOUT
  5
26
102
{ACAD_REACTORS
330
1A
102
}
330
1A
100
AcDbPlotSettings
  1

  2
none_device
  4

  6

 40
0.0
 41
0.0
 42
0.0
 43
0.0
 44
0.0
 45
0.0
 46
0.0
 47
0.0
 48
0.0
 49
0.0
140
0.0
141
0.0
142
1.0
143
1.0
 70
   688
 72
     1
 73
     0
 74
     5
  7

 75
    16
 76
     0
 77
     2
 78
   300
147
1.0
148
0.0
149
0.0
100
AcDbLayout
  1
Layout2
 70
     1
 71
     2
 10
0.0
 20
0.0
 11
0.0
 21
0.0
 12
0.0
 22
0.0
 32
0.0
 14
0.0
 24
0.0
 34
0.0
 15
0.0
 25
0.0
 35
0.0
146
0.0
 13
0.0
 23
0.0
 33
0.0
 16
1.0
 26
0.0
 36
0.0
 17
0.0
 27
1.0
 37
0.0
 76
     0
330
23
  0
LAYOUT
  5
22
102
{ACAD_REACTORS
330
1A
102
}
330
1A
100
AcDbPlotSettings
  1

  2
none_device
  4
Letter_(8.50_x_11.00_Inches)
  6

 40
6.35
 41
6.35
 42
6.35000508
 43
6.35000508
 44
215.9
 45
279.4
 46
0.0
 47
0.0
 48
0.0
 49
0.0
140
0.0
141
0.0
142
1.0
143
1.0
 70
  1712
 72
     1
 73
     0
 74
     0
  7

 75
     0
 76
     0
 77
     2
 78
   300
147
1.0
148
0.0
149
0.0
100
AcDbLayout
  1
Model
 70
     1
 71
     0
 10
0.0
 20
0.0
 11
297.0
 21
210.0
 12
0.0
 22
0.0
 32
0.0
 14
0.0
 24
0.0
 34
0.0
 15
297.0
 25
210.0
 35
0.0
146
0.0
 13
0.0
 23
0.0
 33
0.0
 16
1.0
 26
0.0
 36
0.0
 17
0.0
 27
1.0
 37
0.0
 76
     0
330
1F
331
29
  0
MATERIAL
  5
45
102
{ACAD_REACTORS
330
43
102
}
330
43
100
AcDbMaterial
  1
ByBlock
  0
MATERIAL
  5
44
102
{ACAD_REACTORS
330
43
102
}
330
43
100
AcDbMaterial
  1
ByLayer
  0
MATERIAL
  5
46
102
{ACAD_REACTORS
330
43
102
}
330
43
100
AcDbMaterial
  1
Global
  0
MLINESTYLE
  5
18
102
{ACAD_REACTORS
330
17
102
}
330
17
100
AcDbMlineStyle
  2
Standard
 70
     0
  3

 62
   256
 51
90.0
 52
90.0
 71
     2
 49
0.5
 62
   256
  6
BYLAYER
 49
-0.5
 62
   256
  6
BYLAYER
  0
ACDBPLACEHOLDER
  5
F
102
{ACAD_REACTORS
330
E
102
}
330
E
  0
SCALE
  5
48
102
{ACAD_REACTORS
330
47
102
}
330
47
100
AcDbScale
 70
     0
300
1:1
140
1.0
141
1.0
290
     1
  0
SCALE
  5
49
102
{ACAD_REACTORS
330
47
102
}
330
47
100
AcDbScale
 70
     0
300
1:2
140
1.0
141
2.0
290
     0
  0
SCALE
  5
4A
102
{ACAD_REACTORS
330
47
102
}
330
47
100
AcDbScale
 70
     0
300
1:4
140
1.0
141
4.0
290
     0
  0
SCALE
  5
4B
102
{ACAD_REACTORS
330
47
102
}
330
47
100
AcDbScale
 70
     0
300
1:5
140
1.0
141
5.0
290
     0
  0
SCALE
  5
4C
102
{ACAD_REACTORS
330
47
102
}
330
47
100
AcDbScale
 70
     0
300
1:8
140
1.0
141
8.0
290
     0
  0
SCALE
  5
4D
102
{ACAD_REACTORS
330
47
102
}
330
47
100
AcDbScale
 70
     0
300
1:10
140
1.0
141
10.0
290
     0
  0
SCALE
  5
4E
102
{ACAD_REACTORS
330
47
102
}
330
47
100
AcDbScale
 70
     0
300
1:16
140
1.0
141
16.0
290
     0
  0
SCALE
  5
4F
102
{ACAD_REACTORS
330
47
102
}
330
47
100
AcDbScale
 70
     0
300
1:20
140
1.0
141
20.0
290
     0
  0
SCALE
  5
50
102
{ACAD_REACTORS
330
47
102
}
330
47
100
AcDbScale
 70
     0
300
1:30
140
1.0
141
30.0
290
     0
  0
SCALE
  5
51
102
{ACAD_REACTORS
330
47
102
}
330
47
100
AcDbScale
 70
     0
300
1:40
140
1.0
141
40.0
290
     0
  0
SCALE
  5
52
102
{ACAD_REACTORS
330
47
102
}
330
47
100
AcDbScale
 70
     0
300
1:50
140
1.0
141
50.0
290
     0
  0
SCALE
  5
53
102
{ACAD_REACTORS
330
47
102
}
330
47
100
AcDbScale
 70
     0
300
1:100
140
1.0
141
100.0
290
     0
  0
SCALE
  5
54
102
{ACAD_REACTORS
330
47
102
}
330
47
100
AcDbScale
 70
     0
300
2:1
140
2.0
141
1.0
290
     0
  0
SCALE
  5
55
102
{ACAD_REACTORS
330
47
102
}
330
47
100
AcDbScale
 70
     0
300
4:1
140
4.0
141
1.0
290
     0
  0
SCALE
  5
56
102
{ACAD_REACTORS
330
47
102
}
330
47
100
AcDbScale
 70
     0
300
8:1
140
8.0
141
1.0
290
     0
  0
SCALE
  5
57
102
{ACAD_REACTORS
330
47
102
}
330
47
100
AcDbScale
 70
     0
300
10:1
140
10.0
141
1.0
290
     0
  0
SCALE
  5
58
102
{ACAD_REACTORS
330
47
102
}
330
47
100
AcDbScale
 70
     0
300
100:1
140
100.0
141
1.0
290
     0
  0
SCALE
  5
59
102
{ACAD_REACTORS
330
47
102
}
330
47
100
AcDbScale
 70
     0
300
1/128" = 1'-0"
140
0.0078125
141
12.0
290
     0
  0
SCALE
  5
5A
102
{ACAD_REACTORS
330
47
102
}
330
47
100
AcDbScale
 70
     0
300
1/64" = 1'-0"
140
0.015625
141
12.0
290
     0
  0
SCALE
  5
5B
102
{ACAD_REACTORS
330
47
102
}
330
47
100
AcDbScale
 70
     0
300
1/32" = 1'-0"
140
0.03125
141
12.0
290
     0
  0
SCALE
  5
5C
102
{ACAD_REACTORS
330
47
102
}
330
47
100
AcDbScale
 70
     0
300
1/16" = 1'-0"
140
0.0625
141
12.0
290
     0
  0
SCALE
  5
5D
102
{ACAD_REACTORS
330
47
102
}
330
47
100
AcDbScale
 70
     0
300
3/32" = 1'-0"
140
0.09375
141
12.0
290
     0
  0
SCALE
  5
5E
102
{ACAD_REACTORS
330
47
102
}
330
47
100
AcDbScale
 70
     0
300
1/8" = 1'-0"
140
0.125
141
12.0
290
     0
  0
SCALE
  5
5F
102
{ACAD_REACTORS
330
47
102
}
330
47
100
AcDbScale
 70
     0
300
3/16" = 1'-0"
140
0.1875
141
12.0
290
     0
  0
SCALE
  5
60
102
{ACAD_REACTORS
330
47
102
}
330
47
100
AcDbScale
 70
     0
300
1/4" = 1'-0"
140
0.25
141
12.0
290
     0
  0
SCALE
  5
61
102
{ACAD_REACTORS
330
47
102
}
330
47
100
AcDbScale
 70
     0
300
3/8" = 1'-0"
140
0.375
141
12.0
290
     0
  0
SCALE
  5
62
102
{ACAD_REACTORS
330
47
102
}
330
47
100
AcDbScale
 70
     0
300
1/2" = 1'-0"
140
0.5
141
12.0
290
     0
  0
SCALE
  5
63
102
{ACAD_REACTORS
330
47
102
}
330
47
100
AcDbScale
 70
     0
300
3/4" = 1'-0"
140
0.75
141
12.0
290
     0
  0
SCALE
  5
64
102
{ACAD_REACTORS
330
47
102
}
330
47
100
AcDbScale
 70
     0
300
1" = 1'-0"
140
1.0
141
12.0
290
     0
  0
SCALE
  5
65
102
{ACAD_REACTORS
330
47
102
}
330
47
100
AcDbScale
 70
     0
300
1-1/2" = 1'-0"
140
1.5
141
12.0
290
     0
  0
SCALE
  5
66
102
{ACAD_REACTORS
330
47
102
}
330
47
100
AcDbScale
 70
     0
300
3" = 1'-0"
140
3.0
141
12.0
290
     0
  0
SCALE
  5
67
102
{ACAD_REACTORS
330
47
102
}
330
47
100
AcDbScale
 70
     0
300
6" = 1'-0"
140
6.0
141
12.0
290
     0
  0
SCALE
  5
68
102
{ACAD_REACTORS
330
47
102
}
330
47
100
AcDbScale
 70
     0
300
1'-0" = 1'-0"
140
12.0
141
12.0
290
     0
  0
TABLESTYLE
  5
17F
102
{ACAD_REACTORS
330
162
102
}
102
{ACAD_XDICTIONARY
360
190
102
}
330
162
100
AcDbTableStyle
  3
Standard
 70
     0
 71
     0
 40
0.06
 41
0.06
280
     0
281
     0
  7
Standard
140
4.5
170
     2
 62
     0
 63
   257
283
     0
274
    -2
284
     1
 64
     0
275
    -2
285
     1
 65
     0
276
    -2
286
     1
 66
     0
277
    -2
287
     1
 67
     0
278
    -2
288
     1
 68
     0
279
    -2
289
     1
 69
     0
  7
Standard
140
6.0
170
     5
 62
     0
 63
   257
283
     0
274
    -2
284
     1
 64
     0
275
    -2
285
     1
 65
     0
276
    -2
286
     1
 66
     0
277
    -2
287
     1
 67
     0
278
    -2
288
     1
 68
     0
279
    -2
289
     1
 69
     0
  7
Standard
140
4.5
170
     5
 62
     0
 63
   257
283
     0
274
    -2
284
     1
 64
     0
275
    -2
285
     1
 65
     0
276
    -2
286
     1
 66
     0
277
    -2
287
     1
 67
     0
278
    -2
288
     1
 68
     0
279
    -2
289
     1
 69
     0
  0
DICTIONARYVAR
  5
161
102
{ACAD_REACTORS
330
160
102
}
330
160
100
DictionaryVariables
280
     0
  1
1:1
  0
DICTIONARYVAR
  5
194
102
{ACAD_REACTORS
330
160
102
}
330
160
100
DictionaryVariables
280
     0
  1
Standard
  0
DICTIONARYVAR
  5
195
102
{ACAD_REACTORS
330
160
102
}
330
160
100
DictionaryVariables
280
     0
  1
0
  0
DICTIONARYVAR
  5
196
102
{ACAD_REACTORS
330
160
102
}
330
160
100
DictionaryVariables
280
     0
  1
0
  0
DICTIONARY
  5
190
330
17F
100
AcDbDictionary
280
     1
281
     1
  3
ACAD_ROUNDTRIP_2008_TABLESTYLE_CELLSTYLEMAP
360
192
  3
ACAD_XREC_ROUNDTRIP
360
191
  0
CELLSTYLEMAP
  5
192
102
{ACAD_REACTORS
330
190
102
}
330
190
100
AcDbCellStyleMap
 90
        3
300
CELLSTYLE
  1
TABLEFORMAT_BEGIN
 90
        5
170
     1
 91
        0
 92
        0
 62
   257
 93
        1
300
CONTENTFORMAT
  1
CONTENTFORMAT_BEGIN
 90
        0
 91
        0
 92
        4
 93
        0
300

 40
0.0
140
1.0
 94
        5
 62
     0
340
11
144
6.0
309
CONTENTFORMAT_END
171
     1
301
MARGIN
  1
CELLMARGIN_BEGIN
 40
1.5
 40
1.5
 40
1.5
 40
1.5
 40
1.5
 40
1.5
309
CELLMARGIN_END
 94
        6
 95
        1
302
GRIDFORMAT
  1
GRIDFORMAT_BEGIN
 90
        0
 91
        1
 62
     0
 92
       -2
340
14
 93
        0
 40
0.045
309
GRIDFORMAT_END
 95
        2
302
GRIDFORMAT
  1
GRIDFORMAT_BEGIN
 90
        0
 91
        1
 62
     0
 92
       -2
340
14
 93
        0
 40
0.045
309
GRIDFORMAT_END
 95
        4
302
GRIDFORMAT
  1
GRIDFORMAT_BEGIN
 90
        0
 91
        1
 62
     0
 92
       -2
340
14
 93
        0
 40
0.045
309
GRIDFORMAT_END
 95
        8
302
GRIDFORMAT
  1
GRIDFORMAT_BEGIN
 90
        0
 91
        1
 62
     0
 92
       -2
340
14
 93
        0
 40
0.045
309
GRIDFORMAT_END
 95
       16
302
GRIDFORMAT
  1
GRIDFORMAT_BEGIN
 90
        0
 91
        1
 62
     0
 92
       -2
340
14
 93
        0
 40
0.045
309
GRIDFORMAT_END
 95
       32
302
GRIDFORMAT
  1
GRIDFORMAT_BEGIN
 90
        0
 91
        1
 62
     0
 92
       -2
340
14
 93
        0
 40
0.045
309
GRIDFORMAT_END
309
TABLEFORMAT_END
  1
CELLSTYLE_BEGIN
 90
        1
 91
        1
300
_TITLE
309
CELLSTYLE_END
300
CELLSTYLE
  1
TABLEFORMAT_BEGIN
 90
        5
170
     1
 91
        0
 92
        0
 62
   257
 93
        1
300
CONTENTFORMAT
  1
CONTENTFORMAT_BEGIN
 90
        0
 91
        0
 92
        4
 93
        0
300

 40
0.0
140
1.0
 94
        5
 62
     0
340
11
144
4.5
309
CONTENTFORMAT_END
171
     1
301
MARGIN
  1
CELLMARGIN_BEGIN
 40
1.5
 40
1.5
 40
1.5
 40
1.5
 40
1.5
 40
1.5
309
CELLMARGIN_END
 94
        6
 95
        1
302
GRIDFORMAT
  1
GRIDFORMAT_BEGIN
 90
        0
 91
        1
 62
     0
 92
       -2
340
14
 93
        0
 40
0.045
309
GRIDFORMAT_END
 95
        2
302
GRIDFORMAT
  1
GRIDFORMAT_BEGIN
 90
        0
 91
        1
 62
     0
 92
       -2
340
14
 93
        0
 40
0.045
309
GRIDFORMAT_END
 95
        4
302
GRIDFORMAT
  1
GRIDFORMAT_BEGIN
 90
        0
 91
        1
 62
     0
 92
       -2
340
14
 93
        0
 40
0.045
309
GRIDFORMAT_END
 95
        8
302
GRIDFORMAT
  1
GRIDFORMAT_BEGIN
 90
        0
 91
        1
 62
     0
 92
       -2
340
14
 93
        0
 40
0.045
309
GRIDFORMAT_END
 95
       16
302
GRIDFORMAT
  1
GRIDFORMAT_BEGIN
 90
        0
 91
        1
 62
     0
 92
       -2
340
14
 93
        0
 40
0.045
309
GRIDFORMAT_END
 95
       32
302
GRIDFORMAT
  1
GRIDFORMAT_BEGIN
 90
        0
 91
        1
 62
     0
 92
       -2
340
14
 93
        0
 40
0.045
309
GRIDFORMAT_END
309
TABLEFORMAT_END
  1
CELLSTYLE_BEGIN
 90
        2
 91
        1
300
_HEADER
309
CELLSTYLE_END
300
CELLSTYLE
  1
TABLEFORMAT_BEGIN
 90
        5
170
     1
 91
        0
 92
        0
 62
   257
 93
        1
300
CONTENTFORMAT
  1
CONTENTFORMAT_BEGIN
 90
        0
 91
        0
 92
        4
 93
        0
300

 40
0.0
140
1.0
 94
        2
 62
     0
340
11
144
4.5
309
CONTENTFORMAT_END
171
     1
301
MARGIN
  1
CELLMARGIN_BEGIN
 40
1.5
 40
1.5
 40
1.5
 40
1.5
 40
1.5
 40
1.5
309
CELLMARGIN_END
 94
        6
 95
        1
302
GRIDFORMAT
  1
GRIDFORMAT_BEGIN
 90
        0
 91
        1
 62
     0
 92
       -2
340
14
 93
        0
 40
0.045
309
GRIDFORMAT_END
 95
        2
302
GRIDFORMAT
  1
GRIDFORMAT_BEGIN
 90
        0
 91
        1
 62
     0
 92
       -2
340
14
 93
        0
 40
0.045
309
GRIDFORMAT_END
 95
        4
302
GRIDFORMAT
  1
GRIDFORMAT_BEGIN
 90
        0
 91
        1
 62
     0
 92
       -2
340
14
 93
        0
 40
0.045
309
GRIDFORMAT_END
 95
        8
302
GRIDFORMAT
  1
GRIDFORMAT_BEGIN
 90
        0
 91
        1
 62
     0
 92
       -2
340
14
 93
        0
 40
0.045
309
GRIDFORMAT_END
 95
       16
302
GRIDFORMAT
  1
GRIDFORMAT_BEGIN
 90
        0
 91
        1
 62
     0
 92
       -2
340
14
 93
        0
 40
0.045
309
GRIDFORMAT_END
 95
       32
302
GRIDFORMAT
  1
GRIDFORMAT_BEGIN
 90
        0
 91
        1
 62
     0
 92
       -2
340
14
 93
        0
 40
0.045
309
GRIDFORMAT_END
309
TABLEFORMAT_END
  1
CELLSTYLE_BEGIN
 90
        3
 91
        2
300
_DATA
309
CELLSTYLE_END
  0
XRECORD
  5
191
102
{ACAD_REACTORS
330
190
102
}
330
190
100
AcDbXrecord
280
     1
102
ACAD_ROUNDTRIP_PRE2007_TABLESTYLE
 90
        4
 91
        0
  1

 92
        4
 93
        0
  2

 94
        4
 95
        0
  3

  0
ENDSEC
  0
EOF
