  0
SECTION
  2
HEADER
  9
$ACADVER
  1
AC1018
  9
$ACADMAINTVER
 70
     0
  9
$DWGCODEPAGE
  3
ANSI_1252
  9
$INSBASE
 10
0.0
 20
0.0
 30
0.0
  9
$EXTMIN
 10
0.0
 20
0.0
 30
0.0
  9
$EXTMAX
 10
297.0
 20
210.0
 30
0.0
  9
$LIMMIN
 10
0.0
 20
0.0
  9
$LIMMAX
 10
297.0
 20
210.0
  9
$ORTHOMODE
 70
     0
  9
$REGENMODE
 70
     1
  9
$FILLMODE
 70
     1
  9
$QTEXTMODE
 70
     0
  9
$MIRRTEXT
 70
     1
  9
$LTSCALE
 40
1.0
  9
$ATTMODE
 70
     1
  9
$TEXTSIZE
 40
3.5
  9
$TRACEWID
 40
1.0
  9
$TEXTSTYLE
  7
Standard
  9
$CLAYER
  8
0
  9
$CELTYPE
  6
ByLayer
  9
$CECOLOR
 62
   256
  9
$CELTSCALE
 40
1.0
  9
$DISPSILH
 70
     0
  9
$DIMSCALE
 40
1.0
  9
$DIMASZ
 40
3.302
  9
$DIMEXO
 40
1.0
  9
$DIMDLI
 40
3.75
  9
$DIMRND
 40
0.0
  9
$DIMDLE
 40
0.0
  9
$DIMEXE
 40
1.0
  9
$DIMTP
 40
0.0
  9
$DIMTM
 40
0.0
  9
$DIMTXT
 40
3.5
  9
$DIMCEN
 40
2.5
  9
$DIMTSZ
 40
0.0
  9
$DIMTOL
 70
     0
  9
$DIMLIM
 70
     0
  9
$DIMTIH
 70
     1
  9
$DIMTOH
 70
     1
  9
$DIMSE1
 70
     0
  9
$DIMSE2
 70
     0
  9
$DIMTAD
 70
     1
  9
$DIMZIN
 70
     0
  9
$DIMBLK
  1

  9
$DIMASO
 70
     1
  9
$DIMSHO
 70
     1
  9
$DIMPOST
  1

  9
$DIMAPOST
  1

  9
$DIMALT
 70
     0
  9
$DIMALTD
 70
     3
  9
$DIMALTF
 40
0.0393700787
  9
$DIMLFAC
 40
1.0
  9
$DIMTOFL
 70
     1
  9
$DIMTVP
 40
0.0
  9
$DIMTIX
 70
     0
  9
$DIMSOXD
 70
     0
  9
$DIMSAH
 70
     0
  9
$DIMBLK1
  1

  9
$DIMBLK2
  1

  9
$DIMSTYLE
  2
ISO-25
  9
$DIMCLRD
 70
     0
  9
$DIMCLRE
 70
     0
  9
$DIMCLRT
 70
     0
  9
$DIMTFAC
 40
1.0
  9
$DIMGAP
 40
1.524
  9
$DIMJUST
 70
     0
  9
$DIMSD1
 70
     0
  9
$DIMSD2
 70
     0
  9
$DIMTOLJ
 70
     0
  9
$DIMTZIN
 70
     0
  9
$DIMALTZ
 70
     0
  9
$DIMALTTZ
 70
     0
  9
$DIMUPT
 70
     0
  9
$DIMDEC
 70
     2
  9
$DIMTDEC
 70
     2
  9
$DIMALTU
 70
     2
  9
$DIMALTTD
 70
     3
  9
$DIMTXSTY
  7
Standard
  9
$DIMAUNIT
 70
     0
  9
$DIMADEC
 70
     2
  9
$DIMALTRND
 40
0.0
  9
$DIMAZIN
 70
     0
  9
$DIMDSEP
 70
    44
  9
$DIMATFIT
 70
     3
  9
$DIMFRAC
 70
     0
  9
$DIMLDRBLK
  1

  9
$DIMLUNIT
 70
     2
  9
$DIMLWD
 70
    -2
  9
$DIMLWE
 70
    -2
  9
$DIMTMOVE
 70
     0
  9
$LUNITS
 70
     2
  9
$LUPREC
 70
     2
  9
$SKETCHINC
 40
1.0
  9
$FILLETRAD
 40
10.0
  9
$AUNITS
 70
     0
  9
$AUPREC
 70
     2
  9
$MENU
  1
.
  9
$ELEVATION
 40
0.0
  9
$PELEVATION
 40
0.0
  9
$THICKNESS
 40
0.0
  9
$LIMCHECK
 70
     0
  9
$CHAMFERA
 40
0.0
  9
$CHAMFERB
 40
0.0
  9
$CHAMFERC
 40
0.0
  9
$CHAMFERD
 40
0.0
  9
$SKPOLY
 70
     0
  9
$TDCREATE
 40
2457035.458189305
  9
$TDUCREATE
 40
2457035.416522639
  9
$TDUPDATE
 40
2457035.458189769
  9
$TDUUPDATE
 40
2457035.416523102
  9
$TDINDWG
 40
0.0000000116
  9
$TDUSRTIMER
 40
0.0000000116
  9
$USRTIMER
 70
     1
  9
$ANGBASE
 50
0.0
  9
$ANGDIR
 70
     0
  9
$PDMODE
 70
     0
  9
$PDSIZE
 40
-1.0
  9
$PLINEWID
 40
0.0
  9
$SPLFRAME
 70
     0
  9
$SPLINETYPE
 70
     6
  9
$SPLINESEGS
 70
     8
  9
$HANDSEED
  5
166
  9
$SURFTAB1
 70
     6
  9
$SURFTAB2
 70
     6
  9
$SURFTYPE
 70
     6
  9
$SURFU
 70
     6
  9
$SURFV
 70
     6
  9
$UCSBASE
  2

  9
$UCSNAME
  2

  9
$UCSORG
 10
0.0
 20
0.0
 30
0.0
  9
$UCSXDIR
 10
1.0
 20
0.0
 30
0.0
  9
$UCSYDIR
 10
0.0
 20
1.0
 30
0.0
  9
$UCSORTHOREF
  2

  9
$UCSORTHOVIEW
 70
     0
  9
$UCSORGTOP
 10
0.0
 20
0.0
 30
0.0
  9
$UCSORGBOTTOM
 10
0.0
 20
0.0
 30
0.0
  9
$UCSORGLEFT
 10
0.0
 20
0.0
 30
0.0
  9
$UCSORGRIGHT
 10
0.0
 20
0.0
 30
0.0
  9
$UCSORGFRONT
 10
0.0
 20
0.0
 30
0.0
  9
$UCSORGBACK
 10
0.0
 20
0.0
 30
0.0
  9
$PUCSBASE
  2

  9
$PUCSNAME
  2

  9
$PUCSORG
 10
0.0
 20
0.0
 30
0.0
  9
$PUCSXDIR
 10
1.0
 20
0.0
 30
0.0
  9
$PUCSYDIR
 10
0.0
 20
1.0
 30
0.0
  9
$PUCSORTHOREF
  2

  9
$PUCSORTHOVIEW
 70
     0
  9
$PUCSORGTOP
 10
0.0
 20
0.0
 30
0.0
  9
$PUCSORGBOTTOM
 10
0.0
 20
0.0
 30
0.0
  9
$PUCSORGLEFT
 10
0.0
 20
0.0
 30
0.0
  9
$PUCSORGRIGHT
 10
0.0
 20
0.0
 30
0.0
  9
$PUCSORGFRONT
 10
0.0
 20
0.0
 30
0.0
  9
$PUCSORGBACK
 10
0.0
 20
0.0
 30
0.0
  9
$USERI1
 70
     0
  9
$USERI2
 70
     0
  9
$USERI3
 70
     0
  9
$USERI4
 70
     0
  9
$USERI5
 70
     0
  9
$USERR1
 40
0.0
  9
$USERR2
 40
0.0
  9
$USERR3
 40
0.0
  9
$USERR4
 40
0.0
  9
$USERR5
 40
0.0
  9
$WORLDVIEW
 70
     1
  9
$SHADEDGE
 70
     3
  9
$SHADEDIF
 70
    70
  9
$TILEMODE
 70
     1
  9
$MAXACTVP
 70
    64
  9
$PINSBASE
 10
0.0
 20
0.0
 30
0.0
  9
$PLIMCHECK
 70
     0
  9
$PEXTMIN
 10
1.0000000000E+20
 20
1.0000000000E+20
 30
1.0000000000E+20
  9
$PEXTMAX
 10
-1.0000000000E+20
 20
-1.0000000000E+20
 30
-1.0000000000E+20
  9
$PLIMMIN
 10
0.0
 20
0.0
  9
$PLIMMAX
 10
420.0
 20
297.0
  9
$UNITMODE
 70
     0
  9
$VISRETAIN
 70
     1
  9
$PLINEGEN
 70
     0
  9
$PSLTSCALE
 70
     1
  9
$TREEDEPTH
 70
  3020
  9
$CMLSTYLE
  2
Standard
  9
$CMLJUST
 70
     0
  9
$CMLSCALE
 40
20.0
  9
$PROXYGRAPHICS
 70
     1
  9
$MEASUREMENT
 70
     1
  9
$CELWEIGHT
370
    -1
  9
$ENDCAPS
280
     0
  9
$JOINSTYLE
280
     0
  9
$LWDISPLAY
290
     1
  9
$INSUNITS
 70
     4
  9
$HYPERLINKBASE
  1

  9
$STYLESHEET
  1

  9
$XEDIT
290
     1
  9
$CEPSNTYPE
380
     0
  9
$PSTYLEMODE
290
     1
  9
$FINGERPRINTGUID
  2
{0864DE0E-B888-4D2D-9850-9A4F6389CEF0}
  9
$VERSIONGUID
  2
{FAEB1C32-E019-11D5-929B-00C0DF256EC4}
  9
$EXTNAMES
290
     1
  9
$PSVPSCALE
 40
0.0
  9
$OLESTARTUP
290
     0
  9
$SORTENTS
280
   127
  9
$INDEXCTL
280
     0
  9
$HIDETEXT
280
     1
  9
$XCLIPFRAME
290
     0
  9
$HALOGAP
280
     0
  9
$OBSCOLOR
 70
   257
  9
$OBSLTYPE
280
     0
  9
$INTERSECTIONDISPLAY
280
     0
  9
$INTERSECTIONCOLOR
 70
   257
  9
$DIMASSOC
280
     2
  9
$PROJECTNAME
  1

  0
ENDSEC
  0
SECTION
  2
CLASSES
  0
CLASS
  1
ACDBDICTIONARYWDFLT
  2
AcDbDictionaryWithDefault
  3
ObjectDBX Classes
 90
        0
 91
        4
280
     0
281
     0
  0
CLASS
  1
VISUALSTYLE
  2
AcDbVisualStyle
  3
ObjectDBX Classes
 90
     4095
 91
        4
280
     0
281
     0
  0
CLASS
  1
MATERIAL
  2
AcDbMaterial
  3
ObjectDBX Classes
 90
     1153
 91
        4
280
     0
281
     0
  0
CLASS
  1
SCALE
  2
AcDbScale
  3
ObjectDBX Classes
 90
     1153
 91
        4
280
     0
281
     0
  0
CLASS
  1
SUN
  2
AcDbSun
  3
SCENEOE
 90
     1153
 91
        4
280
     0
281
     0
  0
CLASS
  1
DICTIONARYVAR
  2
AcDbDictionaryVar
  3
ObjectDBX Classes
 90
        0
 91
        4
280
     0
281
     0
  0
ENDSEC
  0
SECTION
  2
TABLES
  0
TABLE
  2
VPORT
  5
8
330
0
100
AcDbSymbolTable
 70
     1
  0
VPORT
  5
29
330
8
100
AcDbSymbolTableRecord
100
AcDbViewportTableRecord
  2
*Active
 70
     0
 10
0.0
 20
0.0
 11
1.0
 21
1.0
 12
148.5
 22
105.0
 13
0.0
 23
0.0
 14
10.0
 24
10.0
 15
10.0
 25
10.0
 16
0.0
 26
0.0
 36
1.0
 17
0.0
 27
0.0
 37
0.0
 40
210.0
 41
1.4142857143
 42
50.0
 43
0.0
 44
0.0
 50
0.0
 51
0.0
 71
     0
 72
  2000
 73
     1
 74
     3
 75
     0
 76
     0
 77
     0
 78
     0
281
     0
 65
     1
110
0.0
120
0.0
130
0.0
111
1.0
121
0.0
131
0.0
112
0.0
122
1.0
132
0.0
 79
     0
146
0.0
  0
ENDTAB
  0
TABLE
  2
LTYPE
  5
5
330
0
100
AcDbSymbolTable
 70
     8
  0
LTYPE
  5
14
330
5
100
AcDbSymbolTableRecord
100
AcDbLinetypeTableRecord
  2
ByBlock
 70
     0
  3

 72
    65
 73
     0
 40
0.0
  0
LTYPE
  5
15
330
5
100
AcDbSymbolTableRecord
100
AcDbLinetypeTableRecord
  2
ByLayer
 70
     0
  3

 72
    65
 73
     0
 40
0.0
  0
LTYPE
  5
16
330
5
100
AcDbSymbolTableRecord
100
AcDbLinetypeTableRecord
  2
Continuous
 70
     0
  3
Solid line
 72
    65
 73
     0
 40
0.0
  0
LTYPE
  5
6A
330
5
100
AcDbSymbolTableRecord
100
AcDbLinetypeTableRecord
  2
SLD-Durchgehend
 70
     0
  3
SolidWorks Line Style
 72
    65
 73
     0
 40
0.0
  0
LTYPE
  5
6B
330
5
100
AcDbSymbolTableRecord
100
AcDbLinetypeTableRecord
  2
SLD-Gestrichelt
 70
     0
  3
SolidWorks Line Style
 72
    65
 73
     2
 40
1.905
 49
1.27
 74
     0
 49
-0.635
 74
     0
  0
LTYPE
  5
6C
330
5
100
AcDbSymbolTableRecord
100
AcDbLinetypeTableRecord
  2
SLD-Phantom
 70
     0
  3
SolidWorks Line Style
 72
    65
 73
     6
 40
12.7
 49
6.35
 74
     0
 49
-1.27
 74
     0
 49
1.27
 74
     0
 49
-1.27
 74
     0
 49
1.27
 74
     0
 49
-1.27
 74
     0
  0
LTYPE
  5
6D
330
5
100
AcDbSymbolTableRecord
100
AcDbLinetypeTableRecord
  2
SLD-Kette
 70
     0
  3
SolidWorks Line Style
 72
    65
 73
     4
 40
10.16
 49
6.35
 74
     0
 49
-1.27
 74
     0
 49
1.27
 74
     0
 49
-1.27
 74
     0
  0
LTYPE
  5
6E
330
5
100
AcDbSymbolTableRecord
100
AcDbLinetypeTableRecord
  2
SLD-Punktstrich
 70
     0
  3
SolidWorks Line Style
 72
    65
 73
     4
 40
19.05
 49
15.24
 74
     0
 49
-1.27
 74
     0
 49
1.27
 74
     0
 49
-1.27
 74
     0
  0
LTYPE
  5
6F
330
5
100
AcDbSymbolTableRecord
100
AcDbLinetypeTableRecord
  2
SLD-Naht
 70
     0
  3
SolidWorks Line Style
 72
    65
 73
     2
 40
0.635
 49
0.0
 74
     0
 49
-0.635
 74
     0
  0
LTYPE
  5
70
330
5
100
AcDbSymbolTableRecord
100
AcDbLinetypeTableRecord
  2
SLD-Dicke-Dünne-Kette
 70
     0
  3
SolidWorks Line Style
 72
    65
 73
     4
 40
10.16
 49
6.35
 74
     0
 49
-1.27
 74
     0
 49
1.27
 74
     0
 49
-1.27
 74
     0
  0
ENDTAB
  0
TABLE
  2
LAYER
  5
2
330
0
100
AcDbSymbolTable
 70
     3
  0
LAYER
  5
10
330
2
100
AcDbSymbolTableRecord
100
AcDbLayerTableRecord
  2
0
 70
     0
 62
     7
  6
Continuous
370
    -3
390
F
  0
LAYER
  5
71
330
2
100
AcDbSymbolTableRecord
100
AcDbLayerTableRecord
  2
1
 70
     0
 62
     4
  6
Continuous
370
    -1
390
F
  0
LAYER
  5
72
330
2
100
AcDbSymbolTableRecord
100
AcDbLayerTableRecord
  2
2
 70
     0
 62
     7
  6
SLD-Durchgehend
370
    -3
390
F
  0
ENDTAB
  0
TABLE
  2
STYLE
  5
3
330
0
100
AcDbSymbolTable
 70
     2
  0
STYLE
  5
11
330
3
100
AcDbSymbolTableRecord
100
AcDbTextStyleTableRecord
  2
Standard
 70
     0
 40
0.0
 41
1.0
 50
0.0
 71
     0
 42
3.5
  3
txt
  4

  0
STYLE
  5
11F
330
3
100
AcDbSymbolTableRecord
100
AcDbTextStyleTableRecord
  2
SLDTEXTSTYLE0
 70
     0
 40
0.0
 41
0.75
 50
0.0
 71
     0
 42
3.5
  3
TXT
  4

  0
ENDTAB
  0
TABLE
  2
VIEW
  5
6
330
0
100
AcDbSymbolTable
 70
     0
  0
ENDTAB
  0
TABLE
  2
UCS
  5
7
330
0
100
AcDbSymbolTable
 70
     0
  0
ENDTAB
  0
TABLE
  2
APPID
  5
9
330
0
100
AcDbSymbolTable
 70
     1
  0
APPID
  5
12
330
9
100
AcDbSymbolTableRecord
100
AcDbRegAppTableRecord
  2
ACAD
 70
     0
  0
ENDTAB
  0
TABLE
  2
DIMSTYLE
  5
A
330
0
100
AcDbSymbolTable
 70
     2
100
AcDbDimStyleTable
  0
DIMSTYLE
105
27
330
A
100
AcDbSymbolTableRecord
100
AcDbDimStyleTableRecord
  2
ISO-25
 70
     0
 41
2.5
 42
0.625
 43
3.75
 44
1.25
 73
     0
 74
     0
 77
     1
 78
     8
140
2.5
141
2.5
143
0.0393700787
147
0.625
171
     3
172
     1
178
     0
271
     2
272
     2
274
     3
278
    44
283
     0
284
     8
340
11
  0
DIMSTYLE
105
120
102
{ACAD_REACTORS
330
11E
330
12A
330
134
330
13E
102
}
330
A
100
AcDbSymbolTableRecord
100
AcDbDimStyleTableRecord
  2
SLDDIMSTYLE0
 70
     0
 41
3.302
 44
0.0
 45
0.000000001
 73
     0
 74
     0
 77
     1
 78
    12
 79
     3
140
3.5
147
0.875
173
     1
178
     0
271
     2
272
     2
276
     2
284
    12
340
11F
  0
ENDTAB
  0
TABLE
  2
BLOCK_RECORD
  5
1
330
0
100
AcDbSymbolTable
 70
     7
  0
BLOCK_RECORD
  5
1F
330
1
100
AcDbSymbolTableRecord
100
AcDbBlockTableRecord
  2
*Model_Space
340
22
  0
BLOCK_RECORD
  5
1B
330
1
100
AcDbSymbolTableRecord
100
AcDbBlockTableRecord
  2
*Paper_Space
340
1E
  0
BLOCK_RECORD
  5
23
330
1
100
AcDbSymbolTableRecord
100
AcDbBlockTableRecord
  2
*Paper_Space0
340
26
  0
BLOCK_RECORD
  5
121
330
1
100
AcDbSymbolTableRecord
100
AcDbBlockTableRecord
  2
_D
340
0
  0
BLOCK_RECORD
  5
12B
330
1
100
AcDbSymbolTableRecord
100
AcDbBlockTableRecord
  2
_D_1
340
0
  0
BLOCK_RECORD
  5
135
330
1
100
AcDbSymbolTableRecord
100
AcDbBlockTableRecord
  2
_D_2
340
0
  0
BLOCK_RECORD
  5
13F
330
1
100
AcDbSymbolTableRecord
100
AcDbBlockTableRecord
  2
_D_3
340
0
  0
BLOCK_RECORD
  5
148
330
1
100
AcDbSymbolTableRecord
100
AcDbBlockTableRecord
  2
SW_CENTERMARKSYMBOL_0
340
0
102
{BLKREFS
331
153
102
}
  0
BLOCK_RECORD
  5
154
330
1
100
AcDbSymbolTableRecord
100
AcDbBlockTableRecord
  2
SW_CENTERMARKSYMBOL_1
340
0
102
{BLKREFS
331
15F
102
}
  0
ENDTAB
  0
ENDSEC
  0
SECTION
  2
BLOCKS
  0
BLOCK
  5
20
330
1F
100
AcDbEntity
  8
0
100
AcDbBlockBegin
  2
*Model_Space
 70
     0
 10
0.0
 20
0.0
 30
0.0
  3
*Model_Space
  1
*Model_Space
  0
ENDBLK
  5
21
330
1F
100
AcDbEntity
  8
0
100
AcDbBlockEnd
  0
BLOCK
  5
1C
330
1B
100
AcDbEntity
 67
     1
  8
0
100
AcDbBlockBegin
  2
*Paper_Space
 70
     0
 10
0.0
 20
0.0
 30
0.0
  3
*Paper_Space
  1
*Paper_Space
  0
ENDBLK
  5
1D
330
1B
100
AcDbEntity
 67
     1
  8
0
100
AcDbBlockEnd
  0
BLOCK
  5
24
330
23
100
AcDbEntity
  8
0
100
AcDbBlockBegin
  2
*Paper_Space0
 70
     0
 10
0.0
 20
0.0
 30
0.0
  3
*Paper_Space0
  1
*Paper_Space0
  0
ENDBLK
  5
25
330
23
100
AcDbEntity
  8
0
100
AcDbBlockEnd
  0
BLOCK
  5
122
330
121
100
AcDbEntity
  8
0
100
AcDbBlockBegin
  2
_D
 70
     0
 10
0.0
 20
0.0
 30
0.0
  3
_D
  1
_D
  0
SOLID
  5
124
330
121
100
AcDbEntity
  8
2
 62
     7
420
 16777215
100
AcDbTrace
 10
150.0027086782
 20
5.9980309343
 30
0.0
 11
146.7007086782
 21
6.5060309343
 31
0.0
 12
146.7007086782
 22
5.4900309343
 32
0.0
 13
146.7007086782
 23
5.4900309343
 33
0.0
  0
SOLID
  5
125
330
121
100
AcDbEntity
  8
2
 62
     7
420
 16777215
100
AcDbTrace
 10
0.0027086782
 20
5.9980309343
 30
0.0
 11
3.3047086782
 21
5.4900309343
 31
0.0
 12
3.3047086782
 22
6.5060309343
 32
0.0
 13
3.3047086782
 23
6.5060309343
 33
0.0
  0
LINE
  5
126
330
121
100
AcDbEntity
  8
2
 62
     7
420
 16777215
100
AcDbLine
 10
150.0027086782
 20
-31.0019940657
 30
0.0
 11
150.0027086782
 21
6.9980309343
 31
0.0
  0
LINE
  5
127
330
121
100
AcDbEntity
  8
2
 62
     7
420
 16777215
100
AcDbLine
 10
0.0027086782
 20
0.9980059343
 30
0.0
 11
0.0027086782
 21
6.9980309343
 31
0.0
  0
LINE
  5
128
330
121
100
AcDbEntity
  8
2
 62
     7
420
 16777215
100
AcDbLine
 10
150.0027086782
 20
5.9980309343
 30
0.0
 11
0.0027086782
 21
5.9980309343
 31
0.0
  0
MTEXT
  5
129
330
121
100
AcDbEntity
  8
2
 62
     7
420
 16777215
100
AcDbMText
 10
71.1235420043
 20
10.5097678489
 30
0.0
 40
3.5
 41
0.0
 71
     1
 72
     1
  1
150
  7
SLDTEXTSTYLE0
 73
     1
 44
1.0
  0
ENDBLK
  5
123
330
121
100
AcDbEntity
  8
0
100
AcDbBlockEnd
  0
BLOCK
  5
12C
330
12B
100
AcDbEntity
  8
0
100
AcDbBlockBegin
  2
_D_1
 70
     0
 10
0.0
 20
0.0
 30
0.0
  3
_D_1
  1
_D_1
  0
SOLID
  5
12E
330
12B
100
AcDbEntity
  8
2
 62
     7
420
 16777215
100
AcDbTrace
 10
-5.9972913218
 20
-25.0019940657
 30
0.0
 11
-5.4892913218
 21
-21.6999940657
 31
0.0
 12
-6.5052913218
 22
-21.6999940657
 32
0.0
 13
-6.5052913218
 23
-21.6999940657
 33
0.0
  0
SOLID
  5
12F
330
12B
100
AcDbEntity
  8
2
 62
     7
420
 16777215
100
AcDbTrace
 10
-5.9972913218
 20
-0.0019940657
 30
0.0
 11
-6.5052913218
 21
-3.3039940657
 31
0.0
 12
-5.4892913218
 22
-3.3039940657
 32
0.0
 13
-5.4892913218
 23
-3.3039940657
 33
0.0
  0
LINE
  5
130
330
12B
100
AcDbEntity
  8
2
 62
     7
420
 16777215
100
AcDbLine
 10
0.0027086782
 20
-25.0019940657
 30
0.0
 11
-6.9972913218
 21
-25.0019940657
 31
0.0
  0
LINE
  5
131
330
12B
100
AcDbEntity
  8
2
 62
     7
420
 16777215
100
AcDbLine
 10
0.0027086782
 20
-0.0019940657
 30
0.0
 11
-6.9972913218
 21
-0.0019940657
 31
0.0
  0
LINE
  5
132
330
12B
100
AcDbEntity
  8
2
 62
     7
420
 16777215
100
AcDbLine
 10
-5.9972913218
 20
-25.0019940657
 30
0.0
 11
-5.9972913218
 21
-0.0019940657
 31
0.0
  0
MTEXT
  5
133
330
12B
100
AcDbEntity
  8
2
 62
     7
420
 16777215
100
AcDbMText
 10
-10.5090282364
 20
-15.0881052592
 30
0.0
 40
3.5
 41
0.0
 71
     1
 72
     1
  1
25
  7
SLDTEXTSTYLE0
 11
6.123233995736766E-17
 21
1.0
 31
0.0
 73
     1
 44
1.0
  0
ENDBLK
  5
12D
330
12B
100
AcDbEntity
  8
0
100
AcDbBlockEnd
  0
BLOCK
  5
136
330
135
100
AcDbEntity
  8
0
100
AcDbBlockBegin
  2
_D_2
 70
     0
 10
0.0
 20
0.0
 30
0.0
  3
_D_2
  1
_D_2
  0
SOLID
  5
138
330
135
100
AcDbEntity
  8
2
 62
     7
420
 16777215
100
AcDbTrace
 10
155.9178280496
 20
-32.0019940657
 30
0.0
 11
156.4258280496
 21
-28.6999940657
 31
0.0
 12
155.4098280496
 22
-28.6999940657
 32
0.0
 13
155.4098280496
 23
-28.6999940657
 33
0.0
  0
SOLID
  5
139
330
135
100
AcDbEntity
  8
2
 62
     7
420
 16777215
100
AcDbTrace
 10
155.9178280496
 20
-0.0019940657
 30
0.0
 11
155.4098280496
 21
-3.3039940657
 31
0.0
 12
156.4258280496
 22
-3.3039940657
 32
0.0
 13
156.4258280496
 23
-3.3039940657
 33
0.0
  0
LINE
  5
13A
330
135
100
AcDbEntity
  8
2
 62
     7
420
 16777215
100
AcDbLine
 10
151.0027086782
 20
-32.0019940657
 30
0.0
 11
156.9178280496
 21
-32.0019940657
 31
0.0
  0
LINE
  5
13B
330
135
100
AcDbEntity
  8
2
 62
     7
420
 16777215
100
AcDbLine
 10
151.0027086782
 20
-0.0019940657
 30
0.0
 11
156.9178280496
 21
-0.0019940657
 31
0.0
  0
LINE
  5
13C
330
135
100
AcDbEntity
  8
2
 62
     7
420
 16777215
100
AcDbLine
 10
155.9178280496
 20
-32.0019940657
 30
0.0
 11
155.9178280496
 21
-0.0019940657
 31
0.0
  0
MTEXT
  5
13D
330
135
100
AcDbEntity
  8
2
 62
     7
420
 16777215
100
AcDbMText
 10
151.4060911351
 20
-18.5881052592
 30
0.0
 40
3.5
 41
0.0
 71
     1
 72
     1
  1
32
  7
SLDTEXTSTYLE0
 11
6.123233995736766E-17
 21
1.0
 31
0.0
 73
     1
 44
1.0
  0
ENDBLK
  5
137
330
135
100
AcDbEntity
  8
0
100
AcDbBlockEnd
  0
BLOCK
  5
140
330
13F
100
AcDbEntity
  8
0
100
AcDbBlockBegin
  2
_D_3
 70
     0
 10
0.0
 20
0.0
 30
0.0
  3
_D_3
  1
_D_3
  0
SOLID
  5
142
330
13F
100
AcDbEntity
  8
2
 62
     7
420
 16777215
100
AcDbTrace
 10
115.0027086782
 20
-38.0024407512
 30
0.0
 11
118.3047086782
 21
-38.5104407512
 31
0.0
 12
118.3047086782
 22
-37.4944407512
 32
0.0
 13
118.3047086782
 23
-37.4944407512
 33
0.0
  0
SOLID
  5
143
330
13F
100
AcDbEntity
  8
2
 62
     7
420
 16777215
100
AcDbTrace
 10
150.0027086782
 20
-38.0024407512
 30
0.0
 11
146.7007086782
 21
-37.4944407512
 31
0.0
 12
146.7007086782
 22
-38.5104407512
 32
0.0
 13
146.7007086782
 23
-38.5104407512
 33
0.0
  0
LINE
  5
144
330
13F
100
AcDbEntity
  8
2
 62
     7
420
 16777215
100
AcDbLine
 10
115.0027086782
 20
-1.0019940657
 30
0.0
 11
115.0027086782
 21
-39.0024407512
 31
0.0
  0
LINE
  5
145
330
13F
100
AcDbEntity
  8
2
 62
     7
420
 16777215
100
AcDbLine
 10
150.0027086782
 20
-33.0019940657
 30
0.0
 11
150.0027086782
 21
-39.0024407512
 31
0.0
  0
LINE
  5
146
330
13F
100
AcDbEntity
  8
2
 62
     7
420
 16777215
100
AcDbLine
 10
115.0027086782
 20
-38.0024407512
 30
0.0
 11
150.0027086782
 21
-38.0024407512
 31
0.0
  0
MTEXT
  5
147
330
13F
100
AcDbEntity
  8
2
 62
     7
420
 16777215
100
AcDbMText
 10
129.9165974846
 20
-33.4907038366
 30
0.0
 40
3.5
 41
0.0
 71
     1
 72
     1
  1
35
  7
SLDTEXTSTYLE0
 73
     1
 44
1.0
  0
ENDBLK
  5
141
330
13F
100
AcDbEntity
  8
0
100
AcDbBlockEnd
  0
BLOCK
  5
149
330
148
100
AcDbEntity
  8
0
100
AcDbBlockBegin
  2
SW_CENTERMARKSYMBOL_0
 70
     0
 10
0.0
 20
0.0
 30
0.0
  3
SW_CENTERMARKSYMBOL_0
  1
SW_CENTERMARKSYMBOL_0
  0
LINE
  5
14B
330
148
100
AcDbEntity
  8
0
  6
SLD-Punktstrich
 62
     0
370
    15
100
AcDbLine
 10
0.0
 20
0.0
 30
0.0
 11
0.0
 21
2.5
 31
0.0
  0
LINE
  5
14C
330
148
100
AcDbEntity
  8
0
  6
SLD-Punktstrich
 62
     0
370
    15
100
AcDbLine
 10
0.0
 20
0.0
 30
0.0
 11
-2.5
 21
0.0
 31
0.0
  0
LINE
  5
14D
330
148
100
AcDbEntity
  8
0
  6
SLD-Punktstrich
 62
     0
370
    15
100
AcDbLine
 10
0.0
 20
0.0
 30
0.0
 11
0.0
 21
-2.5
 31
0.0
  0
LINE
  5
14E
330
148
100
AcDbEntity
  8
0
  6
SLD-Punktstrich
 62
     0
370
    15
100
AcDbLine
 10
0.0
 20
0.0
 30
0.0
 11
2.5
 21
0.0
 31
0.0
  0
LINE
  5
14F
330
148
100
AcDbEntity
  8
0
  6
SLD-Punktstrich
 62
     0
370
    15
100
AcDbLine
 10
0.0
 20
2.5
 30
0.0
 11
0.0
 21
4.7
 31
0.0
  0
LINE
  5
150
330
148
100
AcDbEntity
  8
0
  6
SLD-Punktstrich
 62
     0
370
    15
100
AcDbLine
 10
-2.5
 20
0.0
 30
0.0
 11
-4.7
 21
0.0
 31
0.0
  0
LINE
  5
151
330
148
100
AcDbEntity
  8
0
  6
SLD-Punktstrich
 62
     0
370
    15
100
AcDbLine
 10
0.0
 20
-2.5
 30
0.0
 11
0.0
 21
-4.7
 31
0.0
  0
LINE
  5
152
330
148
100
AcDbEntity
  8
0
  6
SLD-Punktstrich
 62
     0
370
    15
100
AcDbLine
 10
2.5
 20
0.0
 30
0.0
 11
4.7
 21
0.0
 31
0.0
  0
ENDBLK
  5
14A
330
148
100
AcDbEntity
  8
0
100
AcDbBlockEnd
  0
BLOCK
  5
155
330
154
100
AcDbEntity
  8
0
100
AcDbBlockBegin
  2
SW_CENTERMARKSYMBOL_1
 70
     0
 10
0.0
 20
0.0
 30
0.0
  3
SW_CENTERMARKSYMBOL_1
  1
SW_CENTERMARKSYMBOL_1
  0
LINE
  5
157
330
154
100
AcDbEntity
  8
0
  6
SLD-Punktstrich
 62
     0
370
    15
100
AcDbLine
 10
0.0
 20
0.0
 30
0.0
 11
0.0
 21
2.5
 31
0.0
  0
LINE
  5
158
330
154
100
AcDbEntity
  8
0
  6
SLD-Punktstrich
 62
     0
370
    15
100
AcDbLine
 10
0.0
 20
0.0
 30
0.0
 11
-2.5
 21
0.0
 31
0.0
  0
LINE
  5
159
330
154
100
AcDbEntity
  8
0
  6
SLD-Punktstrich
 62
     0
370
    15
100
AcDbLine
 10
0.0
 20
0.0
 30
0.0
 11
0.0
 21
-2.5
 31
0.0
  0
LINE
  5
15A
330
154
100
AcDbEntity
  8
0
  6
SLD-Punktstrich
 62
     0
370
    15
100
AcDbLine
 10
0.0
 20
0.0
 30
0.0
 11
2.5
 21
0.0
 31
0.0
  0
LINE
  5
15B
330
154
100
AcDbEntity
  8
0
  6
SLD-Punktstrich
 62
     0
370
    15
100
AcDbLine
 10
0.0
 20
2.5
 30
0.0
 11
0.0
 21
4.7
 31
0.0
  0
LINE
  5
15C
330
154
100
AcDbEntity
  8
0
  6
SLD-Punktstrich
 62
     0
370
    15
100
AcDbLine
 10
-2.5
 20
0.0
 30
0.0
 11
-4.7
 21
0.0
 31
0.0
  0
LINE
  5
15D
330
154
100
AcDbEntity
  8
0
  6
SLD-Punktstrich
 62
     0
370
    15
100
AcDbLine
 10
0.0
 20
-2.5
 30
0.0
 11
0.0
 21
-4.7
 31
0.0
  0
LINE
  5
15E
330
154
100
AcDbEntity
  8
0
  6
SLD-Punktstrich
 62
     0
370
    15
100
AcDbLine
 10
2.5
 20
0.0
 30
0.0
 11
4.7
 21
0.0
 31
0.0
  0
ENDBLK
  5
156
330
154
100
AcDbEntity
  8
0
100
AcDbBlockEnd
  0
ENDSEC
  0
SECTION
  2
ENTITIES
  0
LINE
  5
73
330
1F
100
AcDbEntity
  8
0
  6
SLD-Punktstrich
 62
     7
100
AcDbLine
 10
0.0027086782
 20
-0.0019940657
 30
0.0
 11
150.0027086782
 21
-0.0019940657
 31
0.0
  0
LINE
  5
74
330
1F
100
AcDbEntity
  8
0
  6
SLD-Punktstrich
 62
     7
100
AcDbLine
 10
150.0027086782
 20
-32.0019940657
 30
0.0
 11
145.6777086782
 21
-27.6769940657
 31
0.0
  0
LINE
  5
75
330
1F
100
AcDbEntity
  8
0
  6
SLD-Punktstrich
 62
     7
100
AcDbLine
 10
145.6777086782
 20
-27.6769940657
 30
0.0
 11
141.3527086782
 21
-32.0019940657
 31
0.0
  0
LINE
  5
76
330
1F
100
AcDbEntity
  8
0
  6
SLD-Punktstrich
 62
     7
100
AcDbLine
 10
141.3527086782
 20
-32.0019940657
 30
0.0
 11
150.0027086782
 21
-32.0019940657
 31
0.0
  0
POINT
  5
77
330
1F
100
AcDbEntity
  8
1
 62
     4
420
    65535
100
AcDbPoint
 10
150.0027086782
 20
-0.0019940657
 30
0.0
  0
POINT
  5
78
330
1F
100
AcDbEntity
  8
1
 62
     4
420
    65535
100
AcDbPoint
 10
115.0027086782
 20
-0.0019940657
 30
0.0
  0
POINT
  5
79
330
1F
100
AcDbEntity
  8
1
 62
     4
420
    65535
100
AcDbPoint
 10
150.0027086782
 20
-32.0019940657
 30
0.0
  0
LINE
  5
7A
330
1F
100
AcDbEntity
  8
1
 62
     4
420
    65535
100
AcDbLine
 10
122.0336065489
 20
-13.4292174989
 30
0.0
 11
122.3768315895
 21
-13.7724425395
 31
0.0
  0
SPLINE
  5
7B
330
1F
100
AcDbEntity
  8
1
 62
     4
420
    65535
100
AcDbSpline
210
0.0
220
0.0
230
1.0
 70
     8
 71
     3
 72
    11
 73
     7
 74
     0
 42
0.000000001
 43
0.00000001
 40
0.0
 40
0.0
 40
0.0
 40
0.0
 40
0.2088354487181543
 40
0.4850039292817951
 40
0.7620852317274547
 40
0.9999999999999999
 40
0.9999999999999999
 40
0.9999999999999999
 40
0.9999999999999999
 10
142.80104198188
 20
-25.11657277239967
 30
0.0
 10
142.8920094452237
 20
-25.03219069751444
 30
0.0
 10
143.1032742349387
 20
-24.83621995532728
 30
0.0
 10
143.3477503832072
 20
-24.45188665803831
 30
0.0
 10
143.53627822075
 20
-24.01880323747815
 30
0.0
 10
143.5831131930115
 20
-23.71669747367086
 30
0.0
 10
143.6047497300769
 20
-23.57713248108795
 30
0.0
  0
ARC
  5
7C
330
1F
100
AcDbEntity
  8
1
 62
     4
420
    65535
100
AcDbCircle
 10
140.851499013
 20
-15.1088679996
 30
0.0
 40
0.7878370032543697
100
AcDbArc
 50
45.3233350141
 51
84.6697959955
  0
LINE
  5
7D
330
1F
100
AcDbEntity
  8
1
 62
     4
420
    65535
100
AcDbLine
 10
141.4054312715
 20
-14.5486482242
 30
0.0
 11
141.8738640303
 21
-15.017080983
 31
0.0
  0
ARC
  5
7E
330
1F
100
AcDbEntity
  8
1
 62
     4
420
    65535
100
AcDbCircle
 10
141.3164306367
 20
-15.5856249132
 30
0.0
 40
0.7962249612431097
100
AcDbArc
 50
45.565345491
 51
135.5552462026
  0
LINE
  5
7F
330
1F
100
AcDbEntity
  8
1
 62
     4
420
    65535
100
AcDbLine
 10
149.6846508145
 20
-22.7511092768
 30
0.0
 11
141.8738640303
 21
-15.017080983
 31
0.0
  0
ARC
  5
80
330
1F
100
AcDbEntity
  8
1
 62
     4
420
    65535
100
AcDbCircle
 10
149.121783578
 20
-23.3140219458
 30
0.0
 40
0.7960466059673571
100
AcDbArc
 50
314.9976917325
 51
45.0023122563
  0
LINE
  5
81
330
1F
100
AcDbEntity
  8
1
 62
     4
420
    65535
100
AcDbLine
 10
141.8738643413
 20
-31.7637314906
 30
0.0
 11
149.6846508537
 21
-23.8769345757
 31
0.0
  0
ARC
  5
82
330
1F
100
AcDbEntity
  8
1
 62
     4
420
    65535
100
AcDbCircle
 10
141.3054186765
 20
-31.2061978915
 30
0.0
 40
0.7962249606050283
100
AcDbArc
 50
225.5653414766
 51
315.5552462289
  0
LINE
  5
83
330
1F
100
AcDbEntity
  8
1
 62
     4
420
    65535
100
AcDbLine
 10
134.2593242359
 20
-25.3498455119
 30
0.0
 11
140.7479852436
 21
-31.7747417823
 31
0.0
  0
LINE
  5
84
330
1F
100
AcDbEntity
  8
1
 62
     4
420
    65535
100
AcDbLine
 10
140.7479849717
 20
-15.0280913135
 30
0.0
 11
138.5384919585
 21
-17.2590859326
 31
0.0
  0
ARC
  5
85
330
1F
100
AcDbEntity
  8
1
 62
     4
420
    65535
100
AcDbCircle
 10
141.3428552134
 20
-23.3665003128
 30
0.0
 40
2.736634315076386
100
AcDbArc
 50
45.3191298958
 51
80.8003990067
  0
ARC
  5
86
330
1F
100
AcDbEntity
  8
1
 62
     4
420
    65535
100
AcDbCircle
 10
141.2940216964
 20
-23.3805203783
 30
0.0
 40
2.78105185880935
100
AcDbArc
 50
231.2526943837
 51
44.8068701816
  0
LINE
  5
87
330
1F
100
AcDbEntity
  8
1
 62
     4
420
    65535
100
AcDbLine
 10
149.2162180557
 20
-22.282676518
 30
0.0
 11
141.4054312715
 21
-14.5486482242
 31
0.0
  0
LINE
  5
88
330
1F
100
AcDbEntity
  8
1
 62
     4
420
    65535
100
AcDbLine
 10
149.2162180557
 20
-22.282676518
 30
0.0
 11
149.6846508145
 21
-22.7511092768
 31
0.0
  0
ARC
  5
89
330
1F
100
AcDbEntity
  8
1
 62
     4
420
    65535
100
AcDbCircle
 10
141.3309683719
 20
-23.3543600031
 30
0.0
 40
2.536450184708272
100
AcDbArc
 50
45.3016714058
 51
74.4336762725
  0
ARC
  5
8A
330
1F
100
AcDbEntity
  8
1
 62
     4
420
    65535
100
AcDbCircle
 10
141.2828577545
 20
-23.3704555776
 30
0.0
 40
2.581832350515735
100
AcDbArc
 50
238.1067283678
 51
44.793985409
  0
ARC
  5
8B
330
1F
100
AcDbEntity
  8
1
 62
     4
420
    65535
100
AcDbCircle
 10
140.8821673754
 20
-22.9083146513
 30
0.0
 40
2.53852591237427
100
AcDbArc
 50
12.6445760031
 51
37.8326106151
  0
LINE
  5
8C
330
1F
100
AcDbEntity
  8
1
 62
     4
420
    65535
100
AcDbLine
 10
128.4430905433
 20
-23.0694272233
 30
0.0
 11
127.14743328
 21
-22.4779518104
 31
0.0
  0
SPLINE
  5
8D
330
1F
100
AcDbEntity
  8
1
 62
     4
420
    65535
100
AcDbSpline
210
0.0
220
0.0
230
1.0
 70
     8
 71
     3
 72
    22
 73
    18
 74
     0
 42
0.000000001
 43
0.00000001
 40
0.0
 40
0.0
 40
0.0
 40
0.0
 40
0.0495288470540297
 40
0.0989925544613284
 40
0.1484572953598986
 40
0.1979892422692117
 40
0.2476543024440429
 40
0.2975178585179283
 40
0.3476445194469818
 40
0.3980978863007011
 40
0.4489403367975324
 40
0.5002328317000589
 40
0.6054716722109393
 40
0.7073533245297733
 40
0.8065649721812418
 40
0.9038508013097234
 40
1.0
 40
1.0
 40
1.0
 40
1.0
 10
124.8339559637881
 20
-19.95938199078779
 30
0.0
 10
124.8548225327464
 20
-20.01490460888659
 30
0.0
 10
124.8965282272436
 20
-20.12587682251363
 30
0.0
 10
124.9661561923972
 20
-20.28816994174192
 30
0.0
 10
125.0410885630999
 20
-20.44697753050235
 30
0.0
 10
125.1219591914716
 20
-20.60195993390386
 30
0.0
 10
125.208743681731
 20
-20.75316318834644
 30
0.0
 10
125.3015622900255
 20
-20.9005857595504
 30
0.0
 10
125.40046991218
 20
-21.04428582962181
 30
0.0
 10
125.5055072904186
 20
-21.18434917279253
 30
0.0
 10
125.6167221662635
 20
-21.32087472791676
 30
0.0
 10
125.7747737005651
 20
-21.50025574878444
 30
0.0
 10
125.9849819166002
 20
-21.71192891448876
 30
0.0
 10
126.2557307776561
 20
-21.9426003083093
 30
0.0
 10
126.5397577146198
 20
-22.14641348423233
 30
0.0
 10
126.8354629264197
 20
-22.32710167538584
 30
0.0
 10
127.0438513277945
 20
-22.42786579645186
 30
0.0
 10
127.1474332800111
 20
-22.47795181037848
 30
0.0
  0
SPLINE
  5
8E
330
1F
100
AcDbEntity
  8
1
 62
     4
420
    65535
100
AcDbSpline
210
0.0
220
0.0
230
1.0
 70
     8
 71
     3
 72
    25
 73
    21
 74
     0
 42
0.000000001
 43
0.00000001
 40
0.0
 40
0.0
 40
0.0
 40
0.0
 40
0.0250753561475985
 40
0.0500903263121892
 40
0.0750864594873792
 40
0.1001053985148231
 40
0.1251886726507014
 40
0.187689309062237
 40
0.2502420077528378
 40
0.3127043930371742
 40
0.3752255397006726
 40
0.5000074543155774
 40
0.6247893689304795
 40
0.6872378109424532
 40
0.7497729009208287
 40
0.8122528539385914
 40
0.8748262360858893
 40
0.9165561765305213
 40
0.9582163984891758
 40
1.0
 40
1.0
 40
1.0
 40
1.0
 10
127.6768135230328
 20
-13.83534469470315
 30
0.0
 10
127.6172632129405
 20
-13.85635725076293
 30
0.0
 10
127.49830600065
 20
-13.89833176085531
 30
0.0
 10
127.3233242988558
 20
-13.9703411249492
 30
0.0
 10
127.151301113897
 20
-14.04883522617638
 30
0.0
 10
126.9824512562916
 20
-14.13447533695246
 30
0.0
 10
126.7346045567785
 20
-14.27293887831222
 30
0.0
 10
126.4172715549079
 20
-14.48074298014116
 30
0.0
 10
126.0493191818443
 20
-14.77918983356923
 30
0.0
 10
125.7129731189668
 20
-15.11310056211775
 30
0.0
 10
125.3126129878994
 20
-15.60072744679695
 30
0.0
 10
124.9076311485953
 20
-16.28210525158065
 30
0.0
 10
124.6490508440897
 20
-17.03011637238069
 30
0.0
 10
124.5358012134492
 20
-17.64881673155369
 30
0.0
 10
124.4986961467482
 20
-18.11916133591124
 30
0.0
 10
124.5093382147985
 20
-18.59061565378976
 30
0.0
 10
124.561608065726
 20
-19.00631516907928
 30
0.0
 10
124.6381308489811
 20
-19.36409298430451
 30
0.0
 10
124.7232033923154
 20
-19.66613633303449
 30
0.0
 10
124.7970020672
 20
-19.86153713204162
 30
0.0
 10
124.8339559637881
 20
-19.95938199078778
 30
0.0
  0
SPLINE
  5
8F
330
1F
100
AcDbEntity
  8
1
 62
     4
420
    65535
100
AcDbSpline
210
0.0
220
0.0
230
1.0
 70
     8
 71
     3
 72
    21
 73
    17
 74
     0
 42
0.000000001
 43
0.00000001
 40
0.0
 40
0.0
 40
0.0
 40
0.0
 40
0.0533688462573884
 40
0.1069773869944844
 40
0.1609649639492978
 40
0.2154680074075722
 40
0.2706191158335057
 40
0.326546269761307
 40
0.3833721960722333
 40
0.441213888486276
 40
0.5001822808968798
 40
0.6022400811933528
 40
0.7027414417212752
 40
0.8021885031628239
 40
0.9010992779493396
 40
0.9999999999999999
 40
0.9999999999999999
 40
0.9999999999999999
 40
0.9999999999999999
 10
131.1269015686728
 20
-13.90544625550088
 30
0.0
 10
131.0684243046539
 20
-13.8796682013678
 30
0.0
 10
130.9512071387972
 20
-13.82799631661957
 30
0.0
 10
130.7714762333797
 20
-13.76081058938512
 30
0.0
 10
130.588573484422
 20
-13.70113386025177
 30
0.0
 10
130.4021346493716
 20
-13.64983343803161
 30
0.0
 10
130.21211300545
 20
-13.60686189852579
 30
0.0
 10
130.0183343573348
 20
-13.57246088909499
 30
0.0
 10
129.8206241194446
 20
-13.54683280466544
 30
0.0
 10
129.6187704245998
 20
-13.53018014245971
 30
0.0
 10
129.3638101268095
 20
-13.52107637093675
 30
0.0
 10
129.0584478248457
 20
-13.5283544234798
 30
0.0
 10
128.7057420108669
 20
-13.56404130115598
 30
0.0
 10
128.3579370825345
 20
-13.62751205365802
 30
0.0
 10
128.0140796768887
 20
-13.71602475405881
 30
0.0
 10
127.7892317654113
 20
-13.79557272869177
 30
0.0
 10
127.6768135230328
 20
-13.83534469470314
 30
0.0
  0
LINE
  5
90
330
1F
100
AcDbEntity
  8
1
 62
     4
420
    65535
100
AcDbLine
 10
131.1269015687
 20
-13.9054462555
 30
0.0
 11
132.422558832
 21
-14.4969216684
 31
0.0
  0
SPLINE
  5
91
330
1F
100
AcDbEntity
  8
1
 62
     4
420
    65535
100
AcDbSpline
210
0.0
220
0.0
230
1.0
 70
     8
 71
     3
 72
    17
 73
    13
 74
     0
 42
0.000000001
 43
0.00000001
 40
0.0
 40
0.0
 40
0.0
 40
0.0
 40
0.0854702574593949
 40
0.1699134423335431
 40
0.2534630131654824
 40
0.3362567675758303
 40
0.4184363214571663
 40
0.5001464989185289
 40
0.628723525586387
 40
0.7544089986397073
 40
0.8779170071162279
 40
1.0
 40
1.0
 40
1.0
 40
1.0
 10
134.2709232879421
 20
-16.05504026301226
 30
0.0
 10
134.2302673364235
 20
-15.99834242162685
 30
0.0
 10
134.1494439847782
 20
-15.88562806122782
 30
0.0
 10
134.0197930570871
 20
-15.72436238623356
 30
0.0
 10
133.8851780830021
 20
-15.57018221020197
 30
0.0
 10
133.7451341749538
 20
-15.42342040705067
 30
0.0
 10
133.6000090241812
 20
-15.28380299482683
 30
0.0
 10
133.4211075954217
 20
-15.12566612042611
 30
0.0
 10
133.2059245211272
 20
-14.95521402719723
 30
0.0
 10
132.9514434570083
 20
-14.78105738794138
 30
0.0
 10
132.6911991240637
 20
-14.62623830389289
 30
0.0
 10
132.5117585343969
 20
-14.5398601469112
 30
0.0
 10
132.4225588320055
 20
-14.49692166844212
 30
0.0
  0
SPLINE
  5
92
330
1F
100
AcDbEntity
  8
1
 62
     4
420
    65535
100
AcDbSpline
210
0.0
220
0.0
230
1.0
 70
     8
 71
     3
 72
    11
 73
     7
 74
     0
 42
0.000000001
 43
0.00000001
 40
0.0
 40
0.0
 40
0.0
 40
0.0
 40
0.270266362751135
 40
0.5262286936962272
 40
0.7691074815927404
 40
1.0
 40
1.0
 40
1.0
 40
1.0
 10
134.5878143851561
 20
-16.55470804973885
 30
0.0
 10
134.5619170925263
 20
-16.50817162616934
 30
0.0
 10
134.5114931391637
 20
-16.4175617510262
 30
0.0
 10
134.431550517377
 20
-16.28845589645119
 30
0.0
 10
134.3521952785646
 20
-16.16809778281743
 30
0.0
 10
134.2975531416861
 20
-16.09208507013486
 30
0.0
 10
134.2709232879421
 20
-16.05504026301225
 30
0.0
  0
SPLINE
  5
93
330
1F
100
AcDbEntity
  8
1
 62
     4
420
    65535
100
AcDbSpline
210
0.0
220
0.0
230
1.0
 70
     8
 71
     3
 72
    13
 73
     9
 74
     0
 42
0.000000001
 43
0.00000001
 40
0.0
 40
0.0
 40
0.0
 40
0.0
 40
0.1667987798628599
 40
0.3331360851113911
 40
0.4993182245957813
 40
0.6656524036800376
 40
0.8324450230612988
 40
1.0
 40
1.0
 40
1.0
 40
1.0
 10
134.9917348157737
 20
-17.63150441889529
 30
0.0
 10
134.9766941322189
 20
-17.56931813296099
 30
0.0
 10
134.9466543774861
 20
-17.44511760906747
 30
0.0
 10
134.890974700187
 20
-17.26137620196386
 30
0.0
 10
134.8276985588623
 20
-17.08019700422135
 30
0.0
 10
134.7559662936411
 20
-16.90190463513288
 30
0.0
 10
134.6767331868116
 20
-16.72616619032588
 30
0.0
 10
134.6174990063448
 20
-16.6119475745444
 30
0.0
 10
134.5878143851561
 20
-16.55470804973884
 30
0.0
  0
SPLINE
  5
94
330
1F
100
AcDbEntity
  8
1
 62
     4
420
    65535
100
AcDbSpline
210
0.0
220
0.0
230
1.0
 70
     8
 71
     3
 72
    21
 73
    17
 74
     0
 42
0.000000001
 43
0.00000001
 40
0.0
 40
0.0
 40
0.0
 40
0.0
 40
0.0313130422067656
 40
0.0625733488225313
 40
0.0938395435438511
 40
0.1251702170150892
 40
0.1876706307054883
 40
0.2502409020659609
 40
0.3751415940816863
 40
0.5000144650886064
 40
0.6248873360955257
 40
0.7497880281112503
 40
0.8122727341496145
 40
0.8748587132026171
 40
0.9373983043535227
 40
1.0
 40
1.0
 40
1.0
 40
1.0
 10
132.4988642379073
 20
-23.0016054791892
 30
0.0
 10
132.5588571022761
 20
-22.97174813111332
 30
0.0
 10
132.6787417945466
 20
-22.91208371895778
 30
0.0
 10
132.8535094921157
 20
-22.81290980953678
 30
0.0
 10
133.0242030088995
 20
-22.70681331832569
 30
0.0
 10
133.2453733446131
 20
-22.55559718169027
 30
0.0
 10
133.5096071460682
 20
-22.34899518833162
 30
0.0
 10
133.901844059486
 20
-21.9837841622525
 30
0.0
 10
134.3313444006629
 20
-21.46617710512408
 30
0.0
 10
134.7321468431845
 20
-20.76706113065926
 30
0.0
 10
135.0071156168789
 20
-20.01047500530417
 30
0.0
 10
135.1242390472746
 20
-19.3505273114691
 30
0.0
 10
135.1491491271598
 20
-18.81748533887758
 30
0.0
 10
135.132424539631
 20
-18.4177203227501
 30
0.0
 10
135.0837311815195
 20
-18.02029760008422
 30
0.0
 10
135.0224104150107
 20
-17.76114501627683
 30
0.0
 10
134.9917348157737
 20
-17.6315044188953
 30
0.0
  0
SPLINE
  5
95
330
1F
100
AcDbEntity
  8
1
 62
     4
420
    65535
100
AcDbSpline
210
0.0
220
0.0
230
1.0
 70
     8
 71
     3
 72
    12
 73
     8
 74
     0
 42
0.000000001
 43
0.00000001
 40
0.0
 40
0.0
 40
0.0
 40
0.0
 40
0.1663343647289433
 40
0.3329022696983215
 40
0.5000065250608856
 40
0.7508355279117404
 40
1.0
 40
1.0
 40
1.0
 40
1.0
 10
131.4131886541338
 20
-23.39343491970439
 30
0.0
 10
131.4757272101511
 20
-23.3789788030617
 30
0.0
 10
131.6008921288721
 20
-23.35004627279824
 30
0.0
 10
131.7863363530127
 20
-23.29640294162455
 30
0.0
 10
132.0001999525857
 20
-23.22468920984744
 30
0.0
 10
132.2400844931323
 20
-23.13038352229468
 30
0.0
 10
132.4127959812068
 20
-23.04443611758028
 30
0.0
 10
132.4988642379073
 20
-23.00160547918921
 30
0.0
  0
SPLINE
  5
96
330
1F
100
AcDbEntity
  8
1
 62
     4
420
    65535
100
AcDbSpline
210
0.0
220
0.0
230
1.0
 70
     8
 71
     3
 72
    10
 73
     6
 74
     0
 42
0.000000001
 43
0.00000001
 40
0.0
 40
0.0
 40
0.0
 40
0.0
 40
0.3104706287608032
 40
0.6428895184046381
 40
1.0
 40
1.0
 40
1.0
 40
1.0
 10
130.8267139485562
 20
-23.47449973657258
 30
0.0
 10
130.8877970211812
 20
-23.46958945591178
 30
0.0
 10
131.0142813437056
 20
-23.45942176957747
 30
0.0
 10
131.2102454280038
 20
-23.43312042169376
 30
0.0
 10
131.3439450140951
 20
-23.40697549785973
 30
0.0
 10
131.4131886541337
 20
-23.39343491970442
 30
0.0
  0
SPLINE
  5
97
330
1F
100
AcDbEntity
  8
1
 62
     4
420
    65535
100
AcDbSpline
210
0.0
220
0.0
230
1.0
 70
     8
 71
     3
 72
    16
 73
    12
 74
     0
 42
0.000000001
 43
0.00000001
 40
0.0
 40
0.0
 40
0.0
 40
0.0
 40
0.0816171656017593
 40
0.1637581576449696
 40
0.2466533009416859
 40
0.3305266991250097
 40
0.4155947122744795
 40
0.50206471719703
 40
0.6652516355233347
 40
0.8308633247262691
 40
0.9999999999999999
 40
0.9999999999999999
 40
0.9999999999999999
 40
0.9999999999999999
 10
128.4430905433438
 20
-23.06942722331976
 30
0.0
 10
128.5036032617558
 20
-23.09612155681257
 30
0.0
 10
128.625017074747
 20
-23.14968155047461
 30
0.0
 10
128.8129340547827
 20
-23.22040034345192
 30
0.0
 10
129.0055812452244
 20
-23.28417088621973
 30
0.0
 10
129.2034072568408
 20
-23.34009437827742
 30
0.0
 10
129.4063610000826
 20
-23.38809304671859
 30
0.0
 10
129.6747712620869
 20
-23.43931551035661
 30
0.0
 10
130.0110684619649
 20
-23.48156812289888
 30
0.0
 10
130.416890724464
 20
-23.50065210362366
 30
0.0
 10
130.6891505519385
 20
-23.48327817622569
 30
0.0
 10
130.8267139485563
 20
-23.47449973657256
 30
0.0
  0
ARC
  5
98
330
1F
100
AcDbEntity
  8
1
 62
     4
420
    65535
100
AcDbCircle
 10
118.1919037549
 20
-9.0222895351
 30
0.0
 40
9.097927989090445
100
AcDbArc
 50
332.6940723298
 51
348.5665534304
  0
ARC
  5
99
330
1F
100
AcDbEntity
  8
1
 62
     4
420
    65535
100
AcDbCircle
 10
137.8838919305
 20
13.0456115451
 30
0.0
 40
28.69422018022124
100
AcDbArc
 50
240.8700108132
 51
246.1379478006
  0
ARC
  5
9A
330
1F
100
AcDbEntity
  8
1
 62
     4
420
    65535
100
AcDbCircle
 10
126.2582229501
 20
-13.4178106742
 30
0.0
 40
2.728186318990685
100
AcDbArc
 50
71.8230290078
 51
149.1616316843
  0
LINE
  5
9B
330
1F
100
AcDbEntity
  8
1
 62
     4
420
    65535
100
AcDbLine
 10
126.2760476013
 20
-13.1958865406
 30
0.0
 11
123.4331900421
 21
-19.3199238367
 31
0.0
  0
ARC
  5
9C
330
1F
100
AcDbEntity
  8
1
 62
     4
420
    65535
100
AcDbCircle
 10
135.0410343713
 20
6.921574249
 30
0.0
 40
28.69422018022568
100
AcDbArc
 50
240.8700108132
 51
246.1379478006
  0
LINE
  5
9D
330
1F
100
AcDbEntity
  8
1
 62
     4
420
    65535
100
AcDbLine
 10
121.0728987481
 20
-18.1433306773
 30
0.0
 11
123.9157563074
 21
-12.0192933812
 31
0.0
  0
LINE
  5
9E
330
1F
100
AcDbEntity
  8
1
 62
     4
420
    65535
100
AcDbLine
 10
127.676813523
 20
-13.8353446947
 30
0.0
 11
126.2760476013
 21
-13.1958865406
 31
0.0
  0
LINE
  5
9F
330
1F
100
AcDbEntity
  8
1
 62
     4
420
    65535
100
AcDbLine
 10
127.1092890455
 20
-10.8257676397
 30
0.0
 11
134.2523433795
 21
-14.0866153434
 31
0.0
  0
ELLIPSE
  5
A0
330
1F
100
AcDbEntity
  8
1
 62
     4
420
    65535
100
AcDbEllipse
 10
134.2677590644
 20
-16.7104379565
 30
0.0
 11
-0.01872353425628148
 21
2.756723718744194
 31
0.0
210
0.0
220
0.0
230
1.0
 40
0.0028439771
 41
4.952413442577242
 42
5.971389708570825
  0
LINE
  5
A1
330
1F
100
AcDbEntity
  8
1
 62
     4
420
    65535
100
AcDbLine
 10
123.4331900421
 20
-19.3199238367
 30
0.0
 11
124.8339559638
 21
-19.9593819908
 31
0.0
  0
ARC
  5
A2
330
1F
100
AcDbEntity
  8
1
 62
     4
420
    65535
100
AcDbCircle
 10
116.7646713154
 20
-16.6969803578
 30
0.0
 40
7.165819876503691
100
AcDbArc
 50
319.7672275174
 51
338.5286854008
  0
ARC
  5
A3
330
1F
100
AcDbEntity
  8
1
 62
     4
420
    65535
100
AcDbCircle
 10
123.5457887461
 20
-19.0433167775
 30
0.0
 40
2.631569858954228
100
AcDbArc
 50
160.0014782283
 51
240.1317953598
  0
ELLIPSE
  5
A4
330
1F
100
AcDbEntity
  8
1
 62
     4
420
    65535
100
AcDbEllipse
 10
131.4249015052
 20
-22.8344752526
 30
0.0
 11
2.119956132206909
 21
1.779904326142173
 31
0.0
210
0.0
220
0.0
230
1.0
 40
0.0401561206
 41
3.373822578470629
 42
4.392798844455518
  0
LINE
  5
A5
330
1F
100
AcDbEntity
  8
1
 62
     4
420
    65535
100
AcDbLine
 10
129.378303941
 20
-24.5861914502
 30
0.0
 11
122.2352496069
 21
-21.3253437465
 31
0.0
  0
LINE
  5
A6
330
1F
100
AcDbEntity
  8
1
 62
     4
420
    65535
100
AcDbLine
 10
135.5650057803
 20
-15.3682949669
 30
0.0
 11
136.7722779511
 21
-16.6905898797
 31
0.0
  0
ARC
  5
A7
330
1F
100
AcDbEntity
  8
1
 62
     4
420
    65535
100
AcDbCircle
 10
132.060018588
 20
-13.8885820635
 30
0.0
 40
5.482393282794473
100
AcDbArc
 50
308.6458196058
 51
329.2633995808
  0
LINE
  5
A8
330
1F
100
AcDbEntity
  8
1
 62
     4
420
    65535
100
AcDbLine
 10
135.4837972137
 20
-18.1704480153
 30
0.0
 11
134.9917348158
 21
-17.6315044189
 31
0.0
  0
ARC
  5
A9
330
1F
100
AcDbEntity
  8
1
 62
     4
420
    65535
100
AcDbCircle
 10
131.8333961371
 20
-13.2903868958
 30
0.0
 40
4.27113714143885
100
AcDbArc
 50
310.1575095846
 51
330.8892071271
  0
ARC
  5
AA
330
1F
100
AcDbEntity
  8
1
 62
     4
420
    65535
100
AcDbCircle
 10
133.5235906194
 20
-15.8481142357
 30
0.0
 40
1.906294555716937
100
AcDbArc
 50
44.885692734
 51
67.5245463036
  0
ELLIPSE
  5
AB
330
1F
100
AcDbEntity
  8
1
 62
     4
420
    65535
100
AcDbEllipse
 10
135.7530602887
 20
-15.4274003078
 30
0.0
 11
-0.8768410011525702
 21
0.9408022500871258
 31
0.0
210
0.0
220
0.0
230
1.0
 40
0.0763155839
 41
0.1280845917292955
 42
1.437081530725291
  0
LINE
  5
AC
330
1F
100
AcDbEntity
  8
1
 62
     4
420
    65535
100
AcDbLine
 10
123.9157563074
 20
-12.0192933812
 30
0.0
 11
123.4275491273
 21
-11.0499266838
 31
0.0
  0
ELLIPSE
  5
AD
330
1F
100
AcDbEntity
  8
1
 62
     4
420
    65535
100
AcDbEllipse
 10
123.4925701098
 20
-7.9115873212
 30
0.0
 11
0.7327450144281472
 21
3.911533777957936
 31
0.0
210
0.0
220
0.0
230
1.0
 40
0.2056139077
 41
3.820694810481029
 42
4.630807034935494
  0
ELLIPSE
  5
AE
330
1F
100
AcDbEntity
  8
1
 62
     4
420
    65535
100
AcDbEllipse
 10
125.0067879028
 20
-10.9181639577
 30
0.0
 11
-0.7661340403383575
 21
2.539539921793581
 31
0.0
210
0.0
220
0.0
230
1.0
 40
0.9406519473
 41
5.592137486306029
 42
6.285784090441481
  0
LINE
  5
AF
330
1F
100
AcDbEntity
  8
1
 62
     4
420
    65535
100
AcDbLine
 10
125.9389258055
 20
-8.5019362927
 30
0.0
 11
127.1092890455
 21
-10.8257676397
 31
0.0
  0
ELLIPSE
  5
B0
330
1F
100
AcDbEntity
  8
1
 62
     4
420
    65535
100
AcDbEllipse
 10
134.9892371075
 20
-18.3856395591
 30
0.0
 11
0.7629808528887166
 21
-0.6611026120102252
 31
0.0
210
0.0
220
0.0
230
1.0
 40
0.4952446245
 41
0.3265175062171937
 42
1.33805215745296
  0
LINE
  5
B1
330
1F
100
AcDbEntity
  8
1
 62
     4
420
    65535
100
AcDbLine
 10
135.581915572
 20
-20.9390774354
 30
0.0
 11
135.816920739
 21
-18.8906149081
 31
0.0
  0
ELLIPSE
  5
B2
330
1F
100
AcDbEntity
  8
1
 62
     4
420
    65535
100
AcDbEllipse
 10
133.7069849384
 20
-20.2990641066
 30
0.0
 11
1.823859033720566
 21
-0.826573412461407
 31
0.0
210
0.0
220
0.0
230
1.0
 40
0.5486799419
 41
6.098464162966541
 42
6.457922165506483
  0
LINE
  5
B3
330
1F
100
AcDbEntity
  8
1
 62
     4
420
    65535
100
AcDbLine
 10
134.0000463089
 20
-22.804496114
 30
0.0
 11
135.4165156821
 21
-21.2953791753
 31
0.0
  0
ELLIPSE
  5
B4
330
1F
100
AcDbEntity
  8
1
 62
     4
420
    65535
100
AcDbEllipse
 10
133.0749686894
 20
-22.5093253024
 30
0.0
 11
1.003118127910625
 21
-0.1414649644087334
 31
0.0
210
0.0
220
0.0
230
1.0
 40
0.4918367566
 41
4.93816408936135
 42
5.949698740597226
  0
LINE
  5
B5
330
1F
100
AcDbEntity
  8
1
 62
     4
420
    65535
100
AcDbLine
 10
132.4988642379
 20
-23.0016054792
 30
0.0
 11
133.2317167366
 21
-23.0218429755
 31
0.0
  0
ELLIPSE
  5
B6
330
1F
100
AcDbEntity
  8
1
 62
     4
420
    65535
100
AcDbEllipse
 10
134.7924166206
 20
-18.1888190722
 30
0.0
 11
1.594773773198029
 21
1.925371791075254
 31
0.0
210
0.0
220
0.0
230
1.0
 40
0.8890969352
 41
5.012769457004411
 42
6.024304108240226
  0
ARC
  5
B7
330
1F
100
AcDbEntity
  8
1
 62
     4
420
    65535
100
AcDbCircle
 10
137.6753925996
 20
-1.7393439486
 30
0.0
 40
17.25166696824934
100
AcDbArc
 50
263.8156912879
 51
267.422179454
  0
ARC
  5
B8
330
1F
100
AcDbEntity
  8
1
 62
     4
420
    65535
100
AcDbCircle
 10
127.5908422824
 20
-23.20761057
 30
0.0
 40
5.643932512661829
100
AcDbArc
 50
343.4671758756
 51
1.8862064517
  0
LINE
  5
B9
330
1F
100
AcDbEntity
  8
1
 62
     4
420
    65535
100
AcDbLine
 10
133.0014369496
 20
-24.8136739419
 30
0.0
 11
131.2033876967
 21
-24.764021365
 31
0.0
  0
ARC
  5
BA
330
1F
100
AcDbEntity
  8
1
 62
     4
420
    65535
100
AcDbCircle
 10
127.2846045453
 20
-23.4628073583
 30
0.0
 40
4.129166898920009
100
AcDbArc
 50
341.6314894938
 51
0.9626481689
  0
LINE
  5
BB
330
1F
100
AcDbEntity
  8
1
 62
     4
420
    65535
100
AcDbLine
 10
136.8994768173
 20
-18.9735531815
 30
0.0
 11
136.6644716503
 21
-21.0220157088
 31
0.0
  0
ARC
  5
BC
330
1F
100
AcDbEntity
  8
1
 62
     4
420
    65535
100
AcDbCircle
 10
137.4403874326
 20
-3.7878064759
 30
0.0
 40
17.25166696825433
100
AcDbArc
 50
263.8156912879
 51
267.422179454
  0
LINE
  5
BD
330
1F
100
AcDbEntity
  8
1
 62
     4
420
    65535
100
AcDbLine
 10
121.8326870432
 20
-15.8975295653
 30
0.0
 11
122.7158774146
 21
-13.9949753003
 31
0.0
  0
LINE
  5
BE
330
1F
100
AcDbEntity
  8
1
 62
     4
420
    65535
100
AcDbLine
 10
122.7158774146
 20
-13.9949753003
 30
0.0
 11
122.4595996725
 21
-13.837676923
 31
0.0
  0
ELLIPSE
  5
BF
330
1F
100
AcDbEntity
  8
1
 62
     4
420
    65535
100
AcDbEllipse
 10
122.5437130412
 20
-13.6564812787
 30
0.0
 11
0.2399226337088436
 21
-0.1791498804920888
 31
0.0
210
0.0
220
0.0
230
1.0
 40
0.6591618746
 41
3.278995516067138
 42
4.849791842862009
  0
LINE
  5
C0
330
1F
100
AcDbEntity
  8
1
 62
     4
420
    65535
100
AcDbLine
 10
123.4275491273
 20
-11.0499266838
 30
0.0
 11
122.2898769342
 21
-13.5006815304
 31
0.0
  0
LINE
  5
C1
330
1F
100
AcDbEntity
  8
1
 62
     4
420
    65535
100
AcDbLine
 10
120.1007876322
 20
-18.2163819306
 30
0.0
 11
121.0728987481
 21
-18.1433306773
 31
0.0
  0
LINE
  5
C2
330
1F
100
AcDbEntity
  8
1
 62
     4
420
    65535
100
AcDbLine
 10
121.2384598253
 20
-15.765627084
 30
0.0
 11
120.1007876322
 21
-18.2163819306
 31
0.0
  0
ELLIPSE
  5
C3
330
1F
100
AcDbEntity
  8
1
 62
     4
420
    65535
100
AcDbEllipse
 10
121.4922959323
 20
-15.9214268323
 30
0.0
 11
0.2399226337088436
 21
-0.179149880492087
 31
0.0
210
0.0
220
0.0
230
1.0
 40
0.6591618746
 41
1.708199189272199
 42
3.278995516067121
  0
LINE
  5
C4
330
1F
100
AcDbEntity
  8
1
 62
     4
420
    65535
100
AcDbLine
 10
121.5764093011
 20
-15.740231188
 30
0.0
 11
121.8326870432
 21
-15.8975295653
 31
0.0
  0
ELLIPSE
  5
C5
330
1F
100
AcDbEntity
  8
1
 62
     4
420
    65535
100
AcDbEllipse
 10
131.3914422051
 20
-24.8231267059
 30
0.0
 11
1.293748023200749
 21
-0.04363702112295798
 31
0.0
210
0.0
220
0.0
230
1.0
 40
0.0411819994
 41
1.718058370247748
 42
3.02705530924349
  0
ARC
  5
C6
330
1F
100
AcDbEntity
  8
1
 62
     4
420
    65535
100
AcDbCircle
 10
130.2025864372
 20
-22.8927309261
 30
0.0
 40
1.883414500406605
100
AcDbArc
 50
244.0457544994
 51
267.0719013565
  0
ELLIPSE
  5
C7
330
1F
100
AcDbEntity
  8
1
 62
     4
420
    65535
100
AcDbEllipse
 10
132.8781482025
 20
-22.3125048155
 30
0.0
 11
-0.06701800999380225
 21
2.503517677755454
 31
0.0
210
0.0
220
0.0
230
1.0
 40
0.8672574502
 41
3.167522886510939
 42
4.179057537746813
  0
ARC
  5
C8
330
1F
100
AcDbEntity
  8
1
 62
     4
420
    65535
100
AcDbCircle
 10
354.9839853913
 20
212.8393680309
 30
0.0
 40
323.0509743701833
100
AcDbArc
 50
226.8388355301
 51
227.0286393726
  0
ELLIPSE
  5
C9
330
1F
100
AcDbEntity
  8
1
 62
     4
420
    65535
100
AcDbEllipse
 10
133.5101644515
 20
-20.1022436197
 30
0.0
 11
2.759914373061321
 21
-1.820119559750179
 31
0.0
210
0.0
220
0.0
230
1.0
 40
0.9353006276
 41
6.242385116419718
 42
6.601843118959665
  0
ARC
  5
CA
330
1F
100
AcDbEntity
  8
1
 62
     4
420
    65535
100
AcDbCircle
 10
356.4004547572
 20
214.3484849618
 30
0.0
 40
323.0509743594606
100
AcDbArc
 50
226.8388355301
 51
227.0286393726
  0
LINE
  5
CB
330
1F
100
AcDbEntity
  8
1
 62
     4
420
    65535
100
AcDbLine
 10
136.1983446878
 20
-22.0261387938
 30
0.0
 11
134.7818753146
 21
-23.5352557325
 31
0.0
  0
LINE
  5
CC
330
1F
100
AcDbEntity
  8
1
 62
     4
420
    65535
100
AcDbLine
 10
133.8809486383
 20
-12.3882820364
 30
0.0
 11
129.3624410939
 21
-10.3255558886
 31
0.0
  0
LINE
  5
CD
330
1F
100
AcDbEntity
  8
1
 62
     4
420
    65535
100
AcDbLine
 10
134.2523433795
 20
-14.0866153434
 30
0.0
 11
133.8809486383
 21
-12.3882820364
 31
0.0
  0
LINE
  5
CE
330
1F
100
AcDbEntity
  8
1
 62
     4
420
    65535
100
AcDbLine
 10
128.2015378031
 20
-9.534832417
 30
0.0
 11
125.9389258055
 21
-8.5019362927
 31
0.0
  0
ELLIPSE
  5
CF
330
1F
100
AcDbEntity
  8
1
 62
     4
420
    65535
100
AcDbEllipse
 10
129.3838615479
 20
-9.8138063242
 30
0.0
 11
1.335954367936495
 21
-0.6843089575034575
 31
0.0
210
0.0
220
0.0
230
1.0
 40
0.3131555464
 41
3.808410463735641
 42
4.855608014932256
  0
LINE
  5
D0
330
1F
100
AcDbEntity
  8
1
 62
     4
420
    65535
100
AcDbLine
 10
122.2352496069
 20
-21.3253437465
 30
0.0
 11
119.9048391545
 21
-21.5004671471
 31
0.0
  0
ELLIPSE
  5
D1
330
1F
100
AcDbEntity
  8
1
 62
     4
420
    65535
100
AcDbEllipse
 10
121.1497154287
 20
-19.2270064489
 30
0.0
 11
2.454043621988504
 21
1.050427704344322
 31
0.0
210
0.0
220
0.0
230
1.0
 40
0.9288367082
 41
3.149463238871418
 42
3.843109843006876
  0
ELLIPSE
  5
D2
330
1F
100
AcDbEntity
  8
1
 62
     4
420
    65535
100
AcDbEllipse
 10
118.1346267354
 20
-19.4535813788
 30
0.0
 11
2.115435940527832
 21
2.572688301470692
 31
0.0
210
0.0
220
0.0
230
1.0
 40
0.2935253512
 41
4.62553523291577
 42
5.435647457370314
  0
ARC
  5
D3
330
1F
100
AcDbEntity
  8
1
 62
     4
420
    65535
100
AcDbCircle
 10
139.9723395228
 20
-21.907488491
 30
0.0
 40
2.168870712096596
100
AcDbArc
 50
325.4774347315
 51
19.5096921603
  0
LINE
  5
D4
330
1F
100
AcDbEntity
  8
1
 62
     4
420
    65535
100
AcDbLine
 10
141.7592787225
 20
-23.1366542497
 30
0.0
 11
136.8994768173
 21
-18.9735531815
 31
0.0
  0
LINE
  5
D5
330
1F
100
AcDbEntity
  8
1
 62
     4
420
    65535
100
AcDbLine
 10
136.7722779511
 20
-16.6905898797
 30
0.0
 11
142.0166845463
 21
-21.1831587385
 31
0.0
  0
LINE
  5
D6
330
1F
100
AcDbEntity
  8
1
 62
     4
420
    65535
100
AcDbLine
 10
136.6644716503
 20
-21.0220157088
 30
0.0
 11
141.7592787225
 21
-23.1366542497
 31
0.0
  0
ELLIPSE
  5
D7
330
1F
100
AcDbEntity
  8
1
 62
     4
420
    65535
100
AcDbEllipse
 10
140.8409594944
 20
-23.1449460251
 30
0.0
 11
-0.7254071464245727
 21
3.612927061344714
 31
0.0
210
0.0
220
0.0
230
1.0
 40
0.2450384418
 41
4.485792811078507
 42
4.665521812350621
  0
ELLIPSE
  5
D8
330
1F
100
AcDbEntity
  8
1
 62
     4
420
    65535
100
AcDbEllipse
 10
140.8409594944
 20
-23.1449460251
 30
0.0
 11
3.2318471251142
 21
1.941301528214986
 31
0.0
210
0.0
220
0.0
230
1.0
 40
0.2883510865
 41
4.679189580858218
 42
4.858918582126043
  0
LINE
  5
D9
330
1F
100
AcDbEntity
  8
1
 62
     4
420
    65535
100
AcDbLine
 10
141.29315176
 20
-24.1407773347
 30
0.0
 11
136.1983446878
 21
-22.0261387938
 31
0.0
  0
LINE
  5
DA
330
1F
100
AcDbEntity
  8
1
 62
     4
420
    65535
100
AcDbLine
 10
134.7818753146
 20
-23.5352557325
 30
0.0
 11
141.29315176
 21
-24.1407773347
 31
0.0
  0
ARC
  5
DB
330
1F
100
AcDbEntity
  8
1
 62
     4
420
    65535
100
AcDbCircle
 10
139.50868346
 20
-23.7052004301
 30
0.0
 40
1.836859916751413
100
AcDbArc
 50
286.4231067783
 51
346.2827134311
  0
LINE
  5
DC
330
1F
100
AcDbEntity
  8
1
 62
     4
420
    65535
100
AcDbLine
 10
140.0280157691
 20
-25.4671165196
 30
0.0
 11
133.0014369496
 21
-24.8136739419
 31
0.0
  0
LINE
  5
DD
330
1F
100
AcDbEntity
  8
1
 62
     4
420
    65535
100
AcDbLine
 10
128.0158978065
 20
-25.0226786915
 30
0.0
 11
129.378303941
 21
-24.5861914502
 31
0.0
  0
LINE
  5
DE
330
1F
100
AcDbEntity
  8
1
 62
     4
420
    65535
100
AcDbLine
 10
128.0158978065
 20
-25.0226786915
 30
0.0
 11
123.4973902621
 21
-22.9599525437
 31
0.0
  0
ELLIPSE
  5
DF
330
1F
100
AcDbEntity
  8
1
 62
     4
420
    65535
100
AcDbEllipse
 10
123.1807390778
 20
-23.1764713777
 30
0.0
 11
1.38369137095097
 21
-0.5816246407452113
 31
0.0
210
0.0
220
0.0
230
1.0
 40
0.2168242142
 41
1.431764651153957
 42
2.478962202350547
  0
LINE
  5
E0
330
1F
100
AcDbEntity
  8
1
 62
     4
420
    65535
100
AcDbLine
 10
122.1674511521
 20
-22.5333632713
 30
0.0
 11
119.9048391545
 21
-21.5004671471
 31
0.0
  0
LINE
  5
E1
330
1F
100
AcDbEntity
  8
1
 62
     4
420
    65535
100
AcDbLine
 10
121.207724165
 20
-15.371546052
 30
0.0
 11
121.5764093011
 21
-15.740231188
 31
0.0
  0
LINE
  5
E2
330
1F
100
AcDbEntity
  8
1
 62
     4
420
    65535
100
AcDbLine
 10
121.207724165
 20
-15.371546052
 30
0.0
 11
121.9248788341
 21
-15.6989315158
 31
0.0
  0
ELLIPSE
  5
E3
330
1F
100
AcDbEntity
  8
1
 62
     4
420
    65535
100
AcDbEllipse
 10
139.2138108513
 20
-17.5581476403
 30
0.0
 11
-1.064056382590053
 21
1.258434724275315
 31
0.0
210
0.0
220
0.0
230
1.0
 40
0.1763319623
 41
1.783473767640598
 42
2.407499299447528
  0
LINE
  5
E4
330
1F
100
AcDbEntity
  8
1
 62
     4
420
    65535
100
AcDbLine
 10
139.8551517045
 20
-18.6181520569
 30
0.0
 11
143.0722608213
 21
-22.0386145901
 31
0.0
  0
ELLIPSE
  5
E5
330
1F
100
AcDbEntity
  8
1
 62
     4
420
    65535
100
AcDbEllipse
 10
142.6975860247
 20
-21.5411489642
 30
0.0
 11
1.608958971614584
 21
-1.295983176368175
 31
0.0
210
0.0
220
0.0
230
1.0
 40
0.0771275048
 41
4.338364950362405
 42
5.00899868949397
  0
LINE
  5
E6
330
1F
100
AcDbEntity
  8
1
 62
     4
420
    65535
100
AcDbLine
 10
134.5127323203
 20
-12.8497724247
 30
0.0
 11
134.8742309616
 21
-14.5028523285
 31
0.0
  0
LINE
  5
E7
330
1F
100
AcDbEntity
  8
1
 62
     4
420
    65535
100
AcDbLine
 10
134.5127323203
 20
-12.8497724247
 30
0.0
 11
139.2215068545
 21
-18.0071750083
 31
0.0
  0
ELLIPSE
  5
E8
330
1F
100
AcDbEntity
  8
1
 62
     4
420
    65535
100
AcDbEllipse
 10
133.0612570755
 20
-14.2874912825
 30
0.0
 11
0.3305008619433352
 21
2.047503044532579
 31
0.0
210
0.0
220
0.0
230
1.0
 40
0.9586590414
 41
5.632837150202731
 42
6.025564699321971
  0
ARC
  5
E9
330
1F
100
AcDbEntity
  8
1
 62
     4
420
    65535
100
AcDbCircle
 10
122.1741576789
 20
-13.2894708669
 30
0.0
 40
0.1982012646515645
100
AcDbArc
 50
154.9181290249
 51
224.8355526941
  0
LINE
  5
EA
330
1F
100
AcDbEntity
  8
1
 62
     4
420
    65535
100
AcDbLine
 10
121.9946462038
 20
-13.2054508001
 30
0.0
 11
122.2898769342
 21
-13.5006815304
 31
0.0
  0
LINE
  5
EB
330
1F
100
AcDbEntity
  8
1
 62
     4
420
    65535
100
AcDbLine
 10
121.2384598253
 20
-15.765627084
 30
0.0
 11
120.943229095
 21
-15.4703963536
 31
0.0
  0
ARC
  5
EC
330
1F
100
AcDbEntity
  8
1
 62
     4
420
    65535
100
AcDbCircle
 10
121.1253260857
 20
-15.5543540559
 30
0.0
 40
0.2005198488150448
100
AcDbArc
 50
65.7372139882
 51
155.2474467039
  0
ELLIPSE
  5
ED
330
1F
100
AcDbEntity
  8
1
 62
     4
420
    65535
100
AcDbEllipse
 10
140.7991353693
 20
-25.6307603417
 30
0.0
 11
2.104124394866005
 21
-0.2297409312415404
 31
0.0
210
0.0
220
0.0
230
1.0
 40
0.0401734711
 41
1.279768173127033
 42
1.950401912246607
  0
LINE
  5
EE
330
1F
100
AcDbEntity
  8
1
 62
     4
420
    65535
100
AcDbLine
 10
136.6849675403
 20
-25.4473109762
 30
0.0
 11
141.4117285178
 21
-25.6157061419
 31
0.0
  0
ELLIPSE
  5
EF
330
1F
100
AcDbEntity
  8
1
 62
     4
420
    65535
100
AcDbEllipse
 10
135.5057452939
 20
-25.5460018667
 30
0.0
 11
1.644141516167622
 21
-0.01727932167038304
 31
0.0
210
0.0
220
0.0
230
1.0
 40
0.0968449409
 41
0.7720003186193374
 42
1.396025850416243
  0
LINE
  5
F0
330
1F
100
AcDbEntity
  8
1
 62
     4
420
    65535
100
AcDbLine
 10
128.7802727317
 20
-25.1985431903
 30
0.0
 11
135.793280021
 21
-25.392205229
 31
0.0
  0
LINE
  5
F1
330
1F
100
AcDbEntity
  8
1
 62
     4
420
    65535
100
AcDbLine
 10
130.1063765021
 20
-24.7736864887
 30
0.0
 11
128.7802727317
 21
-25.1985431903
 31
0.0
  0
ELLIPSE
  5
F2
330
1F
100
AcDbEntity
  8
1
 62
     4
420
    65535
100
AcDbEllipse
 10
128.9378175852
 20
-23.1701372471
 30
0.0
 11
1.511897470960804
 21
1.431510339646486
 31
0.0
210
0.0
220
0.0
230
1.0
 40
0.9512383689
 41
3.508975198821635
 42
3.90170274794065
  0
LINE
  5
F3
330
1F
100
AcDbEntity
  8
1
 62
     4
420
    65535
100
AcDbLine
 10
124.2344484229
 20
-8.3805054627
 30
0.0
 11
121.9946462038
 21
-13.2054508001
 31
0.0
  0
LINE
  5
F4
330
1F
100
AcDbEntity
  8
1
 62
     4
420
    65535
100
AcDbLine
 10
120.943229095
 20
-15.4703963536
 30
0.0
 11
118.703426876
 21
-20.295341691
 31
0.0
  0
LINE
  5
F5
330
1F
100
AcDbEntity
  8
1
 62
     4
420
    65535
100
AcDbLine
 10
115.0027086782
 20
-25.0019940657
 30
0.0
 11
115.0027086782
 21
-0.0019940657
 31
0.0
  0
LINE
  5
F6
330
1F
100
AcDbEntity
  8
1
 62
     4
420
    65535
100
AcDbLine
 10
118.0173564232
 20
-25.0019940657
 30
0.0
 11
120.2772123041
 21
-0.0019940657
 31
0.0
  0
LINE
  5
F7
330
1F
100
AcDbEntity
  8
1
 62
     4
420
    65535
100
AcDbLine
 10
118.0173564232
 20
-25.0019940657
 30
0.0
 11
115.0027086782
 21
-25.0019940657
 31
0.0
  0
LINE
  5
F8
330
1F
100
AcDbEntity
  8
1
 62
     4
420
    65535
100
AcDbLine
 10
115.0027086782
 20
-0.0019940657
 30
0.0
 11
120.2772123041
 21
-0.0019940657
 31
0.0
  0
LINE
  5
F9
330
1F
100
AcDbEntity
  8
1
 62
     4
420
    65535
100
AcDbLine
 10
134.2593242359
 20
-25.3498455119
 30
0.0
 11
139.9675682896
 21
-31.0019940657
 31
0.0
  0
LINE
  5
FA
330
1F
100
AcDbEntity
  8
1
 62
     4
420
    65535
100
AcDbLine
 10
131.0027086782
 20
-31.0019940657
 30
0.0
 11
139.9675682896
 21
-31.0019940657
 31
0.0
  0
LINE
  5
FB
330
1F
100
AcDbEntity
  8
1
 62
     4
420
    65535
100
AcDbLine
 10
125.0027086782
 20
-25.0019940657
 30
0.0
 11
131.0027086782
 21
-31.0019940657
 31
0.0
  0
LINE
  5
FC
330
1F
100
AcDbEntity
  8
1
 62
     4
420
    65535
100
AcDbLine
 10
125.0027086782
 20
-25.0019940657
 30
0.0
 11
118.0173564232
 21
-25.0019940657
 31
0.0
  0
LINE
  5
FD
330
1F
100
AcDbEntity
  8
1
 62
     4
420
    65535
100
AcDbLine
 10
141.3931182685
 20
-14.7928704681
 30
0.0
 11
126.6022418662
 21
-0.0019940657
 31
0.0
  0
ARC
  5
FE
330
1F
100
AcDbEntity
  8
1
 62
     4
420
    65535
100
AcDbCircle
 10
141.3192279198
 20
-15.5925180662
 30
0.0
 40
0.8030542104237969
100
AcDbArc
 50
84.7206531397
 51
135.3438803855
  0
LINE
  5
FF
330
1F
100
AcDbEntity
  8
1
 62
     4
420
    65535
100
AcDbLine
 10
120.2772123041
 20
-0.0019940657
 30
0.0
 11
126.6022418662
 21
-0.0019940657
 31
0.0
  0
SPLINE
  5
100
330
1F
100
AcDbEntity
  8
1
 62
     4
420
    65535
100
AcDbSpline
210
0.0
220
0.0
230
1.0
 70
     8
 71
     3
 72
    10
 73
     6
 74
     0
 42
0.000000001
 43
0.00000001
 40
0.0
 40
0.0
 40
0.0
 40
0.0
 40
0.5
 40
0.5
 40
1.0
 40
1.0
 40
1.0
 40
1.0
 10
142.9213624298218
 20
-23.3665569284608
 30
0.0
 10
142.7767498073787
 20
-23.4469691029797
 30
0.0
 10
142.6142250445376
 20
-23.52260570527596
 30
0.0
 10
142.2619848105584
 20
-23.66173356668279
 30
0.0
 10
142.0716316417802
 20
-23.72562450001909
 30
0.0
 10
141.8666056431013
 20
-23.7834247922571
 30
0.0
  0
SPLINE
  5
101
330
1F
100
AcDbEntity
  8
1
 62
     4
420
    65535
100
AcDbSpline
210
0.0
220
0.0
230
1.0
 70
     8
 71
     3
 72
     8
 73
     4
 74
     0
 42
0.000000001
 43
0.00000001
 40
0.0
 40
0.0
 40
0.0
 40
0.0
 40
0.00007260154708
 40
0.00007260154708
 40
0.00007260154708
 40
0.00007260154708
 10
143.0722608213154
 20
-22.0386145901153
 30
0.0
 10
143.0884673663832
 20
-22.0558455506404
 30
0.0
 10
143.1045936465129
 20
-22.07299469163635
 30
0.0
 10
143.1206315616822
 20
-22.09005284933874
 30
0.0
  0
SPLINE
  5
102
330
1F
100
AcDbEntity
  8
1
 62
     4
420
    65535
100
AcDbSpline
210
0.0
220
0.0
230
1.0
 70
     8
 71
     3
 72
     8
 73
     4
 74
     0
 42
0.000000001
 43
0.00000001
 40
0.0
 40
0.0
 40
0.0
 40
0.0
 40
1.0
 40
1.0
 40
1.0
 40
1.0
 10
143.120631561682
 20
-22.09005284933853
 30
0.0
 10
143.2061517484933
 20
-22.18101335249389
 30
0.0
 10
143.285273104525
 20
-22.28215787467036
 30
0.0
 10
143.3545464644433
 20
-22.38761911933944
 30
0.0
  0
SPLINE
  5
103
330
1F
100
AcDbEntity
  8
1
 62
     4
420
    65535
100
AcDbSpline
210
0.0
220
0.0
230
1.0
 70
     8
 71
     3
 72
    14
 73
    10
 74
     0
 42
0.000000001
 43
0.00000001
 40
0.0
 40
0.0
 40
0.0
 40
0.0
 40
0.25
 40
0.25
 40
0.5
 40
0.5
 40
0.75
 40
0.75
 40
1.0
 40
1.0
 40
1.0
 40
1.0
 10
143.3545464644412
 20
-22.38761911933433
 30
0.0
 10
143.3376954681304
 20
-22.41560815530671
 30
0.0
 10
143.3162527430631
 20
-22.44390053606703
 30
0.0
 10
143.2628161878083
 20
-22.49774830369397
 30
0.0
 10
143.2306853719692
 20
-22.52365034739863
 30
0.0
 10
143.1537100271889
 20
-22.56274105106928
 30
0.0
 10
143.1081816735395
 20
-22.57629342848784
 30
0.0
 10
143.0005987199389
 20
-22.56577967025306
 30
0.0
 10
142.9394014341087
 20
-22.53922187259586
 30
0.0
 10
142.875745230609
 20
-22.49513010611304
 30
0.0
  0
SPLINE
  5
104
330
1F
100
AcDbEntity
  8
1
 62
     4
420
    65535
100
AcDbSpline
210
0.0
220
0.0
230
1.0
 70
     8
 71
     3
 72
    22
 73
    18
 74
     0
 42
0.000000001
 43
0.00000001
 40
0.0
 40
0.0
 40
0.0
 40
0.0
 40
0.2500000000000265
 40
0.2500000000000265
 40
0.3750000000000398
 40
0.3750000000000398
 40
0.4375000000000466
 40
0.4375000000000466
 40
0.5000000000000534
 40
0.5000000000000534
 40
0.5625000000000603
 40
0.5625000000000603
 40
0.6250000000000672
 40
0.6250000000000672
 40
0.7500000000000545
 40
0.7500000000000545
 40
1.0
 40
1.0
 40
1.0
 40
1.0
 10
142.875745230609
 20
-22.49513010611303
 30
0.0
 10
142.7948380911522
 20
-22.43908939831716
 30
0.0
 10
142.7134048387605
 20
-22.3887211599952
 30
0.0
 10
142.592708906419
 20
-22.3355770844408
 30
0.0
 10
142.5528134914174
 20
-22.32132924610212
 30
0.0
 10
142.4944278069175
 20
-22.31497022731212
 30
0.0
 10
142.4749707181673
 20
-22.31535173257629
 30
0.0
 10
142.4398102088387
 20
-22.32888279070927
 30
0.0
 10
142.4233936056839
 20
-22.34305779685693
 30
0.0
 10
142.4111480422789
 20
-22.39842212227176
 30
0.0
 10
142.4173311861149
 20
-22.4367894782519
 30
0.0
 10
142.4391180092913
 20
-22.50575094074353
 30
0.0
 10
142.4537064592204
 20
-22.53753657410411
 30
0.0
 10
142.5006904226926
 20
-22.62792650488494
 30
0.0
 10
142.5358247012531
 20
-22.68028793589691
 30
0.0
 10
142.6453708987971
 20
-22.82878629989745
 30
0.0
 10
142.7229383383394
 20
-22.91308345133382
 30
0.0
 10
142.8018636930373
 20
-22.98924023938792
 30
0.0
  0
SPLINE
  5
105
330
1F
100
AcDbEntity
  8
1
 62
     4
420
    65535
100
AcDbSpline
210
0.0
220
0.0
230
1.0
 70
     8
 71
     3
 72
    10
 73
     6
 74
     0
 42
0.000000001
 43
0.00000001
 40
0.0
 40
0.0
 40
0.0
 40
0.0
 40
0.5
 40
0.5
 40
1.0
 40
1.0
 40
1.0
 40
1.0
 10
142.8018636930373
 20
-22.98924023938792
 30
0.0
 10
142.8421979449479
 20
-23.02815963462951
 30
0.0
 10
142.8768251685209
 20
-23.08473561018085
 30
0.0
 10
142.9163360678588
 20
-23.22141722645423
 30
0.0
 10
142.9223312094825
 20
-23.29485456570418
 30
0.0
 10
142.9213624298218
 20
-23.36655692846069
 30
0.0
  0
SPLINE
  5
106
330
1F
100
AcDbEntity
  8
1
 62
     4
420
    65535
100
AcDbSpline
210
0.0
220
0.0
230
1.0
 70
     8
 71
     3
 72
    22
 73
    18
 74
     0
 42
0.000000001
 43
0.00000001
 40
0.0
 40
0.0
 40
0.0
 40
0.0
 40
0.2499999999999953
 40
0.2499999999999953
 40
0.3749999999999786
 40
0.3749999999999786
 40
0.4374999999999807
 40
0.4374999999999807
 40
0.4999999999999829
 40
0.4999999999999829
 40
0.5624999999999851
 40
0.5624999999999851
 40
0.6249999999999872
 40
0.6249999999999872
 40
0.7499999999999916
 40
0.7499999999999916
 40
1.0
 40
1.0
 40
1.0
 40
1.0
 10
141.5853907351099
 20
-25.2747906732777
 30
0.0
 10
141.4862142854229
 20
-25.25810541501167
 30
0.0
 10
141.3908851235833
 20
-25.23767151772496
 30
0.0
 10
141.2655988177679
 20
-25.19441594967899
 30
0.0
 10
141.2266555789213
 20
-25.17811694902278
 30
0.0
 10
141.1804474247808
 20
-25.14552529333232
 30
0.0
 10
141.1669093117152
 20
-25.13315623790388
 30
0.0
 10
141.1520006622559
 20
-25.10306107047088
 30
0.0
 10
141.1508865585778
 20
-25.0842716823249
 30
0.0
 10
141.1833855224639
 20
-25.04324807828133
 30
0.0
 10
141.2163280609757
 20
-25.02397078356314
 30
0.0
 10
141.2831210597173
 20
-24.99598067814443
 30
0.0
 10
141.3171369630904
 20
-24.9859160087861
 30
0.0
 10
141.4177750750688
 20
-24.96072504967029
 30
0.0
 10
141.4816973810772
 20
-24.9510717824135
 30
0.0
 10
141.6700186663946
 20
-24.92987413969727
 30
0.0
 10
141.7878489914343
 20
-24.92743764116709
 30
0.0
 10
141.9005865043398
 20
-24.93075683057584
 30
0.0
  0
SPLINE
  5
107
330
1F
100
AcDbEntity
  8
1
 62
     4
420
    65535
100
AcDbSpline
210
0.0
220
0.0
230
1.0
 70
     8
 71
     3
 72
    14
 73
    10
 74
     0
 42
0.000000001
 43
0.00000001
 40
0.0
 40
0.0
 40
0.0
 40
0.0
 40
0.25
 40
0.25
 40
0.5
 40
0.5
 40
0.75
 40
0.75
 40
1.0
 40
1.0
 40
1.0
 40
1.0
 10
141.8613043207325
 20
-25.60433694269953
 30
0.0
 10
141.867460036811
 20
-25.58276529481746
 30
0.0
 10
141.8709176678908
 20
-25.55741773528612
 30
0.0
 10
141.8689801657823
 20
-25.5003270842198
 30
0.0
 10
141.8637409540108
 20
-25.46829967390305
 30
0.0
 10
141.8355146127887
 20
-25.40237607076023
 30
0.0
 10
141.8122993127214
 20
-25.36786203278911
 30
0.0
 10
141.7268707311542
 20
-25.30962368836283
 30
0.0
 10
141.6634208855479
 20
-25.28791831816422
 30
0.0
 10
141.5853907351099
 20
-25.27479067327771
 30
0.0
  0
SPLINE
  5
108
330
1F
100
AcDbEntity
  8
1
 62
     4
420
    65535
100
AcDbSpline
210
0.0
220
0.0
230
1.0
 70
     8
 71
     3
 72
     8
 73
     4
 74
     0
 42
0.000000001
 43
0.00000001
 40
0.0
 40
0.0
 40
0.0
 40
0.0
 40
1.0
 40
1.0
 40
1.0
 40
1.0
 10
141.8613043207374
 20
-25.60433694269826
 30
0.0
 10
141.7372492421579
 20
-25.61786731355345
 30
0.0
 10
141.6079324652371
 20
-25.62201931464553
 30
0.0
 10
141.482871855889
 20
-25.61808804325706
 30
0.0
  0
SPLINE
  5
109
330
1F
100
AcDbEntity
  8
1
 62
     4
420
    65535
100
AcDbSpline
210
0.0
220
0.0
230
1.0
 70
     8
 71
     3
 72
     8
 73
     4
 74
     0
 42
0.000000001
 43
0.00000001
 40
0.0
 40
0.0
 40
0.0
 40
0.0
 40
0.0000726015470976
 40
0.0000726015470976
 40
0.0000726015470976
 40
0.0000726015470976
 10
141.482871855889
 20
-25.61808804325705
 30
0.0
 10
141.4592598804118
 20
-25.61734580248194
 30
0.0
 10
141.4355401020348
 20
-25.61655445130624
 30
0.0
 10
141.4117285177699
 20
-25.61570614192529
 30
0.0
  0
SPLINE
  5
10A
330
1F
100
AcDbEntity
  8
1
 62
     4
420
    65535
100
AcDbSpline
210
0.0
220
0.0
230
1.0
 70
     8
 71
     3
 72
    10
 73
     6
 74
     0
 42
0.000000001
 43
0.00000001
 40
0.0
 40
0.0
 40
0.0
 40
0.0
 40
0.5
 40
0.5
 40
1.0
 40
1.0
 40
1.0
 40
1.0
 10
142.2696882691848
 20
-24.77038275559452
 30
0.0
 10
142.2298948903456
 20
-24.62499502850279
 30
0.0
 10
142.1753561008072
 20
-24.46801001182408
 30
0.0
 10
142.0406788904208
 20
-24.13846716323942
 30
0.0
 10
141.9603942132264
 20
-23.96525035076503
 30
0.0
 10
141.8666056431013
 20
-23.7834247922571
 30
0.0
  0
SPLINE
  5
10B
330
1F
100
AcDbEntity
  8
1
 62
     4
420
    65535
100
AcDbSpline
210
0.0
220
0.0
230
1.0
 70
     8
 71
     3
 72
    10
 73
     6
 74
     0
 42
0.000000001
 43
0.00000001
 40
0.0
 40
0.0
 40
0.0
 40
0.0
 40
0.5
 40
0.5
 40
1.0
 40
1.0
 40
1.0
 40
1.0
 10
142.269688269193
 20
-24.7703827556011
 30
0.0
 10
142.2156599414581
 20
-24.81688920840928
 30
0.0
 10
142.1559364420773
 20
-24.85916564736431
 30
0.0
 10
142.026373571267
 20
-24.91899303222714
 30
0.0
 10
141.9582881746571
 20
-24.93245566859391
 30
0.0
 10
141.9005865043398
 20
-24.93075683057584
 30
0.0
  0
SPLINE
  5
10C
330
1F
100
AcDbEntity
  8
1
 62
     4
420
    65535
100
AcDbSpline
210
0.0
220
0.0
230
1.0
 70
     8
 71
     3
 72
    12
 73
     8
 74
     0
 42
0.000000001
 43
0.00000001
 40
0.0
 40
0.0
 40
0.0
 40
0.0
 40
0.250000000000007
 40
0.250000000000007
 40
0.5000000000000141
 40
0.5000000000000141
 40
1.0
 40
1.0
 40
1.0
 40
1.0
 10
142.9213624298108
 20
-23.36655692846669
 30
0.0
 10
142.9195498754442
 20
-23.50070965283919
 30
0.0
 10
142.9046076511752
 20
-23.63263303007464
 30
0.0
 10
142.8471238531278
 20
-23.8917446633701
 30
0.0
 10
142.803793803252
 20
-24.02036958013137
 30
0.0
 10
142.6361981746211
 20
-24.38171275815218
 30
0.0
 10
142.4711693350209
 20
-24.59695207446656
 30
0.0
 10
142.2696882691942
 20
-24.77038275560015
 30
0.0
  0
LINE
  5
10D
330
1F
100
AcDbEntity
  8
1
 62
     4
420
    65535
100
AcDbLine
 10
142.8757452306
 20
-22.4951301061
 30
0.0
 11
143.0094687782
 21
-22.8612072445
 31
0.0
  0
LINE
  5
10E
330
1F
100
AcDbEntity
  8
1
 62
     4
420
    65535
100
AcDbLine
 10
142.801863693
 20
-22.9892402394
 30
0.0
 11
143.0094687782
 21
-22.8612072445
 31
0.0
  0
LINE
  5
10F
330
1F
100
AcDbEntity
  8
1
 62
     4
420
    65535
100
AcDbLine
 10
141.9005865043
 20
-24.9307568306
 30
0.0
 11
141.9527931627
 21
-25.1374805873
 31
0.0
  0
LINE
  5
110
330
1F
100
AcDbEntity
  8
1
 62
     4
420
    65535
100
AcDbLine
 10
141.5853907351
 20
-25.2747906733
 30
0.0
 11
141.9527931627
 21
-25.1374805873
 31
0.0
  0
ARC
  5
111
330
1F
100
AcDbEntity
  8
1
 62
     4
420
    65535
100
AcDbCircle
 10
141.3315878347
 20
-23.4657110794
 30
0.0
 40
1.783454329956567
100
AcDbArc
 50
290.3843366856
 51
19.8129832571
  0
SPLINE
  5
112
330
1F
100
AcDbEntity
  8
1
 62
     4
420
    65535
100
AcDbSpline
210
0.0
220
0.0
230
1.0
 70
     8
 71
     3
 72
     8
 73
     4
 74
     0
 42
0.000000001
 43
0.00000001
 40
0.0
 40
0.0
 40
0.0
 40
0.0
 40
1.0
 40
1.0
 40
1.0
 40
1.0
 10
143.3545464644432
 20
-22.38761911933959
 30
0.0
 10
143.3812188550774
 20
-22.43114749996565
 30
0.0
 10
143.4076072947355
 20
-22.478221148603
 30
0.0
 10
143.4345810143873
 20
-22.53211948246916
 30
0.0
  0
ARC
  5
113
330
1F
100
AcDbEntity
  8
1
 62
     4
420
    65535
100
AcDbCircle
 10
142.1505600664
 20
-21.312555954
 30
0.0
 40
1.770888193741848
100
AcDbArc
 50
299.0135060272
 51
316.4748143905
  0
SPLINE
  5
114
330
1F
100
AcDbEntity
  8
1
 62
     4
420
    65535
100
AcDbSpline
210
0.0
220
0.0
230
1.0
 70
     8
 71
     3
 72
     9
 73
     5
 74
     0
 42
0.000000001
 43
0.00000001
 40
0.0
 40
0.0
 40
0.0
 40
0.0
 40
0.8354313032152767
 40
1.0
 40
1.0
 40
1.0
 40
1.0
 10
142.8012270683884
 20
-25.11675816398723
 30
0.0
 10
142.5998338041657
 20
-25.27180976834201
 30
0.0
 10
142.3587687836814
 20
-25.45740444711218
 30
0.0
 10
142.0753561509136
 20
-25.54602779394199
 30
0.0
 10
142.0287153032867
 20
-25.56061242263447
 30
0.0
  0
ARC
  5
115
330
1F
100
AcDbEntity
  8
1
 62
     4
420
    65535
100
AcDbCircle
 10
140.1241380754
 20
-25.6839716572
 30
0.0
 40
1.908568028016499
100
AcDbArc
 50
3.705864227
 51
16.6387034488
  0
SPLINE
  5
116
330
1F
100
AcDbEntity
  8
1
 62
     4
420
    65535
100
AcDbSpline
210
0.0
220
0.0
230
1.0
 70
     8
 71
     3
 72
     9
 73
     5
 74
     0
 42
0.000000001
 43
0.00000001
 40
0.0
 40
0.0
 40
0.0
 40
0.0
 40
0.5748991209030117
 40
1.0
 40
1.0
 40
1.0
 40
1.0
 10
143.4345810143873
 20
-22.53211948246935
 30
0.0
 10
143.5148736698306
 20
-22.72452136720963
 30
0.0
 10
143.6545375735034
 20
-23.05919205593507
 30
0.0
 10
143.6000683508195
 20
-23.41896574734374
 30
0.0
 10
143.5769134363728
 20
-23.57190585983753
 30
0.0
  0
SPLINE
  5
117
330
1F
100
AcDbEntity
  8
1
 62
     4
420
    65535
100
AcDbSpline
210
0.0
220
0.0
230
1.0
 70
     8
 71
     3
 72
     8
 73
     4
 74
     0
 42
0.000000001
 43
0.00000001
 40
0.0
 40
0.0
 40
0.0
 40
0.0
 40
1.0
 40
1.0
 40
1.0
 40
1.0
 10
141.8613043207378
 20
-25.60433694269758
 30
0.0
 10
141.9137171384496
 20
-25.59241571596883
 30
0.0
 10
141.9685415831329
 20
-25.5782329872881
 30
0.0
 10
142.0287153032864
 20
-25.56061242263458
 30
0.0
  0
LINE
  5
118
330
1F
100
AcDbEntity
  8
1
 62
     4
420
    65535
100
AcDbLine
 10
1.0027086782
 20
-0.0019940657
 30
0.0
 11
1.0027086782
 21
-25.0019940657
 31
0.0
  0
LINE
  5
119
330
1F
100
AcDbEntity
  8
1
 62
     4
420
    65535
100
AcDbLine
 10
115.0027086782
 20
-25.0019940657
 30
0.0
 11
1.0027086782
 21
-25.0019940657
 31
0.0
  0
LINE
  5
11A
330
1F
100
AcDbEntity
  8
1
 62
     4
420
    65535
100
AcDbLine
 10
115.0027086782
 20
-0.0019940657
 30
0.0
 11
1.0027086782
 21
-0.0019940657
 31
0.0
  0
LINE
  5
11B
330
1F
100
AcDbEntity
  8
1
 62
     4
420
    65535
100
AcDbLine
 10
1.0027086782
 20
-25.0019940657
 30
0.0
 11
0.0027086782
 21
-24.0019940657
 31
0.0
  0
LINE
  5
11C
330
1F
100
AcDbEntity
  8
1
 62
     4
420
    65535
100
AcDbLine
 10
0.0027086782
 20
-24.0019940657
 30
0.0
 11
0.0027086782
 21
-1.0019940657
 31
0.0
  0
LINE
  5
11D
330
1F
100
AcDbEntity
  8
1
 62
     4
420
    65535
100
AcDbLine
 10
1.0027086782
 20
-0.0019940657
 30
0.0
 11
0.0027086782
 21
-1.0019940657
 31
0.0
  0
DIMENSION
  5
11E
330
1F
100
AcDbEntity
  8
2
 62
     7
420
 16777215
100
AcDbDimension
  2
_D
 10
0.0027086782
 20
5.9980309343
 30
0.0
 11
75.0027086782
 21
5.9980309343
 31
0.0
 70
   160
  1
<>
 71
     2
 42
-1.0
  3
SLDDIMSTYLE0
100
AcDbAlignedDimension
 13
150.0027086782
 23
-32.0019940657
 33
0.0
 14
0.0027086782
 24
-0.0019940657
 34
0.0
 50
0.0
100
AcDbRotatedDimension
  0
DIMENSION
  5
12A
330
1F
100
AcDbEntity
  8
2
 62
     7
420
 16777215
100
AcDbDimension
  2
_D_1
 10
-5.9972913218
 20
-0.0019940657
 30
0.0
 11
-5.9972913218
 21
-12.5019940657
 31
0.0
 70
   160
  1
<>
 71
     2
 42
-1.0
  3
SLDDIMSTYLE0
100
AcDbAlignedDimension
 13
1.0027086782
 23
-25.0019940657
 33
0.0
 14
1.0027086782
 24
-0.0019940657
 34
0.0
 50
90.0
100
AcDbRotatedDimension
  0
DIMENSION
  5
134
330
1F
100
AcDbEntity
  8
2
 62
     7
420
 16777215
100
AcDbDimension
  2
_D_2
 10
155.9178280496
 20
-0.0019940657
 30
0.0
 11
155.9178280496
 21
-16.0019940657
 31
0.0
 70
   160
  1
<>
 71
     2
 42
-1.0
  3
SLDDIMSTYLE0
100
AcDbAlignedDimension
 13
150.0027086782
 23
-32.0019940657
 33
0.0
 14
150.0027086782
 24
-0.0019940657
 34
0.0
 50
90.0
100
AcDbRotatedDimension
  0
DIMENSION
  5
13E
330
1F
100
AcDbEntity
  8
2
 62
     7
420
 16777215
100
AcDbDimension
  2
_D_3
 10
150.0027086782
 20
-38.0024407512
 30
0.0
 11
132.5027086782
 21
-38.0024407512
 31
0.0
 70
   160
  1
<>
 71
     2
 42
-1.0
  3
SLDDIMSTYLE0
100
AcDbAlignedDimension
 13
115.0027086782
 23
-0.0019940657
 33
0.0
 14
150.0027086782
 24
-32.0019940657
 34
0.0
100
AcDbRotatedDimension
  0
INSERT
  5
153
330
1F
100
AcDbEntity
  8
0
  6
SLD-Punktstrich
 62
     2
420
 16776960
370
    15
100
AcDbBlockReference
  2
SW_CENTERMARKSYMBOL_0
 10
139.8836073308
 20
6.6862783167
 30
0.0
  0
INSERT
  5
15F
330
1F
100
AcDbEntity
  8
0
  6
SLD-Punktstrich
 62
     2
420
 16776960
370
    15
100
AcDbBlockReference
  2
SW_CENTERMARKSYMBOL_1
 10
139.8836073308
 20
-11.6637216833
 30
0.0
  0
ENDSEC
  0
SECTION
  2
OBJECTS
  0
DICTIONARY
  5
C
330
0
100
AcDbDictionary
281
     1
  3
ACAD_DETAILVIEWSTYLE
350
164
  3
ACAD_GROUP
350
D
  3
ACAD_LAYOUT
350
1A
  3
ACAD_MATERIAL
350
43
  3
ACAD_MLEADERSTYLE
350
163
  3
ACAD_MLINESTYLE
350
17
  3
ACAD_PLOTSETTINGS
350
19
  3
ACAD_PLOTSTYLENAME
350
E
  3
ACAD_SCALELIST
350
47
  3
ACAD_SECTIONVIEWSTYLE
350
165
  3
ACAD_TABLESTYLE
350
162
  3
AcDbVariableDictionary
350
160
  0
DICTIONARY
  5
164
102
{ACAD_REACTORS
330
C
102
}
330
C
100
AcDbDictionary
281
     1
  0
DICTIONARY
  5
D
102
{ACAD_REACTORS
330
C
102
}
330
C
100
AcDbDictionary
281
     1
  0
DICTIONARY
  5
1A
102
{ACAD_REACTORS
330
C
102
}
330
C
100
AcDbDictionary
281
     1
  3
Layout1
350
1E
  3
Layout2
350
26
  3
Model
350
22
  0
DICTIONARY
  5
43
102
{ACAD_REACTORS
330
C
102
}
330
C
100
AcDbDictionary
281
     1
  3
ByBlock
350
45
  3
ByLayer
350
44
  3
Global
350
46
  0
DICTIONARY
  5
163
102
{ACAD_REACTORS
330
C
102
}
330
C
100
AcDbDictionary
281
     1
  0
DICTIONARY
  5
17
102
{ACAD_REACTORS
330
C
102
}
330
C
100
AcDbDictionary
281
     1
  3
Standard
350
18
  0
DICTIONARY
  5
19
102
{ACAD_REACTORS
330
C
102
}
330
C
100
AcDbDictionary
281
     1
  0
ACDBDICTIONARYWDFLT
  5
E
102
{ACAD_REACTORS
330
C
102
}
330
C
100
AcDbDictionary
281
     1
  3
Normal
350
F
100
AcDbDictionaryWithDefault
340
F
  0
DICTIONARY
  5
47
102
{ACAD_REACTORS
330
C
102
}
330
C
100
AcDbDictionary
281
     1
  3
A0
350
48
  3
A1
350
49
  3
A2
350
4A
  3
A3
350
4B
  3
A4
350
4C
  3
A5
350
4D
  3
A6
350
4E
  3
A7
350
4F
  3
A8
350
50
  3
A9
350
51
  3
B0
350
52
  3
B1
350
53
  3
B2
350
54
  3
B3
350
55
  3
B4
350
56
  3
B5
350
57
  3
B6
350
58
  3
B7
350
59
  3
B8
350
5A
  3
B9
350
5B
  3
C0
350
5C
  3
C1
350
5D
  3
C2
350
5E
  3
C3
350
5F
  3
C4
350
60
  3
C5
350
61
  3
C6
350
62
  3
C7
350
63
  3
C8
350
64
  3
C9
350
65
  3
D0
350
66
  3
D1
350
67
  3
D2
350
68
  0
DICTIONARY
  5
165
102
{ACAD_REACTORS
330
C
102
}
330
C
100
AcDbDictionary
281
     1
  0
DICTIONARY
  5
162
102
{ACAD_REACTORS
330
C
102
}
330
C
100
AcDbDictionary
281
     1
  0
DICTIONARY
  5
160
102
{ACAD_REACTORS
330
C
102
}
330
C
100
AcDbDictionary
281
     1
  3
CANNOSCALE
350
161
  0
LAYOUT
  5
1E
102
{ACAD_REACTORS
330
1A
102
}
330
1A
100
AcDbPlotSettings
  1

  2
none_device
  4

  6

 40
0.0
 41
0.0
 42
0.0
 43
0.0
 44
0.0
 45
0.0
 46
0.0
 47
0.0
 48
0.0
 49
0.0
140
0.0
141
0.0
142
1.0
143
1.0
 70
   688
 72
     1
 73
     0
 74
     5
  7

 75
    16
 76
     0
 77
     2
 78
   300
147
1.0
148
0.0
149
0.0
100
AcDbLayout
  1
Layout1
 70
     1
 71
     1
 10
0.0
 20
0.0
 11
420.0
 21
297.0
 12
0.0
 22
0.0
 32
0.0
 14
1.0000000000E+20
 24
1.0000000000E+20
 34
1.0000000000E+20
 15
-1.0000000000E+20
 25
-1.0000000000E+20
 35
-1.0000000000E+20
146
0.0
 13
0.0
 23
0.0
 33
0.0
 16
1.0
 26
0.0
 36
0.0
 17
0.0
 27
1.0
 37
0.0
 76
     0
330
1B
  0
LAYOUT
  5
26
102
{ACAD_REACTORS
330
1A
102
}
330
1A
100
AcDbPlotSettings
  1

  2
none_device
  4

  6

 40
0.0
 41
0.0
 42
0.0
 43
0.0
 44
0.0
 45
0.0
 46
0.0
 47
0.0
 48
0.0
 49
0.0
140
0.0
141
0.0
142
1.0
143
1.0
 70
   688
 72
     1
 73
     0
 74
     5
  7

 75
    16
 76
     0
 77
     2
 78
   300
147
1.0
148
0.0
149
0.0
100
AcDbLayout
  1
Layout2
 70
     1
 71
     2
 10
0.0
 20
0.0
 11
0.0
 21
0.0
 12
0.0
 22
0.0
 32
0.0
 14
0.0
 24
0.0
 34
0.0
 15
0.0
 25
0.0
 35
0.0
146
0.0
 13
0.0
 23
0.0
 33
0.0
 16
1.0
 26
0.0
 36
0.0
 17
0.0
 27
1.0
 37
0.0
 76
     0
330
23
  0
LAYOUT
  5
22
102
{ACAD_REACTORS
330
1A
102
}
330
1A
100
AcDbPlotSettings
  1

  2
none_device
  4
Letter_(8.50_x_11.00_Inches)
  6

 40
6.35
 41
6.35
 42
6.35000508
 43
6.35000508
 44
215.9
 45
279.4
 46
0.0
 47
0.0
 48
0.0
 49
0.0
140
0.0
141
0.0
142
1.0
143
1.0
 70
  1712
 72
     1
 73
     0
 74
     0
  7

 75
     0
 76
     0
 77
     2
 78
   300
147
1.0
148
0.0
149
0.0
100
AcDbLayout
  1
Model
 70
     1
 71
     0
 10
0.0
 20
0.0
 11
297.0
 21
210.0
 12
0.0
 22
0.0
 32
0.0
 14
0.0
 24
0.0
 34
0.0
 15
297.0
 25
210.0
 35
0.0
146
0.0
 13
0.0
 23
0.0
 33
0.0
 16
1.0
 26
0.0
 36
0.0
 17
0.0
 27
1.0
 37
0.0
 76
     0
330
1F
331
29
  0
MATERIAL
  5
45
102
{ACAD_REACTORS
330
43
102
}
330
43
100
AcDbMaterial
  1
ByBlock
  0
MATERIAL
  5
44
102
{ACAD_REACTORS
330
43
102
}
330
43
100
AcDbMaterial
  1
ByLayer
  0
MATERIAL
  5
46
102
{ACAD_REACTORS
330
43
102
}
330
43
100
AcDbMaterial
  1
Global
  0
MLINESTYLE
  5
18
102
{ACAD_REACTORS
330
17
102
}
330
17
100
AcDbMlineStyle
  2
Standard
 70
     0
  3

 62
   256
 51
90.0
 52
90.0
 71
     2
 49
0.5
 62
   256
  6
BYLAYER
 49
-0.5
 62
   256
  6
BYLAYER
  0
ACDBPLACEHOLDER
  5
F
102
{ACAD_REACTORS
330
E
102
}
330
E
  0
SCALE
  5
48
102
{ACAD_REACTORS
330
47
102
}
330
47
100
AcDbScale
 70
     0
300
1:1
140
1.0
141
1.0
290
     1
  0
SCALE
  5
49
102
{ACAD_REACTORS
330
47
102
}
330
47
100
AcDbScale
 70
     0
300
1:2
140
1.0
141
2.0
290
     0
  0
SCALE
  5
4A
102
{ACAD_REACTORS
330
47
102
}
330
47
100
AcDbScale
 70
     0
300
1:4
140
1.0
141
4.0
290
     0
  0
SCALE
  5
4B
102
{ACAD_REACTORS
330
47
102
}
330
47
100
AcDbScale
 70
     0
300
1:5
140
1.0
141
5.0
290
     0
  0
SCALE
  5
4C
102
{ACAD_REACTORS
330
47
102
}
330
47
100
AcDbScale
 70
     0
300
1:8
140
1.0
141
8.0
290
     0
  0
SCALE
  5
4D
102
{ACAD_REACTORS
330
47
102
}
330
47
100
AcDbScale
 70
     0
300
1:10
140
1.0
141
10.0
290
     0
  0
SCALE
  5
4E
102
{ACAD_REACTORS
330
47
102
}
330
47
100
AcDbScale
 70
     0
300
1:16
140
1.0
141
16.0
290
     0
  0
SCALE
  5
4F
102
{ACAD_REACTORS
330
47
102
}
330
47
100
AcDbScale
 70
     0
300
1:20
140
1.0
141
20.0
290
     0
  0
SCALE
  5
50
102
{ACAD_REACTORS
330
47
102
}
330
47
100
AcDbScale
 70
     0
300
1:30
140
1.0
141
30.0
290
     0
  0
SCALE
  5
51
102
{ACAD_REACTORS
330
47
102
}
330
47
100
AcDbScale
 70
     0
300
1:40
140
1.0
141
40.0
290
     0
  0
SCALE
  5
52
102
{ACAD_REACTORS
330
47
102
}
330
47
100
AcDbScale
 70
     0
300
1:50
140
1.0
141
50.0
290
     0
  0
SCALE
  5
53
102
{ACAD_REACTORS
330
47
102
}
330
47
100
AcDbScale
 70
     0
300
1:100
140
1.0
141
100.0
290
     0
  0
SCALE
  5
54
102
{ACAD_REACTORS
330
47
102
}
330
47
100
AcDbScale
 70
     0
300
2:1
140
2.0
141
1.0
290
     0
  0
SCALE
  5
55
102
{ACAD_REACTORS
330
47
102
}
330
47
100
AcDbScale
 70
     0
300
4:1
140
4.0
141
1.0
290
     0
  0
SCALE
  5
56
102
{ACAD_REACTORS
330
47
102
}
330
47
100
AcDbScale
 70
     0
300
8:1
140
8.0
141
1.0
290
     0
  0
SCALE
  5
57
102
{ACAD_REACTORS
330
47
102
}
330
47
100
AcDbScale
 70
     0
300
10:1
140
10.0
141
1.0
290
     0
  0
SCALE
  5
58
102
{ACAD_REACTORS
330
47
102
}
330
47
100
AcDbScale
 70
     0
300
100:1
140
100.0
141
1.0
290
     0
  0
SCALE
  5
59
102
{ACAD_REACTORS
330
47
102
}
330
47
100
AcDbScale
 70
     0
300
1/128" = 1'-0"
140
0.0078125
141
12.0
290
     0
  0
SCALE
  5
5A
102
{ACAD_REACTORS
330
47
102
}
330
47
100
AcDbScale
 70
     0
300
1/64" = 1'-0"
140
0.015625
141
12.0
290
     0
  0
SCALE
  5
5B
102
{ACAD_REACTORS
330
47
102
}
330
47
100
AcDbScale
 70
     0
300
1/32" = 1'-0"
140
0.03125
141
12.0
290
     0
  0
SCALE
  5
5C
102
{ACAD_REACTORS
330
47
102
}
330
47
100
AcDbScale
 70
     0
300
1/16" = 1'-0"
140
0.0625
141
12.0
290
     0
  0
SCALE
  5
5D
102
{ACAD_REACTORS
330
47
102
}
330
47
100
AcDbScale
 70
     0
300
3/32" = 1'-0"
140
0.09375
141
12.0
290
     0
  0
SCALE
  5
5E
102
{ACAD_REACTORS
330
47
102
}
330
47
100
AcDbScale
 70
     0
300
1/8" = 1'-0"
140
0.125
141
12.0
290
     0
  0
SCALE
  5
5F
102
{ACAD_REACTORS
330
47
102
}
330
47
100
AcDbScale
 70
     0
300
3/16" = 1'-0"
140
0.1875
141
12.0
290
     0
  0
SCALE
  5
60
102
{ACAD_REACTORS
330
47
102
}
330
47
100
AcDbScale
 70
     0
300
1/4" = 1'-0"
140
0.25
141
12.0
290
     0
  0
SCALE
  5
61
102
{ACAD_REACTORS
330
47
102
}
330
47
100
AcDbScale
 70
     0
300
3/8" = 1'-0"
140
0.375
141
12.0
290
     0
  0
SCALE
  5
62
102
{ACAD_REACTORS
330
47
102
}
330
47
100
AcDbScale
 70
     0
300
1/2" = 1'-0"
140
0.5
141
12.0
290
     0
  0
SCALE
  5
63
102
{ACAD_REACTORS
330
47
102
}
330
47
100
AcDbScale
 70
     0
300
3/4" = 1'-0"
140
0.75
141
12.0
290
     0
  0
SCALE
  5
64
102
{ACAD_REACTORS
330
47
102
}
330
47
100
AcDbScale
 70
     0
300
1" = 1'-0"
140
1.0
141
12.0
290
     0
  0
SCALE
  5
65
102
{ACAD_REACTORS
330
47
102
}
330
47
100
AcDbScale
 70
     0
300
1-1/2" = 1'-0"
140
1.5
141
12.0
290
     0
  0
SCALE
  5
66
102
{ACAD_REACTORS
330
47
102
}
330
47
100
AcDbScale
 70
     0
300
3" = 1'-0"
140
3.0
141
12.0
290
     0
  0
SCALE
  5
67
102
{ACAD_REACTORS
330
47
102
}
330
47
100
AcDbScale
 70
     0
300
6" = 1'-0"
140
6.0
141
12.0
290
     0
  0
SCALE
  5
68
102
{ACAD_REACTORS
330
47
102
}
330
47
100
AcDbScale
 70
     0
300
1'-0" = 1'-0"
140
12.0
141
12.0
290
     0
  0
DICTIONARYVAR
  5
161
102
{ACAD_REACTORS
330
160
102
}
330
160
100
DictionaryVariables
280
     0
  1
1:1
  0
ENDSEC
  0
EOF
