  0
SECTION
  2
HEADER
  9
$ACADVER
  1
AC1018
  9
$ACADMAINTVER
 70
     0
  9
$DWGCODEPAGE
  3
ANSI_1252
  9
$LASTSAVEDBY
  1
piechottad
  9
$INSBASE
 10
0.0
 20
0.0
 30
0.0
  9
$EXTMIN
 10
0.0
 20
0.0
 30
0.0
  9
$EXTMAX
 10
297.0
 20
210.0
 30
0.0
  9
$LIMMIN
 10
0.0
 20
0.0
  9
$LIMMAX
 10
297.0
 20
210.0
  9
$ORTHOMODE
 70
     0
  9
$REGENMODE
 70
     1
  9
$FILLMODE
 70
     1
  9
$QTEXTMODE
 70
     0
  9
$MIRRTEXT
 70
     1
  9
$LTSCALE
 40
1.0
  9
$ATTMODE
 70
     1
  9
$TEXTSIZE
 40
3.5
  9
$TRACEWID
 40
1.0
  9
$TEXTSTYLE
  7
Standard
  9
$CLAYER
  8
0
  9
$CELTYPE
  6
ByLayer
  9
$CECOLOR
 62
   256
  9
$CELTSCALE
 40
1.0
  9
$DISPSILH
 70
     0
  9
$DIMSCALE
 40
1.0
  9
$DIMASZ
 40
3.302
  9
$DIMEXO
 40
1.0
  9
$DIMDLI
 40
3.75
  9
$DIMRND
 40
0.0
  9
$DIMDLE
 40
0.0
  9
$DIMEXE
 40
1.0
  9
$DIMTP
 40
0.0
  9
$DIMTM
 40
0.0
  9
$DIMTXT
 40
3.5
  9
$DIMCEN
 40
2.5
  9
$DIMTSZ
 40
0.0
  9
$DIMTOL
 70
     0
  9
$DIMLIM
 70
     0
  9
$DIMTIH
 70
     1
  9
$DIMTOH
 70
     1
  9
$DIMSE1
 70
     0
  9
$DIMSE2
 70
     0
  9
$DIMTAD
 70
     1
  9
$DIMZIN
 70
     0
  9
$DIMBLK
  1

  9
$DIMASO
 70
     1
  9
$DIMSHO
 70
     1
  9
$DIMPOST
  1

  9
$DIMAPOST
  1

  9
$DIMALT
 70
     0
  9
$DIMALTD
 70
     3
  9
$DIMALTF
 40
0.0393700787
  9
$DIMLFAC
 40
1.0
  9
$DIMTOFL
 70
     1
  9
$DIMTVP
 40
0.0
  9
$DIMTIX
 70
     0
  9
$DIMSOXD
 70
     0
  9
$DIMSAH
 70
     0
  9
$DIMBLK1
  1

  9
$DIMBLK2
  1

  9
$DIMSTYLE
  2
ISO-25
  9
$DIMCLRD
 70
     0
  9
$DIMCLRE
 70
     0
  9
$DIMCLRT
 70
     0
  9
$DIMTFAC
 40
1.0
  9
$DIMGAP
 40
1.524
  9
$DIMJUST
 70
     0
  9
$DIMSD1
 70
     0
  9
$DIMSD2
 70
     0
  9
$DIMTOLJ
 70
     0
  9
$DIMTZIN
 70
     0
  9
$DIMALTZ
 70
     0
  9
$DIMALTTZ
 70
     0
  9
$DIMUPT
 70
     0
  9
$DIMDEC
 70
     2
  9
$DIMTDEC
 70
     2
  9
$DIMALTU
 70
     2
  9
$DIMALTTD
 70
     3
  9
$DIMTXSTY
  7
Standard
  9
$DIMAUNIT
 70
     0
  9
$DIMADEC
 70
     2
  9
$DIMALTRND
 40
0.0
  9
$DIMAZIN
 70
     0
  9
$DIMDSEP
 70
    44
  9
$DIMATFIT
 70
     3
  9
$DIMFRAC
 70
     0
  9
$DIMLDRBLK
  1

  9
$DIMLUNIT
 70
     2
  9
$DIMLWD
 70
    -2
  9
$DIMLWE
 70
    -2
  9
$DIMTMOVE
 70
     0
  9
$LUNITS
 70
     2
  9
$LUPREC
 70
     2
  9
$SKETCHINC
 40
1.0
  9
$FILLETRAD
 40
10.0
  9
$AUNITS
 70
     0
  9
$AUPREC
 70
     2
  9
$MENU
  1
.
  9
$ELEVATION
 40
0.0
  9
$PELEVATION
 40
0.0
  9
$THICKNESS
 40
0.0
  9
$LIMCHECK
 70
     0
  9
$CHAMFERA
 40
0.0
  9
$CHAMFERB
 40
0.0
  9
$CHAMFERC
 40
0.0
  9
$CHAMFERD
 40
0.0
  9
$SKPOLY
 70
     0
  9
$TDCREATE
 40
2457030.588591412
  9
$TDUCREATE
 40
2457030.546924745
  9
$TDUPDATE
 40
2457031.474551875
  9
$TDUUPDATE
 40
2457031.432885208
  9
$TDINDWG
 40
0.000200162
  9
$TDUSRTIMER
 40
2457031.432685266
  9
$USRTIMER
 70
     1
  9
$ANGBASE
 50
0.0
  9
$ANGDIR
 70
     0
  9
$PDMODE
 70
     0
  9
$PDSIZE
 40
-1.0
  9
$PLINEWID
 40
0.0
  9
$SPLFRAME
 70
     0
  9
$SPLINETYPE
 70
     6
  9
$SPLINESEGS
 70
     8
  9
$HANDSEED
  5
114
  9
$SURFTAB1
 70
     6
  9
$SURFTAB2
 70
     6
  9
$SURFTYPE
 70
     6
  9
$SURFU
 70
     6
  9
$SURFV
 70
     6
  9
$UCSBASE
  2

  9
$UCSNAME
  2

  9
$UCSORG
 10
0.0
 20
0.0
 30
0.0
  9
$UCSXDIR
 10
1.0
 20
0.0
 30
0.0
  9
$UCSYDIR
 10
0.0
 20
1.0
 30
0.0
  9
$UCSORTHOREF
  2

  9
$UCSORTHOVIEW
 70
     0
  9
$UCSORGTOP
 10
0.0
 20
0.0
 30
0.0
  9
$UCSORGBOTTOM
 10
0.0
 20
0.0
 30
0.0
  9
$UCSORGLEFT
 10
0.0
 20
0.0
 30
0.0
  9
$UCSORGRIGHT
 10
0.0
 20
0.0
 30
0.0
  9
$UCSORGFRONT
 10
0.0
 20
0.0
 30
0.0
  9
$UCSORGBACK
 10
0.0
 20
0.0
 30
0.0
  9
$PUCSBASE
  2

  9
$PUCSNAME
  2

  9
$PUCSORG
 10
0.0
 20
0.0
 30
0.0
  9
$PUCSXDIR
 10
1.0
 20
0.0
 30
0.0
  9
$PUCSYDIR
 10
0.0
 20
1.0
 30
0.0
  9
$PUCSORTHOREF
  2

  9
$PUCSORTHOVIEW
 70
     0
  9
$PUCSORGTOP
 10
0.0
 20
0.0
 30
0.0
  9
$PUCSORGBOTTOM
 10
0.0
 20
0.0
 30
0.0
  9
$PUCSORGLEFT
 10
0.0
 20
0.0
 30
0.0
  9
$PUCSORGRIGHT
 10
0.0
 20
0.0
 30
0.0
  9
$PUCSORGFRONT
 10
0.0
 20
0.0
 30
0.0
  9
$PUCSORGBACK
 10
0.0
 20
0.0
 30
0.0
  9
$USERI1
 70
     0
  9
$USERI2
 70
     0
  9
$USERI3
 70
     0
  9
$USERI4
 70
     0
  9
$USERI5
 70
     0
  9
$USERR1
 40
0.0
  9
$USERR2
 40
0.0
  9
$USERR3
 40
0.0
  9
$USERR4
 40
0.0
  9
$USERR5
 40
0.0
  9
$WORLDVIEW
 70
     1
  9
$SHADEDGE
 70
     3
  9
$SHADEDIF
 70
    70
  9
$TILEMODE
 70
     1
  9
$MAXACTVP
 70
    64
  9
$PINSBASE
 10
0.0
 20
0.0
 30
0.0
  9
$PLIMCHECK
 70
     0
  9
$PEXTMIN
 10
1.000000000000000E+20
 20
1.000000000000000E+20
 30
1.000000000000000E+20
  9
$PEXTMAX
 10
-1.000000000000000E+20
 20
-1.000000000000000E+20
 30
-1.000000000000000E+20
  9
$PLIMMIN
 10
0.0
 20
0.0
  9
$PLIMMAX
 10
0.0
 20
0.0
  9
$UNITMODE
 70
     0
  9
$VISRETAIN
 70
     1
  9
$PLINEGEN
 70
     0
  9
$PSLTSCALE
 70
     1
  9
$TREEDEPTH
 70
  3020
  9
$CMLSTYLE
  2
Standard
  9
$CMLJUST
 70
     0
  9
$CMLSCALE
 40
20.0
  9
$PROXYGRAPHICS
 70
     1
  9
$MEASUREMENT
 70
     1
  9
$CELWEIGHT
370
    -1
  9
$ENDCAPS
280
     0
  9
$JOINSTYLE
280
     0
  9
$LWDISPLAY
290
     1
  9
$INSUNITS
 70
     4
  9
$HYPERLINKBASE
  1

  9
$STYLESHEET
  1

  9
$XEDIT
290
     1
  9
$CEPSNTYPE
380
     0
  9
$PSTYLEMODE
290
     1
  9
$FINGERPRINTGUID
  2
{1BCBA13E-9681-4423-8203-835EFDD1DCBB}
  9
$VERSIONGUID
  2
{FAEB1C32-E019-11D5-929B-00C0DF256EC4}
  9
$EXTNAMES
290
     1
  9
$PSVPSCALE
 40
0.0
  9
$OLESTARTUP
290
     0
  9
$SORTENTS
280
   127
  9
$INDEXCTL
280
     0
  9
$HIDETEXT
280
     1
  9
$XCLIPFRAME
290
     0
  9
$HALOGAP
280
     0
  9
$OBSCOLOR
 70
   257
  9
$OBSLTYPE
280
     0
  9
$INTERSECTIONDISPLAY
280
     0
  9
$INTERSECTIONCOLOR
 70
   257
  9
$DIMASSOC
280
     2
  9
$PROJECTNAME
  1

  0
ENDSEC
  0
SECTION
  2
CLASSES
  0
CLASS
  1
ACDBDICTIONARYWDFLT
  2
AcDbDictionaryWithDefault
  3
ObjectDBX Classes
 90
        0
 91
       33
280
     0
281
     0
  0
CLASS
  1
VISUALSTYLE
  2
AcDbVisualStyle
  3
ObjectDBX Classes
 90
     4095
 91
       33
280
     0
281
     0
  0
CLASS
  1
MATERIAL
  2
AcDbMaterial
  3
ObjectDBX Classes
 90
     1153
 91
       33
280
     0
281
     0
  0
CLASS
  1
SCALE
  2
AcDbScale
  3
ObjectDBX Classes
 90
     1153
 91
       33
280
     0
281
     0
  0
CLASS
  1
SUN
  2
AcDbSun
  3
SCENEOE
 90
     1153
 91
       33
280
     0
281
     0
  0
CLASS
  1
DICTIONARYVAR
  2
AcDbDictionaryVar
  3
ObjectDBX Classes
 90
        0
 91
       18
280
     0
281
     0
  0
CLASS
  1
TABLESTYLE
  2
AcDbTableStyle
  3
ObjectDBX Classes
 90
     4095
 91
       33
280
     0
281
     0
  0
CLASS
  1
RASTERVARIABLES
  2
AcDbRasterVariables
  3
ISM
 90
        0
 91
       33
280
     0
281
     0
  0
CLASS
  1
CELLSTYLEMAP
  2
AcDbCellStyleMap
  3
ObjectDBX Classes
 90
     1152
 91
        4
280
     0
281
     0
  0
ENDSEC
  0
SECTION
  2
TABLES
  0
TABLE
  2
VPORT
  5
8
330
0
100
AcDbSymbolTable
 70
     1
  0
VPORT
  5
29
330
8
100
AcDbSymbolTableRecord
100
AcDbViewportTableRecord
  2
*Active
 70
     0
 10
0.0
 20
0.0
 11
1.0
 21
1.0
 12
101.3790983606557
 22
22.16188524590163
 13
0.0
 23
0.0
 14
10.0
 24
10.0
 15
10.0
 25
10.0
 16
0.0
 26
0.0
 36
1.0
 17
0.0
 27
0.0
 37
0.0
 40
210.0
 41
1.497950819672131
 42
50.0
 43
0.0
 44
0.0
 50
0.0
 51
0.0
 71
    16
 72
  2000
 73
     1
 74
     3
 75
     0
 76
     0
 77
     0
 78
     0
281
     0
 65
     1
110
0.0
120
0.0
130
0.0
111
1.0
121
0.0
131
0.0
112
0.0
122
1.0
132
0.0
 79
     0
146
0.0
  0
ENDTAB
  0
TABLE
  2
LTYPE
  5
5
330
0
100
AcDbSymbolTable
 70
     8
  0
LTYPE
  5
14
330
5
100
AcDbSymbolTableRecord
100
AcDbLinetypeTableRecord
  2
ByBlock
 70
     0
  3

 72
    65
 73
     0
 40
0.0
  0
LTYPE
  5
15
330
5
100
AcDbSymbolTableRecord
100
AcDbLinetypeTableRecord
  2
ByLayer
 70
     0
  3

 72
    65
 73
     0
 40
0.0
  0
LTYPE
  5
16
330
5
100
AcDbSymbolTableRecord
100
AcDbLinetypeTableRecord
  2
Continuous
 70
     0
  3
Solid line
 72
    65
 73
     0
 40
0.0
  0
LTYPE
  5
6A
330
5
100
AcDbSymbolTableRecord
100
AcDbLinetypeTableRecord
  2
SLD-Durchgehend
 70
     0
  3
SolidWorks Line Style
 72
    65
 73
     0
 40
0.0
  0
LTYPE
  5
6B
330
5
100
AcDbSymbolTableRecord
100
AcDbLinetypeTableRecord
  2
SLD-Gestrichelt
 70
     0
  3
SolidWorks Line Style
 72
    65
 73
     2
 40
1.905
 49
1.27
 74
     0
 49
-0.635
 74
     0
  0
LTYPE
  5
6C
330
5
100
AcDbSymbolTableRecord
100
AcDbLinetypeTableRecord
  2
SLD-Phantom
 70
     0
  3
SolidWorks Line Style
 72
    65
 73
     6
 40
12.7
 49
6.35
 74
     0
 49
-1.27
 74
     0
 49
1.27
 74
     0
 49
-1.27
 74
     0
 49
1.27
 74
     0
 49
-1.27
 74
     0
  0
LTYPE
  5
6D
330
5
100
AcDbSymbolTableRecord
100
AcDbLinetypeTableRecord
  2
SLD-Kette
 70
     0
  3
SolidWorks Line Style
 72
    65
 73
     4
 40
10.16
 49
6.35
 74
     0
 49
-1.27
 74
     0
 49
1.27
 74
     0
 49
-1.27
 74
     0
  0
LTYPE
  5
6E
330
5
100
AcDbSymbolTableRecord
100
AcDbLinetypeTableRecord
  2
SLD-Punktstrich
 70
     0
  3
SolidWorks Line Style
 72
    65
 73
     4
 40
19.05
 49
15.24
 74
     0
 49
-1.27
 74
     0
 49
1.27
 74
     0
 49
-1.27
 74
     0
  0
LTYPE
  5
6F
330
5
100
AcDbSymbolTableRecord
100
AcDbLinetypeTableRecord
  2
SLD-Naht
 70
     0
  3
SolidWorks Line Style
 72
    65
 73
     2
 40
0.635
 49
0.0
 74
     0
 49
-0.635
 74
     0
  0
LTYPE
  5
70
330
5
100
AcDbSymbolTableRecord
100
AcDbLinetypeTableRecord
  2
SLD-Dicke-Dünne-Kette
 70
     0
  3
SolidWorks Line Style
 72
    65
 73
     4
 40
10.16
 49
6.35
 74
     0
 49
-1.27
 74
     0
 49
1.27
 74
     0
 49
-1.27
 74
     0
  0
ENDTAB
  0
TABLE
  2
LAYER
  5
2
330
0
100
AcDbSymbolTable
 70
     4
  0
LAYER
  5
10
330
2
100
AcDbSymbolTableRecord
100
AcDbLayerTableRecord
  2
0
 70
     0
 62
     7
  6
Continuous
370
    -3
390
F
  0
LAYER
  5
71
330
2
100
AcDbSymbolTableRecord
100
AcDbLayerTableRecord
  2
1
 70
     0
 62
     4
  6
Continuous
370
    -1
390
F
  0
LAYER
  5
72
330
2
100
AcDbSymbolTableRecord
100
AcDbLayerTableRecord
  2
2
 70
     0
 62
     7
  6
SLD-Durchgehend
370
    -3
390
F
  0
LAYER
  5
102
330
2
100
AcDbSymbolTableRecord
100
AcDbLayerTableRecord
  2
Defpoints
 70
     0
 62
     7
  6
Continuous
290
     0
370
    -3
390
F
  0
ENDTAB
  0
TABLE
  2
STYLE
  5
3
330
0
100
AcDbSymbolTable
 70
     2
  0
STYLE
  5
11
330
3
100
AcDbSymbolTableRecord
100
AcDbTextStyleTableRecord
  2
Standard
 70
     0
 40
0.0
 41
1.0
 50
0.0
 71
     0
 42
3.5
  3
txt
  4

  0
STYLE
  5
9B
330
3
100
AcDbSymbolTableRecord
100
AcDbTextStyleTableRecord
  2
SLDTEXTSTYLE0
 70
     0
 40
0.0
 41
0.75
 50
0.0
 71
     0
 42
3.5
  3
TXT
  4

  0
ENDTAB
  0
TABLE
  2
VIEW
  5
6
330
0
100
AcDbSymbolTable
 70
     0
  0
ENDTAB
  0
TABLE
  2
UCS
  5
7
330
0
100
AcDbSymbolTable
 70
     0
  0
ENDTAB
  0
TABLE
  2
APPID
  5
9
330
0
100
AcDbSymbolTable
 70
     1
  0
APPID
  5
12
330
9
100
AcDbSymbolTableRecord
100
AcDbRegAppTableRecord
  2
ACAD
 70
     0
  0
ENDTAB
  0
TABLE
  2
DIMSTYLE
  5
A
330
0
100
AcDbSymbolTable
 70
     3
100
AcDbDimStyleTable
  0
DIMSTYLE
105
27
330
A
100
AcDbSymbolTableRecord
100
AcDbDimStyleTableRecord
  2
ISO-25
 70
     0
 41
2.5
 42
0.625
 43
3.75
 44
1.25
 73
     0
 74
     0
 77
     1
 78
     8
140
2.5
141
2.5
143
0.0393700787
147
0.625
171
     3
172
     1
178
     0
271
     2
272
     2
274
     3
278
    44
283
     0
284
     8
340
11
  0
DIMSTYLE
105
9C
102
{ACAD_REACTORS
330
9A
330
A6
330
BD
102
}
330
A
100
AcDbSymbolTableRecord
100
AcDbDimStyleTableRecord
  2
SLDDIMSTYLE0
 70
     0
 41
3.302
 44
0.0
 45
0.000000001
 73
     0
 74
     0
 77
     1
 78
    12
 79
     3
140
3.5
147
0.875
173
     1
178
     0
271
     2
272
     2
276
     2
284
    12
340
9B
  0
DIMSTYLE
105
B1
102
{ACAD_REACTORS
330
B0
102
}
330
A
100
AcDbSymbolTableRecord
100
AcDbDimStyleTableRecord
  2
SLDDIMSTYLE1
 70
     0
 41
3.302
 44
0.0
 45
0.000000001
 73
     0
 74
     0
 77
     1
 78
    12
 79
     3
140
3.5
147
0.875
172
     1
173
     1
178
     0
271
     2
272
     2
276
     2
284
    12
289
     0
340
9B
  0
ENDTAB
  0
TABLE
  2
BLOCK_RECORD
  5
1
330
0
100
AcDbSymbolTable
 70
     7
  0
BLOCK_RECORD
  5
1F
330
1
100
AcDbSymbolTableRecord
100
AcDbBlockTableRecord
  2
*Model_Space
340
22
  0
BLOCK_RECORD
  5
1B
330
1
100
AcDbSymbolTableRecord
100
AcDbBlockTableRecord
  2
*Paper_Space
340
1E
  0
BLOCK_RECORD
  5
23
330
1
100
AcDbSymbolTableRecord
100
AcDbBlockTableRecord
  2
*Paper_Space0
340
26
  0
BLOCK_RECORD
  5
9D
330
1
100
AcDbSymbolTableRecord
100
AcDbBlockTableRecord
  2
_D
340
0
  0
BLOCK_RECORD
  5
A7
330
1
100
AcDbSymbolTableRecord
100
AcDbBlockTableRecord
  2
_D_1
340
0
  0
BLOCK_RECORD
  5
B2
330
1
100
AcDbSymbolTableRecord
100
AcDbBlockTableRecord
  2
_D_2
340
0
  0
BLOCK_RECORD
  5
BE
330
1
100
AcDbSymbolTableRecord
100
AcDbBlockTableRecord
  2
_D_3
340
0
  0
BLOCK_RECORD
  5
C7
330
1
100
AcDbSymbolTableRecord
100
AcDbBlockTableRecord
  2
SW_CENTERMARKSYMBOL_0
340
0
102
{BLKREFS
331
0
102
}
  0
BLOCK_RECORD
  5
D3
330
1
100
AcDbSymbolTableRecord
100
AcDbBlockTableRecord
  2
SW_CENTERMARKSYMBOL_1
340
0
102
{BLKREFS
331
0
102
}
  0
ENDTAB
  0
ENDSEC
  0
SECTION
  2
BLOCKS
  0
BLOCK
  5
20
330
1F
100
AcDbEntity
  8
0
100
AcDbBlockBegin
  2
*Model_Space
 70
     0
 10
0.0
 20
0.0
 30
0.0
  3
*Model_Space
  1
*Model_Space
  0
ENDBLK
  5
21
330
1F
100
AcDbEntity
  8
0
100
AcDbBlockEnd
  0
BLOCK
  5
1C
330
1B
100
AcDbEntity
 67
     1
  8
0
100
AcDbBlockBegin
  2
*Paper_Space
 70
     0
 10
0.0
 20
0.0
 30
0.0
  3
*Paper_Space
  1
*Paper_Space
  0
ENDBLK
  5
1D
330
1B
100
AcDbEntity
 67
     1
  8
0
100
AcDbBlockEnd
  0
BLOCK
  5
24
330
23
100
AcDbEntity
  8
0
100
AcDbBlockBegin
  2
*Paper_Space0
 70
     0
 10
0.0
 20
0.0
 30
0.0
  3
*Paper_Space0
  1
*Paper_Space0
  0
ENDBLK
  5
25
330
23
100
AcDbEntity
  8
0
100
AcDbBlockEnd
  0
BLOCK
  5
9E
330
9D
100
AcDbEntity
  8
0
100
AcDbBlockBegin
  2
_D
 70
     0
 10
0.0
 20
0.0
 30
0.0
  3
_D
  1
_D
  0
LINE
  5
A0
330
9D
100
AcDbEntity
  8
2
  6
SLD-Durchgehend
 62
     0
370
    -2
100
AcDbLine
 10
125.0027086782
 20
10.0605059343
 30
0.0
 11
125.0027086782
 21
31.9980059343
 31
0.0
  0
LINE
  5
A1
330
9D
100
AcDbEntity
  8
2
  6
SLD-Durchgehend
 62
     0
370
    -2
100
AcDbLine
 10
0.0027086782
 20
0.0605059343
 30
0.0
 11
0.0027086782000012
 21
31.9980059343
 31
0.0
  0
LINE
  5
A2
330
9D
100
AcDbEntity
  8
2
  6
SLD-Durchgehend
 62
     0
370
    -2
100
AcDbLine
 10
121.7007086782
 20
31.9980059343
 30
0.0
 11
3.304708678200001
 21
31.9980059343
 31
0.0
  0
SOLID
  5
A3
330
9D
100
AcDbEntity
  8
2
 62
     0
100
AcDbTrace
 10
121.7007086782
 20
31.44767260096667
 30
0.0
 11
121.7007086782
 21
32.54833926763333
 31
0.0
 12
125.0027086782
 22
31.9980059343
 32
0.0
 13
125.0027086782
 23
31.9980059343
 33
0.0
  0
SOLID
  5
A4
330
9D
100
AcDbEntity
  8
2
 62
     0
100
AcDbTrace
 10
3.304708678200001
 20
32.54833926763333
 30
0.0
 11
3.304708678200001
 21
31.44767260096667
 31
0.0
 12
0.0027086782000012
 22
31.9980059343
 32
0.0
 13
0.0027086782000012
 23
31.9980059343
 33
0.0
  0
MTEXT
  5
A5
330
9D
100
AcDbEntity
  8
2
 62
     0
370
    15
100
AcDbMText
 10
62.5027086782
 20
36.3730059343
 30
0.0
 40
3.5
 41
0.0
 71
     2
 72
     1
  1
\A1;125
  7
SLDTEXTSTYLE0
 73
     1
 44
1.0
  0
POINT
  5
103
330
9D
100
AcDbEntity
  8
Defpoints
 62
     0
100
AcDbPoint
 10
125.0027086782
 20
9.9980059343
 30
0.0
  0
POINT
  5
104
330
9D
100
AcDbEntity
  8
Defpoints
 62
     0
100
AcDbPoint
 10
0.0027086782
 20
-0.0019940657
 30
0.0
  0
POINT
  5
105
330
9D
100
AcDbEntity
  8
Defpoints
 62
     0
100
AcDbPoint
 10
0.0027086782
 20
31.9980059343
 30
0.0
  0
ENDBLK
  5
9F
330
9D
100
AcDbEntity
  8
0
100
AcDbBlockEnd
  0
BLOCK
  5
A8
330
A7
100
AcDbEntity
  8
0
100
AcDbBlockBegin
  2
_D_1
 70
     0
 10
0.0
 20
0.0
 30
0.0
  3
_D_1
  1
_D_1
  0
LINE
  5
AA
330
A7
100
AcDbEntity
  8
2
  6
SLD-Durchgehend
 62
     0
370
    -2
100
AcDbLine
 10
0.9402086782000001
 20
19.9980059343
 30
0.0
 11
-5.997291321799999
 21
19.9980059343
 31
0.0
  0
LINE
  5
AB
330
A7
100
AcDbEntity
  8
2
  6
SLD-Durchgehend
 62
     0
370
    -2
100
AcDbLine
 10
0.9402086782000001
 20
-0.0019940657
 30
0.0
 11
-5.997291321800001
 21
-0.0019940656999999
 31
0.0
  0
LINE
  5
AC
330
A7
100
AcDbEntity
  8
2
  6
SLD-Durchgehend
 62
     0
370
    -2
100
AcDbLine
 10
-5.997291321799999
 20
16.6960059343
 30
0.0
 11
-5.997291321800001
 21
3.3000059343
 31
0.0
  0
SOLID
  5
AD
330
A7
100
AcDbEntity
  8
2
 62
     0
100
AcDbTrace
 10
-5.446957988466665
 20
16.6960059343
 30
0.0
 11
-6.547624655133332
 21
16.6960059343
 31
0.0
 12
-5.997291321799999
 22
19.9980059343
 32
0.0
 13
-5.997291321799999
 23
19.9980059343
 33
0.0
  0
SOLID
  5
AE
330
A7
100
AcDbEntity
  8
2
 62
     0
100
AcDbTrace
 10
-6.547624655133334
 20
3.3000059343
 30
0.0
 11
-5.446957988466667
 21
3.3000059343
 31
0.0
 12
-5.997291321800001
 22
-0.0019940656999999
 32
0.0
 13
-5.997291321800001
 23
-0.0019940656999999
 33
0.0
  0
MTEXT
  5
AF
330
A7
100
AcDbEntity
  8
2
 62
     0
370
    15
100
AcDbMText
 10
-10.3722913218
 20
9.9980059343
 30
0.0
 40
3.5
 41
0.0
 71
     2
 72
     1
  1
\A1;20
  7
SLDTEXTSTYLE0
 11
4.440892098500626E-17
 21
1.0
 31
0.0
 73
     1
 44
1.0
  0
POINT
  5
106
330
A7
100
AcDbEntity
  8
Defpoints
 62
     0
100
AcDbPoint
 10
1.0027086782
 20
19.9980059343
 30
0.0
  0
POINT
  5
107
330
A7
100
AcDbEntity
  8
Defpoints
 62
     0
100
AcDbPoint
 10
1.0027086782
 20
-0.0019940657
 30
0.0
  0
POINT
  5
108
330
A7
100
AcDbEntity
  8
Defpoints
 62
     0
100
AcDbPoint
 10
-5.9972913218
 20
-0.0019940656999996
 30
0.0
  0
ENDBLK
  5
A9
330
A7
100
AcDbEntity
  8
0
100
AcDbBlockEnd
  0
BLOCK
  5
B3
330
B2
100
AcDbEntity
  8
0
100
AcDbBlockBegin
  2
_D_2
 70
     0
 10
0.0
 20
0.0
 30
0.0
  3
_D_2
  1
_D_2
  0
LINE
  5
B5
330
B2
100
AcDbEntity
  8
2
  6
SLD-Durchgehend
 62
     0
370
    -2
100
AcDbLine
 10
125.0652086782
 20
9.9980059343
 30
0.0
 11
131.0027137981
 21
9.9980059343
 31
0.0
  0
LINE
  5
B6
330
B2
100
AcDbEntity
  8
2
  6
SLD-Durchgehend
 62
     0
370
    -2
100
AcDbLine
 10
125.0652086782
 20
-0.0019940657
 30
0.0
 11
131.0027137981
 21
-0.0019940656999999
 31
0.0
  0
LINE
  5
B7
330
B2
100
AcDbEntity
  8
2
  6
SLD-Durchgehend
 62
     0
370
    -2
100
AcDbLine
 10
131.0027137981
 20
6.6960059343
 30
0.0
 11
131.0027137981
 21
3.3000059343
 31
0.0
  0
SOLID
  5
B8
330
B2
100
AcDbEntity
  8
2
 62
     0
100
AcDbTrace
 10
131.5530471314333
 20
6.6960059343
 30
0.0
 11
130.4523804647667
 21
6.6960059343
 31
0.0
 12
131.0027137981
 22
9.9980059343
 32
0.0
 13
131.0027137981
 23
9.9980059343
 33
0.0
  0
SOLID
  5
B9
330
B2
100
AcDbEntity
  8
2
 62
     0
100
AcDbTrace
 10
130.4523804647667
 20
3.3000059343
 30
0.0
 11
131.5530471314333
 21
3.3000059343
 31
0.0
 12
131.0027137981
 22
-0.0019940656999999
 32
0.0
 13
131.0027137981
 23
-0.0019940656999999
 33
0.0
  0
MTEXT
  5
BA
330
B2
100
AcDbEntity
  8
2
 62
     0
370
    15
100
AcDbMText
 10
126.6277137981
 20
4.9980059343
 30
0.0
 40
3.5
 41
0.0
 71
     2
 72
     1
  1
\A1;10
  7
SLDTEXTSTYLE0
 11
0.0
 21
1.0
 31
0.0
 73
     1
 44
1.0
  0
POINT
  5
BB
330
B2
100
AcDbEntity
  8
Defpoints
 62
     0
100
AcDbPoint
 10
125.0027086782
 20
9.9980059343
 30
0.0
  0
POINT
  5
BC
330
B2
100
AcDbEntity
  8
Defpoints
 62
     0
100
AcDbPoint
 10
125.0027086782
 20
-0.0019940657
 30
0.0
  0
POINT
  5
109
330
B2
100
AcDbEntity
  8
Defpoints
 62
     0
100
AcDbPoint
 10
131.0027137981
 20
-0.0019940657000004
 30
0.0
  0
ENDBLK
  5
B4
330
B2
100
AcDbEntity
  8
0
100
AcDbBlockEnd
  0
BLOCK
  5
BF
330
BE
100
AcDbEntity
  8
0
100
AcDbBlockBegin
  2
_D_3
 70
     0
 10
0.0
 20
0.0
 30
0.0
  3
_D_3
  1
_D_3
  0
LINE
  5
C1
330
BE
100
AcDbEntity
  8
2
  6
SLD-Durchgehend
 62
     0
370
    -2
100
AcDbLine
 10
97.4027086782
 20
0.0605059343
 30
0.0
 11
97.4027086782
 21
25.9980059343
 31
0.0
  0
LINE
  5
C2
330
BE
100
AcDbEntity
  8
2
  6
SLD-Durchgehend
 62
     0
370
    -2
100
AcDbLine
 10
125.0027086782
 20
10.0605059343
 30
0.0
 11
125.0027086782
 21
25.9980059343
 31
0.0
  0
LINE
  5
C3
330
BE
100
AcDbEntity
  8
2
  6
SLD-Durchgehend
 62
     0
370
    -2
100
AcDbLine
 10
100.7047086782
 20
25.9980059343
 30
0.0
 11
121.7007086782
 21
25.9980059343
 31
0.0
  0
SOLID
  5
C4
330
BE
100
AcDbEntity
  8
2
 62
     0
100
AcDbTrace
 10
100.7047086782
 20
26.54833926763333
 30
0.0
 11
100.7047086782
 21
25.44767260096667
 31
0.0
 12
97.4027086782
 22
25.9980059343
 32
0.0
 13
97.4027086782
 23
25.9980059343
 33
0.0
  0
SOLID
  5
C5
330
BE
100
AcDbEntity
  8
2
 62
     0
100
AcDbTrace
 10
121.7007086782
 20
25.44767260096667
 30
0.0
 11
121.7007086782
 21
26.54833926763333
 31
0.0
 12
125.0027086782
 22
25.9980059343
 32
0.0
 13
125.0027086782
 23
25.9980059343
 33
0.0
  0
MTEXT
  5
C6
330
BE
100
AcDbEntity
  8
2
 62
     0
370
    15
100
AcDbMText
 10
111.2027086782
 20
30.3730059343
 30
0.0
 40
3.5
 41
0.0
 71
     2
 72
     1
  1
\A1;27.6
  7
SLDTEXTSTYLE0
 73
     1
 44
1.0
  0
POINT
  5
10A
330
BE
100
AcDbEntity
  8
Defpoints
 62
     0
100
AcDbPoint
 10
97.4027086782
 20
-0.0019940657
 30
0.0
  0
POINT
  5
10B
330
BE
100
AcDbEntity
  8
Defpoints
 62
     0
100
AcDbPoint
 10
125.0027086782
 20
9.9980059343
 30
0.0
  0
POINT
  5
10C
330
BE
100
AcDbEntity
  8
Defpoints
 62
     0
100
AcDbPoint
 10
125.0027086782
 20
25.9980059343
 30
0.0
  0
ENDBLK
  5
C0
330
BE
100
AcDbEntity
  8
0
100
AcDbBlockEnd
  0
BLOCK
  5
C8
330
C7
100
AcDbEntity
  8
0
100
AcDbBlockBegin
  2
SW_CENTERMARKSYMBOL_0
 70
     0
 10
0.0
 20
0.0
 30
0.0
  3
SW_CENTERMARKSYMBOL_0
  1
SW_CENTERMARKSYMBOL_0
  0
LINE
  5
CA
330
C7
100
AcDbEntity
  8
0
  6
SLD-Punktstrich
 62
     0
370
    15
100
AcDbLine
 10
0.0
 20
0.0
 30
0.0
 11
0.0
 21
2.5
 31
0.0
  0
LINE
  5
CB
330
C7
100
AcDbEntity
  8
0
  6
SLD-Punktstrich
 62
     0
370
    15
100
AcDbLine
 10
0.0
 20
0.0
 30
0.0
 11
-2.5
 21
0.0
 31
0.0
  0
LINE
  5
CC
330
C7
100
AcDbEntity
  8
0
  6
SLD-Punktstrich
 62
     0
370
    15
100
AcDbLine
 10
0.0
 20
0.0
 30
0.0
 11
0.0
 21
-2.5
 31
0.0
  0
LINE
  5
CD
330
C7
100
AcDbEntity
  8
0
  6
SLD-Punktstrich
 62
     0
370
    15
100
AcDbLine
 10
0.0
 20
0.0
 30
0.0
 11
2.5
 21
0.0
 31
0.0
  0
LINE
  5
CE
330
C7
100
AcDbEntity
  8
0
  6
SLD-Punktstrich
 62
     0
370
    15
100
AcDbLine
 10
0.0
 20
2.5
 30
0.0
 11
0.0
 21
4.7
 31
0.0
  0
LINE
  5
CF
330
C7
100
AcDbEntity
  8
0
  6
SLD-Punktstrich
 62
     0
370
    15
100
AcDbLine
 10
-2.5
 20
0.0
 30
0.0
 11
-4.7
 21
0.0
 31
0.0
  0
LINE
  5
D0
330
C7
100
AcDbEntity
  8
0
  6
SLD-Punktstrich
 62
     0
370
    15
100
AcDbLine
 10
0.0
 20
-2.5
 30
0.0
 11
0.0
 21
-4.7
 31
0.0
  0
LINE
  5
D1
330
C7
100
AcDbEntity
  8
0
  6
SLD-Punktstrich
 62
     0
370
    15
100
AcDbLine
 10
2.5
 20
0.0
 30
0.0
 11
4.7
 21
0.0
 31
0.0
  0
ENDBLK
  5
C9
330
C7
100
AcDbEntity
  8
0
100
AcDbBlockEnd
  0
BLOCK
  5
D4
330
D3
100
AcDbEntity
  8
0
100
AcDbBlockBegin
  2
SW_CENTERMARKSYMBOL_1
 70
     0
 10
0.0
 20
0.0
 30
0.0
  3
SW_CENTERMARKSYMBOL_1
  1
SW_CENTERMARKSYMBOL_1
  0
LINE
  5
D6
330
D3
100
AcDbEntity
  8
0
  6
SLD-Punktstrich
 62
     0
370
    15
100
AcDbLine
 10
0.0
 20
0.0
 30
0.0
 11
0.0
 21
2.5
 31
0.0
  0
LINE
  5
D7
330
D3
100
AcDbEntity
  8
0
  6
SLD-Punktstrich
 62
     0
370
    15
100
AcDbLine
 10
0.0
 20
0.0
 30
0.0
 11
-2.5
 21
0.0
 31
0.0
  0
LINE
  5
D8
330
D3
100
AcDbEntity
  8
0
  6
SLD-Punktstrich
 62
     0
370
    15
100
AcDbLine
 10
0.0
 20
0.0
 30
0.0
 11
0.0
 21
-2.5
 31
0.0
  0
LINE
  5
D9
330
D3
100
AcDbEntity
  8
0
  6
SLD-Punktstrich
 62
     0
370
    15
100
AcDbLine
 10
0.0
 20
0.0
 30
0.0
 11
2.5
 21
0.0
 31
0.0
  0
LINE
  5
DA
330
D3
100
AcDbEntity
  8
0
  6
SLD-Punktstrich
 62
     0
370
    15
100
AcDbLine
 10
0.0
 20
2.5
 30
0.0
 11
0.0
 21
4.7
 31
0.0
  0
LINE
  5
DB
330
D3
100
AcDbEntity
  8
0
  6
SLD-Punktstrich
 62
     0
370
    15
100
AcDbLine
 10
-2.5
 20
0.0
 30
0.0
 11
-4.7
 21
0.0
 31
0.0
  0
LINE
  5
DC
330
D3
100
AcDbEntity
  8
0
  6
SLD-Punktstrich
 62
     0
370
    15
100
AcDbLine
 10
0.0
 20
-2.5
 30
0.0
 11
0.0
 21
-4.7
 31
0.0
  0
LINE
  5
DD
330
D3
100
AcDbEntity
  8
0
  6
SLD-Punktstrich
 62
     0
370
    15
100
AcDbLine
 10
2.5
 20
0.0
 30
0.0
 11
4.7
 21
0.0
 31
0.0
  0
ENDBLK
  5
D5
330
D3
100
AcDbEntity
  8
0
100
AcDbBlockEnd
  0
ENDSEC
  0
SECTION
  2
ENTITIES
  0
LINE
  5
73
330
1F
100
AcDbEntity
  8
0
  6
SLD-Punktstrich
 62
     7
100
AcDbLine
 10
0.0027086782
 20
-0.0019940657
 30
0.0
 11
125.0027086782
 21
-0.0019940657
 31
0.0
  0
POINT
  5
74
330
1F
100
AcDbEntity
  8
1
 62
     4
420
    65535
100
AcDbPoint
 10
125.0027086782
 20
-0.0019940657
 30
0.0
  0
POINT
  5
75
330
1F
100
AcDbEntity
  8
1
 62
     4
420
    65535
100
AcDbPoint
 10
97.4027086782
 20
-0.0019940657
 30
0.0
  0
POINT
  5
76
330
1F
100
AcDbEntity
  8
1
 62
     4
420
    65535
100
AcDbPoint
 10
125.0027086782
 20
9.9980059343
 30
0.0
  0
LINE
  5
77
330
1F
100
AcDbEntity
  8
1
 62
     4
420
    65535
100
AcDbLine
 10
115.72011377
 20
1.3796865194
 30
0.0
 11
116.4212215061
 21
1.3805082349
 31
0.0
  0
LINE
  5
78
330
1F
100
AcDbEntity
  8
1
 62
     4
420
    65535
100
AcDbLine
 10
116.475200434
 20
18.6781746897
 30
0.0
 11
115.7740926979
 21
18.6773529741
 31
0.0
  0
LINE
  5
79
330
1F
100
AcDbEntity
  8
1
 62
     4
420
    65535
100
AcDbLine
 10
115.9186388443
 20
18.4459064133
 30
0.0
 11
108.1274839686
 21
10.6255091718
 31
0.0
  0
ARC
  5
7A
330
1F
100
AcDbEntity
  8
1
 62
     4
420
    65535
100
AcDbCircle
 10
116.4761313654
 20
17.8925484761
 30
0.0
 40
0.7854953326911636
100
AcDbArc
 50
44.3669996359
 51
135.2132538258
  0
LINE
  5
7B
330
1F
100
AcDbEntity
  8
1
 62
     4
420
    65535
100
AcDbLine
 10
124.7729640159
 20
10.5645365728
 30
0.0
 11
117.0376627676
 21
18.4418074332
 31
0.0
  0
ARC
  5
7C
330
1F
100
AcDbEntity
  8
1
 62
     4
420
    65535
100
AcDbCircle
 10
124.1969075683
 20
10.0008973945
 30
0.0
 40
0.8059343361063954
100
AcDbArc
 50
315.2164965371
 51
44.3757728308
  0
LINE
  5
7D
330
1F
100
AcDbEntity
  8
1
 62
     4
420
    65535
100
AcDbLine
 10
116.9777830567
 20
1.6127764721
 30
0.0
 11
124.768938471
 21
9.4331731652
 31
0.0
  0
ARC
  5
7E
330
1F
100
AcDbEntity
  8
1
 62
     4
420
    65535
100
AcDbCircle
 10
116.4202905747
 20
2.1661344483
 30
0.0
 40
0.7854953324682806
100
AcDbArc
 50
224.3669996269
 51
315.2132498023
  0
LINE
  5
7F
330
1F
100
AcDbEntity
  8
1
 62
     4
420
    65535
100
AcDbLine
 10
108.1234584628
 20
9.4941458035
 30
0.0
 11
115.8587591725
 21
1.6168754914
 31
0.0
  0
ARC
  5
80
330
1F
100
AcDbEntity
  8
1
 62
     4
420
    65535
100
AcDbCircle
 10
108.6995149106
 20
10.0577849819
 30
0.0
 40
0.8059343363461408
100
AcDbArc
 50
135.2165004916
 51
224.3757728215
  0
CIRCLE
  5
81
330
1F
100
AcDbEntity
  8
1
 62
     4
420
    65535
100
AcDbCircle
 10
116.4675892992
 20
10.0524441512
 30
0.0
 40
2.762282296773471
  0
LINE
  5
82
330
1F
100
AcDbEntity
  8
1
 62
     4
420
    65535
100
AcDbLine
 10
115.1576514364
 20
1.6160537759
 30
0.0
 11
115.8587591725
 21
1.6168754914
 31
0.0
  0
LINE
  5
83
330
1F
100
AcDbEntity
  8
1
 62
     4
420
    65535
100
AcDbLine
 10
114.6513724215
 20
2.131624767
 30
0.0
 11
115.1576514364
 21
1.6160537759
 31
0.0
  0
LINE
  5
84
330
1F
100
AcDbEntity
  8
1
 62
     4
420
    65535
100
AcDbLine
 10
115.2175311082
 20
18.4450846978
 30
0.0
 11
114.6000432747
 21
17.8252792611
 31
0.0
  0
LINE
  5
85
330
1F
100
AcDbEntity
  8
1
 62
     4
420
    65535
100
AcDbLine
 10
115.2175311082
 20
18.4450846978
 30
0.0
 11
115.9186388443
 21
18.4459064133
 31
0.0
  0
CIRCLE
  5
86
330
1F
100
AcDbEntity
  8
1
 62
     4
420
    65535
100
AcDbCircle
 10
116.449005197
 20
10.0509127383
 30
0.0
 40
2.563321573385321
  0
ARC
  5
87
330
1F
100
AcDbEntity
  8
1
 62
     4
420
    65535
100
AcDbCircle
 10
115.7373803489
 20
10.0285082141
 30
0.0
 40
2.583114266577857
100
AcDbArc
 50
278.0845588536
 51
82.04974521510002
  0
ARC
  5
88
330
1F
100
AcDbEntity
  8
1
 62
     4
420
    65535
100
AcDbCircle
 10
115.7197218634
 20
2.16615859
 30
0.0
 40
0.7864721682252094
100
AcDbArc
 50
224.3835929464
 51
270.0285510396001
  0
ARC
  5
89
330
1F
100
AcDbEntity
  8
1
 62
     4
420
    65535
100
AcDbCircle
 10
115.7757552478
 20
17.8904181763
 30
0.0
 40
0.7869365541071727
100
AcDbArc
 50
90.12104809020002
 51
135.1831588818
  0
LINE
  5
8A
330
1F
100
AcDbEntity
  8
1
 62
     4
420
    65535
100
AcDbLine
 10
97.4027086782
 20
-0.0019940657
 30
0.0
 11
98.4621921742
 21
-0.0019940657
 31
0.0
  0
LINE
  5
8B
330
1F
100
AcDbEntity
  8
1
 62
     4
420
    65535
100
AcDbLine
 10
97.4027086782
 20
-0.0019940657
 30
0.0
 11
97.4027086782
 21
19.9980059343
 31
0.0
  0
LINE
  5
8C
330
1F
100
AcDbEntity
  8
1
 62
     4
420
    65535
100
AcDbLine
 10
97.4027086782
 20
19.9980059343
 30
0.0
 11
98.461292744
 21
19.9980059343
 31
0.0
  0
LINE
  5
8D
330
1F
100
AcDbEntity
  8
1
 62
     4
420
    65535
100
AcDbLine
 10
98.461292744
 20
19.9980059343
 30
0.0
 11
98.4621921742
 21
-0.0019940657
 31
0.0
  0
LINE
  5
8E
330
1F
100
AcDbEntity
  8
1
 62
     4
420
    65535
100
AcDbLine
 10
108.1234584628
 20
9.4941458035
 30
0.0
 11
115.0027252685
 21
2.4886205872
 31
0.0
  0
LINE
  5
8F
330
1F
100
AcDbEntity
  8
1
 62
     4
420
    65535
100
AcDbLine
 10
115.0027252685
 20
2.4886205872
 30
0.0
 11
112.5514793444
 21
-0.0019940657
 31
0.0
  0
LINE
  5
90
330
1F
100
AcDbEntity
  8
1
 62
     4
420
    65535
100
AcDbLine
 10
112.5514793444
 20
-0.0019940657
 30
0.0
 11
98.4621921742
 21
-0.0019940657
 31
0.0
  0
LINE
  5
91
330
1F
100
AcDbEntity
  8
1
 62
     4
420
    65535
100
AcDbLine
 10
98.461292744
 20
19.9980059343
 30
0.0
 11
112.4403154921
 21
19.9980059343
 31
0.0
  0
LINE
  5
92
330
1F
100
AcDbEntity
  8
1
 62
     4
420
    65535
100
AcDbLine
 10
112.4403154921
 20
19.9980059343
 30
0.0
 11
114.949793126
 21
17.4734243482
 31
0.0
  0
LINE
  5
93
330
1F
100
AcDbEntity
  8
1
 62
     4
420
    65535
100
AcDbLine
 10
114.949793126
 20
17.4734243482
 30
0.0
 11
108.1274839686
 21
10.6255091718
 31
0.0
  0
LINE
  5
94
330
1F
100
AcDbEntity
  8
1
 62
     4
420
    65535
100
AcDbLine
 10
1.0027086782
 20
19.9980059343
 30
0.0
 11
1.0027086782
 21
-0.0019940657
 31
0.0
  0
LINE
  5
95
330
1F
100
AcDbEntity
  8
1
 62
     4
420
    65535
100
AcDbLine
 10
97.4027086782
 20
19.9980059343
 30
0.0
 11
1.0027086782
 21
19.9980059343
 31
0.0
  0
LINE
  5
96
330
1F
100
AcDbEntity
  8
1
 62
     4
420
    65535
100
AcDbLine
 10
97.4027086782
 20
-0.0019940657
 30
0.0
 11
1.0027086782
 21
-0.0019940657
 31
0.0
  0
LINE
  5
97
330
1F
100
AcDbEntity
  8
1
 62
     4
420
    65535
100
AcDbLine
 10
0.0027086782
 20
0.9980059343
 30
0.0
 11
0.0027086782
 21
18.9980059343
 31
0.0
  0
LINE
  5
98
330
1F
100
AcDbEntity
  8
1
 62
     4
420
    65535
100
AcDbLine
 10
0.0027086782
 20
0.9980059343
 30
0.0
 11
1.0027086782
 21
-0.0019940657
 31
0.0
  0
LINE
  5
99
330
1F
100
AcDbEntity
  8
1
 62
     4
420
    65535
100
AcDbLine
 10
0.0027086782
 20
18.9980059343
 30
0.0
 11
1.0027086782
 21
19.9980059343
 31
0.0
  0
DIMENSION
  5
9A
330
1F
100
AcDbEntity
  8
2
  6
SLD-Durchgehend
 62
     7
370
    15
100
AcDbDimension
  2
_D
 10
0.0027086782000012
 20
31.9980059343
 30
0.0
 11
62.5027086782
 21
31.9980059343
 31
0.0
 70
   160
  1
<>
 71
     2
 42
125.0
  3
SLDDIMSTYLE0
100
AcDbAlignedDimension
 13
125.0027086782
 23
9.9980059343
 33
0.0
 14
0.0027086782
 24
-0.0019940657
 34
0.0
100
AcDbRotatedDimension
  0
DIMENSION
  5
A6
330
1F
100
AcDbEntity
  8
2
  6
SLD-Durchgehend
 62
     7
370
    15
100
AcDbDimension
  2
_D_1
 10
-5.997291321800001
 20
-0.0019940656999999
 30
0.0
 11
-5.9972913218
 21
9.9980059343
 31
0.0
 70
   160
  1
<>
 71
     2
 42
20.0
  3
SLDDIMSTYLE0
100
AcDbAlignedDimension
 13
1.0027086782
 23
19.9980059343
 33
0.0
 14
1.0027086782
 24
-0.0019940657
 34
0.0
 50
90.0
100
AcDbRotatedDimension
  0
DIMENSION
  5
B0
330
1F
100
AcDbEntity
  8
2
  6
SLD-Durchgehend
 62
     7
370
    15
100
AcDbDimension
  2
_D_2
 10
131.0027137981
 20
-0.0019940656999999
 30
0.0
 11
131.0027137981
 21
4.9980059343
 31
0.0
 70
   160
  1
<>
 71
     2
 42
10.0
  3
SLDDIMSTYLE1
100
AcDbAlignedDimension
 13
125.0027086782
 23
9.9980059343
 33
0.0
 14
125.0027086782
 24
-0.0019940657
 34
0.0
 50
90.0
100
AcDbRotatedDimension
  0
DIMENSION
  5
BD
330
1F
100
AcDbEntity
  8
2
  6
SLD-Durchgehend
 62
     7
370
    15
100
AcDbDimension
  2
_D_3
 10
125.0027086782
 20
25.9980059343
 30
0.0
 11
111.2027086782
 21
25.9980059343
 31
0.0
 70
   160
  1
<>
 71
     2
 42
27.59999999999999
  3
SLDDIMSTYLE0
100
AcDbAlignedDimension
 13
97.4027086782
 23
-0.0019940657
 33
0.0
 14
125.0027086782
 24
9.9980059343
 34
0.0
100
AcDbRotatedDimension
  0
ENDSEC
  0
SECTION
  2
OBJECTS
  0
DICTIONARY
  5
C
330
0
100
AcDbDictionary
281
     1
  3
ACAD_DETAILVIEWSTYLE
350
E3
  3
ACAD_GROUP
350
D
  3
ACAD_IMAGE_VARS
350
101
  3
ACAD_LAYOUT
350
1A
  3
ACAD_MATERIAL
350
43
  3
ACAD_MLEADERSTYLE
350
E2
  3
ACAD_MLINESTYLE
350
17
  3
ACAD_PLOTSETTINGS
350
19
  3
ACAD_PLOTSTYLENAME
350
E
  3
ACAD_SCALELIST
350
47
  3
ACAD_SECTIONVIEWSTYLE
350
E4
  3
ACAD_TABLESTYLE
350
E1
  3
ACDB_RECOMPOSE_DATA
350
110
  3
AcDbVariableDictionary
350
DF
  3
APPDATA
350
FF
  0
DICTIONARY
  5
E3
102
{ACAD_REACTORS
330
C
102
}
330
C
100
AcDbDictionary
281
     1
  0
DICTIONARY
  5
D
102
{ACAD_REACTORS
330
C
102
}
330
C
100
AcDbDictionary
281
     1
  0
RASTERVARIABLES
  5
101
102
{ACAD_REACTORS
330
C
102
}
330
C
100
AcDbRasterVariables
 90
        0
 70
     1
 71
     1
 72
     1
  0
DICTIONARY
  5
1A
102
{ACAD_REACTORS
330
C
102
}
330
C
100
AcDbDictionary
281
     1
  3
Layout1
350
1E
  3
Layout2
350
26
  3
Model
350
22
  0
DICTIONARY
  5
43
102
{ACAD_REACTORS
330
C
102
}
330
C
100
AcDbDictionary
281
     1
  3
ByBlock
350
45
  3
ByLayer
350
44
  3
Global
350
46
  0
DICTIONARY
  5
E2
102
{ACAD_REACTORS
330
C
102
}
330
C
100
AcDbDictionary
281
     1
  0
DICTIONARY
  5
17
102
{ACAD_REACTORS
330
C
102
}
330
C
100
AcDbDictionary
281
     1
  3
Standard
350
18
  0
DICTIONARY
  5
19
102
{ACAD_REACTORS
330
C
102
}
330
C
100
AcDbDictionary
281
     1
  0
ACDBDICTIONARYWDFLT
  5
E
102
{ACAD_REACTORS
330
C
102
}
330
C
100
AcDbDictionary
281
     1
  3
Normal
350
F
100
AcDbDictionaryWithDefault
340
F
  0
DICTIONARY
  5
47
102
{ACAD_REACTORS
330
C
102
}
330
C
100
AcDbDictionary
281
     1
  3
A0
350
48
  3
A1
350
49
  3
A2
350
4A
  3
A3
350
4B
  3
A4
350
4C
  3
A5
350
4D
  3
A6
350
4E
  3
A7
350
4F
  3
A8
350
50
  3
A9
350
51
  3
B0
350
52
  3
B1
350
53
  3
B2
350
54
  3
B3
350
55
  3
B4
350
56
  3
B5
350
57
  3
B6
350
58
  3
B7
350
59
  3
B8
350
5A
  3
B9
350
5B
  3
C0
350
5C
  3
C1
350
5D
  3
C2
350
5E
  3
C3
350
5F
  3
C4
350
60
  3
C5
350
61
  3
C6
350
62
  3
C7
350
63
  3
C8
350
64
  3
C9
350
65
  3
D0
350
66
  3
D1
350
67
  3
D2
350
68
  0
DICTIONARY
  5
E4
102
{ACAD_REACTORS
330
C
102
}
330
C
100
AcDbDictionary
281
     1
  0
DICTIONARY
  5
E1
102
{ACAD_REACTORS
330
C
102
}
330
C
100
AcDbDictionary
281
     1
  3
Standard
350
FE
  0
XRECORD
  5
110
102
{ACAD_REACTORS
330
C
102
}
330
C
100
AcDbXrecord
280
     1
 90
        1
330
FE
  0
DICTIONARY
  5
DF
102
{ACAD_REACTORS
330
C
102
}
330
C
100
AcDbDictionary
281
     1
  3
CANNOSCALE
350
E0
  3
CTABLESTYLE
350
111
  3
MSLTSCALE
350
112
  3
XCLIPFRAME
350
113
  0
DICTIONARY
  5
FF
102
{ACAD_REACTORS
330
C
102
}
330
C
100
AcDbDictionary
281
     1
  0
LAYOUT
  5
1E
102
{ACAD_REACTORS
330
1A
102
}
330
1A
100
AcDbPlotSettings
  1

  2
none_device
  4

  6

 40
0.0
 41
0.0
 42
0.0
 43
0.0
 44
0.0
 45
0.0
 46
0.0
 47
0.0
 48
0.0
 49
0.0
140
0.0
141
0.0
142
1.0
143
1.0
 70
   688
 72
     1
 73
     0
 74
     5
  7

 75
    16
 76
     0
 77
     2
 78
   300
147
1.0
148
0.0
149
0.0
100
AcDbLayout
  1
Layout1
 70
     1
 71
     1
 10
0.0
 20
0.0
 11
420.0
 21
297.0
 12
0.0
 22
0.0
 32
0.0
 14
1.000000000000000E+20
 24
1.000000000000000E+20
 34
1.000000000000000E+20
 15
-1.000000000000000E+20
 25
-1.000000000000000E+20
 35
-1.000000000000000E+20
146
0.0
 13
0.0
 23
0.0
 33
0.0
 16
1.0
 26
0.0
 36
0.0
 17
0.0
 27
1.0
 37
0.0
 76
     0
330
1B
  0
LAYOUT
  5
26
102
{ACAD_REACTORS
330
1A
102
}
330
1A
100
AcDbPlotSettings
  1

  2
none_device
  4

  6

 40
0.0
 41
0.0
 42
0.0
 43
0.0
 44
0.0
 45
0.0
 46
0.0
 47
0.0
 48
0.0
 49
0.0
140
0.0
141
0.0
142
1.0
143
1.0
 70
   688
 72
     1
 73
     0
 74
     5
  7

 75
    16
 76
     0
 77
     2
 78
   300
147
1.0
148
0.0
149
0.0
100
AcDbLayout
  1
Layout2
 70
     1
 71
     2
 10
0.0
 20
0.0
 11
0.0
 21
0.0
 12
0.0
 22
0.0
 32
0.0
 14
0.0
 24
0.0
 34
0.0
 15
0.0
 25
0.0
 35
0.0
146
0.0
 13
0.0
 23
0.0
 33
0.0
 16
1.0
 26
0.0
 36
0.0
 17
0.0
 27
1.0
 37
0.0
 76
     0
330
23
  0
LAYOUT
  5
22
102
{ACAD_REACTORS
330
1A
102
}
330
1A
100
AcDbPlotSettings
  1

  2
none_device
  4
Letter_(8.50_x_11.00_Inches)
  6

 40
6.35
 41
6.35
 42
6.35000508
 43
6.35000508
 44
215.9
 45
279.4
 46
0.0
 47
0.0
 48
0.0
 49
0.0
140
0.0
141
0.0
142
1.0
143
1.0
 70
  1712
 72
     1
 73
     0
 74
     0
  7

 75
     0
 76
     0
 77
     2
 78
   300
147
1.0
148
0.0
149
0.0
100
AcDbLayout
  1
Model
 70
     1
 71
     0
 10
0.0
 20
0.0
 11
297.0
 21
210.0
 12
0.0
 22
0.0
 32
0.0
 14
0.0
 24
0.0
 34
0.0
 15
297.0
 25
210.0
 35
0.0
146
0.0
 13
0.0
 23
0.0
 33
0.0
 16
1.0
 26
0.0
 36
0.0
 17
0.0
 27
1.0
 37
0.0
 76
     0
330
1F
331
29
  0
MATERIAL
  5
45
102
{ACAD_REACTORS
330
43
102
}
330
43
100
AcDbMaterial
  1
ByBlock
  0
MATERIAL
  5
44
102
{ACAD_REACTORS
330
43
102
}
330
43
100
AcDbMaterial
  1
ByLayer
  0
MATERIAL
  5
46
102
{ACAD_REACTORS
330
43
102
}
330
43
100
AcDbMaterial
  1
Global
  0
MLINESTYLE
  5
18
102
{ACAD_REACTORS
330
17
102
}
330
17
100
AcDbMlineStyle
  2
Standard
 70
     0
  3

 62
   256
 51
90.0
 52
90.0
 71
     2
 49
0.5
 62
   256
  6
BYLAYER
 49
-0.5
 62
   256
  6
BYLAYER
  0
ACDBPLACEHOLDER
  5
F
102
{ACAD_REACTORS
330
E
102
}
330
E
  0
SCALE
  5
48
102
{ACAD_REACTORS
330
47
102
}
330
47
100
AcDbScale
 70
     0
300
1:1
140
1.0
141
1.0
290
     1
  0
SCALE
  5
49
102
{ACAD_REACTORS
330
47
102
}
330
47
100
AcDbScale
 70
     0
300
1:2
140
1.0
141
2.0
290
     0
  0
SCALE
  5
4A
102
{ACAD_REACTORS
330
47
102
}
330
47
100
AcDbScale
 70
     0
300
1:4
140
1.0
141
4.0
290
     0
  0
SCALE
  5
4B
102
{ACAD_REACTORS
330
47
102
}
330
47
100
AcDbScale
 70
     0
300
1:5
140
1.0
141
5.0
290
     0
  0
SCALE
  5
4C
102
{ACAD_REACTORS
330
47
102
}
330
47
100
AcDbScale
 70
     0
300
1:8
140
1.0
141
8.0
290
     0
  0
SCALE
  5
4D
102
{ACAD_REACTORS
330
47
102
}
330
47
100
AcDbScale
 70
     0
300
1:10
140
1.0
141
10.0
290
     0
  0
SCALE
  5
4E
102
{ACAD_REACTORS
330
47
102
}
330
47
100
AcDbScale
 70
     0
300
1:16
140
1.0
141
16.0
290
     0
  0
SCALE
  5
4F
102
{ACAD_REACTORS
330
47
102
}
330
47
100
AcDbScale
 70
     0
300
1:20
140
1.0
141
20.0
290
     0
  0
SCALE
  5
50
102
{ACAD_REACTORS
330
47
102
}
330
47
100
AcDbScale
 70
     0
300
1:30
140
1.0
141
30.0
290
     0
  0
SCALE
  5
51
102
{ACAD_REACTORS
330
47
102
}
330
47
100
AcDbScale
 70
     0
300
1:40
140
1.0
141
40.0
290
     0
  0
SCALE
  5
52
102
{ACAD_REACTORS
330
47
102
}
330
47
100
AcDbScale
 70
     0
300
1:50
140
1.0
141
50.0
290
     0
  0
SCALE
  5
53
102
{ACAD_REACTORS
330
47
102
}
330
47
100
AcDbScale
 70
     0
300
1:100
140
1.0
141
100.0
290
     0
  0
SCALE
  5
54
102
{ACAD_REACTORS
330
47
102
}
330
47
100
AcDbScale
 70
     0
300
2:1
140
2.0
141
1.0
290
     0
  0
SCALE
  5
55
102
{ACAD_REACTORS
330
47
102
}
330
47
100
AcDbScale
 70
     0
300
4:1
140
4.0
141
1.0
290
     0
  0
SCALE
  5
56
102
{ACAD_REACTORS
330
47
102
}
330
47
100
AcDbScale
 70
     0
300
8:1
140
8.0
141
1.0
290
     0
  0
SCALE
  5
57
102
{ACAD_REACTORS
330
47
102
}
330
47
100
AcDbScale
 70
     0
300
10:1
140
10.0
141
1.0
290
     0
  0
SCALE
  5
58
102
{ACAD_REACTORS
330
47
102
}
330
47
100
AcDbScale
 70
     0
300
100:1
140
100.0
141
1.0
290
     0
  0
SCALE
  5
59
102
{ACAD_REACTORS
330
47
102
}
330
47
100
AcDbScale
 70
     0
300
1/128" = 1'-0"
140
0.0078125
141
12.0
290
     0
  0
SCALE
  5
5A
102
{ACAD_REACTORS
330
47
102
}
330
47
100
AcDbScale
 70
     0
300
1/64" = 1'-0"
140
0.015625
141
12.0
290
     0
  0
SCALE
  5
5B
102
{ACAD_REACTORS
330
47
102
}
330
47
100
AcDbScale
 70
     0
300
1/32" = 1'-0"
140
0.03125
141
12.0
290
     0
  0
SCALE
  5
5C
102
{ACAD_REACTORS
330
47
102
}
330
47
100
AcDbScale
 70
     0
300
1/16" = 1'-0"
140
0.0625
141
12.0
290
     0
  0
SCALE
  5
5D
102
{ACAD_REACTORS
330
47
102
}
330
47
100
AcDbScale
 70
     0
300
3/32" = 1'-0"
140
0.09375
141
12.0
290
     0
  0
SCALE
  5
5E
102
{ACAD_REACTORS
330
47
102
}
330
47
100
AcDbScale
 70
     0
300
1/8" = 1'-0"
140
0.125
141
12.0
290
     0
  0
SCALE
  5
5F
102
{ACAD_REACTORS
330
47
102
}
330
47
100
AcDbScale
 70
     0
300
3/16" = 1'-0"
140
0.1875
141
12.0
290
     0
  0
SCALE
  5
60
102
{ACAD_REACTORS
330
47
102
}
330
47
100
AcDbScale
 70
     0
300
1/4" = 1'-0"
140
0.25
141
12.0
290
     0
  0
SCALE
  5
61
102
{ACAD_REACTORS
330
47
102
}
330
47
100
AcDbScale
 70
     0
300
3/8" = 1'-0"
140
0.375
141
12.0
290
     0
  0
SCALE
  5
62
102
{ACAD_REACTORS
330
47
102
}
330
47
100
AcDbScale
 70
     0
300
1/2" = 1'-0"
140
0.5
141
12.0
290
     0
  0
SCALE
  5
63
102
{ACAD_REACTORS
330
47
102
}
330
47
100
AcDbScale
 70
     0
300
3/4" = 1'-0"
140
0.75
141
12.0
290
     0
  0
SCALE
  5
64
102
{ACAD_REACTORS
330
47
102
}
330
47
100
AcDbScale
 70
     0
300
1" = 1'-0"
140
1.0
141
12.0
290
     0
  0
SCALE
  5
65
102
{ACAD_REACTORS
330
47
102
}
330
47
100
AcDbScale
 70
     0
300
1-1/2" = 1'-0"
140
1.5
141
12.0
290
     0
  0
SCALE
  5
66
102
{ACAD_REACTORS
330
47
102
}
330
47
100
AcDbScale
 70
     0
300
3" = 1'-0"
140
3.0
141
12.0
290
     0
  0
SCALE
  5
67
102
{ACAD_REACTORS
330
47
102
}
330
47
100
AcDbScale
 70
     0
300
6" = 1'-0"
140
6.0
141
12.0
290
     0
  0
SCALE
  5
68
102
{ACAD_REACTORS
330
47
102
}
330
47
100
AcDbScale
 70
     0
300
1'-0" = 1'-0"
140
12.0
141
12.0
290
     0
  0
TABLESTYLE
  5
FE
102
{ACAD_REACTORS
330
E1
102
}
102
{ACAD_XDICTIONARY
360
10D
102
}
330
E1
100
AcDbTableStyle
  3
Standard
 70
     0
 71
     0
 40
0.06
 41
0.06
280
     0
281
     0
  7
Standard
140
4.5
170
     2
 62
     0
 63
   257
283
     0
274
    -2
284
     1
 64
     0
275
    -2
285
     1
 65
     0
276
    -2
286
     1
 66
     0
277
    -2
287
     1
 67
     0
278
    -2
288
     1
 68
     0
279
    -2
289
     1
 69
     0
  7
Standard
140
6.0
170
     5
 62
     0
 63
   257
283
     0
274
    -2
284
     1
 64
     0
275
    -2
285
     1
 65
     0
276
    -2
286
     1
 66
     0
277
    -2
287
     1
 67
     0
278
    -2
288
     1
 68
     0
279
    -2
289
     1
 69
     0
  7
Standard
140
4.5
170
     5
 62
     0
 63
   257
283
     0
274
    -2
284
     1
 64
     0
275
    -2
285
     1
 65
     0
276
    -2
286
     1
 66
     0
277
    -2
287
     1
 67
     0
278
    -2
288
     1
 68
     0
279
    -2
289
     1
 69
     0
  0
DICTIONARYVAR
  5
E0
102
{ACAD_REACTORS
330
DF
102
}
330
DF
100
DictionaryVariables
280
     0
  1
1:1
  0
DICTIONARYVAR
  5
111
102
{ACAD_REACTORS
330
DF
102
}
330
DF
100
DictionaryVariables
280
     0
  1
Standard
  0
DICTIONARYVAR
  5
112
102
{ACAD_REACTORS
330
DF
102
}
330
DF
100
DictionaryVariables
280
     0
  1
0
  0
DICTIONARYVAR
  5
113
102
{ACAD_REACTORS
330
DF
102
}
330
DF
100
DictionaryVariables
280
     0
  1
0
  0
DICTIONARY
  5
10D
330
FE
100
AcDbDictionary
280
     1
281
     1
  3
ACAD_ROUNDTRIP_2008_TABLESTYLE_CELLSTYLEMAP
360
10F
  3
ACAD_XREC_ROUNDTRIP
360
10E
  0
CELLSTYLEMAP
  5
10F
102
{ACAD_REACTORS
330
10D
102
}
330
10D
100
AcDbCellStyleMap
 90
        3
300
CELLSTYLE
  1
TABLEFORMAT_BEGIN
 90
        5
170
     1
 91
        0
 92
        0
 62
   257
 93
        1
300
CONTENTFORMAT
  1
CONTENTFORMAT_BEGIN
 90
        0
 91
        0
 92
        4
 93
        0
300

 40
0.0
140
1.0
 94
        5
 62
     0
340
11
144
6.0
309
CONTENTFORMAT_END
171
     1
301
MARGIN
  1
CELLMARGIN_BEGIN
 40
1.5
 40
1.5
 40
1.5
 40
1.5
 40
1.5
 40
1.5
309
CELLMARGIN_END
 94
        6
 95
        1
302
GRIDFORMAT
  1
GRIDFORMAT_BEGIN
 90
        0
 91
        1
 62
     0
 92
       -2
340
14
 93
        0
 40
0.045
309
GRIDFORMAT_END
 95
        2
302
GRIDFORMAT
  1
GRIDFORMAT_BEGIN
 90
        0
 91
        1
 62
     0
 92
       -2
340
14
 93
        0
 40
0.045
309
GRIDFORMAT_END
 95
        4
302
GRIDFORMAT
  1
GRIDFORMAT_BEGIN
 90
        0
 91
        1
 62
     0
 92
       -2
340
14
 93
        0
 40
0.045
309
GRIDFORMAT_END
 95
        8
302
GRIDFORMAT
  1
GRIDFORMAT_BEGIN
 90
        0
 91
        1
 62
     0
 92
       -2
340
14
 93
        0
 40
0.045
309
GRIDFORMAT_END
 95
       16
302
GRIDFORMAT
  1
GRIDFORMAT_BEGIN
 90
        0
 91
        1
 62
     0
 92
       -2
340
14
 93
        0
 40
0.045
309
GRIDFORMAT_END
 95
       32
302
GRIDFORMAT
  1
GRIDFORMAT_BEGIN
 90
        0
 91
        1
 62
     0
 92
       -2
340
14
 93
        0
 40
0.045
309
GRIDFORMAT_END
309
TABLEFORMAT_END
  1
CELLSTYLE_BEGIN
 90
        1
 91
        1
300
_TITLE
309
CELLSTYLE_END
300
CELLSTYLE
  1
TABLEFORMAT_BEGIN
 90
        5
170
     1
 91
        0
 92
        0
 62
   257
 93
        1
300
CONTENTFORMAT
  1
CONTENTFORMAT_BEGIN
 90
        0
 91
        0
 92
        4
 93
        0
300

 40
0.0
140
1.0
 94
        5
 62
     0
340
11
144
4.5
309
CONTENTFORMAT_END
171
     1
301
MARGIN
  1
CELLMARGIN_BEGIN
 40
1.5
 40
1.5
 40
1.5
 40
1.5
 40
1.5
 40
1.5
309
CELLMARGIN_END
 94
        6
 95
        1
302
GRIDFORMAT
  1
GRIDFORMAT_BEGIN
 90
        0
 91
        1
 62
     0
 92
       -2
340
14
 93
        0
 40
0.045
309
GRIDFORMAT_END
 95
        2
302
GRIDFORMAT
  1
GRIDFORMAT_BEGIN
 90
        0
 91
        1
 62
     0
 92
       -2
340
14
 93
        0
 40
0.045
309
GRIDFORMAT_END
 95
        4
302
GRIDFORMAT
  1
GRIDFORMAT_BEGIN
 90
        0
 91
        1
 62
     0
 92
       -2
340
14
 93
        0
 40
0.045
309
GRIDFORMAT_END
 95
        8
302
GRIDFORMAT
  1
GRIDFORMAT_BEGIN
 90
        0
 91
        1
 62
     0
 92
       -2
340
14
 93
        0
 40
0.045
309
GRIDFORMAT_END
 95
       16
302
GRIDFORMAT
  1
GRIDFORMAT_BEGIN
 90
        0
 91
        1
 62
     0
 92
       -2
340
14
 93
        0
 40
0.045
309
GRIDFORMAT_END
 95
       32
302
GRIDFORMAT
  1
GRIDFORMAT_BEGIN
 90
        0
 91
        1
 62
     0
 92
       -2
340
14
 93
        0
 40
0.045
309
GRIDFORMAT_END
309
TABLEFORMAT_END
  1
CELLSTYLE_BEGIN
 90
        2
 91
        1
300
_HEADER
309
CELLSTYLE_END
300
CELLSTYLE
  1
TABLEFORMAT_BEGIN
 90
        5
170
     1
 91
        0
 92
        0
 62
   257
 93
        1
300
CONTENTFORMAT
  1
CONTENTFORMAT_BEGIN
 90
        0
 91
        0
 92
        4
 93
        0
300

 40
0.0
140
1.0
 94
        2
 62
     0
340
11
144
4.5
309
CONTENTFORMAT_END
171
     1
301
MARGIN
  1
CELLMARGIN_BEGIN
 40
1.5
 40
1.5
 40
1.5
 40
1.5
 40
1.5
 40
1.5
309
CELLMARGIN_END
 94
        6
 95
        1
302
GRIDFORMAT
  1
GRIDFORMAT_BEGIN
 90
        0
 91
        1
 62
     0
 92
       -2
340
14
 93
        0
 40
0.045
309
GRIDFORMAT_END
 95
        2
302
GRIDFORMAT
  1
GRIDFORMAT_BEGIN
 90
        0
 91
        1
 62
     0
 92
       -2
340
14
 93
        0
 40
0.045
309
GRIDFORMAT_END
 95
        4
302
GRIDFORMAT
  1
GRIDFORMAT_BEGIN
 90
        0
 91
        1
 62
     0
 92
       -2
340
14
 93
        0
 40
0.045
309
GRIDFORMAT_END
 95
        8
302
GRIDFORMAT
  1
GRIDFORMAT_BEGIN
 90
        0
 91
        1
 62
     0
 92
       -2
340
14
 93
        0
 40
0.045
309
GRIDFORMAT_END
 95
       16
302
GRIDFORMAT
  1
GRIDFORMAT_BEGIN
 90
        0
 91
        1
 62
     0
 92
       -2
340
14
 93
        0
 40
0.045
309
GRIDFORMAT_END
 95
       32
302
GRIDFORMAT
  1
GRIDFORMAT_BEGIN
 90
        0
 91
        1
 62
     0
 92
       -2
340
14
 93
        0
 40
0.045
309
GRIDFORMAT_END
309
TABLEFORMAT_END
  1
CELLSTYLE_BEGIN
 90
        3
 91
        2
300
_DATA
309
CELLSTYLE_END
  0
XRECORD
  5
10E
102
{ACAD_REACTORS
330
10D
102
}
330
10D
100
AcDbXrecord
280
     1
102
ACAD_ROUNDTRIP_PRE2007_TABLESTYLE
 90
        4
 91
        0
  1

 92
        4
 93
        0
  2

 94
        4
 95
        0
  3

  0
ENDSEC
  0
EOF
