  0
SECTION
  2
HEADER
  9
$ACADVER
  1
AC1018
  9
$ACADMAINTVER
 70
     0
  9
$DWGCODEPAGE
  3
ANSI_1252
  9
$LASTSAVEDBY
  1
piechottad
  9
$INSBASE
 10
0.0
 20
0.0
 30
0.0
  9
$EXTMIN
 10
0.0
 20
0.0
 30
0.0
  9
$EXTMAX
 10
297.0
 20
210.0
 30
0.0
  9
$LIMMIN
 10
0.0
 20
0.0
  9
$LIMMAX
 10
297.0
 20
210.0
  9
$ORTHOMODE
 70
     0
  9
$REGENMODE
 70
     1
  9
$FILLMODE
 70
     1
  9
$QTEXTMODE
 70
     0
  9
$MIRRTEXT
 70
     1
  9
$LTSCALE
 40
1.0
  9
$ATTMODE
 70
     1
  9
$TEXTSIZE
 40
3.5
  9
$TRACEWID
 40
1.0
  9
$TEXTSTYLE
  7
Standard
  9
$CLAYER
  8
0
  9
$CELTYPE
  6
ByLayer
  9
$CECOLOR
 62
   256
  9
$CELTSCALE
 40
1.0
  9
$DISPSILH
 70
     0
  9
$DIMSCALE
 40
1.0
  9
$DIMASZ
 40
3.302
  9
$DIMEXO
 40
1.0
  9
$DIMDLI
 40
3.75
  9
$DIMRND
 40
0.0
  9
$DIMDLE
 40
0.0
  9
$DIMEXE
 40
1.0
  9
$DIMTP
 40
0.0
  9
$DIMTM
 40
0.0
  9
$DIMTXT
 40
3.5
  9
$DIMCEN
 40
2.5
  9
$DIMTSZ
 40
0.0
  9
$DIMTOL
 70
     0
  9
$DIMLIM
 70
     0
  9
$DIMTIH
 70
     1
  9
$DIMTOH
 70
     1
  9
$DIMSE1
 70
     0
  9
$DIMSE2
 70
     0
  9
$DIMTAD
 70
     1
  9
$DIMZIN
 70
     0
  9
$DIMBLK
  1

  9
$DIMASO
 70
     1
  9
$DIMSHO
 70
     1
  9
$DIMPOST
  1

  9
$DIMAPOST
  1

  9
$DIMALT
 70
     0
  9
$DIMALTD
 70
     3
  9
$DIMALTF
 40
0.0393700787
  9
$DIMLFAC
 40
1.0
  9
$DIMTOFL
 70
     1
  9
$DIMTVP
 40
0.0
  9
$DIMTIX
 70
     0
  9
$DIMSOXD
 70
     0
  9
$DIMSAH
 70
     0
  9
$DIMBLK1
  1

  9
$DIMBLK2
  1

  9
$DIMSTYLE
  2
ISO-25
  9
$DIMCLRD
 70
     0
  9
$DIMCLRE
 70
     0
  9
$DIMCLRT
 70
     0
  9
$DIMTFAC
 40
1.0
  9
$DIMGAP
 40
1.524
  9
$DIMJUST
 70
     0
  9
$DIMSD1
 70
     0
  9
$DIMSD2
 70
     0
  9
$DIMTOLJ
 70
     0
  9
$DIMTZIN
 70
     0
  9
$DIMALTZ
 70
     0
  9
$DIMALTTZ
 70
     0
  9
$DIMUPT
 70
     0
  9
$DIMDEC
 70
     2
  9
$DIMTDEC
 70
     2
  9
$DIMALTU
 70
     2
  9
$DIMALTTD
 70
     3
  9
$DIMTXSTY
  7
Standard
  9
$DIMAUNIT
 70
     0
  9
$DIMADEC
 70
     2
  9
$DIMALTRND
 40
0.0
  9
$DIMAZIN
 70
     0
  9
$DIMDSEP
 70
    44
  9
$DIMATFIT
 70
     3
  9
$DIMFRAC
 70
     0
  9
$DIMLDRBLK
  1

  9
$DIMLUNIT
 70
     2
  9
$DIMLWD
 70
    -2
  9
$DIMLWE
 70
    -2
  9
$DIMTMOVE
 70
     0
  9
$LUNITS
 70
     2
  9
$LUPREC
 70
     2
  9
$SKETCHINC
 40
1.0
  9
$FILLETRAD
 40
10.0
  9
$AUNITS
 70
     0
  9
$AUPREC
 70
     2
  9
$MENU
  1
.
  9
$ELEVATION
 40
0.0
  9
$PELEVATION
 40
0.0
  9
$THICKNESS
 40
0.0
  9
$LIMCHECK
 70
     0
  9
$CHAMFERA
 40
0.0
  9
$CHAMFERB
 40
0.0
  9
$CHAMFERC
 40
0.0
  9
$CHAMFERD
 40
0.0
  9
$SKPOLY
 70
     0
  9
$TDCREATE
 40
2457015.38544507
  9
$TDUCREATE
 40
2457015.343778403
  9
$TDUPDATE
 40
2457031.471203657
  9
$TDUUPDATE
 40
2457031.429536991
  9
$TDINDWG
 40
0.0002260995
  9
$TDUSRTIMER
 40
2457031.429311146
  9
$USRTIMER
 70
     1
  9
$ANGBASE
 50
0.0
  9
$ANGDIR
 70
     0
  9
$PDMODE
 70
     0
  9
$PDSIZE
 40
-1.0
  9
$PLINEWID
 40
0.0
  9
$SPLFRAME
 70
     0
  9
$SPLINETYPE
 70
     6
  9
$SPLINESEGS
 70
     8
  9
$HANDSEED
  5
1A0
  9
$SURFTAB1
 70
     6
  9
$SURFTAB2
 70
     6
  9
$SURFTYPE
 70
     6
  9
$SURFU
 70
     6
  9
$SURFV
 70
     6
  9
$UCSBASE
  2

  9
$UCSNAME
  2

  9
$UCSORG
 10
0.0
 20
0.0
 30
0.0
  9
$UCSXDIR
 10
1.0
 20
0.0
 30
0.0
  9
$UCSYDIR
 10
0.0
 20
1.0
 30
0.0
  9
$UCSORTHOREF
  2

  9
$UCSORTHOVIEW
 70
     0
  9
$UCSORGTOP
 10
0.0
 20
0.0
 30
0.0
  9
$UCSORGBOTTOM
 10
0.0
 20
0.0
 30
0.0
  9
$UCSORGLEFT
 10
0.0
 20
0.0
 30
0.0
  9
$UCSORGRIGHT
 10
0.0
 20
0.0
 30
0.0
  9
$UCSORGFRONT
 10
0.0
 20
0.0
 30
0.0
  9
$UCSORGBACK
 10
0.0
 20
0.0
 30
0.0
  9
$PUCSBASE
  2

  9
$PUCSNAME
  2

  9
$PUCSORG
 10
0.0
 20
0.0
 30
0.0
  9
$PUCSXDIR
 10
1.0
 20
0.0
 30
0.0
  9
$PUCSYDIR
 10
0.0
 20
1.0
 30
0.0
  9
$PUCSORTHOREF
  2

  9
$PUCSORTHOVIEW
 70
     0
  9
$PUCSORGTOP
 10
0.0
 20
0.0
 30
0.0
  9
$PUCSORGBOTTOM
 10
0.0
 20
0.0
 30
0.0
  9
$PUCSORGLEFT
 10
0.0
 20
0.0
 30
0.0
  9
$PUCSORGRIGHT
 10
0.0
 20
0.0
 30
0.0
  9
$PUCSORGFRONT
 10
0.0
 20
0.0
 30
0.0
  9
$PUCSORGBACK
 10
0.0
 20
0.0
 30
0.0
  9
$USERI1
 70
     0
  9
$USERI2
 70
     0
  9
$USERI3
 70
     0
  9
$USERI4
 70
     0
  9
$USERI5
 70
     0
  9
$USERR1
 40
0.0
  9
$USERR2
 40
0.0
  9
$USERR3
 40
0.0
  9
$USERR4
 40
0.0
  9
$USERR5
 40
0.0
  9
$WORLDVIEW
 70
     1
  9
$SHADEDGE
 70
     3
  9
$SHADEDIF
 70
    70
  9
$TILEMODE
 70
     1
  9
$MAXACTVP
 70
    64
  9
$PINSBASE
 10
0.0
 20
0.0
 30
0.0
  9
$PLIMCHECK
 70
     0
  9
$PEXTMIN
 10
1.000000000000000E+20
 20
1.000000000000000E+20
 30
1.000000000000000E+20
  9
$PEXTMAX
 10
-1.000000000000000E+20
 20
-1.000000000000000E+20
 30
-1.000000000000000E+20
  9
$PLIMMIN
 10
0.0
 20
0.0
  9
$PLIMMAX
 10
0.0
 20
0.0
  9
$UNITMODE
 70
     0
  9
$VISRETAIN
 70
     1
  9
$PLINEGEN
 70
     0
  9
$PSLTSCALE
 70
     1
  9
$TREEDEPTH
 70
  3020
  9
$CMLSTYLE
  2
Standard
  9
$CMLJUST
 70
     0
  9
$CMLSCALE
 40
20.0
  9
$PROXYGRAPHICS
 70
     1
  9
$MEASUREMENT
 70
     1
  9
$CELWEIGHT
370
    -1
  9
$ENDCAPS
280
     0
  9
$JOINSTYLE
280
     0
  9
$LWDISPLAY
290
     1
  9
$INSUNITS
 70
     4
  9
$HYPERLINKBASE
  1

  9
$STYLESHEET
  1

  9
$XEDIT
290
     1
  9
$CEPSNTYPE
380
     0
  9
$PSTYLEMODE
290
     1
  9
$FINGERPRINTGUID
  2
{997A7254-8C49-4567-AB9B-DEF41A96CF17}
  9
$VERSIONGUID
  2
{FAEB1C32-E019-11D5-929B-00C0DF256EC4}
  9
$EXTNAMES
290
     1
  9
$PSVPSCALE
 40
0.0
  9
$OLESTARTUP
290
     0
  9
$SORTENTS
280
   127
  9
$INDEXCTL
280
     0
  9
$HIDETEXT
280
     1
  9
$XCLIPFRAME
290
     0
  9
$HALOGAP
280
     0
  9
$OBSCOLOR
 70
   257
  9
$OBSLTYPE
280
     0
  9
$INTERSECTIONDISPLAY
280
     0
  9
$INTERSECTIONCOLOR
 70
   257
  9
$DIMASSOC
280
     2
  9
$PROJECTNAME
  1

  0
ENDSEC
  0
SECTION
  2
CLASSES
  0
CLASS
  1
ACDBDICTIONARYWDFLT
  2
AcDbDictionaryWithDefault
  3
ObjectDBX Classes
 90
        0
 91
       63
280
     0
281
     0
  0
CLASS
  1
VISUALSTYLE
  2
AcDbVisualStyle
  3
ObjectDBX Classes
 90
     4095
 91
       63
280
     0
281
     0
  0
CLASS
  1
MATERIAL
  2
AcDbMaterial
  3
ObjectDBX Classes
 90
     1153
 91
       63
280
     0
281
     0
  0
CLASS
  1
SCALE
  2
AcDbScale
  3
ObjectDBX Classes
 90
     1153
 91
       63
280
     0
281
     0
  0
CLASS
  1
SUN
  2
AcDbSun
  3
SCENEOE
 90
     1153
 91
       63
280
     0
281
     0
  0
CLASS
  1
DICTIONARYVAR
  2
AcDbDictionaryVar
  3
ObjectDBX Classes
 90
        0
 91
       33
280
     0
281
     0
  0
CLASS
  1
TABLESTYLE
  2
AcDbTableStyle
  3
ObjectDBX Classes
 90
     4095
 91
       63
280
     0
281
     0
  0
CLASS
  1
RASTERVARIABLES
  2
AcDbRasterVariables
  3
ISM
 90
        0
 91
       63
280
     0
281
     0
  0
CLASS
  1
CELLSTYLEMAP
  2
AcDbCellStyleMap
  3
ObjectDBX Classes
 90
     1152
 91
        4
280
     0
281
     0
  0
ENDSEC
  0
SECTION
  2
TABLES
  0
TABLE
  2
VPORT
  5
8
330
0
100
AcDbSymbolTable
 70
     1
  0
VPORT
  5
29
330
8
100
AcDbSymbolTableRecord
100
AcDbViewportTableRecord
  2
*Active
 70
     0
 10
0.0
 20
0.0
 11
1.0
 21
1.0
 12
147.6393442622951
 22
23.02254098360658
 13
0.0
 23
0.0
 14
10.0
 24
10.0
 15
10.0
 25
10.0
 16
0.0
 26
0.0
 36
1.0
 17
0.0
 27
0.0
 37
0.0
 40
210.0
 41
1.497950819672131
 42
50.0
 43
0.0
 44
0.0
 50
0.0
 51
0.0
 71
    16
 72
  2000
 73
     1
 74
     3
 75
     0
 76
     0
 77
     0
 78
     0
281
     0
 65
     1
110
0.0
120
0.0
130
0.0
111
1.0
121
0.0
131
0.0
112
0.0
122
1.0
132
0.0
 79
     0
146
0.0
  0
ENDTAB
  0
TABLE
  2
LTYPE
  5
5
330
0
100
AcDbSymbolTable
 70
     8
  0
LTYPE
  5
14
330
5
100
AcDbSymbolTableRecord
100
AcDbLinetypeTableRecord
  2
ByBlock
 70
     0
  3

 72
    65
 73
     0
 40
0.0
  0
LTYPE
  5
15
330
5
100
AcDbSymbolTableRecord
100
AcDbLinetypeTableRecord
  2
ByLayer
 70
     0
  3

 72
    65
 73
     0
 40
0.0
  0
LTYPE
  5
16
330
5
100
AcDbSymbolTableRecord
100
AcDbLinetypeTableRecord
  2
Continuous
 70
     0
  3
Solid line
 72
    65
 73
     0
 40
0.0
  0
LTYPE
  5
6A
330
5
100
AcDbSymbolTableRecord
100
AcDbLinetypeTableRecord
  2
SLD-Durchgehend
 70
     0
  3
SolidWorks Line Style
 72
    65
 73
     0
 40
0.0
  0
LTYPE
  5
6B
330
5
100
AcDbSymbolTableRecord
100
AcDbLinetypeTableRecord
  2
SLD-Gestrichelt
 70
     0
  3
SolidWorks Line Style
 72
    65
 73
     2
 40
1.905
 49
1.27
 74
     0
 49
-0.635
 74
     0
  0
LTYPE
  5
6C
330
5
100
AcDbSymbolTableRecord
100
AcDbLinetypeTableRecord
  2
SLD-Phantom
 70
     0
  3
SolidWorks Line Style
 72
    65
 73
     6
 40
12.7
 49
6.35
 74
     0
 49
-1.27
 74
     0
 49
1.27
 74
     0
 49
-1.27
 74
     0
 49
1.27
 74
     0
 49
-1.27
 74
     0
  0
LTYPE
  5
6D
330
5
100
AcDbSymbolTableRecord
100
AcDbLinetypeTableRecord
  2
SLD-Kette
 70
     0
  3
SolidWorks Line Style
 72
    65
 73
     4
 40
10.16
 49
6.35
 74
     0
 49
-1.27
 74
     0
 49
1.27
 74
     0
 49
-1.27
 74
     0
  0
LTYPE
  5
6E
330
5
100
AcDbSymbolTableRecord
100
AcDbLinetypeTableRecord
  2
SLD-Punktstrich
 70
     0
  3
SolidWorks Line Style
 72
    65
 73
     4
 40
19.05
 49
15.24
 74
     0
 49
-1.27
 74
     0
 49
1.27
 74
     0
 49
-1.27
 74
     0
  0
LTYPE
  5
6F
330
5
100
AcDbSymbolTableRecord
100
AcDbLinetypeTableRecord
  2
SLD-Naht
 70
     0
  3
SolidWorks Line Style
 72
    65
 73
     2
 40
0.635
 49
0.0
 74
     0
 49
-0.635
 74
     0
  0
LTYPE
  5
70
330
5
100
AcDbSymbolTableRecord
100
AcDbLinetypeTableRecord
  2
SLD-Dicke-Dünne-Kette
 70
     0
  3
SolidWorks Line Style
 72
    65
 73
     4
 40
10.16
 49
6.35
 74
     0
 49
-1.27
 74
     0
 49
1.27
 74
     0
 49
-1.27
 74
     0
  0
ENDTAB
  0
TABLE
  2
LAYER
  5
2
330
0
100
AcDbSymbolTable
 70
     4
  0
LAYER
  5
10
330
2
100
AcDbSymbolTableRecord
100
AcDbLayerTableRecord
  2
0
 70
     0
 62
     7
  6
Continuous
370
    -3
390
F
  0
LAYER
  5
71
330
2
100
AcDbSymbolTableRecord
100
AcDbLayerTableRecord
  2
1
 70
     0
 62
     4
  6
Continuous
370
    -1
390
F
  0
LAYER
  5
72
330
2
100
AcDbSymbolTableRecord
100
AcDbLayerTableRecord
  2
2
 70
     0
 62
     7
  6
SLD-Durchgehend
370
    -3
390
F
  0
LAYER
  5
18C
330
2
100
AcDbSymbolTableRecord
100
AcDbLayerTableRecord
  2
Defpoints
 70
     0
 62
     7
  6
Continuous
290
     0
370
    -3
390
F
  0
ENDTAB
  0
TABLE
  2
STYLE
  5
3
330
0
100
AcDbSymbolTable
 70
     2
  0
STYLE
  5
11
330
3
100
AcDbSymbolTableRecord
100
AcDbTextStyleTableRecord
  2
Standard
 70
     0
 40
0.0
 41
1.0
 50
0.0
 71
     0
 42
3.5
  3
txt
  4

  0
STYLE
  5
128
330
3
100
AcDbSymbolTableRecord
100
AcDbTextStyleTableRecord
  2
SLDTEXTSTYLE0
 70
     0
 40
0.0
 41
0.75
 50
0.0
 71
     0
 42
3.5
  3
TXT
  4

  0
ENDTAB
  0
TABLE
  2
VIEW
  5
6
330
0
100
AcDbSymbolTable
 70
     0
  0
ENDTAB
  0
TABLE
  2
UCS
  5
7
330
0
100
AcDbSymbolTable
 70
     0
  0
ENDTAB
  0
TABLE
  2
APPID
  5
9
330
0
100
AcDbSymbolTable
 70
     1
  0
APPID
  5
12
330
9
100
AcDbSymbolTableRecord
100
AcDbRegAppTableRecord
  2
ACAD
 70
     0
  0
ENDTAB
  0
TABLE
  2
DIMSTYLE
  5
A
330
0
100
AcDbSymbolTable
 70
     2
100
AcDbDimStyleTable
  0
DIMSTYLE
105
27
330
A
100
AcDbSymbolTableRecord
100
AcDbDimStyleTableRecord
  2
ISO-25
 70
     0
 41
2.5
 42
0.625
 43
3.75
 44
1.25
 73
     0
 74
     0
 77
     1
 78
     8
140
2.5
141
2.5
143
0.0393700787
147
0.625
171
     3
172
     1
178
     0
271
     2
272
     2
274
     3
278
    44
283
     0
284
     8
340
11
  0
DIMSTYLE
105
129
102
{ACAD_REACTORS
330
127
330
133
330
13D
330
147
102
}
330
A
100
AcDbSymbolTableRecord
100
AcDbDimStyleTableRecord
  2
SLDDIMSTYLE0
 70
     0
 41
3.302
 44
0.0
 45
0.000000001
 73
     0
 74
     0
 77
     1
 78
    12
 79
     3
140
3.5
147
0.875
173
     1
178
     0
271
     2
272
     2
276
     2
284
    12
340
128
  0
ENDTAB
  0
TABLE
  2
BLOCK_RECORD
  5
1
330
0
100
AcDbSymbolTable
 70
     7
  0
BLOCK_RECORD
  5
1F
330
1
100
AcDbSymbolTableRecord
100
AcDbBlockTableRecord
  2
*Model_Space
340
22
  0
BLOCK_RECORD
  5
1B
330
1
100
AcDbSymbolTableRecord
100
AcDbBlockTableRecord
  2
*Paper_Space
340
1E
  0
BLOCK_RECORD
  5
23
330
1
100
AcDbSymbolTableRecord
100
AcDbBlockTableRecord
  2
*Paper_Space0
340
26
  0
BLOCK_RECORD
  5
12A
330
1
100
AcDbSymbolTableRecord
100
AcDbBlockTableRecord
  2
_D
340
0
  0
BLOCK_RECORD
  5
134
330
1
100
AcDbSymbolTableRecord
100
AcDbBlockTableRecord
  2
_D_1
340
0
  0
BLOCK_RECORD
  5
13E
330
1
100
AcDbSymbolTableRecord
100
AcDbBlockTableRecord
  2
_D_2
340
0
  0
BLOCK_RECORD
  5
148
330
1
100
AcDbSymbolTableRecord
100
AcDbBlockTableRecord
  2
_D_3
340
0
  0
BLOCK_RECORD
  5
151
330
1
100
AcDbSymbolTableRecord
100
AcDbBlockTableRecord
  2
SW_CENTERMARKSYMBOL_0
340
0
102
{BLKREFS
331
0
102
}
  0
BLOCK_RECORD
  5
15D
330
1
100
AcDbSymbolTableRecord
100
AcDbBlockTableRecord
  2
SW_CENTERMARKSYMBOL_1
340
0
102
{BLKREFS
331
0
102
}
  0
ENDTAB
  0
ENDSEC
  0
SECTION
  2
BLOCKS
  0
BLOCK
  5
20
330
1F
100
AcDbEntity
  8
0
100
AcDbBlockBegin
  2
*Model_Space
 70
     0
 10
0.0
 20
0.0
 30
0.0
  3
*Model_Space
  1
*Model_Space
  0
ENDBLK
  5
21
330
1F
100
AcDbEntity
  8
0
100
AcDbBlockEnd
  0
BLOCK
  5
1C
330
1B
100
AcDbEntity
 67
     1
  8
0
100
AcDbBlockBegin
  2
*Paper_Space
 70
     0
 10
0.0
 20
0.0
 30
0.0
  3
*Paper_Space
  1
*Paper_Space
  0
ENDBLK
  5
1D
330
1B
100
AcDbEntity
 67
     1
  8
0
100
AcDbBlockEnd
  0
BLOCK
  5
24
330
23
100
AcDbEntity
  8
0
100
AcDbBlockBegin
  2
*Paper_Space0
 70
     0
 10
0.0
 20
0.0
 30
0.0
  3
*Paper_Space0
  1
*Paper_Space0
  0
ENDBLK
  5
25
330
23
100
AcDbEntity
  8
0
100
AcDbBlockEnd
  0
BLOCK
  5
12B
330
12A
100
AcDbEntity
  8
0
100
AcDbBlockBegin
  2
_D
 70
     0
 10
0.0
 20
0.0
 30
0.0
  3
_D
  1
_D
  0
LINE
  5
12D
330
12A
100
AcDbEntity
  8
2
  6
SLD-Durchgehend
 62
     0
370
    -2
100
AcDbLine
 10
250.0027086782
 20
35.0605059343
 30
0.0
 11
250.0027086782
 21
53.0029620284
 31
0.0
  0
LINE
  5
12E
330
12A
100
AcDbEntity
  8
2
  6
SLD-Durchgehend
 62
     0
370
    -2
100
AcDbLine
 10
0.0027086782
 20
0.0605059343
 30
0.0
 11
0.0027086781999941
 21
53.0029620284
 31
0.0
  0
LINE
  5
12F
330
12A
100
AcDbEntity
  8
2
  6
SLD-Durchgehend
 62
     0
370
    -2
100
AcDbLine
 10
246.7007086782
 20
53.0029620284
 30
0.0
 11
3.304708678199994
 21
53.0029620284
 31
0.0
  0
SOLID
  5
130
330
12A
100
AcDbEntity
  8
2
 62
     0
100
AcDbTrace
 10
246.7007086782
 20
52.45262869506666
 30
0.0
 11
246.7007086782
 21
53.55329536173333
 31
0.0
 12
250.0027086782
 22
53.0029620284
 32
0.0
 13
250.0027086782
 23
53.0029620284
 33
0.0
  0
SOLID
  5
131
330
12A
100
AcDbEntity
  8
2
 62
     0
100
AcDbTrace
 10
3.304708678199994
 20
53.55329536173333
 30
0.0
 11
3.304708678199994
 21
52.45262869506666
 31
0.0
 12
0.0027086781999941
 22
53.0029620284
 32
0.0
 13
0.0027086781999941
 23
53.0029620284
 33
0.0
  0
MTEXT
  5
132
330
12A
100
AcDbEntity
  8
2
 62
     0
370
    15
100
AcDbMText
 10
125.0027086782
 20
57.3779620284
 30
0.0
 40
3.5
 41
0.0
 71
     2
 72
     1
  1
\A1;250
  7
SLDTEXTSTYLE0
 73
     1
 44
1.0
  0
POINT
  5
18D
330
12A
100
AcDbEntity
  8
Defpoints
 62
     0
100
AcDbPoint
 10
250.0027086782
 20
34.9980059343
 30
0.0
  0
POINT
  5
18E
330
12A
100
AcDbEntity
  8
Defpoints
 62
     0
100
AcDbPoint
 10
0.0027086782
 20
-0.0019940657
 30
0.0
  0
POINT
  5
18F
330
12A
100
AcDbEntity
  8
Defpoints
 62
     0
100
AcDbPoint
 10
0.0027086782
 20
53.0029620284
 30
0.0
  0
ENDBLK
  5
12C
330
12A
100
AcDbEntity
  8
0
100
AcDbBlockEnd
  0
BLOCK
  5
135
330
134
100
AcDbEntity
  8
0
100
AcDbBlockBegin
  2
_D_1
 70
     0
 10
0.0
 20
0.0
 30
0.0
  3
_D_1
  1
_D_1
  0
LINE
  5
137
330
134
100
AcDbEntity
  8
2
  6
SLD-Durchgehend
 62
     0
370
    -2
100
AcDbLine
 10
0.9402086782000001
 20
39.9980059343
 30
0.0
 11
-5.997291321799999
 21
39.9980059343
 31
0.0
  0
LINE
  5
138
330
134
100
AcDbEntity
  8
2
  6
SLD-Durchgehend
 62
     0
370
    -2
100
AcDbLine
 10
0.9402086782000001
 20
-0.0019940657
 30
0.0
 11
-5.997291321800001
 21
-0.0019940656999999
 31
0.0
  0
LINE
  5
139
330
134
100
AcDbEntity
  8
2
  6
SLD-Durchgehend
 62
     0
370
    -2
100
AcDbLine
 10
-5.997291321799999
 20
36.6960059343
 30
0.0
 11
-5.997291321800001
 21
3.3000059343
 31
0.0
  0
SOLID
  5
13A
330
134
100
AcDbEntity
  8
2
 62
     0
100
AcDbTrace
 10
-5.446957988466665
 20
36.6960059343
 30
0.0
 11
-6.547624655133332
 21
36.6960059343
 31
0.0
 12
-5.997291321799999
 22
39.9980059343
 32
0.0
 13
-5.997291321799999
 23
39.9980059343
 33
0.0
  0
SOLID
  5
13B
330
134
100
AcDbEntity
  8
2
 62
     0
100
AcDbTrace
 10
-6.547624655133335
 20
3.3000059343
 30
0.0
 11
-5.446957988466668
 21
3.3000059343
 31
0.0
 12
-5.997291321800001
 22
-0.0019940656999999
 32
0.0
 13
-5.997291321800001
 23
-0.0019940656999999
 33
0.0
  0
MTEXT
  5
13C
330
134
100
AcDbEntity
  8
2
 62
     0
370
    15
100
AcDbMText
 10
-10.3722913218
 20
19.9980059343
 30
0.0
 40
3.5
 41
0.0
 71
     2
 72
     1
  1
\A1;40
  7
SLDTEXTSTYLE0
 11
6.661338147750940E-17
 21
1.0
 31
0.0
 73
     1
 44
1.0
  0
POINT
  5
190
330
134
100
AcDbEntity
  8
Defpoints
 62
     0
100
AcDbPoint
 10
1.0027086782
 20
39.9980059343
 30
0.0
  0
POINT
  5
191
330
134
100
AcDbEntity
  8
Defpoints
 62
     0
100
AcDbPoint
 10
1.0027086782
 20
-0.0019940657
 30
0.0
  0
POINT
  5
192
330
134
100
AcDbEntity
  8
Defpoints
 62
     0
100
AcDbPoint
 10
-5.9972913218
 20
-0.0019940656999996
 30
0.0
  0
ENDBLK
  5
136
330
134
100
AcDbEntity
  8
0
100
AcDbBlockEnd
  0
BLOCK
  5
13F
330
13E
100
AcDbEntity
  8
0
100
AcDbBlockBegin
  2
_D_2
 70
     0
 10
0.0
 20
0.0
 30
0.0
  3
_D_2
  1
_D_2
  0
LINE
  5
141
330
13E
100
AcDbEntity
  8
2
  6
SLD-Durchgehend
 62
     0
370
    -2
100
AcDbLine
 10
250.0652086782
 20
34.9980059343
 30
0.0
 11
256.0212598512
 21
34.9980059343
 31
0.0
  0
LINE
  5
142
330
13E
100
AcDbEntity
  8
2
  6
SLD-Durchgehend
 62
     0
370
    -2
100
AcDbLine
 10
250.0652086782
 20
-0.0019940657
 30
0.0
 11
256.0212598512
 21
-0.0019940656999999
 31
0.0
  0
LINE
  5
143
330
13E
100
AcDbEntity
  8
2
  6
SLD-Durchgehend
 62
     0
370
    -2
100
AcDbLine
 10
256.0212598512
 20
31.6960059343
 30
0.0
 11
256.0212598512
 21
3.3000059343
 31
0.0
  0
SOLID
  5
144
330
13E
100
AcDbEntity
  8
2
 62
     0
100
AcDbTrace
 10
256.5715931845334
 20
31.6960059343
 30
0.0
 11
255.4709265178667
 21
31.6960059343
 31
0.0
 12
256.0212598512
 22
34.9980059343
 32
0.0
 13
256.0212598512
 23
34.9980059343
 33
0.0
  0
SOLID
  5
145
330
13E
100
AcDbEntity
  8
2
 62
     0
100
AcDbTrace
 10
255.4709265178667
 20
3.3000059343
 30
0.0
 11
256.5715931845334
 21
3.3000059343
 31
0.0
 12
256.0212598512
 22
-0.0019940656999999
 32
0.0
 13
256.0212598512
 23
-0.0019940656999999
 33
0.0
  0
MTEXT
  5
146
330
13E
100
AcDbEntity
  8
2
 62
     0
370
    15
100
AcDbMText
 10
251.6462598512
 20
17.4980059343
 30
0.0
 40
3.5
 41
0.0
 71
     2
 72
     1
  1
\A1;35
  7
SLDTEXTSTYLE0
 11
0.0
 21
1.0
 31
0.0
 73
     1
 44
1.0
  0
POINT
  5
193
330
13E
100
AcDbEntity
  8
Defpoints
 62
     0
100
AcDbPoint
 10
250.0027086782
 20
34.9980059343
 30
0.0
  0
POINT
  5
194
330
13E
100
AcDbEntity
  8
Defpoints
 62
     0
100
AcDbPoint
 10
250.0027086782
 20
-0.0019940657
 30
0.0
  0
POINT
  5
195
330
13E
100
AcDbEntity
  8
Defpoints
 62
     0
100
AcDbPoint
 10
256.0212598512
 20
-0.0019940657000004
 30
0.0
  0
ENDBLK
  5
140
330
13E
100
AcDbEntity
  8
0
100
AcDbBlockEnd
  0
BLOCK
  5
149
330
148
100
AcDbEntity
  8
0
100
AcDbBlockBegin
  2
_D_3
 70
     0
 10
0.0
 20
0.0
 30
0.0
  3
_D_3
  1
_D_3
  0
LINE
  5
14B
330
148
100
AcDbEntity
  8
2
  6
SLD-Durchgehend
 62
     0
370
    -2
100
AcDbLine
 10
193.0027086782
 20
0.0605059343
 30
0.0
 11
193.0027086782
 21
47.0029620284
 31
0.0
  0
LINE
  5
14C
330
148
100
AcDbEntity
  8
2
  6
SLD-Durchgehend
 62
     0
370
    -2
100
AcDbLine
 10
250.0027086782
 20
35.0605059343
 30
0.0
 11
250.0027086782
 21
47.0029620284
 31
0.0
  0
LINE
  5
14D
330
148
100
AcDbEntity
  8
2
  6
SLD-Durchgehend
 62
     0
370
    -2
100
AcDbLine
 10
196.3047086782
 20
47.0029620284
 30
0.0
 11
246.7007086782
 21
47.0029620284
 31
0.0
  0
SOLID
  5
14E
330
148
100
AcDbEntity
  8
2
 62
     0
100
AcDbTrace
 10
196.3047086782
 20
47.55329536173333
 30
0.0
 11
196.3047086782
 21
46.45262869506666
 31
0.0
 12
193.0027086782
 22
47.0029620284
 32
0.0
 13
193.0027086782
 23
47.0029620284
 33
0.0
  0
SOLID
  5
14F
330
148
100
AcDbEntity
  8
2
 62
     0
100
AcDbTrace
 10
246.7007086782
 20
46.45262869506666
 30
0.0
 11
246.7007086782
 21
47.55329536173333
 31
0.0
 12
250.0027086782
 22
47.0029620284
 32
0.0
 13
250.0027086782
 23
47.0029620284
 33
0.0
  0
MTEXT
  5
150
330
148
100
AcDbEntity
  8
2
 62
     0
370
    15
100
AcDbMText
 10
221.5027086782
 20
51.3779620284
 30
0.0
 40
3.5
 41
0.0
 71
     2
 72
     1
  1
\A1;57
  7
SLDTEXTSTYLE0
 73
     1
 44
1.0
  0
POINT
  5
196
330
148
100
AcDbEntity
  8
Defpoints
 62
     0
100
AcDbPoint
 10
193.0027086782
 20
-0.0019940657
 30
0.0
  0
POINT
  5
197
330
148
100
AcDbEntity
  8
Defpoints
 62
     0
100
AcDbPoint
 10
250.0027086782
 20
34.9980059343
 30
0.0
  0
POINT
  5
198
330
148
100
AcDbEntity
  8
Defpoints
 62
     0
100
AcDbPoint
 10
250.0027086782
 20
47.0029620284
 30
0.0
  0
ENDBLK
  5
14A
330
148
100
AcDbEntity
  8
0
100
AcDbBlockEnd
  0
BLOCK
  5
152
330
151
100
AcDbEntity
  8
0
100
AcDbBlockBegin
  2
SW_CENTERMARKSYMBOL_0
 70
     0
 10
0.0
 20
0.0
 30
0.0
  3
SW_CENTERMARKSYMBOL_0
  1
SW_CENTERMARKSYMBOL_0
  0
LINE
  5
154
330
151
100
AcDbEntity
  8
0
  6
SLD-Punktstrich
 62
     0
370
    15
100
AcDbLine
 10
0.0
 20
0.0
 30
0.0
 11
0.0
 21
2.5
 31
0.0
  0
LINE
  5
155
330
151
100
AcDbEntity
  8
0
  6
SLD-Punktstrich
 62
     0
370
    15
100
AcDbLine
 10
0.0
 20
0.0
 30
0.0
 11
-2.5
 21
0.0
 31
0.0
  0
LINE
  5
156
330
151
100
AcDbEntity
  8
0
  6
SLD-Punktstrich
 62
     0
370
    15
100
AcDbLine
 10
0.0
 20
0.0
 30
0.0
 11
0.0
 21
-2.5
 31
0.0
  0
LINE
  5
157
330
151
100
AcDbEntity
  8
0
  6
SLD-Punktstrich
 62
     0
370
    15
100
AcDbLine
 10
0.0
 20
0.0
 30
0.0
 11
2.5
 21
0.0
 31
0.0
  0
LINE
  5
158
330
151
100
AcDbEntity
  8
0
  6
SLD-Punktstrich
 62
     0
370
    15
100
AcDbLine
 10
0.0
 20
2.5
 30
0.0
 11
0.0
 21
4.7
 31
0.0
  0
LINE
  5
159
330
151
100
AcDbEntity
  8
0
  6
SLD-Punktstrich
 62
     0
370
    15
100
AcDbLine
 10
-2.5
 20
0.0
 30
0.0
 11
-4.7
 21
0.0
 31
0.0
  0
LINE
  5
15A
330
151
100
AcDbEntity
  8
0
  6
SLD-Punktstrich
 62
     0
370
    15
100
AcDbLine
 10
0.0
 20
-2.5
 30
0.0
 11
0.0
 21
-4.7
 31
0.0
  0
LINE
  5
15B
330
151
100
AcDbEntity
  8
0
  6
SLD-Punktstrich
 62
     0
370
    15
100
AcDbLine
 10
2.5
 20
0.0
 30
0.0
 11
4.7
 21
0.0
 31
0.0
  0
ENDBLK
  5
153
330
151
100
AcDbEntity
  8
0
100
AcDbBlockEnd
  0
BLOCK
  5
15E
330
15D
100
AcDbEntity
  8
0
100
AcDbBlockBegin
  2
SW_CENTERMARKSYMBOL_1
 70
     0
 10
0.0
 20
0.0
 30
0.0
  3
SW_CENTERMARKSYMBOL_1
  1
SW_CENTERMARKSYMBOL_1
  0
LINE
  5
160
330
15D
100
AcDbEntity
  8
0
  6
SLD-Punktstrich
 62
     0
370
    15
100
AcDbLine
 10
0.0
 20
0.0
 30
0.0
 11
0.0
 21
2.5
 31
0.0
  0
LINE
  5
161
330
15D
100
AcDbEntity
  8
0
  6
SLD-Punktstrich
 62
     0
370
    15
100
AcDbLine
 10
0.0
 20
0.0
 30
0.0
 11
-2.5
 21
0.0
 31
0.0
  0
LINE
  5
162
330
15D
100
AcDbEntity
  8
0
  6
SLD-Punktstrich
 62
     0
370
    15
100
AcDbLine
 10
0.0
 20
0.0
 30
0.0
 11
0.0
 21
-2.5
 31
0.0
  0
LINE
  5
163
330
15D
100
AcDbEntity
  8
0
  6
SLD-Punktstrich
 62
     0
370
    15
100
AcDbLine
 10
0.0
 20
0.0
 30
0.0
 11
2.5
 21
0.0
 31
0.0
  0
LINE
  5
164
330
15D
100
AcDbEntity
  8
0
  6
SLD-Punktstrich
 62
     0
370
    15
100
AcDbLine
 10
0.0
 20
2.5
 30
0.0
 11
0.0
 21
4.7
 31
0.0
  0
LINE
  5
165
330
15D
100
AcDbEntity
  8
0
  6
SLD-Punktstrich
 62
     0
370
    15
100
AcDbLine
 10
-2.5
 20
0.0
 30
0.0
 11
-4.7
 21
0.0
 31
0.0
  0
LINE
  5
166
330
15D
100
AcDbEntity
  8
0
  6
SLD-Punktstrich
 62
     0
370
    15
100
AcDbLine
 10
0.0
 20
-2.5
 30
0.0
 11
0.0
 21
-4.7
 31
0.0
  0
LINE
  5
167
330
15D
100
AcDbEntity
  8
0
  6
SLD-Punktstrich
 62
     0
370
    15
100
AcDbLine
 10
2.5
 20
0.0
 30
0.0
 11
4.7
 21
0.0
 31
0.0
  0
ENDBLK
  5
15F
330
15D
100
AcDbEntity
  8
0
100
AcDbBlockEnd
  0
ENDSEC
  0
SECTION
  2
ENTITIES
  0
LINE
  5
73
330
1F
100
AcDbEntity
  8
0
  6
SLD-Punktstrich
 62
     7
100
AcDbLine
 10
0.0027086782
 20
-0.0019940657
 30
0.0
 11
250.0027086782
 21
-0.0019940657
 31
0.0
  0
POINT
  5
74
330
1F
100
AcDbEntity
  8
1
 62
     4
420
    65535
100
AcDbPoint
 10
250.0027086782
 20
-0.0019940657
 30
0.0
  0
POINT
  5
75
330
1F
100
AcDbEntity
  8
1
 62
     4
420
    65535
100
AcDbPoint
 10
193.0027086782
 20
-0.0019940657
 30
0.0
  0
POINT
  5
76
330
1F
100
AcDbEntity
  8
1
 62
     4
420
    65535
100
AcDbPoint
 10
250.0027086782
 20
34.9980059343
 30
0.0
  0
LINE
  5
77
330
1F
100
AcDbEntity
  8
1
 62
     4
420
    65535
100
AcDbLine
 10
243.4196297527
 20
11.0004206763
 30
0.0
 11
244.2450884391
 21
11.8258793627
 31
0.0
  0
LINE
  5
78
330
1F
100
AcDbEntity
  8
1
 62
     4
420
    65535
100
AcDbLine
 10
226.0901998179
 20
40.3130232682
 30
0.0
 11
225.775182484
 21
39.9980059343
 31
0.0
  0
SPLINE
  5
79
330
1F
100
AcDbEntity
  8
1
 62
     4
420
    65535
100
AcDbSpline
210
0.0
220
0.0
230
1.0
 70
     8
 71
     3
 72
     9
 73
     5
 74
     0
 42
0.000000001
 43
0.00000001
 40
0.0
 40
0.0
 40
0.0
 40
0.0
 40
0.6439003249214266
 40
1.0
 40
1.0
 40
1.0
 40
1.0
 10
222.1344856558281
 20
28.36854655599581
 30
0.0
 10
221.9002745694598
 20
28.34385551965894
 30
0.0
 10
221.5365364607754
 20
28.30550946611427
 30
0.0
 10
221.1894404503841
 20
28.2099918386439
 30
0.0
 10
221.0658396738627
 20
28.17597804253743
 30
0.0
  0
LINE
  5
7A
330
1F
100
AcDbEntity
  8
1
 62
     4
420
    65535
100
AcDbLine
 10
221.0501648465
 20
28.1910508919
 30
0.0
 11
216.1805975484
 21
27.0728266137
 31
0.0
  0
LINE
  5
7B
330
1F
100
AcDbEntity
  8
1
 62
     4
420
    65535
100
AcDbLine
 10
234.1138591856
 20
29.5806615634
 30
0.0
 11
222.1344856558
 21
28.368546556
 31
0.0
  0
LINE
  5
7C
330
1F
100
AcDbEntity
  8
1
 62
     4
420
    65535
100
AcDbLine
 10
214.7945138374
 20
6.3280541259
 30
0.0
 11
220.7478623434
 21
9.1185300899
 31
0.0
  0
LINE
  5
7D
330
1F
100
AcDbEntity
  8
1
 62
     4
420
    65535
100
AcDbLine
 10
212.7450617221
 20
25.8950844601
 30
0.0
 11
206.7917132161
 21
23.1046084962
 31
0.0
  0
LINE
  5
7E
330
1F
100
AcDbEntity
  8
1
 62
     4
420
    65535
100
AcDbLine
 10
235.8940046281
 20
29.6981103069
 30
0.0
 11
234.1342202929
 21
29.582360763
 31
0.0
  0
SPLINE
  5
7F
330
1F
100
AcDbEntity
  8
1
 62
     4
420
    65535
100
AcDbSpline
210
0.0
220
0.0
230
1.0
 70
     8
 71
     3
 72
    10
 73
     6
 74
     0
 42
0.000000001
 43
0.00000001
 40
0.0
 40
0.0
 40
0.0
 40
0.0
 40
0.3867841413422174
 40
0.7814421721254114
 40
1.0
 40
1.0
 40
1.0
 40
1.0
 10
238.6361504715369
 20
24.51718132818979
 30
0.0
 10
238.7454701780542
 20
24.72118903574552
 30
0.0
 10
238.9663350475923
 20
25.13335750151937
 30
0.0
 10
239.1235808987823
 20
25.7230871433632
 30
0.0
 10
239.1258424146545
 20
26.09216656361441
 30
0.0
 10
239.1266484472935
 20
26.22371110093261
 30
0.0
  0
SPLINE
  5
80
330
1F
100
AcDbEntity
  8
1
 62
     4
420
    65535
100
AcDbSpline
210
0.0
220
0.0
230
1.0
 70
     8
 71
     3
 72
    10
 73
     6
 74
     0
 42
0.000000001
 43
0.00000001
 40
0.0
 40
0.0
 40
0.0
 40
0.0
 40
0.3135858731554828
 40
0.7811920332586493
 40
1.0
 40
1.0
 40
1.0
 40
1.0
 10
237.7089220151412
 20
29.06639902505323
 30
0.0
 10
237.5721932472836
 20
29.1636054062316
 30
0.0
 10
237.2315802499797
 20
29.40576188411857
 30
0.0
 10
236.7230147007742
 20
29.59215944568642
 30
0.0
 10
236.3653204407108
 20
29.66155236515885
 30
0.0
 10
236.2512983792487
 20
29.68367271936223
 30
0.0
  0
SPLINE
  5
81
330
1F
100
AcDbEntity
  8
1
 62
     4
420
    65535
100
AcDbSpline
210
0.0
220
0.0
230
1.0
 70
     8
 71
     3
 72
     9
 73
     5
 74
     0
 42
0.000000001
 43
0.00000001
 40
0.0
 40
0.0
 40
0.0
 40
0.0
 40
0.8069693414003768
 40
1.0
 40
1.0
 40
1.0
 40
1.0
 10
236.2813070502725
 20
29.6634872652008
 30
0.0
 10
236.1662244686494
 20
29.68942778827629
 30
0.0
 10
236.0236136212245
 20
29.72157339994287
 30
0.0
 10
235.8837371301284
 20
29.69091773801726
 30
0.0
 10
235.8567366789295
 20
29.68500025540595
 30
0.0
  0
SPLINE
  5
82
330
1F
100
AcDbEntity
  8
1
 62
     4
420
    65535
100
AcDbSpline
210
0.0
220
0.0
230
1.0
 70
     8
 71
     3
 72
    11
 73
     7
 74
     0
 42
0.000000001
 43
0.00000001
 40
0.0
 40
0.0
 40
0.0
 40
0.0
 40
0.2421680093283412
 40
0.5940750434458302
 40
0.9464280767228392
 40
1.0
 40
1.0
 40
1.0
 40
1.0
 10
239.0730179499461
 20
26.74967400188986
 30
0.0
 10
239.0355645815333
 20
26.93405142218264
 30
0.0
 10
238.9436857593522
 20
27.3863573410142
 30
0.0
 10
238.6128268373059
 20
28.04533347045155
 30
0.0
 10
238.2921809429488
 20
28.54621621387562
 30
0.0
 10
238.0606975266842
 20
28.75904993070013
 30
0.0
 10
238.0301475158612
 20
28.78713864849
 30
0.0
  0
LINE
  5
83
330
1F
100
AcDbEntity
  8
1
 62
     4
420
    65535
100
AcDbLine
 10
225.4749832984
 20
39.2337664962
 30
0.0
 11
222.6971798975
 21
28.4254819319
 31
0.0
  0
ARC
  5
84
330
1F
100
AcDbEntity
  8
1
 62
     4
420
    65535
100
AcDbCircle
 10
227.7605978558
 20
38.6437545945
 30
0.0
 40
2.360539758022843
100
AcDbArc
 50
74.7919246957
 51
165.5255721474
  0
LINE
  5
85
330
1F
100
AcDbEntity
  8
1
 62
     4
420
    65535
100
AcDbLine
 10
248.2268356106
 20
35.6188454236
 30
0.0
 11
228.3798268871
 21
40.9216271449
 31
0.0
  0
ARC
  5
86
330
1F
100
AcDbEntity
  8
1
 62
     4
420
    65535
100
AcDbCircle
 10
247.6061842664
 20
33.286221813
 30
0.0
 40
2.413781473089581
100
AcDbArc
 50
345.8313902966
 51
75.1002708812
  0
LINE
  5
87
330
1F
100
AcDbEntity
  8
1
 62
     4
420
    65535
100
AcDbLine
 10
244.8603048884
 20
12.9051358619
 30
0.0
 11
249.9465375404
 21
32.6953854964
 31
0.0
  0
ARC
  5
88
330
1F
100
AcDbEntity
  8
1
 62
     4
420
    65535
100
AcDbCircle
 10
242.5746904009
 20
13.4951480372
 30
0.0
 40
2.36053975876766
100
AcDbArc
 50
254.7919247068
 51
345.5255652925
  0
LINE
  5
89
330
1F
100
AcDbEntity
  8
1
 62
     4
420
    65535
100
AcDbLine
 10
228.2165023041
 20
14.8880906712
 30
0.0
 11
241.9554613698
 21
11.2172754859
 31
0.0
  0
ARC
  5
8A
330
1F
100
AcDbEntity
  8
1
 62
     4
420
    65535
100
AcDbCircle
 10
235.1518266521
 20
26.0767625469
 30
0.0
 40
4.743438562027415
100
AcDbArc
 50
272.0387374457
 51
136.5808466986
  0
LWPOLYLINE
  5
8B
330
1F
100
AcDbEntity
  8
1
 62
     4
420
    65535
100
AcDbPolyline
 90
        3
 70
   128
 43
0.0
 10
243.0224791184
 20
10.6813967681
 10
243.315943289
 20
10.9028390635
 10
243.4196297527
 20
11.0004206763
  0
ARC
  5
8C
330
1F
100
AcDbEntity
  8
1
 62
     4
420
    65535
100
AcDbCircle
 10
235.1385963385
 20
26.0618572055
 30
0.0
 40
4.545051485587961
100
AcDbArc
 50
275.0466264354
 51
133.3138122078
  0
ARC
  5
8D
330
1F
100
AcDbEntity
  8
1
 62
     4
420
    65535
100
AcDbCircle
 10
234.4016586386
 20
25.2000614361
 30
0.0
 40
4.487440927498505
100
AcDbArc
 50
322.3322201546
 51
355.2662834001
  0
ARC
  5
8E
330
1F
100
AcDbEntity
  8
1
 62
     4
420
    65535
100
AcDbCircle
 10
234.306626058
 20
25.2690987098
 30
0.0
 40
4.522402103984538
100
AcDbArc
 50
76.35553210460002
 51
113.3679901149
  0
ARC
  5
8F
330
1F
100
AcDbEntity
  8
1
 62
     4
420
    65535
100
AcDbCircle
 10
202.5299616101
 20
5.2538332165
 30
0.0
 40
8.626934426109342
100
AcDbArc
 50
11.2673086784
 51
28.0363352205
  0
ARC
  5
90
330
1F
100
AcDbEntity
  8
1
 62
     4
420
    65535
100
AcDbCircle
 10
210.117217997
 20
9.530213167
 30
0.0
 40
2.734052392778962
100
AcDbArc
 50
211.5138331449999
 51
288.6299331389999
  0
ARC
  5
91
330
1F
100
AcDbEntity
  8
1
 62
     4
420
    65535
100
AcDbCircle
 10
221.8817637236
 20
-16.516101814
 30
0.0
 40
28.36699647499773
100
AcDbArc
 50
114.4415019441
 51
119.7946584157
  0
LINE
  5
92
330
1F
100
AcDbEntity
  8
1
 62
     4
420
    65535
100
AcDbLine
 10
205.7891976701
 20
18.4354816496
 30
0.0
 11
210.1445226148
 21
9.308763339
 31
0.0
  0
LINE
  5
93
330
1F
100
AcDbEntity
  8
1
 62
     4
420
    65535
100
AcDbLine
 10
207.786400081
 20
8.1011119357
 30
0.0
 11
203.4310751364
 21
17.2278302463
 31
0.0
  0
ARC
  5
94
330
1F
100
AcDbEntity
  8
1
 62
     4
420
    65535
100
AcDbCircle
 10
217.526438779
 20
-7.3893835033
 30
0.0
 40
28.36699647502204
100
AcDbArc
 50
114.4415019441
 51
119.7946584157
  0
SPLINE
  5
95
330
1F
100
AcDbEntity
  8
1
 62
     4
420
    65535
100
AcDbSpline
210
0.0
220
0.0
230
1.0
 70
     8
 71
     3
 72
    19
 73
    15
 74
     0
 42
0.000000001
 43
0.00000001
 40
0.0
 40
0.0
 40
0.0
 40
0.0
 40
0.0625986691502142
 40
0.1250271010011051
 40
0.1873618454127787
 40
0.2496798040889817
 40
0.3120579469877006
 40
0.3745730275125829
 40
0.4373013017191275
 40
0.5003182565986053
 40
0.628037362436124
 40
0.7533914162835827
 40
0.877121908384035
 40
1.0
 40
1.0
 40
1.0
 40
1.0
 10
221.4801618217296
 20
14.62204689882459
 30
0.0
 10
221.4440846502015
 20
14.56285888891673
 30
0.0
 10
221.3720284191394
 20
14.44464383110062
 30
0.0
 10
221.2555242725647
 20
14.27205757605661
 30
0.0
 10
221.1331270206857
 20
14.1036525999719
 30
0.0
 10
221.0042721134494
 20
13.93987080137638
 30
0.0
 10
220.8691921578119
 20
13.78073434485256
 30
0.0
 10
220.7279279734936
 20
13.62631716789952
 30
0.0
 10
220.5805697809151
 20
13.47663612315295
 30
0.0
 10
220.3751001453446
 20
13.28234571446517
 30
0.0
 10
220.1059539856592
 20
13.05402996281802
 30
0.0
 10
219.7656357595787
 20
12.80766375463231
 30
0.0
 10
219.4137983403857
 20
12.5887684391484
 30
0.0
 10
219.1688924692638
 20
12.46732008512114
 30
0.0
 10
219.0468627912393
 20
12.40680580071193
 30
0.0
  0
LINE
  5
96
330
1F
100
AcDbEntity
  8
1
 62
     4
420
    65535
100
AcDbLine
 10
221.4801618217
 20
14.6220468988
 30
0.0
 11
223.8604948273
 21
15.7377655623
 31
0.0
  0
ARC
  5
97
330
1F
100
AcDbEntity
  8
1
 62
     4
420
    65535
100
AcDbCircle
 10
216.2459338226
 20
11.6828354399
 30
0.0
 40
8.626934426108289
100
AcDbArc
 50
11.2673086784
 51
28.0363352205
  0
LINE
  5
98
330
1F
100
AcDbEntity
  8
1
 62
     4
420
    65535
100
AcDbLine
 10
224.7065953039
 20
13.3684228422
 30
0.0
 11
210.9906230914
 21
6.9394206188
 31
0.0
  0
LINE
  5
99
330
1F
100
AcDbEntity
  8
1
 62
     4
420
    65535
100
AcDbLine
 10
210.1445226148
 20
9.308763339
 30
0.0
 11
214.0391775573
 21
11.1342806918
 31
0.0
  0
SPLINE
  5
9A
330
1F
100
AcDbEntity
  8
1
 62
     4
420
    65535
100
AcDbSpline
210
0.0
220
0.0
230
1.0
 70
     8
 71
     3
 72
    18
 73
    14
 74
     0
 42
0.000000001
 43
0.00000001
 40
0.0
 40
0.0
 40
0.0
 40
0.0
 40
0.0703427401240694
 40
0.1408544775708977
 40
0.2116825778072828
 40
0.2829724389232424
 40
0.3548666492812219
 40
0.4275042274756395
 40
0.5010199617195032
 40
0.6264375848724882
 40
0.7510020882352502
 40
0.8753197280723327
 40
1.0
 40
1.0
 40
1.0
 40
1.0
 10
217.2620962022325
 20
11.57024327411475
 30
0.0
 10
217.191228723571
 20
11.53811127800725
 30
0.0
 10
217.0493235082494
 20
11.47377008917882
 30
0.0
 10
216.8315842528078
 20
11.38930047634995
 30
0.0
 10
216.6101231696596
 20
11.31365704440517
 30
0.0
 10
216.3844984525126
 20
11.24778748940221
 30
0.0
 10
216.1546874147227
 20
11.19156950304786
 30
0.0
 10
215.9205139837125
 20
11.14516066537704
 30
0.0
 10
215.6267774016632
 20
11.10036165558933
 30
0.0
 10
215.2740038651803
 20
11.06693175306589
 30
0.0
 10
214.8629537546383
 20
11.0586626282234
 30
0.0
 10
214.450935394786
 20
11.07852321681415
 30
0.0
 10
214.1765633651514
 20
11.11567683036005
 30
0.0
 10
214.0391775572877
 20
11.1342806917626
 30
0.0
  0
LINE
  5
9B
330
1F
100
AcDbEntity
  8
1
 62
     4
420
    65535
100
AcDbLine
 10
219.0468627912
 20
12.4068058007
 30
0.0
 11
217.2620962022
 21
11.5702432741
 31
0.0
  0
LINE
  5
9C
330
1F
100
AcDbEntity
  8
1
 62
     4
420
    65535
100
AcDbLine
 10
209.6838526127
 20
20.2609990024
 30
0.0
 11
205.7891976701
 21
18.4354816496
 31
0.0
  0
SPLINE
  5
9D
330
1F
100
AcDbEntity
  8
1
 62
     4
420
    65535
100
AcDbSpline
210
0.0
220
0.0
230
1.0
 70
     8
 71
     3
 72
    29
 73
    25
 74
     0
 42
0.000000001
 43
0.00000001
 40
0.0
 40
0.0
 40
0.0
 40
0.0
 40
0.0212402434703422
 40
0.0422888136567239
 40
0.06318230488438
 40
0.0839581309581258
 40
0.1046543438240271
 40
0.1253094354363191
 40
0.1459621276727128
 40
0.1666511558830402
 40
0.1874150520622633
 40
0.2082919336630466
 40
0.2293193037026389
 40
0.250533867114797
 40
0.3752740296942553
 40
0.5000266025712254
 40
0.6247073315539092
 40
0.7495193386101695
 40
0.7917336010723208
 40
0.8333533176609009
 40
0.8746813832686134
 40
0.9160271031088628
 40
0.9576993892906001
 40
1.0
 40
1.0
 40
1.0
 40
1.0
 10
214.0391775572876
 20
11.13428069176258
 30
0.0
 10
213.9544749991535
 20
11.14506488252453
 30
0.0
 10
213.785834244061
 20
11.16653594683728
 30
0.0
 10
213.5356727169996
 20
11.21170666777524
 30
0.0
 10
213.28923962951
 20
11.26620950460487
 30
0.0
 10
213.0466331656851
 20
11.33096274166709
 30
0.0
 10
212.8078304790798
 20
11.40572318463749
 30
0.0
 10
212.5728409409997
 20
11.49055523567374
 30
0.0
 10
212.3416651923541
 20
11.58544113865555
 30
0.0
 10
212.1143064377906
 20
11.6903835701306
 30
0.0
 10
211.8907653944005
 20
11.80538277769997
 30
0.0
 10
211.6710487715951
 20
11.93042597472916
 30
0.0
 10
211.4551397297401
 20
12.06555355004758
 30
0.0
 10
210.8991450037363
 20
12.44590530980218
 30
0.0
 10
210.0818521642308
 20
13.19219279532505
 30
0.0
 10
209.2645357141361
 20
14.48000936042984
 30
0.0
 10
208.7783090479363
 20
15.92359849339597
 30
0.0
 10
208.7100231854816
 20
17.10798339111739
 30
0.0
 10
208.7967622544957
 20
17.94050043753739
 30
0.0
 10
208.8907564920346
 20
18.4336842132132
 30
0.0
 10
209.0259765030032
 20
18.91312461691283
 30
0.0
 10
209.2031675482158
 20
19.37834106875315
 30
0.0
 10
209.4192475414796
 20
19.83123253783247
 30
0.0
 10
209.5952120393482
 20
20.11703068901381
 30
0.0
 10
209.6838526126591
 20
20.26099900238831
 30
0.0
  0
SPLINE
  5
9E
330
1F
100
AcDbEntity
  8
1
 62
     4
420
    65535
100
AcDbSpline
210
0.0
220
0.0
230
1.0
 70
     8
 71
     3
 72
    22
 73
    18
 74
     0
 42
0.000000001
 43
0.00000001
 40
0.0
 40
0.0
 40
0.0
 40
0.0
 40
0.0702893591484113
 40
0.1396306298610381
 40
0.208114902044417
 40
0.2758367402127302
 40
0.3428939497938874
 40
0.4093872832134383
 40
0.4754200869449023
 40
0.5410978931723769
 40
0.6065279622625948
 40
0.6718187846970056
 40
0.7370795532635341
 40
0.8024196179535615
 40
0.8679479369940535
 40
0.9337725376661914
 40
1.0
 40
1.0
 40
1.0
 40
1.0
 10
209.6838526126591
 20
20.26099900238831
 30
0.0
 10
209.7242652557669
 20
20.32738926686009
 30
0.0
 10
209.8045454415568
 20
20.45927429977469
 30
0.0
 10
209.9323816231553
 20
20.64913198563049
 30
0.0
 10
210.0648592464053
 20
20.83123053493892
 30
0.0
 10
210.2026876564474
 20
21.00519071961486
 30
0.0
 10
210.345829208013
 20
21.17124801717762
 30
0.0
 10
210.4943934749476
 20
21.32953840326446
 30
0.0
 10
210.648411339339
 20
21.48026577245565
 30
0.0
 10
210.807903216606
 20
21.6236397030971
 30
0.0
 10
210.9728697091098
 20
21.75987440989732
 30
0.0
 10
211.1432985805698
 20
21.88917969489714
 30
0.0
 10
211.319178911475
 20
22.01173361741789
 30
0.0
 10
211.5004661593551
 20
22.12774586437656
 30
0.0
 10
211.6872324009325
 20
22.23718534564213
 30
0.0
 10
211.8791176090605
 20
22.34077453417659
 30
0.0
 10
212.0108373056464
 20
22.40418471799543
 30
0.0
 10
212.0768980777819
 20
22.43598653513368
 30
0.0
  0
LINE
  5
9F
330
1F
100
AcDbEntity
  8
1
 62
     4
420
    65535
100
AcDbLine
 10
212.0768980778
 20
22.4359865351
 30
0.0
 11
213.8616646668
 21
23.2725490617
 31
0.0
  0
SPLINE
  5
A0
330
1F
100
AcDbEntity
  8
1
 62
     4
420
    65535
100
AcDbSpline
210
0.0
220
0.0
230
1.0
 70
     8
 71
     3
 72
    18
 73
    14
 74
     0
 42
0.000000001
 43
0.00000001
 40
0.0
 40
0.0
 40
0.0
 40
0.0
 40
0.0703427401240615
 40
0.1408544775709007
 40
0.2116825778072861
 40
0.2829724389232335
 40
0.354866649281219
 40
0.4275042274756398
 40
0.5010199617195076
 40
0.6264375848724811
 40
0.7510020882352463
 40
0.8753197280723264
 40
1.0
 40
1.0
 40
1.0
 40
1.0
 10
213.8616646667888
 20
23.27254906173088
 30
0.0
 10
213.9326162031015
 20
23.30476511548956
 30
0.0
 10
214.0746897356728
 20
23.36927462156755
 30
0.0
 10
214.2937757570877
 20
23.45509100036991
 30
0.0
 10
214.5173397705273
 20
23.53283736260591
 30
0.0
 10
214.7458350212411
 20
23.60157745117584
 30
0.0
 10
214.9791657283076
 20
23.66131510680678
 30
0.0
 10
215.2173882377856
 20
23.71177302294544
 30
0.0
 10
215.5165652592769
 20
23.76201247217511
 30
0.0
 10
215.8760682043495
 20
23.8021717832883
 30
0.0
 10
216.2941776030206
 20
23.81750019625978
 30
0.0
 10
216.7117839417705
 20
23.8032275865667
 30
0.0
 10
216.9870189510217
 20
23.76693695263745
 30
0.0
 10
217.124836877101
 20
23.7487652094503
 30
0.0
  0
SPLINE
  5
A1
330
1F
100
AcDbEntity
  8
1
 62
     4
420
    65535
100
AcDbSpline
210
0.0
220
0.0
230
1.0
 70
     8
 71
     3
 72
    29
 73
    25
 74
     0
 42
0.000000001
 43
0.00000001
 40
0.0
 40
0.0
 40
0.0
 40
0.0
 40
0.0212406789991187
 40
0.0422896049123932
 40
0.0631833718411916
 40
0.083959393776608
 40
0.104655723283561
 40
0.1253108533793375
 40
0.1459635074484847
 40
0.1666524227786795
 40
0.1874161337088921
 40
0.2082927604062434
 40
0.2293198089281167
 40
0.250533987522518
 40
0.3752768783614738
 40
0.5000267224752293
 40
0.6247101796928409
 40
0.7495194579661959
 40
0.7917344266148109
 40
0.8333545833923808
 40
0.874682800203177
 40
0.9160283651614121
 40
0.9577001801093574
 40
1.0
 40
1.0
 40
1.0
 40
1.0
 10
217.1248368771009
 20
23.74876520945032
 30
0.0
 10
217.2095411746647
 20
23.73798082161723
 30
0.0
 10
217.3781850903557
 20
23.71650940346236
 30
0.0
 10
217.6283508893306
 20
23.67133821400199
 30
0.0
 10
217.8747873025467
 20
23.61683501124207
 30
0.0
 10
218.1173961471374
 20
23.55208152024398
 30
0.0
 10
218.3562002690599
 20
23.47732093067024
 30
0.0
 10
218.5911902967755
 20
23.39248884094599
 30
0.0
 10
218.8223655895153
 20
23.29760300685026
 30
0.0
 10
219.0497229399723
 20
23.19266074874056
 30
0.0
 10
219.2732616385386
 20
23.07766182895588
 30
0.0
 10
219.4929749447089
 20
22.9526189949736
 30
0.0
 10
219.7088798120294
 20
22.81749200496415
 30
0.0
 10
220.2648769864104
 20
22.43712942397828
 30
0.0
 10
221.0821708149406
 20
21.69084569760885
 30
0.0
 10
221.8994882624496
 20
20.40301630521121
 30
0.0
 10
222.3857061974862
 20
18.95943618125993
 30
0.0
 10
222.4539944184367
 20
17.77504833505054
 30
0.0
 10
222.3672466081998
 20
16.94253856917331
 30
0.0
 10
222.2732498262596
 20
16.44935012016277
 30
0.0
 10
222.138028858133
 20
15.96990818112024
 30
0.0
 10
221.9608390369465
 20
15.50469332599249
 30
0.0
 10
221.7447623258275
 20
15.05180655158129
 30
0.0
 10
221.5688006490109
 20
14.76601257932502
 30
0.0
 10
221.4801618217295
 20
14.62204689882459
 30
0.0
  0
ARC
  5
A2
330
1F
100
AcDbEntity
  8
1
 62
     4
420
    65535
100
AcDbCircle
 10
199.5176070327
 20
15.9172898356
 30
0.0
 40
6.758264506178198
100
AcDbArc
 50
21.8766262558
 51
41.7733750933
  0
ARC
  5
A3
330
1F
100
AcDbEntity
  8
1
 62
     4
420
    65535
100
AcDbCircle
 10
205.8949035796
 20
18.1527878679
 30
0.0
 40
2.631728937270422
100
AcDbArc
 50
120.534785612
 51
200.5768777468
  0
LINE
  5
A4
330
1F
100
AcDbEntity
  8
1
 62
     4
420
    65535
100
AcDbLine
 10
204.5578237317
 20
20.4195509079
 30
0.0
 11
218.2737959442
 21
26.8485531312
 31
0.0
  0
ARC
  5
A5
330
1F
100
AcDbEntity
  8
1
 62
     4
420
    65535
100
AcDbCircle
 10
213.2335792453
 20
22.3462920589
 30
0.0
 40
6.758264506177277
100
AcDbArc
 50
21.8766262558
 51
41.7733750933
  0
LINE
  5
A6
330
1F
100
AcDbEntity
  8
1
 62
     4
420
    65535
100
AcDbLine
 10
219.5051698827
 20
24.8644838729
 30
0.0
 11
217.1248368771
 21
23.7487652095
 31
0.0
  0
SPLINE
  5
A7
330
1F
100
AcDbEntity
  8
1
 62
     4
420
    65535
100
AcDbSpline
210
0.0
220
0.0
230
1.0
 70
     8
 71
     3
 72
     8
 73
     4
 74
     0
 42
0.000000001
 43
0.00000001
 40
0.0
 40
0.0
 40
0.0
 40
0.0
 40
1.0
 40
1.0
 40
1.0
 40
1.0
 10
208.230421263757
 20
2.786443117422823
 30
0.0
 10
208.2403942506085
 20
2.729420683654636
 30
0.0
 10
208.2625732762046
 20
2.676110870497634
 30
0.0
 10
208.2949773965484
 20
2.627902122442049
 30
0.0
  0
ELLIPSE
  5
A8
330
1F
100
AcDbEntity
  8
1
 62
     4
420
    65535
100
AcDbEllipse
 10
207.2712269058
 20
3.8204363751
 30
0.0
 11
-0.8948946686182636
 21
3.662228932655476
 31
0.0
210
0.0
220
0.0
230
1.0
 40
0.1926313829
 41
4.379445842261411
 42
5.556065784911887
  0
LINE
  5
A9
330
1F
100
AcDbEntity
  8
1
 62
     4
420
    65535
100
AcDbLine
 10
207.0715918802
 20
6.671046781
 30
0.0
 11
207.786400081
 21
8.1011119357
 31
0.0
  0
LINE
  5
AA
330
1F
100
AcDbEntity
  8
1
 62
     4
420
    65535
100
AcDbLine
 10
210.9906230914
 20
6.9394206188
 30
0.0
 11
208.9572946809
 21
2.8714872842
 31
0.0
  0
ELLIPSE
  5
AB
330
1F
100
AcDbEntity
  8
1
 62
     4
420
    65535
100
AcDbEllipse
 10
208.0365776841
 20
5.3516184153
 30
0.0
 11
-1.273277473656066
 21
-2.547354304727321
 31
0.0
210
0.0
220
0.0
230
1.0
 40
0.8778552319
 41
0.618194245834881
 42
0.8835160364078802
  0
LINE
  5
AC
330
1F
100
AcDbEntity
  8
1
 62
     4
420
    65535
100
AcDbLine
 10
203.8592830262
 20
13.6148297718
 30
0.0
 11
205.3648148703
 21
10.4599411644
 31
0.0
  0
SPLINE
  5
AD
330
1F
100
AcDbEntity
  8
1
 62
     4
420
    65535
100
AcDbSpline
210
0.0
220
0.0
230
1.0
 70
     8
 71
     3
 72
     9
 73
     5
 74
     0
 42
0.000000001
 43
0.00000001
 40
0.0
 40
0.0
 40
0.0
 40
0.0
 40
0.5001051071779228
 40
0.9999999999999999
 40
0.9999999999999999
 40
0.9999999999999999
 40
0.9999999999999999
 10
203.8591966559036
 20
13.61478024477714
 30
0.0
 10
203.8462523686991
 20
13.60663378218408
 30
0.0
 10
203.8203692352961
 20
13.59034428128489
 30
0.0
 10
203.7947218792505
 20
13.57417837134242
 30
0.0
 10
203.7819008969488
 20
13.56609711552435
 30
0.0
  0
LINE
  5
AE
330
1F
100
AcDbEntity
  8
1
 62
     4
420
    65535
100
AcDbLine
 10
201.9966794669
 20
17.3056829186
 30
0.0
 11
203.7813697515
 21
13.5658091534
 31
0.0
  0
LINE
  5
AF
330
1F
100
AcDbEntity
  8
1
 62
     4
420
    65535
100
AcDbLine
 10
203.4310751364
 20
17.2278302463
 30
0.0
 11
201.9966794669
 21
17.3056829186
 31
0.0
  0
LINE
  5
B0
330
1F
100
AcDbEntity
  8
1
 62
     4
420
    65535
100
AcDbLine
 10
205.2869015956
 20
10.4109205461
 30
0.0
 11
207.0715918802
 21
6.671046781
 31
0.0
  0
SPLINE
  5
B1
330
1F
100
AcDbEntity
  8
1
 62
     4
420
    65535
100
AcDbSpline
210
0.0
220
0.0
230
1.0
 70
     8
 71
     3
 72
    11
 73
     7
 74
     0
 42
0.000000001
 43
0.00000001
 40
0.0
 40
0.0
 40
0.0
 40
0.0
 40
0.2490613686068147
 40
0.4999109678558025
 40
0.7502050082805743
 40
1.0
 40
1.0
 40
1.0
 40
1.0
 10
205.2874765663712
 20
10.41114888872975
 30
0.0
 10
205.2934738407951
 20
10.41504015552728
 30
0.0
 10
205.3055114493514
 20
10.4228506279495
 30
0.0
 10
205.3261443900112
 20
10.43553804919495
 30
0.0
 10
205.3455890226234
 20
10.44778243437766
 30
0.0
 10
205.3583490077102
 20
10.45586817218545
 30
0.0
 10
205.3647226335333
 20
10.45990700663076
 30
0.0
  0
LINE
  5
B2
330
1F
100
AcDbEntity
  8
1
 62
     4
420
    65535
100
AcDbLine
 10
224.1752186869
 20
21.4693654388
 30
0.0
 11
219.5051698827
 21
24.8644838729
 31
0.0
  0
LINE
  5
B3
330
1F
100
AcDbEntity
  8
1
 62
     4
420
    65535
100
AcDbLine
 10
223.8604948273
 20
15.7377655623
 30
0.0
 11
224.1752186869
 21
21.4693654388
 31
0.0
  0
LINE
  5
B4
330
1F
100
AcDbEntity
  8
1
 62
     4
420
    65535
100
AcDbLine
 10
225.5870727485
 20
13.5871934488
 30
0.0
 11
224.7065953039
 21
13.3684228422
 31
0.0
  0
LINE
  5
B5
330
1F
100
AcDbEntity
  8
1
 62
     4
420
    65535
100
AcDbLine
 10
220.7514599107
 20
9.1308686951
 30
0.0
 11
225.5870727485
 21
13.5871934488
 31
0.0
  0
LINE
  5
B6
330
1F
100
AcDbEntity
  8
1
 62
     4
420
    65535
100
AcDbLine
 10
214.7981114047
 20
6.3403927311
 30
0.0
 11
220.7514599107
 21
9.1308686951
 31
0.0
  0
ELLIPSE
  5
B7
330
1F
100
AcDbEntity
  8
1
 62
     4
420
    65535
100
AcDbEllipse
 10
214.8286128131
 20
5.4075681622
 30
0.0
 11
2.38870125602108
 21
1.263026450362107
 31
0.0
210
0.0
220
0.0
230
1.0
 40
0.3140876584
 41
1.418821255036019
 42
2.528986367041516
  0
LINE
  5
B8
330
1F
100
AcDbEntity
  8
1
 62
     4
420
    65535
100
AcDbLine
 10
208.9572946809
 20
2.8714872842
 30
0.0
 11
212.6461878948
 21
4.8056220434
 31
0.0
  0
ELLIPSE
  5
B9
330
1F
100
AcDbEntity
  8
1
 62
     4
420
    65535
100
AcDbEllipse
 10
200.2850380307
 20
18.4602115329
 30
0.0
 11
-1.909253325734056
 21
2.545918550532729
 31
0.0
210
0.0
220
0.0
230
1.0
 40
0.2691247487
 41
4.052602768699806
 42
5.175712660335396
  0
ELLIPSE
  5
BA
330
1F
100
AcDbEntity
  8
1
 62
     4
420
    65535
100
AcDbEllipse
 10
202.0830091529
 20
18.3626255882
 30
0.0
 11
2.457586841528979
 21
-1.040507100702335
 31
0.0
210
0.0
220
0.0
230
1.0
 40
0.9282070261
 41
2.446471521889782
 42
2.827120458844109
  0
LINE
  5
BB
330
1F
100
AcDbEntity
  8
1
 62
     4
420
    65535
100
AcDbLine
 10
200.8142190837
 20
20.6227372614
 30
0.0
 11
204.5578237317
 21
20.4195509079
 31
0.0
  0
ARC
  5
BC
330
1F
100
AcDbEntity
  8
1
 62
     4
420
    65535
100
AcDbCircle
 10
222.723876789
 20
-2.3209948406
 30
0.0
 40
18.09449440722194
100
AcDbArc
 50
82.46525249080001
 51
86.3985553443
  0
ARC
  5
BD
330
1F
100
AcDbEntity
  8
1
 62
     4
420
    65535
100
AcDbCircle
 10
222.4645016516
 20
14.9154507841
 30
0.0
 40
2.724018979179525
100
AcDbArc
 50
325.3946131856
 51
14.9299867354
  0
ARC
  5
BE
330
1F
100
AcDbEntity
  8
1
 62
     4
420
    65535
100
AcDbCircle
 10
223.0386006485
 20
3.4106050359
 30
0.0
 40
18.09449440720417
100
AcDbArc
 50
82.46525249080001
 51
86.3985553443
  0
LINE
  5
BF
330
1F
100
AcDbEntity
  8
1
 62
     4
420
    65535
100
AcDbLine
 10
225.4112853472
 20
21.3488628993
 30
0.0
 11
225.0965614877
 21
15.6172630228
 31
0.0
  0
LINE
  5
C0
330
1F
100
AcDbEntity
  8
1
 62
     4
420
    65535
100
AcDbLine
 10
212.7522270983
 20
25.8935087985
 30
0.0
 11
206.7988785923
 21
23.1030328345
 31
0.0
  0
LINE
  5
C1
330
1F
100
AcDbEntity
  8
1
 62
     4
420
    65535
100
AcDbLine
 10
219.0268328105
 20
27.3343794168
 30
0.0
 11
212.7522270983
 21
25.8935087985
 31
0.0
  0
LINE
  5
C2
330
1F
100
AcDbEntity
  8
1
 62
     4
420
    65535
100
AcDbLine
 10
218.2737959442
 20
26.8485531312
 30
0.0
 11
219.0268328105
 21
27.3343794168
 31
0.0
  0
LINE
  5
C3
330
1F
100
AcDbEntity
  8
1
 62
     4
420
    65535
100
AcDbLine
 10
204.4047881157
 20
22.3057223194
 30
0.0
 11
200.8142190837
 21
20.6227372614
 31
0.0
  0
ELLIPSE
  5
C4
330
1F
100
AcDbEntity
  8
1
 62
     4
420
    65535
100
AcDbEllipse
 10
206.2069821075
 20
23.474462327
 30
0.0
 11
2.481905027427217
 21
1.068019241112424
 31
0.0
210
0.0
220
0.0
230
1.0
 40
0.2151970476
 41
3.811855710808403
 42
4.859807420567128
  0
LINE
  5
C5
330
1F
100
AcDbEntity
  8
1
 62
     4
420
    65535
100
AcDbLine
 10
236.91639547
 20
24.9484737764
 30
0.0
 11
238.0532068027
 21
26.0563477236
 31
0.0
  0
LINE
  5
C6
330
1F
100
AcDbEntity
  8
1
 62
     4
420
    65535
100
AcDbLine
 10
228.1669967183
 20
17.0415808468
 30
0.0
 11
236.91639547
 21
24.9484737764
 31
0.0
  0
ELLIPSE
  5
C7
330
1F
100
AcDbEntity
  8
1
 62
     4
420
    65535
100
AcDbEllipse
 10
224.9143554793
 20
24.2427795274
 30
0.0
 11
-0.04687407713689141
 21
8.534759698389522
 31
0.0
210
0.0
220
0.0
230
1.0
 40
0.7056772293
 41
3.311177027982022
 42
3.704294184188077
  0
LINE
  5
C8
330
1F
100
AcDbEntity
  8
1
 62
     4
420
    65535
100
AcDbLine
 10
225.0965614877
 20
15.6172630228
 30
0.0
 11
225.9770389322
 21
15.8360336295
 31
0.0
  0
LINE
  5
C9
330
1F
100
AcDbEntity
  8
1
 62
     4
420
    65535
100
AcDbLine
 10
238.060947899
 20
26.8439097133
 30
0.0
 11
225.4112853472
 21
21.3488628993
 31
0.0
  0
ELLIPSE
  5
CA
330
1F
100
AcDbEntity
  8
1
 62
     4
420
    65535
100
AcDbEllipse
 10
237.3028468902
 20
26.5145886333
 30
0.0
 11
-0.3453785199429262
 21
0.844414590595033
 31
0.0
210
0.0
220
0.0
230
1.0
 40
0.9059419807
 41
3.823668156587397
 42
4.731915974860688
  0
ARC
  5
CB
330
1F
100
AcDbEntity
  8
1
 62
     4
420
    65535
100
AcDbCircle
 10
223.3449790962
 20
15.1342213908
 30
0.0
 40
2.724018979179814
100
AcDbArc
 50
325.3946131856
 51
14.9299867354
  0
ARC
  5
CC
330
1F
100
AcDbEntity
  8
1
 62
     4
420
    65535
100
AcDbCircle
 10
154.1665335353
 20
72.0991518089
 30
0.0
 40
80.62413568381517
100
AcDbArc
 50
324.1360459402
 51
325.0007884307
  0
ARC
  5
CD
330
1F
100
AcDbEntity
  8
1
 62
     4
420
    65535
100
AcDbCircle
 10
218.2981243864
 20
24.5101405448
 30
0.0
 40
2.3385391374972
100
AcDbArc
 50
35.1342466816
 51
90.59607392499998
  0
LINE
  5
CE
330
1F
100
AcDbEntity
  8
1
 62
     4
420
    65535
100
AcDbLine
 10
220.2105954452
 20
25.8559561884
 30
0.0
 11
224.8806442495
 21
22.4608377543
 31
0.0
  0
ARC
  5
CF
330
1F
100
AcDbEntity
  8
1
 62
     4
420
    65535
100
AcDbCircle
 10
158.8365823377
 20
68.7040333761
 30
0.0
 40
80.62413568599513
100
AcDbArc
 50
324.1360459402
 51
325.0007884307
  0
ARC
  5
D0
330
1F
100
AcDbEntity
  8
1
 62
     4
420
    65535
100
AcDbCircle
 10
221.3658723605
 20
20.1009674494
 30
0.0
 40
4.233510279546598
100
AcDbArc
 50
17.1435141575
 51
33.8780008833
  0
ARC
  5
D1
330
1F
100
AcDbEntity
  8
1
 62
     4
420
    65535
100
AcDbCircle
 10
219.0511612526
 20
24.9959668303
 30
0.0
 40
2.338539137496962
100
AcDbArc
 50
35.1342466816
 51
90.59607392499998
  0
LINE
  5
D2
330
1F
100
AcDbEntity
  8
1
 62
     4
420
    65535
100
AcDbLine
 10
220.9636323115
 20
26.3417824739
 30
0.0
 11
220.2105954452
 21
25.8559561884
 31
0.0
  0
ELLIPSE
  5
D3
330
1F
100
AcDbEntity
  8
1
 62
     4
420
    65535
100
AcDbEllipse
 10
226.8045194319
 20
20.2818824244
 30
0.0
 11
6.943312455360598
 21
-5.021863166143616
 31
0.0
210
0.0
220
0.0
230
1.0
 40
0.6786543379
 41
2.48987429296216
 42
2.882991449168209
  0
LINE
  5
D4
330
1F
100
AcDbEntity
  8
1
 62
     4
420
    65535
100
AcDbLine
 10
235.2972978892
 20
28.3413429022
 30
0.0
 11
223.3514900603
 21
27.1326241901
 31
0.0
  0
LINE
  5
D5
330
1F
100
AcDbEntity
  8
1
 62
     4
420
    65535
100
AcDbLine
 10
236.9121074526
 20
28.4475567529
 30
0.0
 11
235.2972978892
 21
28.3413429022
 31
0.0
  0
ELLIPSE
  5
D6
330
1F
100
AcDbEntity
  8
1
 62
     4
420
    65535
100
AcDbEllipse
 10
236.7722057925
 20
27.6265634883
 30
0.0
 11
0.6821591287668128
 21
-0.5877864102363263
 31
0.0
210
0.0
220
0.0
230
1.0
 40
0.9015143888999999
 41
1.160299931572562
 42
2.068547749845818
  0
LINE
  5
D7
330
1F
100
AcDbEntity
  8
1
 62
     4
420
    65535
100
AcDbLine
 10
224.8806442495
 20
22.4608377543
 30
0.0
 11
237.5303068012
 21
27.9558845682
 31
0.0
  0
ARC
  5
D8
330
1F
100
AcDbEntity
  8
1
 62
     4
420
    65535
100
AcDbCircle
 10
234.0155349122
 20
25.5960142634
 30
0.0
 40
4.233510279544584
100
AcDbArc
 50
17.1435141575
 51
33.8780008833
  0
ELLIPSE
  5
D9
330
1F
100
AcDbEntity
  8
1
 62
     4
420
    65535
100
AcDbEllipse
 10
223.418383691
 20
24.1033769389
 30
0.0
 11
-1.932479938645656
 21
10.56454229568643
 31
0.0
210
0.0
220
0.0
230
1.0
 40
0.7307629913
 41
3.172311920084895
 42
3.565429076290955
  0
ARC
  5
DA
330
1F
100
AcDbEntity
  8
1
 62
     4
420
    65535
100
AcDbCircle
 10
226.8980820873
 20
15.9191306363
 30
0.0
 40
1.694118890651069
100
AcDbArc
 50
329.3068131017
 51
41.4951715443
  0
SPLINE
  5
DB
330
1F
100
AcDbEntity
  8
1
 62
     4
420
    65535
100
AcDbSpline
210
0.0
220
0.0
230
1.0
 70
     8
 71
     3
 72
     8
 73
     4
 74
     0
 42
0.000000001
 43
0.00000001
 40
0.0
 40
0.0
 40
0.0
 40
0.0
 40
1.0
 40
1.0
 40
1.0
 40
1.0
 10
203.7698770743021
 20
13.55756321440948
 30
0.0
 10
203.7716915543924
 20
13.55937769449978
 30
0.0
 10
203.7755662577308
 20
13.56215777497303
 30
0.0
 10
203.7813697514934
 20
13.56580915342836
 30
0.0
  0
SPLINE
  5
DC
330
1F
100
AcDbEntity
  8
1
 62
     4
420
    65535
100
AcDbSpline
210
0.0
220
0.0
230
1.0
 70
     8
 71
     3
 72
     9
 73
     5
 74
     0
 42
0.000000001
 43
0.00000001
 40
0.0
 40
0.0
 40
0.0
 40
0.0
 40
0.4981188745695662
 40
0.9999999999999999
 40
0.9999999999999999
 40
0.9999999999999999
 40
0.9999999999999999
 10
205.2758916731436
 20
10.40286767108865
 30
0.0
 10
205.2774280809092
 20
10.40409191288944
 30
0.0
 10
205.280512500802
 20
10.40654964308857
 30
0.0
 10
205.2851493850524
 20
10.40961195926428
 30
0.0
 10
205.2874765497386
 20
10.41114887795298
 30
0.0
  0
LINE
  5
DD
330
1F
100
AcDbEntity
  8
1
 62
     4
420
    65535
100
AcDbLine
 10
205.2754089184
 20
10.4026746071
 30
0.0
 11
204.7115861731
 21
9.8388518617
 31
0.0
  0
SPLINE
  5
DE
330
1F
100
AcDbEntity
  8
1
 62
     4
420
    65535
100
AcDbSpline
210
0.0
220
0.0
230
1.0
 70
     8
 71
     3
 72
    14
 73
    10
 74
     0
 42
0.000000001
 43
0.00000001
 40
0.0000222739271167
 40
0.0000222739271167
 40
0.0000222739271167
 40
0.0000222739271167
 40
0.0008986885743328
 40
0.0008986885743328
 40
0.0008986885743328
 40
0.0017973742547712
 40
0.0017973742547712
 40
0.0017973742547712
 40
0.0035266633076623
 40
0.0035266633076623
 40
0.0035266633076623
 40
0.0035266633076623
 10
203.2242751127485
 20
13.01196089251363
 30
0.0
 10
203.349932853049
 20
12.74822832010501
 30
0.0
 10
203.4748354417268
 20
12.48413547939317
 30
0.0
 10
203.5992593497493
 20
12.21981857006065
 30
0.0
 10
203.7268452058507
 20
11.94878465306487
 30
0.0
 10
203.8539039901407
 20
11.67750251154563
 30
0.0
 10
203.9806938218111
 20
11.40609530194314
 30
0.0
 10
204.2246683431433
 20
10.88384171759393
 30
0.0
 10
204.4677296776365
 20
10.36116192961966
 30
0.0
 10
204.7115840204008
 20
9.838852219830684
 30
0.0
  0
LINE
  5
DF
330
1F
100
AcDbEntity
  8
1
 62
     4
420
    65535
100
AcDbLine
 10
203.2242746086
 20
13.0119607487
 30
0.0
 11
203.7698770743
 21
13.5575632144
 31
0.0
  0
ELLIPSE
  5
E0
330
1F
100
AcDbEntity
  8
1
 62
     4
420
    65535
100
AcDbEllipse
 10
207.0918768362
 20
3.7363707341
 30
0.0
 11
-0.660290318019804
 21
3.623519447444106
 31
0.0
210
0.0
220
0.0
230
1.0
 40
0.2154383936
 41
4.435584392453727
 42
5.612204335104259
  0
ARC
  5
E1
330
1F
100
AcDbEntity
  8
1
 62
     4
420
    65535
100
AcDbCircle
 10
207.1103091484
 20
6.6049532004
 30
0.0
 40
0.0765988789246239
100
AcDbArc
 50
120.3615452192
 51
130.9569596659
  0
ARC
  5
E2
330
1F
100
AcDbEntity
  8
1
 62
     4
420
    65535
100
AcDbCircle
 10
208.1963440954
 20
2.9838959418
 30
0.0
 40
0.2003718324670791
100
AcDbArc
 50
210.247843488
 51
279.791868963
  0
LINE
  5
E3
330
1F
100
AcDbEntity
  8
1
 62
     4
420
    65535
100
AcDbLine
 10
207.060099203
 20
6.6628008419
 30
0.0
 11
205.2754089184
 21
10.4026746071
 31
0.0
  0
LINE
  5
E4
330
1F
100
AcDbEntity
  8
1
 62
     4
420
    65535
100
AcDbLine
 10
205.1386032104
 20
8.9278312065
 30
0.0
 11
208.0232519931
 21
2.8829603416
 31
0.0
  0
LINE
  5
E5
330
1F
100
AcDbEntity
  8
1
 62
     4
420
    65535
100
AcDbLine
 10
205.1386032104
 20
8.9278312065
 30
0.0
 11
204.7115861731
 21
9.8388518617
 31
0.0
  0
LINE
  5
E6
330
1F
100
AcDbEntity
  8
1
 62
     4
420
    65535
100
AcDbLine
 10
228.354876902
 20
15.0543834575
 30
0.0
 11
225.0276507417
 21
11.9881329537
 31
0.0
  0
ELLIPSE
  5
E7
330
1F
100
AcDbEntity
  8
1
 62
     4
420
    65535
100
AcDbEllipse
 10
218.2922428533
 20
19.3793121569
 30
0.0
 11
9.834556780299778
 21
8.916565744369814
 31
0.0
210
0.0
220
0.0
230
1.0
 40
0.7532809502
 41
4.321177449350634
 42
4.714294605556685
  0
LINE
  5
E8
330
1F
100
AcDbEntity
  8
1
 62
     4
420
    65535
100
AcDbLine
 10
203.7698770743
 20
13.5575632144
 30
0.0
 11
201.9851867897
 21
17.2974369795
 31
0.0
  0
ARC
  5
E9
330
1F
100
AcDbEntity
  8
1
 62
     4
420
    65535
100
AcDbCircle
 10
202.0353967351
 20
17.239589338
 30
0.0
 40
0.0765988789257292
100
AcDbArc
 50
120.3615452193
 51
130.9569596659
  0
LINE
  5
EA
330
1F
100
AcDbEntity
  8
1
 62
     4
420
    65535
100
AcDbLine
 10
200.0157040064
 20
19.8239340248
 30
0.0
 11
200.8954202363
 21
17.9804614193
 31
0.0
  0
ELLIPSE
  5
EB
330
1F
100
AcDbEntity
  8
1
 62
     4
420
    65535
100
AcDbEllipse
 10
200.105687961
 20
18.3761458918
 30
0.0
 11
-2.015204407229505
 21
2.314913996802527
 31
0.0
210
0.0
220
0.0
230
1.0
 40
0.3102600032
 41
3.98198094385479
 42
5.09683015508115
  0
LINE
  5
EC
330
1F
100
AcDbEntity
  8
1
 62
     4
420
    65535
100
AcDbLine
 10
203.2242746086
 20
13.0119607487
 30
0.0
 11
200.8954202363
 21
17.9804614193
 31
0.0
  0
ELLIPSE
  5
ED
330
1F
100
AcDbEntity
  8
1
 62
     4
420
    65535
100
AcDbEllipse
 10
284.7405223198
 20
69.379989748
 30
0.0
 11
47.60703468135881
 21
46.39241623382878
 31
0.0
210
0.0
220
0.0
230
1.0
 40
0.0000773947
 41
3.122389634335343
 42
3.135603144211239
  0
LINE
  5
EE
330
1F
100
AcDbEntity
  8
1
 62
     4
420
    65535
100
AcDbLine
 10
237.1343201253
 20
22.9884277865
 30
0.0
 11
228.354876902
 21
15.0543834575
 31
0.0
  0
ELLIPSE
  5
EF
330
1F
100
AcDbEntity
  8
1
 62
     4
420
    65535
100
AcDbEllipse
 10
235.4204236817
 20
24.8090711879
 30
0.0
 11
-1.711047213260912
 21
1.823171789274763
 31
0.0
210
0.0
220
0.0
230
1.0
 40
0.5104019952
 41
3.153243448596913
 42
4.334685162096671
  0
SPLINE
  5
F0
330
1F
100
AcDbEntity
  8
1
 62
     4
420
    65535
100
AcDbSpline
210
0.0
220
0.0
230
1.0
 70
     8
 71
     3
 72
     8
 73
     4
 74
     0
 42
0.000000001
 43
0.00000001
 40
0.0
 40
0.0
 40
0.0
 40
0.0
 40
1.0
 40
1.0
 40
1.0
 40
1.0
 10
200.0446808272805
 20
20.05769877013367
 30
0.0
 10
199.9884400581783
 20
19.99580155509205
 30
0.0
 10
199.9793916075534
 20
19.90002778123757
 30
0.0
 10
200.0157040064175
 20
19.82393402478333
 30
0.0
  0
ELLIPSE
  5
F1
330
1F
100
AcDbEntity
  8
1
 62
     4
420
    65535
100
AcDbEllipse
 10
219.1875990338
 20
17.5030655506
 30
0.0
 11
13.22864050390575
 21
1.65672785966532
 31
0.0
210
0.0
220
0.0
230
1.0
 40
0.7470676467
 41
1.705806230729056
 42
1.983135098353471
  0
ELLIPSE
  5
F2
330
1F
100
AcDbEntity
  8
1
 62
     4
420
    65535
100
AcDbEllipse
 10
234.3319671987
 20
27.0899654588
 30
0.0
 11
-0.2079349280596716
 21
2.491635199266195
 31
0.0
210
0.0
220
0.0
230
1.0
 40
0.4820799393999999
 41
5.197887466578017
 42
6.291660958460492
  0
LINE
  5
F3
330
1F
100
AcDbEntity
  8
1
 62
     4
420
    65535
100
AcDbLine
 10
236.8265325103
 20
22.6806401715
 30
0.0
 11
237.1343201253
 21
22.9884277865
 31
0.0
  0
SPLINE
  5
F4
330
1F
100
AcDbEntity
  8
1
 62
     4
420
    65535
100
AcDbSpline
210
0.0
220
0.0
230
1.0
 70
     8
 71
     3
 72
    10
 73
     6
 74
     0
 42
0.000000001
 43
0.00000001
 40
0.0
 40
0.0
 40
0.0
 40
0.0
 40
0.5
 40
0.5
 40
1.0
 40
1.0
 40
1.0
 40
1.0
 10
236.16669892295
 20
22.08457643047327
 30
0.0
 10
236.2454974223055
 20
22.15501292840414
 30
0.0
 10
236.351089057869
 20
22.25020731124506
 30
0.0
 10
236.5797334154735
 20
22.45688469961388
 30
0.0
 10
236.7012637265594
 20
22.56700405296326
 30
0.0
 10
236.8265325103016
 20
22.68064017152526
 30
0.0
  0
SPLINE
  5
F5
330
1F
100
AcDbEntity
  8
1
 62
     4
420
    65535
100
AcDbSpline
210
0.0
220
0.0
230
1.0
 70
     8
 71
     3
 72
    16
 73
    12
 74
     0
 42
0.000000001
 43
0.00000001
 40
0.0
 40
0.0
 40
0.0
 40
0.0
 40
0.2500000000000011
 40
0.2500000000000011
 40
0.375000000000004
 40
0.375000000000004
 40
0.5000000000000069
 40
0.5000000000000069
 40
0.7500000000000034
 40
0.7500000000000034
 40
1.0
 40
1.0
 40
1.0
 40
1.0
 10
236.541353347534
 20
22.440880523361
 30
0.0
 10
236.4305858566678
 20
22.33932964328233
 30
0.0
 10
236.3287934915572
 20
22.24576962162774
 30
0.0
 10
236.1976872550422
 20
22.12471428815697
 30
0.0
 10
236.1589493245936
 20
22.08883718946424
 30
0.0
 10
236.09263966702
 20
22.02714819824543
 30
0.0
 10
236.0651814259861
 20
22.00143503016211
 30
0.0
 10
236.0063635749523
 20
21.94569993662016
 30
0.0
 10
235.9975444303855
 20
21.93609656286957
 30
0.0
 10
236.0427563414046
 20
21.97428995905009
 30
0.0
 10
236.0950791148445
 20
22.02055683644583
 30
0.0
 10
236.1666988976074
 20
22.08457641445576
 30
0.0
  0
SPLINE
  5
F6
330
1F
100
AcDbEntity
  8
1
 62
     4
420
    65535
100
AcDbSpline
210
0.0
220
0.0
230
1.0
 70
     8
 71
     3
 72
    20
 73
    16
 74
     0
 42
0.000000001
 43
0.00000001
 40
0.0
 40
0.0
 40
0.0
 40
0.0
 40
0.2500000000000275
 40
0.2500000000000275
 40
0.5000000000000551
 40
0.5000000000000551
 40
0.6250000000000493
 40
0.6250000000000493
 40
0.7500000000000435
 40
0.7500000000000435
 40
0.812500000000025
 40
0.812500000000025
 40
0.8750000000000064
 40
0.8750000000000064
 40
1.0
 40
1.0
 40
1.0
 40
1.0
 10
236.029246889245
 20
21.9807960903518
 30
0.0
 10
236.111434857252
 20
22.05553824357905
 30
0.0
 10
236.1907641309868
 20
22.12756324395137
 30
0.0
 10
236.3449733022007
 20
22.26738416867622
 30
0.0
 10
236.4207398514544
 20
22.335985264571
 30
0.0
 10
236.5263735286502
 20
22.43142380373133
 30
0.0
 10
236.5602353405374
 20
22.46198178058336
 30
0.0
 10
236.6226333416425
 20
22.51814524200462
 30
0.0
 10
236.6522139363826
 20
22.54470555301212
 30
0.0
 10
236.6754795880084
 20
22.56517237788585
 30
0.0
 10
236.6787106509894
 20
22.56784516052884
 30
0.0
 10
236.67024086282
 20
22.55961082954245
 30
0.0
 10
236.6590375804819
 20
22.54916974370884
 30
0.0
 10
236.616852352021
 20
22.510147320171
 30
0.0
 10
236.5795124518128
 20
22.47586452390974
 30
0.0
 10
236.5413533527228
 20
22.44088052214992
 30
0.0
  0
LINE
  5
F7
330
1F
100
AcDbEntity
  8
1
 62
     4
420
    65535
100
AcDbLine
 10
232.7301528043
 20
18.9805832661
 30
0.0
 11
236.0292361005
 21
21.980786279
 31
0.0
  0
ELLIPSE
  5
F8
330
1F
100
AcDbEntity
  8
1
 62
     4
420
    65535
100
AcDbEllipse
 10
230.817912901
 20
17.2283968282
 30
0.0
 11
2.085089426660488
 21
1.899765726753699
 31
0.0
210
0.0
220
0.0
230
1.0
 40
0.0066034431
 41
0.404072135110754
 42
1.429751015541496
  0
LINE
  5
F9
330
1F
100
AcDbEntity
  8
1
 62
     4
420
    65535
100
AcDbLine
 10
225.0276507417
 20
11.9881329537
 30
0.0
 11
231.0986104392
 21
17.5090943664
 31
0.0
  0
LWPOLYLINE
  5
FA
330
1F
100
AcDbEntity
  8
1
 62
     4
420
    65535
100
AcDbPolyline
 90
        3
 70
   128
 43
0.0
 10
214.7945138374
 20
6.3280541259
 10
214.7962955943
 20
6.3296452219
 10
214.7981114047
 20
6.3403927311
  0
LWPOLYLINE
  5
FB
330
1F
100
AcDbEntity
  8
1
 62
     4
420
    65535
100
AcDbPolyline
 90
        3
 70
   128
 43
0.0
 10
220.7478623434
 20
9.1185300899
 10
220.7496441003
 20
9.1201211859
 10
220.7514599107
 20
9.1308686951
  0
SPLINE
  5
FC
330
1F
100
AcDbEntity
  8
1
 62
     4
420
    65535
100
AcDbSpline
210
0.0
220
0.0
230
1.0
 70
     8
 71
     3
 72
     8
 73
     4
 74
     0
 42
0.000000001
 43
0.00000001
 40
0.0
 40
0.0
 40
0.0
 40
0.0
 40
1.0
 40
1.0
 40
1.0
 40
1.0
 10
208.0590225821412
 20
2.752007178159686
 30
0.0
 10
208.039922893848
 20
2.792880160007205
 30
0.0
 10
208.0277152171306
 20
2.836759186259844
 30
0.0
 10
208.0232519930694
 20
2.882960341643497
 30
0.0
  0
SPLINE
  5
FD
330
1F
100
AcDbEntity
  8
1
 62
     4
420
    65535
100
AcDbSpline
210
0.0
220
0.0
230
1.0
 70
     8
 71
     3
 72
    10
 73
     6
 74
     0
 42
0.000000001
 43
0.00000001
 40
0.0
 40
0.0
 40
0.0
 40
0.0
 40
0.5
 40
0.5
 40
1.0
 40
1.0
 40
1.0
 40
1.0
 10
208.2949773965484
 20
2.627902122442045
 30
0.0
 10
208.2477283255859
 20
2.617466624907672
 30
0.0
 10
208.1979712740683
 20
2.626011069172338
 30
0.0
 10
208.1136924939475
 20
2.671927521311924
 30
0.0
 10
208.0798118789197
 20
2.708424482041567
 30
0.0
 10
208.0590225821377
 20
2.752007178157771
 30
0.0
  0
ELLIPSE
  5
FE
330
1F
100
AcDbEntity
  8
1
 62
     4
420
    65535
100
AcDbEllipse
 10
210.3860503251
 20
3.6803840918
 30
0.0
 11
21.73844591673867
 21
-45.55358668186961
 31
0.0
210
0.0
220
0.0
230
1.0
 40
0.0495298232
 41
4.573340697246092
 42
4.709133056196275
  0
LINE
  5
FF
330
1F
100
AcDbEntity
  8
1
 62
     4
420
    65535
100
AcDbLine
 10
206.7917132161
 20
23.1046084962
 30
0.0
 11
206.7988785923
 21
23.1030328345
 31
0.0
  0
LINE
  5
100
330
1F
100
AcDbEntity
  8
1
 62
     4
420
    65535
100
AcDbLine
 10
212.7450617221
 20
25.8950844601
 30
0.0
 11
212.7522270983
 21
25.8935087985
 31
0.0
  0
LINE
  5
101
330
1F
100
AcDbEntity
  8
1
 62
     4
420
    65535
100
AcDbLine
 10
199.9527086782
 20
-0.0019940657
 30
0.0
 11
218.8778757213
 21
-0.0019940657
 31
0.0
  0
LINE
  5
102
330
1F
100
AcDbEntity
  8
1
 62
     4
420
    65535
100
AcDbLine
 10
199.9527086782
 20
18.9231729774
 30
0.0
 11
199.9527086782
 21
-0.0019940657
 31
0.0
  0
LINE
  5
103
330
1F
100
AcDbEntity
  8
1
 62
     4
420
    65535
100
AcDbLine
 10
199.9527086782
 20
18.9231729774
 30
0.0
 11
200.8954202363
 21
17.9804614193
 31
0.0
  0
LINE
  5
104
330
1F
100
AcDbEntity
  8
1
 62
     4
420
    65535
100
AcDbLine
 10
213.380739387
 20
5.4951422685
 30
0.0
 11
218.8778757213
 21
-0.0019940657
 31
0.0
  0
LINE
  5
105
330
1F
100
AcDbEntity
  8
1
 62
     4
420
    65535
100
AcDbLine
 10
193.0027086782
 20
-0.0019940657
 30
0.0
 11
199.9527086782
 21
-0.0019940657
 31
0.0
  0
LINE
  5
106
330
1F
100
AcDbEntity
  8
1
 62
     4
420
    65535
100
AcDbLine
 10
193.0027086782
 20
-0.0019940657
 30
0.0
 11
193.0027086782
 21
39.9980059343
 31
0.0
  0
LINE
  5
107
330
1F
100
AcDbEntity
  8
1
 62
     4
420
    65535
100
AcDbLine
 10
193.0027086782
 20
39.9980059343
 30
0.0
 11
197.9483238151
 21
39.9980059343
 31
0.0
  0
LINE
  5
108
330
1F
100
AcDbEntity
  8
1
 62
     4
420
    65535
100
AcDbLine
 10
197.9483238151
 20
39.9980059343
 30
0.0
 11
199.9527086782
 21
18.9231729774
 31
0.0
  0
LINE
  5
109
330
1F
100
AcDbEntity
  8
1
 62
     4
420
    65535
100
AcDbLine
 10
197.9483238151
 20
39.9980059343
 30
0.0
 11
225.826066895
 21
39.9980059343
 31
0.0
  0
ARC
  5
10A
330
1F
100
AcDbEntity
  8
1
 62
     4
420
    65535
100
AcDbCircle
 10
227.7586173442
 20
38.6474507077
 30
0.0
 40
2.357700290326616
100
AcDbArc
 50
145.0523777522
 51
165.6005126018
  0
ARC
  5
10B
330
1F
100
AcDbEntity
  8
1
 62
     4
420
    65535
100
AcDbCircle
 10
242.5732644183
 20
13.5231010734
 30
0.0
 40
2.387155681200564
100
AcDbArc
 50
255.0009518261
 51
284.3320187328999
  0
LINE
  5
10C
330
1F
100
AcDbEntity
  8
1
 62
     4
420
    65535
100
AcDbLine
 10
243.1641821087
 20
11.2102395277
 30
0.0
 11
241.7495254032
 21
5.9306688272
 31
0.0
  0
LINE
  5
10D
330
1F
100
AcDbEntity
  8
1
 62
     4
420
    65535
100
AcDbLine
 10
241.7495254032
 20
5.9306688272
 30
0.0
 11
231.4738518484
 21
-0.0019940657
 31
0.0
  0
LINE
  5
10E
330
1F
100
AcDbEntity
  8
1
 62
     4
420
    65535
100
AcDbLine
 10
231.4738518484
 20
-0.0019940657
 30
0.0
 11
218.8778757213
 21
-0.0019940657
 31
0.0
  0
SPLINE
  5
10F
330
1F
100
AcDbEntity
  8
1
 62
     4
420
    65535
100
AcDbSpline
210
0.0
220
0.0
230
1.0
 70
     8
 71
     3
 72
     8
 73
     4
 74
     0
 42
0.000000001
 43
0.00000001
 40
0.0
 40
0.0
 40
0.0
 40
0.0
 40
1.0
 40
1.0
 40
1.0
 40
1.0
 10
238.3942168718072
 20
24.21634847328604
 30
0.0
 10
238.4107393581793
 20
24.23263097274065
 30
0.0
 10
238.4284753785903
 20
24.25345300458785
 30
0.0
 10
238.4472093262999
 20
24.278729820239
 30
0.0
  0
LINE
  5
110
330
1F
100
AcDbEntity
  8
1
 62
     4
420
    65535
100
AcDbLine
 10
238.3942168718
 20
24.2163484733
 30
0.0
 11
237.1421961747
 21
22.9961978013
 31
0.0
  0
SPLINE
  5
111
330
1F
100
AcDbEntity
  8
1
 62
     4
420
    65535
100
AcDbSpline
210
0.0
220
0.0
230
1.0
 70
     8
 71
     3
 72
    16
 73
    12
 74
     0
 42
0.000000001
 43
0.00000001
 40
0.0
 40
0.0
 40
0.0
 40
0.0
 40
0.25
 40
0.25
 40
0.5
 40
0.5
 40
0.75
 40
0.75
 40
0.875
 40
0.875
 40
1.0
 40
1.0
 40
1.0
 40
1.0
 10
238.4472093262999
 20
24.278729820239
 30
0.0
 10
238.515126131294
 20
24.37036670244122
 30
0.0
 10
238.5575080922189
 20
24.48080042833189
 30
0.0
 10
238.5922813441109
 20
24.73802666128752
 30
0.0
 10
238.5836429726634
 20
24.88375695314402
 30
0.0
 10
238.5155245747985
 20
25.19493865367281
 30
0.0
 10
238.4549713789784
 20
25.36385862144696
 30
0.0
 10
238.3302610382732
 20
25.6198968272962
 30
0.0
 10
238.2829376857938
 20
25.70624130066168
 30
0.0
 10
238.1764423181647
 20
25.88088473438743
 30
0.0
 10
238.1164495319867
 20
25.97016036860432
 30
0.0
 10
238.0532068027422
 20
26.05634772359637
 30
0.0
  0
SPLINE
  5
112
330
1F
100
AcDbEntity
  8
1
 62
     4
420
    65535
100
AcDbSpline
210
0.0
220
0.0
230
1.0
 70
     8
 71
     3
 72
    16
 73
    12
 74
     0
 42
0.000000001
 43
0.00000001
 40
0.0
 40
0.0
 40
0.0
 40
0.0
 40
0.2499999999999981
 40
0.2499999999999981
 40
0.4999999999999962
 40
0.4999999999999962
 40
0.7499999999999943
 40
0.7499999999999943
 40
0.8749999999999971
 40
0.8749999999999971
 40
1.0
 40
1.0
 40
1.0
 40
1.0
 10
235.862511521471
 20
29.69504412116373
 30
0.0
 10
235.9677231179167
 20
29.7085286128189
 30
0.0
 10
236.0716882601545
 20
29.68991287497015
 30
0.0
 10
236.2768256337479
 20
29.59013581453833
 30
0.0
 10
236.3766377709879
 20
29.50860470660992
 30
0.0
 10
236.5609580349875
 20
29.29079337290123
 30
0.0
 10
236.6473384137389
 20
29.15180948446797
 30
0.0
 10
236.759115962475
 20
28.91227999370549
 30
0.0
 10
236.7937473046985
 20
28.82688586609483
 30
0.0
 10
236.8575132959167
 20
28.64474134917704
 30
0.0
 10
236.886871665769
 20
28.54677886862996
 30
0.0
 10
236.912107452612
 20
28.44755675288366
 30
0.0
  0
SPLINE
  5
113
330
1F
100
AcDbEntity
  8
1
 62
     4
420
    65535
100
AcDbSpline
210
0.0
220
0.0
230
1.0
 70
     8
 71
     3
 72
    18
 73
    14
 74
     0
 42
0.000000001
 43
0.00000001
 40
0.0
 40
0.0
 40
0.0
 40
0.0
 40
0.2500000000000084
 40
0.2500000000000084
 40
0.375000000000009
 40
0.375000000000009
 40
0.5000000000000095
 40
0.5000000000000095
 40
0.7500000000000048
 40
0.7500000000000048
 40
0.8750000000000024
 40
0.8750000000000024
 40
1.0
 40
1.0
 40
1.0
 40
1.0
 10
238.6266032129982
 20
24.50453703965416
 30
0.0
 10
238.6880278085962
 20
24.58868782198947
 30
0.0
 10
238.722084466428
 20
24.68953733307495
 30
0.0
 10
238.7324843897843
 20
24.86407593904723
 30
0.0
 10
238.7289225030737
 20
24.92650691332436
 30
0.0
 10
238.7078900656609
 20
25.05530442828132
 30
0.0
 10
238.690505440806
 20
25.12206512713838
 30
0.0
 10
238.6176150283873
 20
25.32885593536339
 30
0.0
 10
238.5401646336121
 20
25.47677329361461
 30
0.0
 10
238.3868196884057
 20
25.69588504241759
 30
0.0
 10
238.3293483129693
 20
25.76895042063545
 30
0.0
 10
238.2008996013681
 20
25.91436587724748
 30
0.0
 10
238.1288814727458
 20
25.98740843410224
 30
0.0
 10
238.0532068027422
 20
26.05634772359637
 30
0.0
  0
ARC
  5
114
330
1F
100
AcDbEntity
  8
1
 62
     4
420
    65535
100
AcDbCircle
 10
237.6194868372
 20
25.1205520934
 30
0.0
 40
1.180575258435782
100
AcDbArc
 50
324.0146075968
 51
328.5474490569001
  0
ARC
  5
115
330
1F
100
AcDbEntity
  8
1
 62
     4
420
    65535
100
AcDbCircle
 10
235.4026528959
 20
31.0965218947
 30
0.0
 40
5.015101463470391
100
AcDbArc
 50
302.0093784743
 51
306.7133377843
  0
SPLINE
  5
116
330
1F
100
AcDbEntity
  8
1
 62
     4
420
    65535
100
AcDbSpline
210
0.0
220
0.0
230
1.0
 70
     8
 71
     3
 72
    18
 73
    14
 74
     0
 42
0.000000001
 43
0.00000001
 40
0.0
 40
0.0
 40
0.0
 40
0.0
 40
0.2499999999999981
 40
0.2499999999999981
 40
0.3749999999999972
 40
0.3749999999999972
 40
0.4999999999999962
 40
0.4999999999999962
 40
0.6249999999999953
 40
0.6249999999999953
 40
0.7499999999999943
 40
0.7499999999999943
 40
1.0
 40
1.0
 40
1.0
 40
1.0
 10
238.40073960219
 20
27.07623349830601
 30
0.0
 10
238.531326583261
 20
26.88393919189183
 30
0.0
 10
238.6310614518046
 20
26.66869506679621
 30
0.0
 10
238.7579714370656
 20
26.35137901560936
 30
0.0
 10
238.7970354854327
 20
26.24566309426299
 30
0.0
 10
238.8742055861755
 20
26.05817988974442
 30
0.0
 10
238.9131141126792
 20
25.97650590963071
 30
0.0
 10
238.9902775736973
 20
25.87981732549315
 30
0.0
 10
239.027371354501
 20
25.86759877059251
 30
0.0
 10
239.0871244170318
 20
25.90783904327864
 30
0.0
 10
239.1099473334145
 20
25.95785614390417
 30
0.0
 10
239.1539863838356
 20
26.15853003941591
 30
0.0
 10
239.1514209868827
 20
26.35581900322144
 30
0.0
 10
239.1207003876012
 20
26.57274646010471
 30
0.0
  0
ARC
  5
117
330
1F
100
AcDbEntity
  8
1
 62
     4
420
    65535
100
AcDbCircle
 10
238.5094338065
 20
24.3894716242
 30
0.0
 40
3.698376803421183
100
AcDbArc
 50
98.8710522747
 51
105.3518050426
  0
SPLINE
  5
118
330
1F
100
AcDbEntity
  8
1
 62
     4
420
    65535
100
AcDbSpline
210
0.0
220
0.0
230
1.0
 70
     8
 71
     3
 72
    12
 73
     8
 74
     0
 42
0.000000001
 43
0.00000001
 40
0.0
 40
0.0
 40
0.0
 40
0.0
 40
0.5000000000000038
 40
0.5000000000000038
 40
0.7500000000000019
 40
0.7500000000000019
 40
1.0
 40
1.0
 40
1.0
 40
1.0
 10
237.9391026204115
 20
28.0436080910229
 30
0.0
 10
237.984943809114
 20
27.88790288986856
 30
0.0
 10
238.0510859397003
 20
27.71622898874013
 30
0.0
 10
238.1707190466847
 20
27.46541590566405
 30
0.0
 10
238.2146444154636
 20
27.38153408468729
 30
0.0
 10
238.3051284315493
 20
27.22326098093282
 30
0.0
 10
238.3524556977199
 20
27.14733338778138
 30
0.0
 10
238.4007396021903
 20
27.07623349830562
 30
0.0
  0
SPLINE
  5
119
330
1F
100
AcDbEntity
  8
1
 62
     4
420
    65535
100
AcDbSpline
210
0.0
220
0.0
230
1.0
 70
     8
 71
     3
 72
    22
 73
    18
 74
     0
 42
0.000000001
 43
0.00000001
 40
0.0
 40
0.0
 40
0.0
 40
0.0
 40
0.1249999999999939
 40
0.1249999999999939
 40
0.2499999999999877
 40
0.2499999999999877
 40
0.3749999999999816
 40
0.3749999999999816
 40
0.4999999999999755
 40
0.4999999999999755
 40
0.5624999999999765
 40
0.5624999999999765
 40
0.6249999999999776
 40
0.6249999999999776
 40
0.7499999999999841
 40
0.7499999999999841
 40
1.0
 40
1.0
 40
1.0
 40
1.0
 10
238.0862329320381
 20
28.7405050518239
 30
0.0
 10
238.0089556416699
 20
28.82604768991751
 30
0.0
 10
237.9321848189967
 20
28.90251806275008
 30
0.0
 10
237.7816374624405
 20
29.03540090398781
 30
0.0
 10
237.7078004357548
 20
29.09157561892755
 30
0.0
 10
237.5766274683024
 20
29.17133805902172
 30
0.0
 10
237.5183399188836
 20
29.19554039056351
 30
0.0
 10
237.4385361295389
 20
29.1957843693413
 30
0.0
 10
237.4197974391786
 20
29.17004229606287
 30
0.0
 10
237.4327395935293
 20
29.09474442832347
 30
0.0
 10
237.4436940404679
 20
29.06336904013359
 30
0.0
 10
237.4747442461157
 20
28.9937939229985
 30
0.0
 10
237.4947822294568
 20
28.95534792815734
 30
0.0
 10
237.5632998315873
 20
28.8314655693712
 30
0.0
 10
237.6173046910418
 20
28.74185737055163
 30
0.0
 10
237.776100480339
 20
28.4602441432648
 30
0.0
 10
237.8769477013598
 20
28.25472487153285
 30
0.0
 10
237.9391026204106
 20
28.04360809102615
 30
0.0
  0
LINE
  5
11A
330
1F
100
AcDbEntity
  8
1
 62
     4
420
    65535
100
AcDbLine
 10
239.0620187382
 20
26.7470331009
 30
0.0
 11
239.1207003876
 21
26.5727464601
 31
0.0
  0
LINE
  5
11B
330
1F
100
AcDbEntity
  8
1
 62
     4
420
    65535
100
AcDbLine
 10
238.160516089
 20
23.9826476905
 30
0.0
 11
238.3942168718
 21
24.2163484733
 31
0.0
  0
SPLINE
  5
11C
330
1F
100
AcDbEntity
  8
1
 62
     4
420
    65535
100
AcDbSpline
210
0.0
220
0.0
230
1.0
 70
     8
 71
     3
 72
    12
 73
     8
 74
     0
 42
0.000000001
 43
0.00000001
 40
0.0
 40
0.0
 40
0.0
 40
0.0
 40
0.4999999999999989
 40
0.4999999999999989
 40
0.7499999999999994
 40
0.7499999999999994
 40
1.0
 40
1.0
 40
1.0
 40
1.0
 10
238.160516089038
 20
23.98264769051685
 30
0.0
 10
237.9347592584091
 20
23.76216494816505
 30
0.0
 10
237.7074646936606
 20
23.5402588477347
 30
0.0
 10
237.3732211131914
 20
23.2140213301882
 30
0.0
 10
237.2625310949712
 20
23.10599801860615
 30
0.0
 10
237.042849769624
 20
22.89164546180014
 30
0.0
 10
236.9332580123765
 20
22.7847302454766
 30
0.0
 10
236.8265325103011
 20
22.68064017152538
 30
0.0
  0
LINE
  5
11D
330
1F
100
AcDbEntity
  8
1
 62
     4
420
    65535
100
AcDbLine
 10
1.0027086782
 20
39.9980059343
 30
0.0
 11
1.0027086782
 21
-0.0019940657
 31
0.0
  0
LINE
  5
11E
330
1F
100
AcDbEntity
  8
1
 62
     4
420
    65535
100
AcDbLine
 10
193.0027086782
 20
39.9980059343
 30
0.0
 11
1.0027086782
 21
39.9980059343
 31
0.0
  0
LINE
  5
11F
330
1F
100
AcDbEntity
  8
1
 62
     4
420
    65535
100
AcDbLine
 10
193.0027086782
 20
-0.0019940657
 30
0.0
 11
1.0027086782
 21
-0.0019940657
 31
0.0
  0
LINE
  5
120
330
1F
100
AcDbEntity
  8
1
 62
     4
420
    65535
100
AcDbLine
 10
0.0027086782
 20
0.9980059343
 30
0.0
 11
0.0027086782
 21
38.9980059343
 31
0.0
  0
LINE
  5
121
330
1F
100
AcDbEntity
  8
1
 62
     4
420
    65535
100
AcDbLine
 10
0.0027086782
 20
0.9980059343
 30
0.0
 11
1.0027086782
 21
-0.0019940657
 31
0.0
  0
LINE
  5
122
330
1F
100
AcDbEntity
  8
1
 62
     4
420
    65535
100
AcDbLine
 10
0.0027086782
 20
38.9980059343
 30
0.0
 11
1.0027086782
 21
39.9980059343
 31
0.0
  0
ELLIPSE
  5
123
330
1F
100
AcDbEntity
  8
1
 62
     4
420
    65535
100
AcDbEllipse
 10
225.8391887414
 20
19.0305049809
 30
0.0
 11
7.669466271395662
 21
-7.599036128375704
 31
0.0
210
0.0
220
0.0
230
1.0
 40
0.709318998
 41
2.718633891085799
 42
2.996935523751497
  0
LWPOLYLINE
  5
124
330
1F
100
AcDbEntity
  8
1
 62
     4
420
    65535
100
AcDbPolyline
 90
        9
 70
   128
 43
0.0
 10
222.133778774
 20
28.3684746071
 10
222.1937077223
 20
28.3715901728
 10
222.3784696123
 20
28.3442468528
 10
222.5634026656
 20
28.2620805811
 10
222.74439053
 20
28.1269202644
 10
222.9174046678
 20
27.9417743832
 10
223.0785940252
 20
27.7107640269
 10
223.2243707517
 20
27.4390311641
 10
223.3514900603
 20
27.1326241901
  0
ARC
  5
125
330
1F
100
AcDbEntity
  8
1
 62
     4
420
    65535
100
AcDbCircle
 10
237.6176506334
 20
25.1220274912
 30
0.0
 40
1.182927971936258
100
AcDbArc
 50
314.5294468936
 51
324.0090409864
  0
SPLINE
  5
126
330
1F
100
AcDbEntity
  8
1
 62
     4
420
    65535
100
AcDbSpline
210
0.0
220
0.0
230
1.0
 70
     8
 71
     3
 72
    12
 73
     8
 74
     0
 42
0.000000001
 43
0.00000001
 40
0.0
 40
0.0
 40
0.0
 40
0.0
 40
0.2146885670921361
 40
0.5574300240452787
 40
0.9006398581028783
 40
0.9922151014098164
 40
1.0
 40
1.0
 40
1.0
 40
1.0
 10
236.28006983608
 20
29.64528981263176
 30
0.0
 10
236.3502592005713
 20
29.63572938950852
 30
0.0
 10
236.5325029952271
 20
29.61090614454649
 30
0.0
 10
236.7654339542898
 20
29.26040369448759
 30
0.0
 10
236.8861783463494
 20
28.81809624048859
 30
0.0
 10
236.9093319289707
 20
28.52127938344379
 30
0.0
 10
236.9119057898007
 20
28.45291326028804
 30
0.0
 10
236.912107452612
 20
28.44755675288366
 30
0.0
  0
DIMENSION
  5
127
330
1F
100
AcDbEntity
  8
2
  6
SLD-Durchgehend
 62
     7
370
    15
100
AcDbDimension
  2
_D
 10
0.0027086781999941
 20
53.0029620284
 30
0.0
 11
125.0027086782
 21
53.0029620284
 31
0.0
 70
   160
  1
<>
 71
     2
 42
250.0
  3
SLDDIMSTYLE0
100
AcDbAlignedDimension
 13
250.0027086782
 23
34.9980059343
 33
0.0
 14
0.0027086782
 24
-0.0019940657
 34
0.0
100
AcDbRotatedDimension
  0
DIMENSION
  5
133
330
1F
100
AcDbEntity
  8
2
  6
SLD-Durchgehend
 62
     7
370
    15
100
AcDbDimension
  2
_D_1
 10
-5.997291321800001
 20
-0.0019940656999999
 30
0.0
 11
-5.9972913218
 21
19.9980059343
 31
0.0
 70
   160
  1
<>
 71
     2
 42
40.0
  3
SLDDIMSTYLE0
100
AcDbAlignedDimension
 13
1.0027086782
 23
39.9980059343
 33
0.0
 14
1.0027086782
 24
-0.0019940657
 34
0.0
 50
90.0
100
AcDbRotatedDimension
  0
DIMENSION
  5
13D
330
1F
100
AcDbEntity
  8
2
  6
SLD-Durchgehend
 62
     7
370
    15
100
AcDbDimension
  2
_D_2
 10
256.0212598512
 20
-0.0019940656999999
 30
0.0
 11
256.0212598512
 21
17.4980059343
 31
0.0
 70
   160
  1
<>
 71
     2
 42
35.0
  3
SLDDIMSTYLE0
100
AcDbAlignedDimension
 13
250.0027086782
 23
34.9980059343
 33
0.0
 14
250.0027086782
 24
-0.0019940657
 34
0.0
 50
90.0
100
AcDbRotatedDimension
  0
DIMENSION
  5
147
330
1F
100
AcDbEntity
  8
2
  6
SLD-Durchgehend
 62
     7
370
    15
100
AcDbDimension
  2
_D_3
 10
250.0027086782
 20
47.0029620284
 30
0.0
 11
221.5027086782
 21
47.0029620284
 31
0.0
 70
   160
  1
<>
 71
     2
 42
57.0
  3
SLDDIMSTYLE0
100
AcDbAlignedDimension
 13
193.0027086782
 23
-0.0019940657
 33
0.0
 14
250.0027086782
 24
34.9980059343
 34
0.0
100
AcDbRotatedDimension
  0
ENDSEC
  0
SECTION
  2
OBJECTS
  0
DICTIONARY
  5
C
330
0
100
AcDbDictionary
281
     1
  3
ACAD_DETAILVIEWSTYLE
350
16D
  3
ACAD_GROUP
350
D
  3
ACAD_IMAGE_VARS
350
18B
  3
ACAD_LAYOUT
350
1A
  3
ACAD_MATERIAL
350
43
  3
ACAD_MLEADERSTYLE
350
16C
  3
ACAD_MLINESTYLE
350
17
  3
ACAD_PLOTSETTINGS
350
19
  3
ACAD_PLOTSTYLENAME
350
E
  3
ACAD_SCALELIST
350
47
  3
ACAD_SECTIONVIEWSTYLE
350
16E
  3
ACAD_TABLESTYLE
350
16B
  3
ACDB_RECOMPOSE_DATA
350
19C
  3
AcDbVariableDictionary
350
169
  3
APPDATA
350
189
  0
DICTIONARY
  5
16D
102
{ACAD_REACTORS
330
C
102
}
330
C
100
AcDbDictionary
281
     1
  0
DICTIONARY
  5
D
102
{ACAD_REACTORS
330
C
102
}
330
C
100
AcDbDictionary
281
     1
  0
RASTERVARIABLES
  5
18B
102
{ACAD_REACTORS
330
C
102
}
330
C
100
AcDbRasterVariables
 90
        0
 70
     1
 71
     1
 72
     1
  0
DICTIONARY
  5
1A
102
{ACAD_REACTORS
330
C
102
}
330
C
100
AcDbDictionary
281
     1
  3
Layout1
350
1E
  3
Layout2
350
26
  3
Model
350
22
  0
DICTIONARY
  5
43
102
{ACAD_REACTORS
330
C
102
}
330
C
100
AcDbDictionary
281
     1
  3
ByBlock
350
45
  3
ByLayer
350
44
  3
Global
350
46
  0
DICTIONARY
  5
16C
102
{ACAD_REACTORS
330
C
102
}
330
C
100
AcDbDictionary
281
     1
  0
DICTIONARY
  5
17
102
{ACAD_REACTORS
330
C
102
}
330
C
100
AcDbDictionary
281
     1
  3
Standard
350
18
  0
DICTIONARY
  5
19
102
{ACAD_REACTORS
330
C
102
}
330
C
100
AcDbDictionary
281
     1
  0
ACDBDICTIONARYWDFLT
  5
E
102
{ACAD_REACTORS
330
C
102
}
330
C
100
AcDbDictionary
281
     1
  3
Normal
350
F
100
AcDbDictionaryWithDefault
340
F
  0
DICTIONARY
  5
47
102
{ACAD_REACTORS
330
C
102
}
330
C
100
AcDbDictionary
281
     1
  3
A0
350
48
  3
A1
350
49
  3
A2
350
4A
  3
A3
350
4B
  3
A4
350
4C
  3
A5
350
4D
  3
A6
350
4E
  3
A7
350
4F
  3
A8
350
50
  3
A9
350
51
  3
B0
350
52
  3
B1
350
53
  3
B2
350
54
  3
B3
350
55
  3
B4
350
56
  3
B5
350
57
  3
B6
350
58
  3
B7
350
59
  3
B8
350
5A
  3
B9
350
5B
  3
C0
350
5C
  3
C1
350
5D
  3
C2
350
5E
  3
C3
350
5F
  3
C4
350
60
  3
C5
350
61
  3
C6
350
62
  3
C7
350
63
  3
C8
350
64
  3
C9
350
65
  3
D0
350
66
  3
D1
350
67
  3
D2
350
68
  0
DICTIONARY
  5
16E
102
{ACAD_REACTORS
330
C
102
}
330
C
100
AcDbDictionary
281
     1
  0
DICTIONARY
  5
16B
102
{ACAD_REACTORS
330
C
102
}
330
C
100
AcDbDictionary
281
     1
  3
Standard
350
188
  0
XRECORD
  5
19C
102
{ACAD_REACTORS
330
C
102
}
330
C
100
AcDbXrecord
280
     1
 90
        1
330
188
  0
DICTIONARY
  5
169
102
{ACAD_REACTORS
330
C
102
}
330
C
100
AcDbDictionary
281
     1
  3
CANNOSCALE
350
16A
  3
CTABLESTYLE
350
19D
  3
MSLTSCALE
350
19E
  3
XCLIPFRAME
350
19F
  0
DICTIONARY
  5
189
102
{ACAD_REACTORS
330
C
102
}
330
C
100
AcDbDictionary
281
     1
  0
LAYOUT
  5
1E
102
{ACAD_REACTORS
330
1A
102
}
330
1A
100
AcDbPlotSettings
  1

  2
none_device
  4

  6

 40
0.0
 41
0.0
 42
0.0
 43
0.0
 44
0.0
 45
0.0
 46
0.0
 47
0.0
 48
0.0
 49
0.0
140
0.0
141
0.0
142
1.0
143
1.0
 70
   688
 72
     1
 73
     0
 74
     5
  7

 75
    16
 76
     0
 77
     2
 78
   300
147
1.0
148
0.0
149
0.0
100
AcDbLayout
  1
Layout1
 70
     1
 71
     1
 10
0.0
 20
0.0
 11
420.0
 21
297.0
 12
0.0
 22
0.0
 32
0.0
 14
1.000000000000000E+20
 24
1.000000000000000E+20
 34
1.000000000000000E+20
 15
-1.000000000000000E+20
 25
-1.000000000000000E+20
 35
-1.000000000000000E+20
146
0.0
 13
0.0
 23
0.0
 33
0.0
 16
1.0
 26
0.0
 36
0.0
 17
0.0
 27
1.0
 37
0.0
 76
     0
330
1B
  0
LAYOUT
  5
26
102
{ACAD_REACTORS
330
1A
102
}
330
1A
100
AcDbPlotSettings
  1

  2
none_device
  4

  6

 40
0.0
 41
0.0
 42
0.0
 43
0.0
 44
0.0
 45
0.0
 46
0.0
 47
0.0
 48
0.0
 49
0.0
140
0.0
141
0.0
142
1.0
143
1.0
 70
   688
 72
     1
 73
     0
 74
     5
  7

 75
    16
 76
     0
 77
     2
 78
   300
147
1.0
148
0.0
149
0.0
100
AcDbLayout
  1
Layout2
 70
     1
 71
     2
 10
0.0
 20
0.0
 11
0.0
 21
0.0
 12
0.0
 22
0.0
 32
0.0
 14
0.0
 24
0.0
 34
0.0
 15
0.0
 25
0.0
 35
0.0
146
0.0
 13
0.0
 23
0.0
 33
0.0
 16
1.0
 26
0.0
 36
0.0
 17
0.0
 27
1.0
 37
0.0
 76
     0
330
23
  0
LAYOUT
  5
22
102
{ACAD_REACTORS
330
1A
102
}
330
1A
100
AcDbPlotSettings
  1

  2
none_device
  4
Letter_(8.50_x_11.00_Inches)
  6

 40
6.35
 41
6.35
 42
6.35000508
 43
6.35000508
 44
215.9
 45
279.4
 46
0.0
 47
0.0
 48
0.0
 49
0.0
140
0.0
141
0.0
142
1.0
143
1.0
 70
  1712
 72
     1
 73
     0
 74
     0
  7

 75
     0
 76
     0
 77
     2
 78
   300
147
1.0
148
0.0
149
0.0
100
AcDbLayout
  1
Model
 70
     1
 71
     0
 10
0.0
 20
0.0
 11
297.0
 21
210.0
 12
0.0
 22
0.0
 32
0.0
 14
0.0
 24
0.0
 34
0.0
 15
297.0
 25
210.0
 35
0.0
146
0.0
 13
0.0
 23
0.0
 33
0.0
 16
1.0
 26
0.0
 36
0.0
 17
0.0
 27
1.0
 37
0.0
 76
     0
330
1F
331
29
  0
MATERIAL
  5
45
102
{ACAD_REACTORS
330
43
102
}
330
43
100
AcDbMaterial
  1
ByBlock
  0
MATERIAL
  5
44
102
{ACAD_REACTORS
330
43
102
}
330
43
100
AcDbMaterial
  1
ByLayer
  0
MATERIAL
  5
46
102
{ACAD_REACTORS
330
43
102
}
330
43
100
AcDbMaterial
  1
Global
  0
MLINESTYLE
  5
18
102
{ACAD_REACTORS
330
17
102
}
330
17
100
AcDbMlineStyle
  2
Standard
 70
     0
  3

 62
   256
 51
90.0
 52
90.0
 71
     2
 49
0.5
 62
   256
  6
BYLAYER
 49
-0.5
 62
   256
  6
BYLAYER
  0
ACDBPLACEHOLDER
  5
F
102
{ACAD_REACTORS
330
E
102
}
330
E
  0
SCALE
  5
48
102
{ACAD_REACTORS
330
47
102
}
330
47
100
AcDbScale
 70
     0
300
1:1
140
1.0
141
1.0
290
     1
  0
SCALE
  5
49
102
{ACAD_REACTORS
330
47
102
}
330
47
100
AcDbScale
 70
     0
300
1:2
140
1.0
141
2.0
290
     0
  0
SCALE
  5
4A
102
{ACAD_REACTORS
330
47
102
}
330
47
100
AcDbScale
 70
     0
300
1:4
140
1.0
141
4.0
290
     0
  0
SCALE
  5
4B
102
{ACAD_REACTORS
330
47
102
}
330
47
100
AcDbScale
 70
     0
300
1:5
140
1.0
141
5.0
290
     0
  0
SCALE
  5
4C
102
{ACAD_REACTORS
330
47
102
}
330
47
100
AcDbScale
 70
     0
300
1:8
140
1.0
141
8.0
290
     0
  0
SCALE
  5
4D
102
{ACAD_REACTORS
330
47
102
}
330
47
100
AcDbScale
 70
     0
300
1:10
140
1.0
141
10.0
290
     0
  0
SCALE
  5
4E
102
{ACAD_REACTORS
330
47
102
}
330
47
100
AcDbScale
 70
     0
300
1:16
140
1.0
141
16.0
290
     0
  0
SCALE
  5
4F
102
{ACAD_REACTORS
330
47
102
}
330
47
100
AcDbScale
 70
     0
300
1:20
140
1.0
141
20.0
290
     0
  0
SCALE
  5
50
102
{ACAD_REACTORS
330
47
102
}
330
47
100
AcDbScale
 70
     0
300
1:30
140
1.0
141
30.0
290
     0
  0
SCALE
  5
51
102
{ACAD_REACTORS
330
47
102
}
330
47
100
AcDbScale
 70
     0
300
1:40
140
1.0
141
40.0
290
     0
  0
SCALE
  5
52
102
{ACAD_REACTORS
330
47
102
}
330
47
100
AcDbScale
 70
     0
300
1:50
140
1.0
141
50.0
290
     0
  0
SCALE
  5
53
102
{ACAD_REACTORS
330
47
102
}
330
47
100
AcDbScale
 70
     0
300
1:100
140
1.0
141
100.0
290
     0
  0
SCALE
  5
54
102
{ACAD_REACTORS
330
47
102
}
330
47
100
AcDbScale
 70
     0
300
2:1
140
2.0
141
1.0
290
     0
  0
SCALE
  5
55
102
{ACAD_REACTORS
330
47
102
}
330
47
100
AcDbScale
 70
     0
300
4:1
140
4.0
141
1.0
290
     0
  0
SCALE
  5
56
102
{ACAD_REACTORS
330
47
102
}
330
47
100
AcDbScale
 70
     0
300
8:1
140
8.0
141
1.0
290
     0
  0
SCALE
  5
57
102
{ACAD_REACTORS
330
47
102
}
330
47
100
AcDbScale
 70
     0
300
10:1
140
10.0
141
1.0
290
     0
  0
SCALE
  5
58
102
{ACAD_REACTORS
330
47
102
}
330
47
100
AcDbScale
 70
     0
300
100:1
140
100.0
141
1.0
290
     0
  0
SCALE
  5
59
102
{ACAD_REACTORS
330
47
102
}
330
47
100
AcDbScale
 70
     0
300
1/128" = 1'-0"
140
0.0078125
141
12.0
290
     0
  0
SCALE
  5
5A
102
{ACAD_REACTORS
330
47
102
}
330
47
100
AcDbScale
 70
     0
300
1/64" = 1'-0"
140
0.015625
141
12.0
290
     0
  0
SCALE
  5
5B
102
{ACAD_REACTORS
330
47
102
}
330
47
100
AcDbScale
 70
     0
300
1/32" = 1'-0"
140
0.03125
141
12.0
290
     0
  0
SCALE
  5
5C
102
{ACAD_REACTORS
330
47
102
}
330
47
100
AcDbScale
 70
     0
300
1/16" = 1'-0"
140
0.0625
141
12.0
290
     0
  0
SCALE
  5
5D
102
{ACAD_REACTORS
330
47
102
}
330
47
100
AcDbScale
 70
     0
300
3/32" = 1'-0"
140
0.09375
141
12.0
290
     0
  0
SCALE
  5
5E
102
{ACAD_REACTORS
330
47
102
}
330
47
100
AcDbScale
 70
     0
300
1/8" = 1'-0"
140
0.125
141
12.0
290
     0
  0
SCALE
  5
5F
102
{ACAD_REACTORS
330
47
102
}
330
47
100
AcDbScale
 70
     0
300
3/16" = 1'-0"
140
0.1875
141
12.0
290
     0
  0
SCALE
  5
60
102
{ACAD_REACTORS
330
47
102
}
330
47
100
AcDbScale
 70
     0
300
1/4" = 1'-0"
140
0.25
141
12.0
290
     0
  0
SCALE
  5
61
102
{ACAD_REACTORS
330
47
102
}
330
47
100
AcDbScale
 70
     0
300
3/8" = 1'-0"
140
0.375
141
12.0
290
     0
  0
SCALE
  5
62
102
{ACAD_REACTORS
330
47
102
}
330
47
100
AcDbScale
 70
     0
300
1/2" = 1'-0"
140
0.5
141
12.0
290
     0
  0
SCALE
  5
63
102
{ACAD_REACTORS
330
47
102
}
330
47
100
AcDbScale
 70
     0
300
3/4" = 1'-0"
140
0.75
141
12.0
290
     0
  0
SCALE
  5
64
102
{ACAD_REACTORS
330
47
102
}
330
47
100
AcDbScale
 70
     0
300
1" = 1'-0"
140
1.0
141
12.0
290
     0
  0
SCALE
  5
65
102
{ACAD_REACTORS
330
47
102
}
330
47
100
AcDbScale
 70
     0
300
1-1/2" = 1'-0"
140
1.5
141
12.0
290
     0
  0
SCALE
  5
66
102
{ACAD_REACTORS
330
47
102
}
330
47
100
AcDbScale
 70
     0
300
3" = 1'-0"
140
3.0
141
12.0
290
     0
  0
SCALE
  5
67
102
{ACAD_REACTORS
330
47
102
}
330
47
100
AcDbScale
 70
     0
300
6" = 1'-0"
140
6.0
141
12.0
290
     0
  0
SCALE
  5
68
102
{ACAD_REACTORS
330
47
102
}
330
47
100
AcDbScale
 70
     0
300
1'-0" = 1'-0"
140
12.0
141
12.0
290
     0
  0
TABLESTYLE
  5
188
102
{ACAD_REACTORS
330
16B
102
}
102
{ACAD_XDICTIONARY
360
199
102
}
330
16B
100
AcDbTableStyle
  3
Standard
 70
     0
 71
     0
 40
0.06
 41
0.06
280
     0
281
     0
  7
Standard
140
4.5
170
     2
 62
     0
 63
   257
283
     0
274
    -2
284
     1
 64
     0
275
    -2
285
     1
 65
     0
276
    -2
286
     1
 66
     0
277
    -2
287
     1
 67
     0
278
    -2
288
     1
 68
     0
279
    -2
289
     1
 69
     0
  7
Standard
140
6.0
170
     5
 62
     0
 63
   257
283
     0
274
    -2
284
     1
 64
     0
275
    -2
285
     1
 65
     0
276
    -2
286
     1
 66
     0
277
    -2
287
     1
 67
     0
278
    -2
288
     1
 68
     0
279
    -2
289
     1
 69
     0
  7
Standard
140
4.5
170
     5
 62
     0
 63
   257
283
     0
274
    -2
284
     1
 64
     0
275
    -2
285
     1
 65
     0
276
    -2
286
     1
 66
     0
277
    -2
287
     1
 67
     0
278
    -2
288
     1
 68
     0
279
    -2
289
     1
 69
     0
  0
DICTIONARYVAR
  5
16A
102
{ACAD_REACTORS
330
169
102
}
330
169
100
DictionaryVariables
280
     0
  1
1:1
  0
DICTIONARYVAR
  5
19D
102
{ACAD_REACTORS
330
169
102
}
330
169
100
DictionaryVariables
280
     0
  1
Standard
  0
DICTIONARYVAR
  5
19E
102
{ACAD_REACTORS
330
169
102
}
330
169
100
DictionaryVariables
280
     0
  1
0
  0
DICTIONARYVAR
  5
19F
102
{ACAD_REACTORS
330
169
102
}
330
169
100
DictionaryVariables
280
     0
  1
0
  0
DICTIONARY
  5
199
330
188
100
AcDbDictionary
280
     1
281
     1
  3
ACAD_ROUNDTRIP_2008_TABLESTYLE_CELLSTYLEMAP
360
19B
  3
ACAD_XREC_ROUNDTRIP
360
19A
  0
CELLSTYLEMAP
  5
19B
102
{ACAD_REACTORS
330
199
102
}
330
199
100
AcDbCellStyleMap
 90
        3
300
CELLSTYLE
  1
TABLEFORMAT_BEGIN
 90
        5
170
     1
 91
        0
 92
        0
 62
   257
 93
        1
300
CONTENTFORMAT
  1
CONTENTFORMAT_BEGIN
 90
        0
 91
        0
 92
        4
 93
        0
300

 40
0.0
140
1.0
 94
        5
 62
     0
340
11
144
6.0
309
CONTENTFORMAT_END
171
     1
301
MARGIN
  1
CELLMARGIN_BEGIN
 40
1.5
 40
1.5
 40
1.5
 40
1.5
 40
1.5
 40
1.5
309
CELLMARGIN_END
 94
        6
 95
        1
302
GRIDFORMAT
  1
GRIDFORMAT_BEGIN
 90
        0
 91
        1
 62
     0
 92
       -2
340
14
 93
        0
 40
0.045
309
GRIDFORMAT_END
 95
        2
302
GRIDFORMAT
  1
GRIDFORMAT_BEGIN
 90
        0
 91
        1
 62
     0
 92
       -2
340
14
 93
        0
 40
0.045
309
GRIDFORMAT_END
 95
        4
302
GRIDFORMAT
  1
GRIDFORMAT_BEGIN
 90
        0
 91
        1
 62
     0
 92
       -2
340
14
 93
        0
 40
0.045
309
GRIDFORMAT_END
 95
        8
302
GRIDFORMAT
  1
GRIDFORMAT_BEGIN
 90
        0
 91
        1
 62
     0
 92
       -2
340
14
 93
        0
 40
0.045
309
GRIDFORMAT_END
 95
       16
302
GRIDFORMAT
  1
GRIDFORMAT_BEGIN
 90
        0
 91
        1
 62
     0
 92
       -2
340
14
 93
        0
 40
0.045
309
GRIDFORMAT_END
 95
       32
302
GRIDFORMAT
  1
GRIDFORMAT_BEGIN
 90
        0
 91
        1
 62
     0
 92
       -2
340
14
 93
        0
 40
0.045
309
GRIDFORMAT_END
309
TABLEFORMAT_END
  1
CELLSTYLE_BEGIN
 90
        1
 91
        1
300
_TITLE
309
CELLSTYLE_END
300
CELLSTYLE
  1
TABLEFORMAT_BEGIN
 90
        5
170
     1
 91
        0
 92
        0
 62
   257
 93
        1
300
CONTENTFORMAT
  1
CONTENTFORMAT_BEGIN
 90
        0
 91
        0
 92
        4
 93
        0
300

 40
0.0
140
1.0
 94
        5
 62
     0
340
11
144
4.5
309
CONTENTFORMAT_END
171
     1
301
MARGIN
  1
CELLMARGIN_BEGIN
 40
1.5
 40
1.5
 40
1.5
 40
1.5
 40
1.5
 40
1.5
309
CELLMARGIN_END
 94
        6
 95
        1
302
GRIDFORMAT
  1
GRIDFORMAT_BEGIN
 90
        0
 91
        1
 62
     0
 92
       -2
340
14
 93
        0
 40
0.045
309
GRIDFORMAT_END
 95
        2
302
GRIDFORMAT
  1
GRIDFORMAT_BEGIN
 90
        0
 91
        1
 62
     0
 92
       -2
340
14
 93
        0
 40
0.045
309
GRIDFORMAT_END
 95
        4
302
GRIDFORMAT
  1
GRIDFORMAT_BEGIN
 90
        0
 91
        1
 62
     0
 92
       -2
340
14
 93
        0
 40
0.045
309
GRIDFORMAT_END
 95
        8
302
GRIDFORMAT
  1
GRIDFORMAT_BEGIN
 90
        0
 91
        1
 62
     0
 92
       -2
340
14
 93
        0
 40
0.045
309
GRIDFORMAT_END
 95
       16
302
GRIDFORMAT
  1
GRIDFORMAT_BEGIN
 90
        0
 91
        1
 62
     0
 92
       -2
340
14
 93
        0
 40
0.045
309
GRIDFORMAT_END
 95
       32
302
GRIDFORMAT
  1
GRIDFORMAT_BEGIN
 90
        0
 91
        1
 62
     0
 92
       -2
340
14
 93
        0
 40
0.045
309
GRIDFORMAT_END
309
TABLEFORMAT_END
  1
CELLSTYLE_BEGIN
 90
        2
 91
        1
300
_HEADER
309
CELLSTYLE_END
300
CELLSTYLE
  1
TABLEFORMAT_BEGIN
 90
        5
170
     1
 91
        0
 92
        0
 62
   257
 93
        1
300
CONTENTFORMAT
  1
CONTENTFORMAT_BEGIN
 90
        0
 91
        0
 92
        4
 93
        0
300

 40
0.0
140
1.0
 94
        2
 62
     0
340
11
144
4.5
309
CONTENTFORMAT_END
171
     1
301
MARGIN
  1
CELLMARGIN_BEGIN
 40
1.5
 40
1.5
 40
1.5
 40
1.5
 40
1.5
 40
1.5
309
CELLMARGIN_END
 94
        6
 95
        1
302
GRIDFORMAT
  1
GRIDFORMAT_BEGIN
 90
        0
 91
        1
 62
     0
 92
       -2
340
14
 93
        0
 40
0.045
309
GRIDFORMAT_END
 95
        2
302
GRIDFORMAT
  1
GRIDFORMAT_BEGIN
 90
        0
 91
        1
 62
     0
 92
       -2
340
14
 93
        0
 40
0.045
309
GRIDFORMAT_END
 95
        4
302
GRIDFORMAT
  1
GRIDFORMAT_BEGIN
 90
        0
 91
        1
 62
     0
 92
       -2
340
14
 93
        0
 40
0.045
309
GRIDFORMAT_END
 95
        8
302
GRIDFORMAT
  1
GRIDFORMAT_BEGIN
 90
        0
 91
        1
 62
     0
 92
       -2
340
14
 93
        0
 40
0.045
309
GRIDFORMAT_END
 95
       16
302
GRIDFORMAT
  1
GRIDFORMAT_BEGIN
 90
        0
 91
        1
 62
     0
 92
       -2
340
14
 93
        0
 40
0.045
309
GRIDFORMAT_END
 95
       32
302
GRIDFORMAT
  1
GRIDFORMAT_BEGIN
 90
        0
 91
        1
 62
     0
 92
       -2
340
14
 93
        0
 40
0.045
309
GRIDFORMAT_END
309
TABLEFORMAT_END
  1
CELLSTYLE_BEGIN
 90
        3
 91
        2
300
_DATA
309
CELLSTYLE_END
  0
XRECORD
  5
19A
102
{ACAD_REACTORS
330
199
102
}
330
199
100
AcDbXrecord
280
     1
102
ACAD_ROUNDTRIP_PRE2007_TABLESTYLE
 90
        4
 91
        0
  1

 92
        4
 93
        0
  2

 94
        4
 95
        0
  3

  0
ENDSEC
  0
EOF
