  0
SECTION
  2
HEADER
  9
$ACADVER
  1
AC1018
  9
$ACADMAINTVER
 70
     0
  9
$DWGCODEPAGE
  3
ANSI_1252
  9
$LASTSAVEDBY
  1
piechottad
  9
$INSBASE
 10
0.0
 20
0.0
 30
0.0
  9
$EXTMIN
 10
0.0
 20
0.0
 30
0.0
  9
$EXTMAX
 10
297.0
 20
210.0
 30
0.0
  9
$LIMMIN
 10
0.0
 20
0.0
  9
$LIMMAX
 10
297.0
 20
210.0
  9
$ORTHOMODE
 70
     0
  9
$REGENMODE
 70
     1
  9
$FILLMODE
 70
     1
  9
$QTEXTMODE
 70
     0
  9
$MIRRTEXT
 70
     1
  9
$LTSCALE
 40
1.0
  9
$ATTMODE
 70
     1
  9
$TEXTSIZE
 40
3.5
  9
$TRACEWID
 40
1.0
  9
$TEXTSTYLE
  7
Standard
  9
$CLAYER
  8
0
  9
$CELTYPE
  6
ByLayer
  9
$CECOLOR
 62
   256
  9
$CELTSCALE
 40
1.0
  9
$DISPSILH
 70
     0
  9
$DIMSCALE
 40
1.0
  9
$DIMASZ
 40
3.302
  9
$DIMEXO
 40
1.0
  9
$DIMDLI
 40
3.75
  9
$DIMRND
 40
0.0
  9
$DIMDLE
 40
0.0
  9
$DIMEXE
 40
1.0
  9
$DIMTP
 40
0.0
  9
$DIMTM
 40
0.0
  9
$DIMTXT
 40
3.5
  9
$DIMCEN
 40
2.5
  9
$DIMTSZ
 40
0.0
  9
$DIMTOL
 70
     0
  9
$DIMLIM
 70
     0
  9
$DIMTIH
 70
     1
  9
$DIMTOH
 70
     1
  9
$DIMSE1
 70
     0
  9
$DIMSE2
 70
     0
  9
$DIMTAD
 70
     1
  9
$DIMZIN
 70
     0
  9
$DIMBLK
  1

  9
$DIMASO
 70
     1
  9
$DIMSHO
 70
     1
  9
$DIMPOST
  1

  9
$DIMAPOST
  1

  9
$DIMALT
 70
     0
  9
$DIMALTD
 70
     3
  9
$DIMALTF
 40
0.0393700787
  9
$DIMLFAC
 40
1.0
  9
$DIMTOFL
 70
     1
  9
$DIMTVP
 40
0.0
  9
$DIMTIX
 70
     0
  9
$DIMSOXD
 70
     0
  9
$DIMSAH
 70
     0
  9
$DIMBLK1
  1

  9
$DIMBLK2
  1

  9
$DIMSTYLE
  2
ISO-25
  9
$DIMCLRD
 70
     0
  9
$DIMCLRE
 70
     0
  9
$DIMCLRT
 70
     0
  9
$DIMTFAC
 40
1.0
  9
$DIMGAP
 40
1.524
  9
$DIMJUST
 70
     0
  9
$DIMSD1
 70
     0
  9
$DIMSD2
 70
     0
  9
$DIMTOLJ
 70
     0
  9
$DIMTZIN
 70
     0
  9
$DIMALTZ
 70
     0
  9
$DIMALTTZ
 70
     0
  9
$DIMUPT
 70
     0
  9
$DIMDEC
 70
     2
  9
$DIMTDEC
 70
     2
  9
$DIMALTU
 70
     2
  9
$DIMALTTD
 70
     3
  9
$DIMTXSTY
  7
Standard
  9
$DIMAUNIT
 70
     0
  9
$DIMADEC
 70
     2
  9
$DIMALTRND
 40
0.0
  9
$DIMAZIN
 70
     0
  9
$DIMDSEP
 70
    44
  9
$DIMATFIT
 70
     3
  9
$DIMFRAC
 70
     0
  9
$DIMLDRBLK
  1

  9
$DIMLUNIT
 70
     2
  9
$DIMLWD
 70
    -2
  9
$DIMLWE
 70
    -2
  9
$DIMTMOVE
 70
     0
  9
$LUNITS
 70
     2
  9
$LUPREC
 70
     2
  9
$SKETCHINC
 40
1.0
  9
$FILLETRAD
 40
10.0
  9
$AUNITS
 70
     0
  9
$AUPREC
 70
     2
  9
$MENU
  1
.
  9
$ELEVATION
 40
0.0
  9
$PELEVATION
 40
0.0
  9
$THICKNESS
 40
0.0
  9
$LIMCHECK
 70
     0
  9
$CHAMFERA
 40
0.0
  9
$CHAMFERB
 40
0.0
  9
$CHAMFERC
 40
0.0
  9
$CHAMFERD
 40
0.0
  9
$SKPOLY
 70
     0
  9
$TDCREATE
 40
2457011.370532569
  9
$TDUCREATE
 40
2457011.328865903
  9
$TDUPDATE
 40
2457031.467545486
  9
$TDUUPDATE
 40
2457031.42587882
  9
$TDINDWG
 40
0.0004595023
  9
$TDUSRTIMER
 40
2457031.425419572
  9
$USRTIMER
 70
     1
  9
$ANGBASE
 50
0.0
  9
$ANGDIR
 70
     0
  9
$PDMODE
 70
     0
  9
$PDSIZE
 40
-1.0
  9
$PLINEWID
 40
0.0
  9
$SPLFRAME
 70
     0
  9
$SPLINETYPE
 70
     6
  9
$SPLINESEGS
 70
     8
  9
$HANDSEED
  5
19E
  9
$SURFTAB1
 70
     6
  9
$SURFTAB2
 70
     6
  9
$SURFTYPE
 70
     6
  9
$SURFU
 70
     6
  9
$SURFV
 70
     6
  9
$UCSBASE
  2

  9
$UCSNAME
  2

  9
$UCSORG
 10
0.0
 20
0.0
 30
0.0
  9
$UCSXDIR
 10
1.0
 20
0.0
 30
0.0
  9
$UCSYDIR
 10
0.0
 20
1.0
 30
0.0
  9
$UCSORTHOREF
  2

  9
$UCSORTHOVIEW
 70
     0
  9
$UCSORGTOP
 10
0.0
 20
0.0
 30
0.0
  9
$UCSORGBOTTOM
 10
0.0
 20
0.0
 30
0.0
  9
$UCSORGLEFT
 10
0.0
 20
0.0
 30
0.0
  9
$UCSORGRIGHT
 10
0.0
 20
0.0
 30
0.0
  9
$UCSORGFRONT
 10
0.0
 20
0.0
 30
0.0
  9
$UCSORGBACK
 10
0.0
 20
0.0
 30
0.0
  9
$PUCSBASE
  2

  9
$PUCSNAME
  2

  9
$PUCSORG
 10
0.0
 20
0.0
 30
0.0
  9
$PUCSXDIR
 10
1.0
 20
0.0
 30
0.0
  9
$PUCSYDIR
 10
0.0
 20
1.0
 30
0.0
  9
$PUCSORTHOREF
  2

  9
$PUCSORTHOVIEW
 70
     0
  9
$PUCSORGTOP
 10
0.0
 20
0.0
 30
0.0
  9
$PUCSORGBOTTOM
 10
0.0
 20
0.0
 30
0.0
  9
$PUCSORGLEFT
 10
0.0
 20
0.0
 30
0.0
  9
$PUCSORGRIGHT
 10
0.0
 20
0.0
 30
0.0
  9
$PUCSORGFRONT
 10
0.0
 20
0.0
 30
0.0
  9
$PUCSORGBACK
 10
0.0
 20
0.0
 30
0.0
  9
$USERI1
 70
     0
  9
$USERI2
 70
     0
  9
$USERI3
 70
     0
  9
$USERI4
 70
     0
  9
$USERI5
 70
     0
  9
$USERR1
 40
0.0
  9
$USERR2
 40
0.0
  9
$USERR3
 40
0.0
  9
$USERR4
 40
0.0
  9
$USERR5
 40
0.0
  9
$WORLDVIEW
 70
     1
  9
$SHADEDGE
 70
     3
  9
$SHADEDIF
 70
    70
  9
$TILEMODE
 70
     1
  9
$MAXACTVP
 70
    64
  9
$PINSBASE
 10
0.0
 20
0.0
 30
0.0
  9
$PLIMCHECK
 70
     0
  9
$PEXTMIN
 10
1.000000000000000E+20
 20
1.000000000000000E+20
 30
1.000000000000000E+20
  9
$PEXTMAX
 10
-1.000000000000000E+20
 20
-1.000000000000000E+20
 30
-1.000000000000000E+20
  9
$PLIMMIN
 10
0.0
 20
0.0
  9
$PLIMMAX
 10
0.0
 20
0.0
  9
$UNITMODE
 70
     0
  9
$VISRETAIN
 70
     1
  9
$PLINEGEN
 70
     0
  9
$PSLTSCALE
 70
     1
  9
$TREEDEPTH
 70
  3020
  9
$CMLSTYLE
  2
Standard
  9
$CMLJUST
 70
     0
  9
$CMLSCALE
 40
20.0
  9
$PROXYGRAPHICS
 70
     1
  9
$MEASUREMENT
 70
     1
  9
$CELWEIGHT
370
    -1
  9
$ENDCAPS
280
     0
  9
$JOINSTYLE
280
     0
  9
$LWDISPLAY
290
     1
  9
$INSUNITS
 70
     4
  9
$HYPERLINKBASE
  1

  9
$STYLESHEET
  1

  9
$XEDIT
290
     1
  9
$CEPSNTYPE
380
     0
  9
$PSTYLEMODE
290
     1
  9
$FINGERPRINTGUID
  2
{28FE82F2-EAF3-42C5-806C-40A9815ED525}
  9
$VERSIONGUID
  2
{FAEB1C32-E019-11D5-929B-00C0DF256EC4}
  9
$EXTNAMES
290
     1
  9
$PSVPSCALE
 40
0.0
  9
$OLESTARTUP
290
     0
  9
$SORTENTS
280
   127
  9
$INDEXCTL
280
     0
  9
$HIDETEXT
280
     1
  9
$XCLIPFRAME
290
     0
  9
$HALOGAP
280
     0
  9
$OBSCOLOR
 70
   257
  9
$OBSLTYPE
280
     0
  9
$INTERSECTIONDISPLAY
280
     0
  9
$INTERSECTIONCOLOR
 70
   257
  9
$DIMASSOC
280
     2
  9
$PROJECTNAME
  1

  0
ENDSEC
  0
SECTION
  2
CLASSES
  0
CLASS
  1
ACDBDICTIONARYWDFLT
  2
AcDbDictionaryWithDefault
  3
ObjectDBX Classes
 90
        0
 91
       91
280
     0
281
     0
  0
CLASS
  1
VISUALSTYLE
  2
AcDbVisualStyle
  3
ObjectDBX Classes
 90
     4095
 91
       91
280
     0
281
     0
  0
CLASS
  1
MATERIAL
  2
AcDbMaterial
  3
ObjectDBX Classes
 90
     1153
 91
       91
280
     0
281
     0
  0
CLASS
  1
SCALE
  2
AcDbScale
  3
ObjectDBX Classes
 90
     1153
 91
       91
280
     0
281
     0
  0
CLASS
  1
SUN
  2
AcDbSun
  3
SCENEOE
 90
     1153
 91
       91
280
     0
281
     0
  0
CLASS
  1
DICTIONARYVAR
  2
AcDbDictionaryVar
  3
ObjectDBX Classes
 90
        0
 91
       47
280
     0
281
     0
  0
CLASS
  1
TABLESTYLE
  2
AcDbTableStyle
  3
ObjectDBX Classes
 90
     4095
 91
       91
280
     0
281
     0
  0
CLASS
  1
RASTERVARIABLES
  2
AcDbRasterVariables
  3
ISM
 90
        0
 91
       91
280
     0
281
     0
  0
CLASS
  1
CELLSTYLEMAP
  2
AcDbCellStyleMap
  3
ObjectDBX Classes
 90
     1152
 91
        4
280
     0
281
     0
  0
ENDSEC
  0
SECTION
  2
TABLES
  0
TABLE
  2
VPORT
  5
8
330
0
100
AcDbSymbolTable
 70
     1
  0
VPORT
  5
29
330
8
100
AcDbSymbolTableRecord
100
AcDbViewportTableRecord
  2
*Active
 70
     0
 10
0.0
 20
0.0
 11
1.0
 21
1.0
 12
100.5184426229508
 22
33.35040983606558
 13
0.0
 23
0.0
 14
10.0
 24
10.0
 15
10.0
 25
10.0
 16
0.0
 26
0.0
 36
1.0
 17
0.0
 27
0.0
 37
0.0
 40
210.0
 41
1.497950819672131
 42
50.0
 43
0.0
 44
0.0
 50
0.0
 51
0.0
 71
    16
 72
  2000
 73
     1
 74
     3
 75
     0
 76
     0
 77
     0
 78
     0
281
     0
 65
     1
110
0.0
120
0.0
130
0.0
111
1.0
121
0.0
131
0.0
112
0.0
122
1.0
132
0.0
 79
     0
146
0.0
  0
ENDTAB
  0
TABLE
  2
LTYPE
  5
5
330
0
100
AcDbSymbolTable
 70
     8
  0
LTYPE
  5
14
330
5
100
AcDbSymbolTableRecord
100
AcDbLinetypeTableRecord
  2
ByBlock
 70
     0
  3

 72
    65
 73
     0
 40
0.0
  0
LTYPE
  5
15
330
5
100
AcDbSymbolTableRecord
100
AcDbLinetypeTableRecord
  2
ByLayer
 70
     0
  3

 72
    65
 73
     0
 40
0.0
  0
LTYPE
  5
16
330
5
100
AcDbSymbolTableRecord
100
AcDbLinetypeTableRecord
  2
Continuous
 70
     0
  3
Solid line
 72
    65
 73
     0
 40
0.0
  0
LTYPE
  5
6A
330
5
100
AcDbSymbolTableRecord
100
AcDbLinetypeTableRecord
  2
SLD-Durchgehend
 70
     0
  3
SolidWorks Line Style
 72
    65
 73
     0
 40
0.0
  0
LTYPE
  5
6B
330
5
100
AcDbSymbolTableRecord
100
AcDbLinetypeTableRecord
  2
SLD-Gestrichelt
 70
     0
  3
SolidWorks Line Style
 72
    65
 73
     2
 40
1.905
 49
1.27
 74
     0
 49
-0.635
 74
     0
  0
LTYPE
  5
6C
330
5
100
AcDbSymbolTableRecord
100
AcDbLinetypeTableRecord
  2
SLD-Phantom
 70
     0
  3
SolidWorks Line Style
 72
    65
 73
     6
 40
12.7
 49
6.35
 74
     0
 49
-1.27
 74
     0
 49
1.27
 74
     0
 49
-1.27
 74
     0
 49
1.27
 74
     0
 49
-1.27
 74
     0
  0
LTYPE
  5
6D
330
5
100
AcDbSymbolTableRecord
100
AcDbLinetypeTableRecord
  2
SLD-Kette
 70
     0
  3
SolidWorks Line Style
 72
    65
 73
     4
 40
10.16
 49
6.35
 74
     0
 49
-1.27
 74
     0
 49
1.27
 74
     0
 49
-1.27
 74
     0
  0
LTYPE
  5
6E
330
5
100
AcDbSymbolTableRecord
100
AcDbLinetypeTableRecord
  2
SLD-Punktstrich
 70
     0
  3
SolidWorks Line Style
 72
    65
 73
     4
 40
19.05
 49
15.24
 74
     0
 49
-1.27
 74
     0
 49
1.27
 74
     0
 49
-1.27
 74
     0
  0
LTYPE
  5
6F
330
5
100
AcDbSymbolTableRecord
100
AcDbLinetypeTableRecord
  2
SLD-Naht
 70
     0
  3
SolidWorks Line Style
 72
    65
 73
     2
 40
0.635
 49
0.0
 74
     0
 49
-0.635
 74
     0
  0
LTYPE
  5
70
330
5
100
AcDbSymbolTableRecord
100
AcDbLinetypeTableRecord
  2
SLD-Dicke-Dünne-Kette
 70
     0
  3
SolidWorks Line Style
 72
    65
 73
     4
 40
10.16
 49
6.35
 74
     0
 49
-1.27
 74
     0
 49
1.27
 74
     0
 49
-1.27
 74
     0
  0
ENDTAB
  0
TABLE
  2
LAYER
  5
2
330
0
100
AcDbSymbolTable
 70
     4
  0
LAYER
  5
10
330
2
100
AcDbSymbolTableRecord
100
AcDbLayerTableRecord
  2
0
 70
     0
 62
     7
  6
Continuous
370
    -3
390
F
  0
LAYER
  5
71
330
2
100
AcDbSymbolTableRecord
100
AcDbLayerTableRecord
  2
1
 70
     0
 62
     4
  6
Continuous
370
    -1
390
F
  0
LAYER
  5
72
330
2
100
AcDbSymbolTableRecord
100
AcDbLayerTableRecord
  2
2
 70
     0
 62
     7
  6
SLD-Durchgehend
370
    -3
390
F
  0
LAYER
  5
18A
330
2
100
AcDbSymbolTableRecord
100
AcDbLayerTableRecord
  2
Defpoints
 70
     0
 62
     7
  6
Continuous
290
     0
370
    -3
390
F
  0
ENDTAB
  0
TABLE
  2
STYLE
  5
3
330
0
100
AcDbSymbolTable
 70
     2
  0
STYLE
  5
11
330
3
100
AcDbSymbolTableRecord
100
AcDbTextStyleTableRecord
  2
Standard
 70
     0
 40
0.0
 41
1.0
 50
0.0
 71
     0
 42
3.5
  3
txt
  4

  0
STYLE
  5
126
330
3
100
AcDbSymbolTableRecord
100
AcDbTextStyleTableRecord
  2
SLDTEXTSTYLE0
 70
     0
 40
0.0
 41
0.75
 50
0.0
 71
     0
 42
3.5
  3
TXT
  4

  0
ENDTAB
  0
TABLE
  2
VIEW
  5
6
330
0
100
AcDbSymbolTable
 70
     0
  0
ENDTAB
  0
TABLE
  2
UCS
  5
7
330
0
100
AcDbSymbolTable
 70
     0
  0
ENDTAB
  0
TABLE
  2
APPID
  5
9
330
0
100
AcDbSymbolTable
 70
     1
  0
APPID
  5
12
330
9
100
AcDbSymbolTableRecord
100
AcDbRegAppTableRecord
  2
ACAD
 70
     0
  0
ENDTAB
  0
TABLE
  2
DIMSTYLE
  5
A
330
0
100
AcDbSymbolTable
 70
     2
100
AcDbDimStyleTable
  0
DIMSTYLE
105
27
330
A
100
AcDbSymbolTableRecord
100
AcDbDimStyleTableRecord
  2
ISO-25
 70
     0
 41
2.5
 42
0.625
 43
3.75
 44
1.25
 73
     0
 74
     0
 77
     1
 78
     8
140
2.5
141
2.5
143
0.0393700787
147
0.625
171
     3
172
     1
178
     0
271
     2
272
     2
274
     3
278
    44
283
     0
284
     8
340
11
  0
DIMSTYLE
105
127
102
{ACAD_REACTORS
330
125
330
131
330
13B
330
145
102
}
330
A
100
AcDbSymbolTableRecord
100
AcDbDimStyleTableRecord
  2
SLDDIMSTYLE0
 70
     0
 41
3.302
 44
0.0
 45
0.000000001
 73
     0
 74
     0
 77
     1
 78
    12
 79
     3
140
3.5
147
0.875
173
     1
178
     0
271
     2
272
     2
276
     2
284
    12
340
126
  0
ENDTAB
  0
TABLE
  2
BLOCK_RECORD
  5
1
330
0
100
AcDbSymbolTable
 70
     7
  0
BLOCK_RECORD
  5
1F
330
1
100
AcDbSymbolTableRecord
100
AcDbBlockTableRecord
  2
*Model_Space
340
22
  0
BLOCK_RECORD
  5
1B
330
1
100
AcDbSymbolTableRecord
100
AcDbBlockTableRecord
  2
*Paper_Space
340
1E
  0
BLOCK_RECORD
  5
23
330
1
100
AcDbSymbolTableRecord
100
AcDbBlockTableRecord
  2
*Paper_Space0
340
26
  0
BLOCK_RECORD
  5
128
330
1
100
AcDbSymbolTableRecord
100
AcDbBlockTableRecord
  2
_D
340
0
  0
BLOCK_RECORD
  5
132
330
1
100
AcDbSymbolTableRecord
100
AcDbBlockTableRecord
  2
_D_1
340
0
  0
BLOCK_RECORD
  5
13C
330
1
100
AcDbSymbolTableRecord
100
AcDbBlockTableRecord
  2
_D_2
340
0
  0
BLOCK_RECORD
  5
146
330
1
100
AcDbSymbolTableRecord
100
AcDbBlockTableRecord
  2
_D_3
340
0
  0
BLOCK_RECORD
  5
14F
330
1
100
AcDbSymbolTableRecord
100
AcDbBlockTableRecord
  2
SW_CENTERMARKSYMBOL_0
340
0
102
{BLKREFS
331
0
102
}
  0
BLOCK_RECORD
  5
15B
330
1
100
AcDbSymbolTableRecord
100
AcDbBlockTableRecord
  2
SW_CENTERMARKSYMBOL_1
340
0
102
{BLKREFS
331
0
102
}
  0
ENDTAB
  0
ENDSEC
  0
SECTION
  2
BLOCKS
  0
BLOCK
  5
20
330
1F
100
AcDbEntity
  8
0
100
AcDbBlockBegin
  2
*Model_Space
 70
     0
 10
0.0
 20
0.0
 30
0.0
  3
*Model_Space
  1
*Model_Space
  0
ENDBLK
  5
21
330
1F
100
AcDbEntity
  8
0
100
AcDbBlockEnd
  0
BLOCK
  5
1C
330
1B
100
AcDbEntity
 67
     1
  8
0
100
AcDbBlockBegin
  2
*Paper_Space
 70
     0
 10
0.0
 20
0.0
 30
0.0
  3
*Paper_Space
  1
*Paper_Space
  0
ENDBLK
  5
1D
330
1B
100
AcDbEntity
 67
     1
  8
0
100
AcDbBlockEnd
  0
BLOCK
  5
24
330
23
100
AcDbEntity
  8
0
100
AcDbBlockBegin
  2
*Paper_Space0
 70
     0
 10
0.0
 20
0.0
 30
0.0
  3
*Paper_Space0
  1
*Paper_Space0
  0
ENDBLK
  5
25
330
23
100
AcDbEntity
  8
0
100
AcDbBlockEnd
  0
BLOCK
  5
129
330
128
100
AcDbEntity
  8
0
100
AcDbBlockBegin
  2
_D
 70
     0
 10
0.0
 20
0.0
 30
0.0
  3
_D
  1
_D
  0
LINE
  5
12B
330
128
100
AcDbEntity
  8
2
  6
SLD-Durchgehend
 62
     0
370
    -2
100
AcDbLine
 10
150.0027086782
 20
-31.9394940657
 30
0.0
 11
150.0027086782
 21
5.9980309343
 31
0.0
  0
LINE
  5
12C
330
128
100
AcDbEntity
  8
2
  6
SLD-Durchgehend
 62
     0
370
    -2
100
AcDbLine
 10
0.0027086781999999
 20
0.0605059343
 30
0.0
 11
0.0027086781999941
 21
5.9980309343
 31
0.0
  0
LINE
  5
12D
330
128
100
AcDbEntity
  8
2
  6
SLD-Durchgehend
 62
     0
370
    -2
100
AcDbLine
 10
146.7007086782
 20
5.9980309343
 30
0.0
 11
3.304708678199994
 21
5.9980309343
 31
0.0
  0
SOLID
  5
12E
330
128
100
AcDbEntity
  8
2
 62
     0
100
AcDbTrace
 10
146.7007086782
 20
5.447697600966666
 30
0.0
 11
146.7007086782
 21
6.548364267633334
 31
0.0
 12
150.0027086782
 22
5.9980309343
 32
0.0
 13
150.0027086782
 23
5.9980309343
 33
0.0
  0
SOLID
  5
12F
330
128
100
AcDbEntity
  8
2
 62
     0
100
AcDbTrace
 10
3.304708678199994
 20
6.548364267633334
 30
0.0
 11
3.304708678199994
 21
5.447697600966666
 31
0.0
 12
0.0027086781999941
 22
5.9980309343
 32
0.0
 13
0.0027086781999941
 23
5.9980309343
 33
0.0
  0
MTEXT
  5
130
330
128
100
AcDbEntity
  8
2
 62
     0
370
    15
100
AcDbMText
 10
75.0027086782
 20
10.3730309343
 30
0.0
 40
3.5
 41
0.0
 71
     2
 72
     1
  1
\A1;150
  7
SLDTEXTSTYLE0
 73
     1
 44
1.0
  0
POINT
  5
18B
330
128
100
AcDbEntity
  8
Defpoints
 62
     0
100
AcDbPoint
 10
150.0027086782
 20
-32.0019940657
 30
0.0
  0
POINT
  5
18C
330
128
100
AcDbEntity
  8
Defpoints
 62
     0
100
AcDbPoint
 10
0.0027086782
 20
-0.0019940657
 30
0.0
  0
POINT
  5
18D
330
128
100
AcDbEntity
  8
Defpoints
 62
     0
100
AcDbPoint
 10
0.0027086782
 20
5.9980309343
 30
0.0
  0
ENDBLK
  5
12A
330
128
100
AcDbEntity
  8
0
100
AcDbBlockEnd
  0
BLOCK
  5
133
330
132
100
AcDbEntity
  8
0
100
AcDbBlockBegin
  2
_D_1
 70
     0
 10
0.0
 20
0.0
 30
0.0
  3
_D_1
  1
_D_1
  0
LINE
  5
135
330
132
100
AcDbEntity
  8
2
  6
SLD-Durchgehend
 62
     0
370
    -2
100
AcDbLine
 10
0.9402086782000001
 20
-25.0019940657
 30
0.0
 11
-5.997291321800001
 21
-25.0019940657
 31
0.0
  0
LINE
  5
136
330
132
100
AcDbEntity
  8
2
  6
SLD-Durchgehend
 62
     0
370
    -2
100
AcDbLine
 10
0.9402086782000001
 20
-0.0019940657
 30
0.0
 11
-5.997291321799999
 21
-0.0019940656999999
 31
0.0
  0
LINE
  5
137
330
132
100
AcDbEntity
  8
2
  6
SLD-Durchgehend
 62
     0
370
    -2
100
AcDbLine
 10
-5.997291321800001
 20
-21.6999940657
 30
0.0
 11
-5.997291321799999
 21
-3.3039940657
 31
0.0
  0
SOLID
  5
138
330
132
100
AcDbEntity
  8
2
 62
     0
100
AcDbTrace
 10
-6.547624655133334
 20
-21.6999940657
 30
0.0
 11
-5.446957988466667
 21
-21.6999940657
 31
0.0
 12
-5.997291321800001
 22
-25.0019940657
 32
0.0
 13
-5.997291321800001
 23
-25.0019940657
 33
0.0
  0
SOLID
  5
139
330
132
100
AcDbEntity
  8
2
 62
     0
100
AcDbTrace
 10
-5.446957988466665
 20
-3.3039940657
 30
0.0
 11
-6.547624655133332
 21
-3.3039940657
 31
0.0
 12
-5.997291321799999
 22
-0.0019940656999999
 32
0.0
 13
-5.997291321799999
 23
-0.0019940656999999
 33
0.0
  0
MTEXT
  5
13A
330
132
100
AcDbEntity
  8
2
 62
     0
370
    15
100
AcDbMText
 10
-10.3722913218
 20
-12.5019940657
 30
0.0
 40
3.5
 41
0.0
 71
     2
 72
     1
  1
\A1;25
  7
SLDTEXTSTYLE0
 11
7.105427357601002E-17
 21
1.0
 31
0.0
 73
     1
 44
1.0
  0
POINT
  5
18E
330
132
100
AcDbEntity
  8
Defpoints
 62
     0
100
AcDbPoint
 10
1.0027086782
 20
-25.0019940657
 30
0.0
  0
POINT
  5
18F
330
132
100
AcDbEntity
  8
Defpoints
 62
     0
100
AcDbPoint
 10
1.0027086782
 20
-0.0019940657
 30
0.0
  0
POINT
  5
190
330
132
100
AcDbEntity
  8
Defpoints
 62
     0
100
AcDbPoint
 10
-5.9972913218
 20
-0.0019940656999996
 30
0.0
  0
ENDBLK
  5
134
330
132
100
AcDbEntity
  8
0
100
AcDbBlockEnd
  0
BLOCK
  5
13D
330
13C
100
AcDbEntity
  8
0
100
AcDbBlockBegin
  2
_D_2
 70
     0
 10
0.0
 20
0.0
 30
0.0
  3
_D_2
  1
_D_2
  0
LINE
  5
13F
330
13C
100
AcDbEntity
  8
2
  6
SLD-Durchgehend
 62
     0
370
    -2
100
AcDbLine
 10
150.0652086782
 20
-32.0019940657
 30
0.0
 11
159.7727086782
 21
-32.0019940657
 31
0.0
  0
LINE
  5
140
330
13C
100
AcDbEntity
  8
2
  6
SLD-Durchgehend
 62
     0
370
    -2
100
AcDbLine
 10
153.8352086782
 20
-0.0019940657
 30
0.0
 11
159.7727086782
 21
-0.0019940656999999
 31
0.0
  0
LINE
  5
141
330
13C
100
AcDbEntity
  8
2
  6
SLD-Durchgehend
 62
     0
370
    -2
100
AcDbLine
 10
159.7727086782
 20
-28.6999940657
 30
0.0
 11
159.7727086782
 21
-3.3039940657
 31
0.0
  0
SOLID
  5
142
330
13C
100
AcDbEntity
  8
2
 62
     0
100
AcDbTrace
 10
159.2223753448667
 20
-28.6999940657
 30
0.0
 11
160.3230420115333
 21
-28.6999940657
 31
0.0
 12
159.7727086782
 22
-32.0019940657
 32
0.0
 13
159.7727086782
 23
-32.0019940657
 33
0.0
  0
SOLID
  5
143
330
13C
100
AcDbEntity
  8
2
 62
     0
100
AcDbTrace
 10
160.3230420115333
 20
-3.3039940657
 30
0.0
 11
159.2223753448667
 21
-3.3039940657
 31
0.0
 12
159.7727086782
 22
-0.0019940656999999
 32
0.0
 13
159.7727086782
 23
-0.0019940656999999
 33
0.0
  0
MTEXT
  5
144
330
13C
100
AcDbEntity
  8
2
 62
     0
370
    15
100
AcDbMText
 10
155.3977086782
 20
-16.0019940657
 30
0.0
 40
3.5
 41
0.0
 71
     2
 72
     1
  1
\A1;32
  7
SLDTEXTSTYLE0
 11
0.0
 21
1.0
 31
0.0
 73
     1
 44
1.0
  0
POINT
  5
191
330
13C
100
AcDbEntity
  8
Defpoints
 62
     0
100
AcDbPoint
 10
150.0027086782
 20
-32.0019940657
 30
0.0
  0
POINT
  5
192
330
13C
100
AcDbEntity
  8
Defpoints
 62
     0
100
AcDbPoint
 10
153.7727086782
 20
-0.0019940657
 30
0.0
  0
POINT
  5
193
330
13C
100
AcDbEntity
  8
Defpoints
 62
     0
100
AcDbPoint
 10
159.7727086782
 20
-0.0019940657000004
 30
0.0
  0
ENDBLK
  5
13E
330
13C
100
AcDbEntity
  8
0
100
AcDbBlockEnd
  0
BLOCK
  5
147
330
146
100
AcDbEntity
  8
0
100
AcDbBlockBegin
  2
_D_3
 70
     0
 10
0.0
 20
0.0
 30
0.0
  3
_D_3
  1
_D_3
  0
LINE
  5
149
330
146
100
AcDbEntity
  8
2
  6
SLD-Durchgehend
 62
     0
370
    -2
100
AcDbLine
 10
122.0027086782
 20
-0.0644940657
 30
0.0
 11
122.0027086782
 21
-38.0019940657
 31
0.0
  0
LINE
  5
14A
330
146
100
AcDbEntity
  8
2
  6
SLD-Durchgehend
 62
     0
370
    -2
100
AcDbLine
 10
150.0027086782
 20
-32.0644940657
 30
0.0
 11
150.0027086782
 21
-38.0019940657
 31
0.0
  0
LINE
  5
14B
330
146
100
AcDbEntity
  8
2
  6
SLD-Durchgehend
 62
     0
370
    -2
100
AcDbLine
 10
125.3047086782
 20
-38.0019940657
 30
0.0
 11
146.7007086782
 21
-38.0019940657
 31
0.0
  0
SOLID
  5
14C
330
146
100
AcDbEntity
  8
2
 62
     0
100
AcDbTrace
 10
125.3047086782
 20
-37.45166073236667
 30
0.0
 11
125.3047086782
 21
-38.55232739903334
 31
0.0
 12
122.0027086782
 22
-38.0019940657
 32
0.0
 13
122.0027086782
 23
-38.0019940657
 33
0.0
  0
SOLID
  5
14D
330
146
100
AcDbEntity
  8
2
 62
     0
100
AcDbTrace
 10
146.7007086782
 20
-38.55232739903334
 30
0.0
 11
146.7007086782
 21
-37.45166073236667
 31
0.0
 12
150.0027086782
 22
-38.0019940657
 32
0.0
 13
150.0027086782
 23
-38.0019940657
 33
0.0
  0
MTEXT
  5
14E
330
146
100
AcDbEntity
  8
2
 62
     0
370
    15
100
AcDbMText
 10
136.0027086782
 20
-33.6269940657
 30
0.0
 40
3.5
 41
0.0
 71
     2
 72
     1
  1
\A1;28
  7
SLDTEXTSTYLE0
 73
     1
 44
1.0
  0
POINT
  5
194
330
146
100
AcDbEntity
  8
Defpoints
 62
     0
100
AcDbPoint
 10
122.0027086782
 20
-0.0019940657
 30
0.0
  0
POINT
  5
195
330
146
100
AcDbEntity
  8
Defpoints
 62
     0
100
AcDbPoint
 10
150.0027086782
 20
-32.0019940657
 30
0.0
  0
POINT
  5
196
330
146
100
AcDbEntity
  8
Defpoints
 62
     0
100
AcDbPoint
 10
150.0027086782
 20
-38.0019940657
 30
0.0
  0
ENDBLK
  5
148
330
146
100
AcDbEntity
  8
0
100
AcDbBlockEnd
  0
BLOCK
  5
150
330
14F
100
AcDbEntity
  8
0
100
AcDbBlockBegin
  2
SW_CENTERMARKSYMBOL_0
 70
     0
 10
0.0
 20
0.0
 30
0.0
  3
SW_CENTERMARKSYMBOL_0
  1
SW_CENTERMARKSYMBOL_0
  0
LINE
  5
152
330
14F
100
AcDbEntity
  8
0
  6
SLD-Punktstrich
 62
     0
370
    15
100
AcDbLine
 10
0.0
 20
0.0
 30
0.0
 11
0.0
 21
2.5
 31
0.0
  0
LINE
  5
153
330
14F
100
AcDbEntity
  8
0
  6
SLD-Punktstrich
 62
     0
370
    15
100
AcDbLine
 10
0.0
 20
0.0
 30
0.0
 11
-2.5
 21
0.0
 31
0.0
  0
LINE
  5
154
330
14F
100
AcDbEntity
  8
0
  6
SLD-Punktstrich
 62
     0
370
    15
100
AcDbLine
 10
0.0
 20
0.0
 30
0.0
 11
0.0
 21
-2.5
 31
0.0
  0
LINE
  5
155
330
14F
100
AcDbEntity
  8
0
  6
SLD-Punktstrich
 62
     0
370
    15
100
AcDbLine
 10
0.0
 20
0.0
 30
0.0
 11
2.5
 21
0.0
 31
0.0
  0
LINE
  5
156
330
14F
100
AcDbEntity
  8
0
  6
SLD-Punktstrich
 62
     0
370
    15
100
AcDbLine
 10
0.0
 20
2.5
 30
0.0
 11
0.0
 21
4.7
 31
0.0
  0
LINE
  5
157
330
14F
100
AcDbEntity
  8
0
  6
SLD-Punktstrich
 62
     0
370
    15
100
AcDbLine
 10
-2.5
 20
0.0
 30
0.0
 11
-4.7
 21
0.0
 31
0.0
  0
LINE
  5
158
330
14F
100
AcDbEntity
  8
0
  6
SLD-Punktstrich
 62
     0
370
    15
100
AcDbLine
 10
0.0
 20
-2.5
 30
0.0
 11
0.0
 21
-4.7
 31
0.0
  0
LINE
  5
159
330
14F
100
AcDbEntity
  8
0
  6
SLD-Punktstrich
 62
     0
370
    15
100
AcDbLine
 10
2.5
 20
0.0
 30
0.0
 11
4.7
 21
0.0
 31
0.0
  0
ENDBLK
  5
151
330
14F
100
AcDbEntity
  8
0
100
AcDbBlockEnd
  0
BLOCK
  5
15C
330
15B
100
AcDbEntity
  8
0
100
AcDbBlockBegin
  2
SW_CENTERMARKSYMBOL_1
 70
     0
 10
0.0
 20
0.0
 30
0.0
  3
SW_CENTERMARKSYMBOL_1
  1
SW_CENTERMARKSYMBOL_1
  0
LINE
  5
15E
330
15B
100
AcDbEntity
  8
0
  6
SLD-Punktstrich
 62
     0
370
    15
100
AcDbLine
 10
0.0
 20
0.0
 30
0.0
 11
0.0
 21
2.5
 31
0.0
  0
LINE
  5
15F
330
15B
100
AcDbEntity
  8
0
  6
SLD-Punktstrich
 62
     0
370
    15
100
AcDbLine
 10
0.0
 20
0.0
 30
0.0
 11
-2.5
 21
0.0
 31
0.0
  0
LINE
  5
160
330
15B
100
AcDbEntity
  8
0
  6
SLD-Punktstrich
 62
     0
370
    15
100
AcDbLine
 10
0.0
 20
0.0
 30
0.0
 11
0.0
 21
-2.5
 31
0.0
  0
LINE
  5
161
330
15B
100
AcDbEntity
  8
0
  6
SLD-Punktstrich
 62
     0
370
    15
100
AcDbLine
 10
0.0
 20
0.0
 30
0.0
 11
2.5
 21
0.0
 31
0.0
  0
LINE
  5
162
330
15B
100
AcDbEntity
  8
0
  6
SLD-Punktstrich
 62
     0
370
    15
100
AcDbLine
 10
0.0
 20
2.5
 30
0.0
 11
0.0
 21
4.7
 31
0.0
  0
LINE
  5
163
330
15B
100
AcDbEntity
  8
0
  6
SLD-Punktstrich
 62
     0
370
    15
100
AcDbLine
 10
-2.5
 20
0.0
 30
0.0
 11
-4.7
 21
0.0
 31
0.0
  0
LINE
  5
164
330
15B
100
AcDbEntity
  8
0
  6
SLD-Punktstrich
 62
     0
370
    15
100
AcDbLine
 10
0.0
 20
-2.5
 30
0.0
 11
0.0
 21
-4.7
 31
0.0
  0
LINE
  5
165
330
15B
100
AcDbEntity
  8
0
  6
SLD-Punktstrich
 62
     0
370
    15
100
AcDbLine
 10
2.5
 20
0.0
 30
0.0
 11
4.7
 21
0.0
 31
0.0
  0
ENDBLK
  5
15D
330
15B
100
AcDbEntity
  8
0
100
AcDbBlockEnd
  0
ENDSEC
  0
SECTION
  2
ENTITIES
  0
LINE
  5
73
330
1F
100
AcDbEntity
  8
0
  6
SLD-Punktstrich
 62
     7
100
AcDbLine
 10
0.0027086782
 20
-0.0019940657
 30
0.0
 11
153.7727086782
 21
-0.0019940657
 31
0.0
  0
POINT
  5
74
330
1F
100
AcDbEntity
  8
1
 62
     4
420
    65535
100
AcDbPoint
 10
153.7727086782
 20
-0.0019940657
 30
0.0
  0
POINT
  5
75
330
1F
100
AcDbEntity
  8
1
 62
     4
420
    65535
100
AcDbPoint
 10
122.0027086782
 20
-0.0019940657
 30
0.0
  0
POINT
  5
76
330
1F
100
AcDbEntity
  8
1
 62
     4
420
    65535
100
AcDbPoint
 10
150.0027086782
 20
-0.0019940657
 30
0.0
  0
POINT
  5
77
330
1F
100
AcDbEntity
  8
1
 62
     4
420
    65535
100
AcDbPoint
 10
150.0027086782
 20
-32.0019940657
 30
0.0
  0
LINE
  5
78
330
1F
100
AcDbEntity
  8
1
 62
     4
420
    65535
100
AcDbLine
 10
137.7123771628
 20
-28.419831153
 30
0.0
 11
138.2072365265
 21
-28.9146905166
 31
0.0
  0
LINE
  5
79
330
1F
100
AcDbEntity
  8
1
 62
     4
420
    65535
100
AcDbLine
 10
152.944096323
 20
-19.9769650568
 30
0.0
 11
152.8010517363
 21
-19.8339204701
 31
0.0
  0
LINE
  5
7A
330
1F
100
AcDbEntity
  8
1
 62
     4
420
    65535
100
AcDbLine
 10
130.6806447425
 20
-8.812637444
 30
0.0
 11
131.068250958
 21
-9.2002436594
 31
0.0
  0
LINE
  5
7B
330
1F
100
AcDbEntity
  8
1
 62
     4
420
    65535
100
AcDbLine
 10
126.1831621275
 20
-13.219566571
 30
0.0
 11
125.1502920264
 21
-14.3031229735
 31
0.0
  0
SPLINE
  5
7C
330
1F
100
AcDbEntity
  8
1
 62
     4
420
    65535
100
AcDbSpline
210
0.0
220
0.0
230
1.0
 70
     8
 71
     3
 72
    12
 73
     8
 74
     0
 42
0.000000001
 43
0.00000001
 40
0.0
 40
0.0
 40
0.0
 40
0.0
 40
0.1881638973275581
 40
0.4406804906136767
 40
0.6937653344715295
 40
0.9477311688819076
 40
1.0
 40
1.0
 40
1.0
 40
1.0
 10
146.4138325959213
 20
-26.56418311732259
 30
0.0
 10
146.5258504161
 20
-26.51343400538027
 30
0.0
 10
146.7881965337926
 20
-26.39457941177023
 30
0.0
 10
147.1460100619918
 20
-26.10764405479859
 30
0.0
 10
147.4662623416641
 20
-25.72988346771302
 30
0.0
 10
147.6632889028035
 20
-25.41507774639387
 30
0.0
 10
147.7215436216957
 20
-25.22396844329878
 30
0.0
 10
147.7314866699733
 20
-25.19134947159832
 30
0.0
  0
LINE
  5
7D
330
1F
100
AcDbEntity
  8
1
 62
     4
420
    65535
100
AcDbLine
 10
152.5927291782
 20
-19.7740970835
 30
0.0
 11
144.9943532597
 21
-17.7320185391
 31
0.0
  0
ARC
  5
7E
330
1F
100
AcDbEntity
  8
1
 62
     4
420
    65535
100
AcDbCircle
 10
152.3875766464
 20
-20.5338429972
 30
0.0
 40
0.7869570602325288
100
AcDbArc
 50
344.1645944875
 51
74.8889392957
  0
LINE
  5
7F
330
1F
100
AcDbEntity
  8
1
 62
     4
420
    65535
100
AcDbLine
 10
150.1710013557
 20
-31.4122623126
 30
0.0
 11
153.144668337
 21
-20.7485837403
 31
0.0
  0
ARC
  5
80
330
1F
100
AcDbEntity
  8
1
 62
     4
420
    65535
100
AcDbCircle
 10
149.3958357537
 20
-31.1970665206
 30
0.0
 40
0.8044817831135552
100
AcDbArc
 50
255.2067246202
 51
344.4846717391
  0
LINE
  5
81
330
1F
100
AcDbEntity
  8
1
 62
     4
420
    65535
100
AcDbLine
 10
138.5586036179
 20
-29.1175584756
 30
0.0
 11
149.1904255832
 21
-31.9748824379
 31
0.0
  0
ARC
  5
82
330
1F
100
AcDbEntity
  8
1
 62
     4
420
    65535
100
AcDbCircle
 10
138.7637562032
 20
-28.3578125762
 30
0.0
 40
0.7869570603946724
100
AcDbArc
 50
164.1645944947
 51
254.8889352622
  0
LINE
  5
83
330
1F
100
AcDbEntity
  8
1
 62
     4
420
    65535
100
AcDbLine
 10
139.0819567174
 20
-24.2870346517
 30
0.0
 11
138.0066645125
 21
-28.1430718331
 31
0.0
  0
ARC
  5
84
330
1F
100
AcDbEntity
  8
1
 62
     4
420
    65535
100
AcDbCircle
 10
145.5659769773
 20
-24.4371241362
 30
0.0
 40
2.774769024727614
100
AcDbArc
 50
212.0345986593
 51
60.76692138440001
  0
ARC
  5
85
330
1F
100
AcDbEntity
  8
1
 62
     4
420
    65535
100
AcDbCircle
 10
145.552795041
 20
-24.4237557978
 30
0.0
 40
2.577397709457067
100
AcDbArc
 50
218.7127487364
 51
54.13097130869999
  0
ARC
  5
86
330
1F
100
AcDbEntity
  8
1
 62
     4
420
    65535
100
AcDbCircle
 10
138.2665086298
 20
-27.8657966537
 30
0.0
 40
0.7835916724674461
100
AcDbArc
 50
205.5022395902
 51
224.9949864584
  0
ARC
  5
87
330
1F
100
AcDbEntity
  8
1
 62
     4
420
    65535
100
AcDbCircle
 10
145.0610759743
 20
-23.989164696
 30
0.0
 40
2.539556098456094
100
AcDbArc
 50
237.7698314294
 51
263.5456154482001
  0
ARC
  5
88
330
1F
100
AcDbEntity
  8
1
 62
     4
420
    65535
100
AcDbCircle
 10
145.120453542
 20
-23.9308992761
 30
0.0
 40
2.538071935985759
100
AcDbArc
 50
6.6465561729
 51
37.3909126555
  0
ARC
  5
89
330
1F
100
AcDbEntity
  8
1
 62
     4
420
    65535
100
AcDbCircle
 10
130.0003133005
 20
-4.420746456
 30
0.0
 40
7.327309101946267
100
AcDbArc
 50
313.2187053700001
 51
332.3604855251
  0
ARC
  5
8A
330
1F
100
AcDbEntity
  8
1
 62
     4
420
    65535
100
AcDbCircle
 10
410.7269363894
 20
280.2604260901
 30
0.0
 40
400.159440691502
100
AcDbArc
 50
226.0681673119
 51
226.4491683137
  0
ARC
  5
8B
330
1F
100
AcDbEntity
  8
1
 62
     4
420
    65535
100
AcDbCircle
 10
134.855360676
 20
-9.9559365558
 30
0.0
 40
2.690596243463836
100
AcDbArc
 50
52.54920504539999
 51
130.8498961164
  0
LINE
  5
8C
330
1F
100
AcDbEntity
  8
1
 62
     4
420
    65535
100
AcDbLine
 10
135.0179450746
 20
-9.7604870916
 30
0.0
 11
130.3540333579
 21
-14.6532721538
 31
0.0
  0
ARC
  5
8D
330
1F
100
AcDbEntity
  8
1
 62
     4
420
    65535
100
AcDbCircle
 10
406.0630246726
 20
275.3676410277
 30
0.0
 40
400.1594406912596
100
AcDbArc
 50
226.0681673119
 51
226.4491683137
  0
LINE
  5
8E
330
1F
100
AcDbEntity
  8
1
 62
     4
420
    65535
100
AcDbLine
 10
128.4315848812
 20
-12.8134853733
 30
0.0
 11
133.0954965979
 21
-7.9207003111
 31
0.0
  0
LINE
  5
8F
330
1F
100
AcDbEntity
  8
1
 62
     4
420
    65535
100
AcDbLine
 10
133.8418961051
 20
-19.8383825397
 30
0.0
 11
132.8128313458
 21
-18.8584932116
 31
0.0
  0
SPLINE
  5
90
330
1F
100
AcDbEntity
  8
1
 62
     4
420
    65535
100
AcDbSpline
210
0.0
220
0.0
230
1.0
 70
     8
 71
     3
 72
    22
 73
    18
 74
     0
 42
0.000000001
 43
0.00000001
 40
0.0
 40
0.0
 40
0.0
 40
0.0
 40
0.0495288470540298
 40
0.0989925544613282
 40
0.1484572953598983
 40
0.1979892422692108
 40
0.247654302444046
 40
0.2975178585179274
 40
0.3476445194469827
 40
0.3980978863007005
 40
0.4489403367975358
 40
0.5002328317000577
 40
0.6054716722109432
 40
0.7073533245297737
 40
0.806564972181243
 40
0.9038508013097272
 40
1.0
 40
1.0
 40
1.0
 40
1.0
 10
131.4665797749561
 20
-15.71265384107148
 30
0.0
 10
131.4682148171671
 20
-15.77209610187178
 30
0.0
 10
131.4714827512046
 20
-15.89090244584258
 30
0.0
 10
131.4840738301777
 20
-16.06760199588623
 30
0.0
 10
131.5025971661595
 20
-16.2428040700872
 30
0.0
 10
131.5277653817828
 20
-16.41638855663881
 30
0.0
 10
131.5595767939283
 20
-16.58837344017179
 30
0.0
 10
131.5981714677424
 20
-16.75878320332257
 30
0.0
 10
131.6436094322879
 20
-16.92767743175968
 30
0.0
 10
131.6959261792126
 20
-17.09513843121772
 30
0.0
 10
131.7551585747689
 20
-17.26126372976885
 30
0.0
 10
131.8441361218379
 20
-17.48343107862392
 30
0.0
 10
131.9713664646543
 20
-17.75330077198615
 30
0.0
 10
132.1493559095012
 20
-18.06082047920178
 30
0.0
 10
132.3491253018425
 20
-18.34686717313539
 30
0.0
 10
132.5680069625071
 20
-18.61444198989635
 30
0.0
 10
132.7315435334059
 20
-18.77746210816831
 30
0.0
 10
132.812831345783
 20
-18.85849321157802
 30
0.0
  0
SPLINE
  5
91
330
1F
100
AcDbEntity
  8
1
 62
     4
420
    65535
100
AcDbSpline
210
0.0
220
0.0
230
1.0
 70
     8
 71
     3
 72
    25
 73
    21
 74
     0
 42
0.000000001
 43
0.00000001
 40
0.0
 40
0.0
 40
0.0
 40
0.0
 40
0.0250753561475989
 40
0.0500903263121879
 40
0.0750864594873809
 40
0.1001053985148194
 40
0.1251886726507001
 40
0.1876893090622359
 40
0.2502420077528382
 40
0.3127043930371716
 40
0.3752255397006707
 40
0.5000074543155761
 40
0.6247893689304799
 40
0.6872378109424523
 40
0.7497729009208294
 40
0.8122528539385918
 40
0.8748262360858886
 40
0.9165561765305213
 40
0.9582163984891754
 40
1.0
 40
1.0
 40
1.0
 40
1.0
 10
136.1304914916157
 20
-10.81986877888252
 30
0.0
 10
136.0675695138202
 20
-10.82056791062402
 30
0.0
 10
135.9418770857071
 20
-10.82196449047161
 30
0.0
 10
135.7536599799442
 20
-10.83376092253384
 30
0.0
 10
135.5661282664808
 20
-10.85266680955168
 30
0.0
 10
135.3792699759747
 20
-10.87937905819274
 30
0.0
 10
135.1008541703613
 20
-10.93069373850392
 30
0.0
 10
134.7344874724702
 20
-11.0253572855903
 30
0.0
 10
134.2910411727468
 20
-11.18967982847345
 30
0.0
 10
133.8658786847846
 20
-11.39786699639209
 30
0.0
 10
133.3305686355154
 20
-11.73123779176706
 30
0.0
 10
132.7280939311369
 20
-12.24697181353974
 30
0.0
 10
132.2419621952947
 20
-12.87323781179074
 30
0.0
 10
131.9346853426585
 20
-13.42375216657203
 30
0.0
 10
131.7472480530314
 20
-13.85808884335811
 30
0.0
 10
131.6044398520854
 20
-14.30890538369727
 30
0.0
 10
131.5189291660776
 20
-14.72026409427873
 30
0.0
 10
131.4750473330311
 20
-15.08449502359683
 30
0.0
 10
131.4572892813036
 20
-15.39860010450222
 30
0.0
 10
131.4634798926046
 20
-15.60786612237599
 30
0.0
 10
131.4665797749561
 20
-15.71265384107147
 30
0.0
  0
SPLINE
  5
92
330
1F
100
AcDbEntity
  8
1
 62
     4
420
    65535
100
AcDbSpline
210
0.0
220
0.0
230
1.0
 70
     8
 71
     3
 72
    21
 73
    17
 74
     0
 42
0.000000001
 43
0.00000001
 40
0.0
 40
0.0
 40
0.0
 40
0.0
 40
0.0533688462573903
 40
0.1069773869944851
 40
0.1609649639492963
 40
0.2154680074075686
 40
0.270619115833504
 40
0.3265462697613088
 40
0.3833721960722308
 40
0.4412138884862827
 40
0.5001822808968799
 40
0.6022400811933482
 40
0.7027414417212698
 40
0.8021885031628214
 40
0.9010992779493306
 40
1.0
 40
1.0
 40
1.0
 40
1.0
 10
139.3414344821626
 20
-12.00951024551195
 30
0.0
 10
139.2947145811359
 20
-11.96614389386437
 30
0.0
 10
139.2010649468836
 20
-11.87921642010248
 30
0.0
 10
139.0538586480221
 20
-11.75721388286044
 30
0.0
 10
138.9014372358871
 20
-11.64120988587107
 30
0.0
 10
138.7431867880962
 20
-11.53190462602804
 30
0.0
 10
138.5790571581469
 20
-11.42924857844571
 30
0.0
 10
138.4087869990777
 20
-11.33342405372136
 30
0.0
 10
138.2321204599003
 20
-11.24457936315036
 30
0.0
 10
138.0487613838436
 20
-11.16285340010473
 30
0.0
 10
137.8133629626926
 20
-11.07091275641958
 30
0.0
 10
137.5255448206233
 20
-10.97804523643039
 30
0.0
 10
137.1840964789372
 20
-10.89674694717827
 30
0.0
 10
136.8378355248034
 20
-10.84360538682335
 30
0.0
 10
136.4866335999449
 20
-10.81576913043033
 30
0.0
 10
136.2492015056436
 20
-10.81850227569772
 30
0.0
 10
136.1304914916157
 20
-10.81986877888251
 30
0.0
  0
LINE
  5
93
330
1F
100
AcDbEntity
  8
1
 62
     4
420
    65535
100
AcDbLine
 10
139.3414344822
 20
-12.0095102455
 30
0.0
 11
140.3704992415
 21
-12.9893995736
 31
0.0
  0
SPLINE
  5
94
330
1F
100
AcDbEntity
  8
1
 62
     4
420
    65535
100
AcDbSpline
210
0.0
220
0.0
230
1.0
 70
     8
 71
     3
 72
    17
 73
    13
 74
     0
 42
0.000000001
 43
0.00000001
 40
0.0
 40
0.0
 40
0.0
 40
0.0
 40
0.0854702574593933
 40
0.1699134423335462
 40
0.2534630131654786
 40
0.3362567675758273
 40
0.4184363214571667
 40
0.500146498918532
 40
0.6287235255863868
 40
0.7544089986397016
 40
0.8779170071162243
 40
1.0
 40
1.0
 40
1.0
 40
1.0
 10
141.6195844619685
 20
-15.05894293146615
 30
0.0
 10
141.5991961496617
 20
-14.9922316952302
 30
0.0
 10
141.5586645257918
 20
-14.859610873343
 30
0.0
 10
141.4873157401258
 20
-14.66541257230085
 30
0.0
 10
141.4089912630266
 20
-14.4763347847863
 30
0.0
 10
141.3231726748316
 20
-14.29252964597448
 30
0.0
 10
141.2303127603822
 20
-14.11383161860427
 30
0.0
 10
141.111474217718
 20
-13.90672427310125
 30
0.0
 10
140.9624143424129
 20
-13.67622199058244
 30
0.0
 10
140.7777528816885
 20
-13.42939659521736
 30
0.0
 10
140.581863114501
 20
-13.19882755845243
 30
0.0
 10
140.4406808007051
 20
-13.05893833779229
 30
0.0
 10
140.3704992414665
 20
-12.98939957360396
 30
0.0
  0
SPLINE
  5
95
330
1F
100
AcDbEntity
  8
1
 62
     4
420
    65535
100
AcDbSpline
210
0.0
220
0.0
230
1.0
 70
     8
 71
     3
 72
    11
 73
     7
 74
     0
 42
0.000000001
 43
0.00000001
 40
0.0
 40
0.0
 40
0.0
 40
0.0
 40
0.2702663627511744
 40
0.5262286936962272
 40
0.7691074815927685
 40
1.0
 40
1.0
 40
1.0
 40
1.0
 10
141.7586921873392
 20
-15.634247421807
 30
0.0
 10
141.7492396530359
 20
-15.58178784172381
 30
0.0
 10
141.730834866262
 20
-15.47964514065654
 30
0.0
 10
141.6967715377697
 20
-15.33159477119533
 30
0.0
 10
141.660336986882
 20
-15.19207889111421
 30
0.0
 10
141.6329375713218
 20
-15.10256670770627
 30
0.0
 10
141.6195844619685
 20
-15.05894293146615
 30
0.0
  0
SPLINE
  5
96
330
1F
100
AcDbEntity
  8
1
 62
     4
420
    65535
100
AcDbSpline
210
0.0
220
0.0
230
1.0
 70
     8
 71
     3
 72
    13
 73
     9
 74
     0
 42
0.000000001
 43
0.00000001
 40
0.0
 40
0.0
 40
0.0
 40
0.0
 40
0.1667987798628675
 40
0.3331360851113954
 40
0.4993182245957791
 40
0.6656524036800348
 40
0.8324450230612986
 40
1.0
 40
1.0
 40
1.0
 40
1.0
 10
141.7922032199179
 20
-16.78557511613227
 30
0.0
 10
141.7981723538203
 20
-16.72171411385001
 30
0.0
 10
141.8100941070932
 20
-16.59416879062229
 30
0.0
 10
141.8169401336652
 20
-16.40194676125395
 30
0.0
 10
141.8157044202873
 20
-16.2097477107626
 30
0.0
 10
141.8054924896001
 20
-16.01759172097762
 30
0.0
 10
141.7873487564857
 20
-15.82545363195351
 30
0.0
 10
141.7682588862132
 20
-15.69807963514598
 30
0.0
 10
141.7586921873392
 20
-15.63424742180698
 30
0.0
  0
SPLINE
  5
97
330
1F
100
AcDbEntity
  8
1
 62
     4
420
    65535
100
AcDbSpline
210
0.0
220
0.0
230
1.0
 70
     8
 71
     3
 72
    21
 73
    17
 74
     0
 42
0.000000001
 43
0.00000001
 40
0.0
 40
0.0
 40
0.0
 40
0.0
 40
0.0313130422067665
 40
0.0625733488225326
 40
0.0938395435438495
 40
0.1251702170150871
 40
0.1876706307054821
 40
0.2502409020659577
 40
0.3751415940816852
 40
0.5000144650886023
 40
0.6248873360955247
 40
0.7497880281112491
 40
0.8122727341496139
 40
0.8748587132026164
 40
0.9373983043535223
 40
1.0
 40
1.0
 40
1.0
 40
1.0
 10
137.7024702473957
 20
-21.07600461221796
 30
0.0
 10
137.7686765075185
 20
-21.06705535985156
 30
0.0
 10
137.9009775270601
 20
-21.04917192692528
 30
0.0
 10
138.0977991607048
 20
-21.01152904147903
 30
0.0
 10
138.2930261287524
 20
-20.96600075169945
 30
0.0
 10
138.5504407561863
 20
-20.89396574644075
 30
0.0
 10
138.8663860391491
 20
-20.78328687677001
 30
0.0
 10
139.3543575159231
 20
-20.56345585864334
 30
0.0
 10
139.9268433126802
 20
-20.21105094627463
 30
0.0
 10
140.5311303978264
 20
-19.67713426663528
 30
0.0
 10
141.0354836932265
 20
-19.04802618984793
 30
0.0
 10
141.3597820712401
 20
-18.45962251602043
 30
0.0
 10
141.5560540219795
 20
-17.96185016291996
 30
0.0
 10
141.6698909332617
 20
-17.57709667784923
 30
0.0
 10
141.7528465535162
 20
-17.18423694699585
 30
0.0
 10
141.7790799914507
 20
-16.91850635157299
 30
0.0
 10
141.792203219918
 20
-16.78557511613226
 30
0.0
  0
SPLINE
  5
98
330
1F
100
AcDbEntity
  8
1
 62
     4
420
    65535
100
AcDbSpline
210
0.0
220
0.0
230
1.0
 70
     8
 71
     3
 72
    12
 73
     8
 74
     0
 42
0.000000001
 43
0.00000001
 40
0.0
 40
0.0
 40
0.0
 40
0.0
 40
0.1663343647289477
 40
0.3329022696983309
 40
0.5000065250608896
 40
0.7508355279117309
 40
1.0
 40
1.0
 40
1.0
 40
1.0
 10
136.550490990351
 20
-21.09803202271889
 30
0.0
 10
136.61425486162
 20
-21.10444536059783
 30
0.0
 10
136.741872131237
 20
-21.117281040944
 30
0.0
 10
136.9344538462636
 20
-21.12606666988965
 30
0.0
 10
137.1597005365778
 20
-21.12687243027304
 30
0.0
 10
137.4167688408086
 20
-21.11465698872096
 30
0.0
 10
137.6074480422257
 20
-21.08886011088088
 30
0.0
 10
137.7024702473957
 20
-21.07600461221796
 30
0.0
  0
SPLINE
  5
99
330
1F
100
AcDbEntity
  8
1
 62
     4
420
    65535
100
AcDbSpline
210
0.0
220
0.0
230
1.0
 70
     8
 71
     3
 72
    10
 73
     6
 74
     0
 42
0.000000001
 43
0.00000001
 40
0.0
 40
0.0
 40
0.0
 40
0.0
 40
0.3104706287607157
 40
0.6428895184045325
 40
1.0
 40
1.0
 40
1.0
 40
1.0
 10
135.9691120208314
 20
-20.98670246764026
 30
0.0
 10
136.028615395642
 20
-21.00160283968635
 30
0.0
 10
136.1518286481424
 20
-21.03245694349323
 30
0.0
 10
136.3458501955127
 20
-21.07039465967206
 30
0.0
 10
136.4806681447935
 20
-21.0886022346204
 30
0.0
 10
136.550490990351
 20
-21.09803202271891
 30
0.0
  0
SPLINE
  5
9A
330
1F
100
AcDbEntity
  8
1
 62
     4
420
    65535
100
AcDbSpline
210
0.0
220
0.0
230
1.0
 70
     8
 71
     3
 72
    16
 73
    12
 74
     0
 42
0.000000001
 43
0.00000001
 40
0.0
 40
0.0
 40
0.0
 40
0.0
 40
0.0816171656017504
 40
0.1637581576449653
 40
0.2466533009416863
 40
0.3305266991250079
 40
0.4155947122744729
 40
0.502064717197029
 40
0.6652516355233233
 40
0.8308633247262731
 40
1.0
 40
1.0
 40
1.0
 40
1.0
 10
133.8418961050869
 20
-19.83838253967006
 30
0.0
 10
133.890283626392
 20
-19.8832530076268
 30
0.0
 10
133.9873692245443
 20
-19.97328192631184
 30
0.0
 10
134.1418947645637
 20
-20.10091238940773
 30
0.0
 10
134.30335280799
 20
-20.22336801630695
 30
0.0
 10
134.4724679829926
 20
-20.33993565531341
 30
0.0
 10
134.6491922926245
 20
-20.45053732986261
 30
0.0
 10
134.8870947772189
 20
-20.58507720291688
 30
0.0
 10
135.1925442400384
 20
-20.73270767829315
 30
0.0
 10
135.5717026223031
 20
-20.88047671873857
 30
0.0
 10
135.8357155135192
 20
-20.95104617983581
 30
0.0
 10
135.9691120208315
 20
-20.98670246764025
 30
0.0
  0
ARC
  5
9B
330
1F
100
AcDbEntity
  8
1
 62
     4
420
    65535
100
AcDbCircle
 10
124.8697278226
 20
-9.9871132126
 30
0.0
 40
7.200739300199154
100
AcDbArc
 50
300.2313395351999
 51
319.6081859162
  0
ARC
  5
9C
330
1F
100
AcDbEntity
  8
1
 62
     4
420
    65535
100
AcDbCircle
 10
130.5405233043
 20
-14.4720684457
 30
0.0
 40
2.683005605770518
100
AcDbArc
 50
141.8165776388
 51
220.3319153825
  0
LINE
  5
9D
330
1F
100
AcDbEntity
  8
1
 62
     4
420
    65535
100
AcDbLine
 10
136.1304914916
 20
-10.8198687789
 30
0.0
 11
135.0179450746
 21
-9.7604870916
 31
0.0
  0
LINE
  5
9E
330
1F
100
AcDbEntity
  8
1
 62
     4
420
    65535
100
AcDbLine
 10
136.4914581186
 20
-7.8199371869
 30
0.0
 11
142.1647682578
 21
-13.2221395363
 31
0.0
  0
ELLIPSE
  5
9F
330
1F
100
AcDbEntity
  8
1
 62
     4
420
    65535
100
AcDbEllipse
 10
141.3007925377
 20
-15.7306791294
 30
0.0
 11
0.8737489221280441
 21
2.619662680887371
 31
0.0
210
0.0
220
0.0
230
1.0
 40
0.0337747879
 41
4.982954185605081
 42
6.001930451590789
  0
LINE
  5
A0
330
1F
100
AcDbEntity
  8
1
 62
     4
420
    65535
100
AcDbLine
 10
130.3540333579
 20
-14.6532721538
 30
0.0
 11
131.466579775
 21
-15.7126538411
 31
0.0
  0
ELLIPSE
  5
A1
330
1F
100
AcDbEntity
  8
1
 62
     4
420
    65535
100
AcDbEllipse
 10
136.6368808211
 20
-20.6234641916
 30
0.0
 11
2.575278550661693
 21
0.999367986072162
 31
0.0
210
0.0
220
0.0
230
1.0
 40
0.0365195709
 41
3.416971789890507
 42
4.435948055875323
  0
LINE
  5
A2
330
1F
100
AcDbEntity
  8
1
 62
     4
420
    65535
100
AcDbLine
 10
134.1685569911
 20
-21.6107509458
 30
0.0
 11
128.495246852
 21
-16.2085485965
 31
0.0
  0
LINE
  5
A3
330
1F
100
AcDbEntity
  8
1
 62
     4
420
    65535
100
AcDbLine
 10
142.9970389379
 20
-14.8571027542
 30
0.0
 11
143.7059083382
 21
-16.5019334794
 31
0.0
  0
ARC
  5
A4
330
1F
100
AcDbEntity
  8
1
 62
     4
420
    65535
100
AcDbCircle
 10
140.4767761173
 20
-12.8631347359
 30
0.0
 40
4.864992414748748
100
AcDbArc
 50
289.2550774685
 51
311.5863978595
  0
LINE
  5
A5
330
1F
100
AcDbEntity
  8
1
 62
     4
420
    65535
100
AcDbLine
 10
142.0811256231
 20
-17.4559785019
 30
0.0
 11
141.7922032199
 21
-16.7855751161
 31
0.0
  0
ARC
  5
A6
330
1F
100
AcDbEntity
  8
1
 62
     4
420
    65535
100
AcDbCircle
 10
140.458571069
 20
-12.1873614963
 30
0.0
 40
3.683929628230105
100
AcDbArc
 50
290.6658314566
 51
313.5561603241
  0
LINE
  5
A7
330
1F
100
AcDbEntity
  8
1
 62
     4
420
    65535
100
AcDbLine
 10
135.9200019099
 20
-5.3458533622
 30
0.0
 11
136.4914581186
 21
-7.8199371869
 31
0.0
  0
LINE
  5
A8
330
1F
100
AcDbEntity
  8
1
 62
     4
420
    65535
100
AcDbLine
 10
133.0954965979
 20
-7.9207003111
 30
0.0
 11
132.8571184477
 21
-6.8886570565
 31
0.0
  0
ELLIPSE
  5
A9
330
1F
100
AcDbEntity
  8
1
 62
     4
420
    65535
100
AcDbEllipse
 10
133.5190719208
 20
-4.1365475809
 30
0.0
 11
1.683662588045564
 21
3.296209025129146
 31
0.0
210
0.0
220
0.0
230
1.0
 40
0.2676174937
 41
3.874067532069384
 42
4.684179756523874
  0
ELLIPSE
  5
AA
330
1F
100
AcDbEntity
  8
1
 62
     4
420
    65535
100
AcDbEllipse
 10
134.2584228587
 20
-7.3375211083
 30
0.0
 11
0.1519716685184846
 21
2.655041796191383
 31
0.0
210
0.0
220
0.0
230
1.0
 40
0.9347752669
 41
5.612506815228557
 42
6.306153419364012
  0
ARC
  5
AB
330
1F
100
AcDbEntity
  8
1
 62
     4
420
    65535
100
AcDbCircle
 10
133.7249595072
 20
-19.9538539281
 30
0.0
 40
4.860918314883025
100
AcDbArc
 50
321.3189550299
 51
343.5299972869
  0
LINE
  5
AC
330
1F
100
AcDbEntity
  8
1
 62
     4
420
    65535
100
AcDbLine
 10
137.5195732293
 20
-22.9918522105
 30
0.0
 11
135.841491655
 21
-22.363796059
 31
0.0
  0
ARC
  5
AD
330
1F
100
AcDbEntity
  8
1
 62
     4
420
    65535
100
AcDbCircle
 10
133.0627793486
 20
-19.9758908743
 30
0.0
 40
3.663786736813341
100
AcDbArc
 50
319.3256618026
 51
342.1648683798
  0
LINE
  5
AE
330
1F
100
AcDbEntity
  8
1
 62
     4
420
    65535
100
AcDbLine
 10
137.7024702474
 20
-21.0760046122
 30
0.0
 11
138.3864260805
 21
-21.3319889904
 31
0.0
  0
ARC
  5
AF
330
1F
100
AcDbEntity
  8
1
 62
     4
420
    65535
100
AcDbCircle
 10
140.9153065043
 20
-14.6187242518
 30
0.0
 40
1.873927304120586
100
AcDbArc
 50
25.2104883899
 51
48.18242873139999
  0
ELLIPSE
  5
B0
330
1F
100
AcDbEntity
  8
1
 62
     4
420
    65535
100
AcDbEllipse
 10
143.1334993552
 20
-14.9845582093
 30
0.0
 11
-0.5183294738899918
 21
1.177471283168542
 31
0.0
210
0.0
220
0.0
230
1.0
 40
0.0576807774
 41
0.1279909520695207
 42
1.43698789106552
  0
ELLIPSE
  5
B1
330
1F
100
AcDbEntity
  8
1
 62
     4
420
    65535
100
AcDbEllipse
 10
124.7289815415
 20
-13.3579963381
 30
0.0
 11
3.17131993025825
 21
1.813271902807854
 31
0.0
210
0.0
220
0.0
230
1.0
 40
0.2747262039
 41
4.72886579408603
 42
5.538978018540559
  0
LINE
  5
B2
330
1F
100
AcDbEntity
  8
1
 62
     4
420
    65535
100
AcDbLine
 10
127.3993276184
 20
-12.6142794663
 30
0.0
 11
128.4315848812
 21
-12.8134853733
 31
0.0
  0
LINE
  5
B3
330
1F
100
AcDbEntity
  8
1
 62
     4
420
    65535
100
AcDbLine
 10
128.495246852
 20
-16.2085485965
 30
0.0
 11
125.8029078287
 21
-15.6889786634
 31
0.0
  0
ELLIPSE
  5
B4
330
1F
100
AcDbEntity
  8
1
 62
     4
420
    65535
100
AcDbEllipse
 10
129.683620903
 20
-14.3141469638
 30
0.0
 11
5.656465753803332
 21
-0.8199819476147656
 31
0.0
210
0.0
220
0.0
230
1.0
 40
0.435378491
 41
3.784826962119585
 42
4.02122142082556
  0
SPLINE
  5
B5
330
1F
100
AcDbEntity
  8
1
 62
     4
420
    65535
100
AcDbSpline
210
0.0
220
0.0
230
1.0
 70
     8
 71
     3
 72
    10
 73
     6
 74
     0
 42
0.000000001
 43
0.00000001
 40
0.0
 40
0.0
 40
0.0
 40
0.0
 40
0.5
 40
0.5
 40
1.0
 40
1.0
 40
1.0
 40
1.0
 10
124.9434176776397
 20
-15.1351265881826
 30
0.0
 10
124.8952794243794
 20
-14.92737648422867
 30
0.0
 10
124.9200676366553
 20
-14.73234793810207
 30
0.0
 10
125.0479338605636
 20
-14.4077500988861
 30
0.0
 10
125.1530522088726
 20
-14.27220292575691
 30
0.0
 10
125.2793181122775
 20
-14.19924717007695
 30
0.0
  0
ELLIPSE
  5
B6
330
1F
100
AcDbEntity
  8
1
 62
     4
420
    65535
100
AcDbEllipse
 10
135.9779520722
 20
-22.4912515141
 30
0.0
 11
1.202106951529373
 21
-0.4601794500141843
 31
0.0
210
0.0
220
0.0
230
1.0
 40
0.0550732389
 41
1.705613376417877
 42
3.014610315413742
  0
ARC
  5
B7
330
1F
100
AcDbEntity
  8
1
 62
     4
420
    65535
100
AcDbCircle
 10
135.5001288795
 20
-20.2944239308
 30
0.0
 40
1.872378301570247
100
AcDbArc
 50
224.6701319494
 51
247.6698974394
  0
ELLIPSE
  5
B8
330
1F
100
AcDbEntity
  8
1
 62
     4
420
    65535
100
AcDbEllipse
 10
141.5453751877
 20
-17.5003911864
 30
0.0
 11
-0.502664279050606
 21
0.8749733527088885
 31
0.0
210
0.0
220
0.0
230
1.0
 40
0.4951368029
 41
3.472563997413894
 42
4.484098648649704
  0
LINE
  5
B9
330
1F
100
AcDbEntity
  8
1
 62
     4
420
    65535
100
AcDbLine
 10
141.2760448667
 20
-20.1149213849
 30
0.0
 11
142.1615421329
 21
-18.2469982736
 31
0.0
  0
ELLIPSE
  5
BA
330
1F
100
AcDbEntity
  8
1
 62
     4
420
    65535
100
AcDbEllipse
 10
139.7169056977
 20
-18.9018130218
 30
0.0
 11
1.447085285219373
 21
-1.377299414380289
 31
0.0
210
0.0
220
0.0
230
1.0
 40
0.5506155436
 41
6.103038447008529
 42
6.462496449548488
  0
LINE
  5
BB
330
1F
100
AcDbEntity
  8
1
 62
     4
420
    65535
100
AcDbLine
 10
139.1808293235
 20
-21.3739843734
 30
0.0
 11
141.0046944848
 21
-20.3995878142
 31
0.0
  0
ELLIPSE
  5
BC
330
1F
100
AcDbEntity
  8
1
 62
     4
420
    65535
100
AcDbEllipse
 10
138.4048805558
 20
-20.7950001233
 30
0.0
 11
0.8988713212091283
 21
-0.459203417846755
 31
0.0
210
0.0
220
0.0
230
1.0
 40
0.4948511981
 41
4.940098169296387
 42
5.951632820532269
  0
LINE
  5
BD
330
1F
100
AcDbEntity
  8
1
 62
     4
420
    65535
100
AcDbLine
 10
129.8476088734
 20
-10.9415849995
 30
0.0
 11
131.2965460205
 21
-9.4215437852
 31
0.0
  0
LINE
  5
BE
330
1F
100
AcDbEntity
  8
1
 62
     4
420
    65535
100
AcDbLine
 10
131.2965460205
 20
-9.4215437852
 30
0.0
 11
131.0735565697
 21
-9.2054664026
 31
0.0
  0
ELLIPSE
  5
BF
330
1F
100
AcDbEntity
  8
1
 62
     4
420
    65535
100
AcDbEllipse
 10
131.2115505837
 20
-9.0607005727
 30
0.0
 11
0.2195801597158891
 21
-0.2153475644396234
 31
0.0
210
0.0
220
0.0
230
1.0
 40
0.6502483647
 41
3.150834999672604
 42
4.721631326467527
  0
LINE
  5
C0
330
1F
100
AcDbEntity
  8
1
 62
     4
420
    65535
100
AcDbLine
 10
132.8571184477
 20
-6.8886570565
 30
0.0
 11
130.9906856206
 21
-8.8466818243
 31
0.0
  0
LINE
  5
C1
330
1F
100
AcDbEntity
  8
1
 62
     4
420
    65535
100
AcDbLine
 10
129.2657604455
 20
-10.6562546985
 30
0.0
 11
127.3993276184
 21
-12.6142794663
 31
0.0
  0
ELLIPSE
  5
C2
330
1F
100
AcDbEntity
  8
1
 62
     4
420
    65535
100
AcDbEllipse
 10
129.4866254087
 20
-10.8702734468
 30
0.0
 11
0.2195801597158891
 21
-0.2153475644396234
 31
0.0
210
0.0
220
0.0
230
1.0
 40
0.6502483647
 41
1.580038672877674
 42
3.150834999672604
  0
LINE
  5
C3
330
1F
100
AcDbEntity
  8
1
 62
     4
420
    65535
100
AcDbLine
 10
129.6246194227
 20
-10.7255076169
 30
0.0
 11
129.8476088734
 21
-10.9415849995
 31
0.0
  0
ELLIPSE
  5
C4
330
1F
100
AcDbEntity
  8
1
 62
     4
420
    65535
100
AcDbEllipse
 10
141.3374510853
 20
-17.292467084
 30
0.0
 11
2.267961477641393
 21
1.054399624047967
 31
0.0
210
0.0
220
0.0
230
1.0
 40
0.8897522982
 41
5.144750762324093
 42
6.156285413559907
  0
ARC
  5
C5
330
1F
100
AcDbEntity
  8
1
 62
     4
420
    65535
100
AcDbCircle
 10
154.3962405604
 20
7.8899081623
 30
0.0
 40
28.85872006265318
100
AcDbArc
 50
244.915683502
 51
247.0417245175
  0
ELLIPSE
  5
C6
330
1F
100
AcDbEntity
  8
1
 62
     4
420
    65535
100
AcDbEllipse
 10
138.1969564534
 20
-20.5870760209
 30
0.0
 11
0.9079675356792052
 21
2.330888600404947
 31
0.0
210
0.0
220
0.0
230
1.0
 40
0.8880752513
 41
3.250598172250437
 42
4.262132823486322
  0
ARC
  5
C7
330
1F
100
AcDbEntity
  8
1
 62
     4
420
    65535
100
AcDbCircle
 10
109.7768670434
 20
-36.9210392141
 30
0.0
 40
33.26114718393629
100
AcDbArc
 50
26.024654221
 51
27.8672052544
  0
LINE
  5
C8
330
1F
100
AcDbEntity
  8
1
 62
     4
420
    65535
100
AcDbLine
 10
143.1395884301
 20
-18.6828881992
 30
0.0
 11
142.2540911639
 21
-20.5508113105
 31
0.0
  0
ARC
  5
C9
330
1F
100
AcDbEntity
  8
1
 62
     4
420
    65535
100
AcDbCircle
 10
153.5107432942
 20
6.021985051
 30
0.0
 40
28.85872006254837
100
AcDbArc
 50
244.915683502
 51
247.0417245175
  0
LINE
  5
CA
330
1F
100
AcDbEntity
  8
1
 62
     4
420
    65535
100
AcDbLine
 10
141.4893764513
 20
-21.3530530659
 30
0.0
 11
139.6655112899
 21
-22.3274496251
 31
0.0
  0
ARC
  5
CB
330
1F
100
AcDbEntity
  8
1
 62
     4
420
    65535
100
AcDbCircle
 10
111.6007322045
 20
-35.946642655
 30
0.0
 40
33.26114718412317
100
AcDbArc
 50
26.024654221
 51
27.8672052544
  0
ELLIPSE
  5
CC
330
1F
100
AcDbEntity
  8
1
 62
     4
420
    65535
100
AcDbEllipse
 10
139.5089815954
 20
-18.6938889194
 30
0.0
 11
2.381413295360431
 21
-2.315805474009675
 31
0.0
210
0.0
220
0.0
230
1.0
 40
0.9332285246
 41
6.11276805936231
 42
6.472226061902255
  0
ELLIPSE
  5
CD
330
1F
100
AcDbEntity
  8
1
 62
     4
420
    65535
100
AcDbEllipse
 10
138.7082924646
 20
-7.7196814054
 30
0.0
 11
-1.041759100578787
 21
1.080971200388673
 31
0.0
210
0.0
220
0.0
230
1.0
 40
0.2681478841
 41
0.6824953904084656
 42
1.729692941605063
  0
LINE
  5
CE
330
1F
100
AcDbEntity
  8
1
 62
     4
420
    65535
100
AcDbLine
 10
142.1757063352
 20
-11.5838391861
 30
0.0
 11
138.5869201568
 21
-8.1665486364
 31
0.0
  0
LINE
  5
CF
330
1F
100
AcDbEntity
  8
1
 62
     4
420
    65535
100
AcDbLine
 10
142.1647682578
 20
-13.2221395363
 30
0.0
 11
142.1757063352
 21
-11.5838391861
 31
0.0
  0
LINE
  5
D0
330
1F
100
AcDbEntity
  8
1
 62
     4
420
    65535
100
AcDbLine
 10
135.9200019099
 20
-5.3458533622
 30
0.0
 11
137.7170622411
 21
-7.0570384208
 31
0.0
  0
LINE
  5
D1
330
1F
100
AcDbEntity
  8
1
 62
     4
420
    65535
100
AcDbLine
 10
132.5536698021
 20
-21.6780604057
 30
0.0
 11
134.1685569911
 21
-21.6107509458
 31
0.0
  0
LINE
  5
D2
330
1F
100
AcDbEntity
  8
1
 62
     4
420
    65535
100
AcDbLine
 10
132.5536698021
 20
-21.6780604057
 30
0.0
 11
128.9648836237
 21
-18.260769856
 31
0.0
  0
ELLIPSE
  5
D3
330
1F
100
AcDbEntity
  8
1
 62
     4
420
    65535
100
AcDbEllipse
 10
128.5316251623
 20
-18.3957509334
 30
0.0
 11
1.129428352867194
 21
-0.989008167177687
 31
0.0
210
0.0
220
0.0
230
1.0
 40
0.261044056
 41
1.412245936382001
 42
2.45944348757868
  0
LINE
  5
D4
330
1F
100
AcDbEntity
  8
1
 62
     4
420
    65535
100
AcDbLine
 10
126.1972411261
 20
-15.8991511929
 30
0.0
 11
127.8177103234
 21
-17.4421837947
 31
0.0
  0
LINE
  5
D5
330
1F
100
AcDbEntity
  8
1
 62
     4
420
    65535
100
AcDbLine
 10
126.1972411261
 20
-15.8991511929
 30
0.0
 11
125.8029078287
 21
-15.6889786634
 31
0.0
  0
LINE
  5
D6
330
1F
100
AcDbEntity
  8
1
 62
     4
420
    65535
100
AcDbLine
 10
129.2351349377
 20
-10.3360231319
 30
0.0
 11
129.6246194227
 21
-10.7255076169
 31
0.0
  0
LINE
  5
D7
330
1F
100
AcDbEntity
  8
1
 62
     4
420
    65535
100
AcDbLine
 10
129.8587796537
 20
-10.9298660326
 30
0.0
 11
129.2351349377
 21
-10.3360231319
 31
0.0
  0
ARC
  5
D8
330
1F
100
AcDbEntity
  8
1
 62
     4
420
    65535
100
AcDbCircle
 10
145.0092950271
 20
-22.6771038123
 30
0.0
 40
2.001901941181722
100
AcDbArc
 50
306.4523136827
 51
3.6425897796
  0
LINE
  5
D9
330
1F
100
AcDbEntity
  8
1
 62
     4
420
    65535
100
AcDbLine
 10
146.1987321606
 20
-24.2873369282
 30
0.0
 11
143.1395884301
 21
-18.6828881992
 31
0.0
  0
LINE
  5
DA
330
1F
100
AcDbEntity
  8
1
 62
     4
420
    65535
100
AcDbLine
 10
143.7059083382
 20
-16.5019334794
 30
0.0
 11
147.0071526829
 21
-22.5499182431
 31
0.0
  0
LINE
  5
DB
330
1F
100
AcDbEntity
  8
1
 62
     4
420
    65535
100
AcDbLine
 10
142.2540911639
 20
-20.5508113105
 30
0.0
 11
146.1987321606
 21
-24.2873369282
 31
0.0
  0
LINE
  5
DC
330
1F
100
AcDbEntity
  8
1
 62
     4
420
    65535
100
AcDbLine
 10
139.6655112899
 20
-22.3274496251
 30
0.0
 11
145.4340174479
 21
-25.0895786837
 31
0.0
  0
LINE
  5
DD
330
1F
100
AcDbEntity
  8
1
 62
     4
420
    65535
100
AcDbLine
 10
145.4340174479
 20
-25.0895786837
 30
0.0
 11
141.4893764513
 21
-21.3530530659
 31
0.0
  0
ARC
  5
DE
330
1F
100
AcDbEntity
  8
1
 62
     4
420
    65535
100
AcDbCircle
 10
143.7864977762
 20
-23.9950789111
 30
0.0
 40
1.977941055985449
100
AcDbArc
 50
268.7862090945
 51
326.4026463137
  0
LINE
  5
DF
330
1F
100
AcDbEntity
  8
1
 62
     4
420
    65535
100
AcDbLine
 10
143.7445989259
 20
-25.9725761443
 30
0.0
 11
137.5195732293
 21
-22.9918522105
 31
0.0
  0
ELLIPSE
  5
E0
330
1F
100
AcDbEntity
  8
1
 62
     4
420
    65535
100
AcDbEllipse
 10
145.1848304066
 20
-24.0702855304
 30
0.0
 11
0.5460134977678877
 21
3.673775505909984
 31
0.0
210
0.0
220
0.0
230
1.0
 40
0.2786537457
 41
4.514986108172055
 42
4.694715109444175
  0
ELLIPSE
  5
E1
330
1F
100
AcDbEntity
  8
1
 62
     4
420
    65535
100
AcDbEllipse
 10
145.1848304067
 20
-24.0702855304
 30
0.0
 11
3.647551793516528
 21
0.7329740445401003
 31
0.0
210
0.0
220
0.0
230
1.0
 40
0.281814126
 41
4.724078927173725
 42
4.90380792844157
  0
ARC
  5
E2
330
1F
100
AcDbEntity
  8
1
 62
     4
420
    65535
100
AcDbCircle
 10
130.8219808802
 20
-8.6727717512
 30
0.0
 40
0.1988424396961347
100
AcDbArc
 50
136.0606494108
 51
224.700394861
  0
LINE
  5
E3
330
1F
100
AcDbEntity
  8
1
 62
     4
420
    65535
100
AcDbLine
 10
130.678799467
 20
-8.5347956708
 30
0.0
 11
130.9906856206
 21
-8.8466818243
 31
0.0
  0
LINE
  5
E4
330
1F
100
AcDbEntity
  8
1
 62
     4
420
    65535
100
AcDbLine
 10
129.2657604455
 20
-10.6562546985
 30
0.0
 11
128.953874292
 21
-10.3443685449
 31
0.0
  0
ARC
  5
E5
330
1F
100
AcDbEntity
  8
1
 62
     4
420
    65535
100
AcDbCircle
 10
129.0986805327
 20
-10.4809343906
 30
0.0
 40
0.1990454157982752
100
AcDbArc
 50
46.7215895547
 51
136.6775116071
  0
ELLIPSE
  5
E6
330
1F
100
AcDbEntity
  8
1
 62
     4
420
    65535
100
AcDbEllipse
 10
145.4598250339
 20
-18.2445349922
 30
0.0
 11
-0.6090966216681011
 21
1.530933408043548
 31
0.0
210
0.0
220
0.0
230
1.0
 40
0.133422267
 41
1.779537093552779
 42
2.403562625359443
  0
LINE
  5
E7
330
1F
100
AcDbEntity
  8
1
 62
     4
420
    65535
100
AcDbLine
 10
145.7729989053
 20
-19.4317916268
 30
0.0
 11
147.6802675054
 21
-23.724459336
 31
0.0
  0
ELLIPSE
  5
E8
330
1F
100
AcDbEntity
  8
1
 62
     4
420
    65535
100
AcDbEllipse
 10
147.4757139284
 20
-23.1376343802
 30
0.0
 11
-1.026928986867858
 21
1.783624665811558
 31
0.0
210
0.0
220
0.0
230
1.0
 40
0.0587812909
 41
1.201384401986616
 42
1.872018141118194
  0
LINE
  5
E9
330
1F
100
AcDbEntity
  8
1
 62
     4
420
    65535
100
AcDbLine
 10
142.6213871615
 20
-12.2258878659
 30
0.0
 11
142.6107405376
 21
-13.8205344375
 31
0.0
  0
LINE
  5
EA
330
1F
100
AcDbEntity
  8
1
 62
     4
420
    65535
100
AcDbLine
 10
142.6213871615
 20
-12.2258878659
 30
0.0
 11
145.3862203624
 21
-18.6412904732
 31
0.0
  0
ELLIPSE
  5
EB
330
1F
100
AcDbEntity
  8
1
 62
     4
420
    65535
100
AcDbEllipse
 10
140.7876841232
 20
-13.1212222991
 30
0.0
 11
0.9169145918351659
 21
1.866046028812812
 31
0.0
210
0.0
220
0.0
230
1.0
 40
0.9528284472
 41
5.599788037939287
 42
5.992515587058522
  0
ELLIPSE
  5
EC
330
1F
100
AcDbEntity
  8
1
 62
     4
420
    65535
100
AcDbEllipse
 10
144.3611694706
 20
-26.4050196835
 30
0.0
 11
1.840019615277356
 21
-0.9306549720523556
 31
0.0
210
0.0
220
0.0
230
1.0
 40
0.0559724231
 41
1.270022441615547
 42
1.940656180735056
  0
LINE
  5
ED
330
1F
100
AcDbEntity
  8
1
 62
     4
420
    65535
100
AcDbLine
 10
140.5720844172
 20
-24.8879319362
 30
0.0
 11
144.9560451675
 21
-26.5823681411
 31
0.0
  0
ELLIPSE
  5
EE
330
1F
100
AcDbEntity
  8
1
 62
     4
420
    65535
100
AcDbEllipse
 10
139.3764775433
 20
-24.626412167
 30
0.0
 11
1.55770046429123
 21
-0.5361414054370961
 31
0.0
210
0.0
220
0.0
230
1.0
 40
0.1275645153
 41
0.7408219920837875
 42
1.364847523880668
  0
LINE
  5
EF
330
1F
100
AcDbEntity
  8
1
 62
     4
420
    65535
100
AcDbLine
 10
133.2168760725
 20
-22.0919089591
 30
0.0
 11
139.7619683683
 21
-24.5415428395
 31
0.0
  0
LINE
  5
F0
330
1F
100
AcDbEntity
  8
1
 62
     4
420
    65535
100
AcDbLine
 10
134.7887333447
 20
-22.0263930118
 30
0.0
 11
133.2168760725
 21
-22.0919089591
 31
0.0
  0
ELLIPSE
  5
F1
330
1F
100
AcDbEntity
  8
1
 62
     4
420
    65535
100
AcDbEllipse
 10
134.0228859049
 20
-20.2179912094
 30
0.0
 11
1.828896514717258
 21
0.9902761980840574
 31
0.0
210
0.0
220
0.0
230
1.0
 40
0.9522448651
 41
3.441123691021513
 42
3.83385124014054
  0
LINE
  5
F2
330
1F
100
AcDbEntity
  8
1
 62
     4
420
    65535
100
AcDbLine
 10
134.3533556467
 20
-4.6799170456
 30
0.0
 11
130.678799467
 21
-8.5347956708
 31
0.0
  0
LINE
  5
F3
330
1F
100
AcDbEntity
  8
1
 62
     4
420
    65535
100
AcDbLine
 10
126.478571352
 20
-12.9411426661
 30
0.0
 11
125.2793181123
 21
-14.1992471701
 31
0.0
  0
LINE
  5
F4
330
1F
100
AcDbEntity
  8
1
 62
     4
420
    65535
100
AcDbLine
 10
128.953874292
 20
-10.3443685449
 30
0.0
 11
126.478571352
 21
-12.9411426661
 31
0.0
  0
LINE
  5
F5
330
1F
100
AcDbEntity
  8
1
 62
     4
420
    65535
100
AcDbLine
 10
125.3314880972
 20
-25.0019940657
 30
0.0
 11
122.0027086782
 21
-25.0019940657
 31
0.0
  0
LINE
  5
F6
330
1F
100
AcDbEntity
  8
1
 62
     4
420
    65535
100
AcDbLine
 10
122.0027086782
 20
-25.0019940657
 30
0.0
 11
122.0027086782
 21
-0.0019940657
 31
0.0
  0
LINE
  5
F7
330
1F
100
AcDbEntity
  8
1
 62
     4
420
    65535
100
AcDbLine
 10
122.0027086782
 20
-0.0019940657
 30
0.0
 11
126.8227086782
 21
-0.0019940657
 31
0.0
  0
LINE
  5
F8
330
1F
100
AcDbEntity
  8
1
 62
     4
420
    65535
100
AcDbLine
 10
126.8227086782
 20
-9.3227573964
 30
0.0
 11
126.8227086782
 21
-0.0019940657
 31
0.0
  0
LINE
  5
F9
330
1F
100
AcDbEntity
  8
1
 62
     4
420
    65535
100
AcDbLine
 10
126.8227086782
 20
-9.3227573964
 30
0.0
 11
126.478571352
 21
-12.9411426661
 31
0.0
  0
ELLIPSE
  5
FA
330
1F
100
AcDbEntity
  8
1
 62
     4
420
    65535
100
AcDbEllipse
 10
126.1756566257
 20
-16.1260984967
 30
0.0
 11
1.429261892967162
 21
3.54558180567629
 31
0.0
210
0.0
220
0.0
230
1.0
 40
0.398756914
 41
0.6395774484246488
 42
0.7870942885215301
  0
LINE
  5
FB
330
1F
100
AcDbEntity
  8
1
 62
     4
420
    65535
100
AcDbLine
 10
126.1972411261
 20
-15.8991511929
 30
0.0
 11
125.3314880972
 21
-25.0019940657
 31
0.0
  0
LINE
  5
FC
330
1F
100
AcDbEntity
  8
1
 62
     4
420
    65535
100
AcDbLine
 10
136.1434720088
 20
-0.0019940657
 30
0.0
 11
126.8227086782
 21
-9.3227573964
 31
0.0
  0
LINE
  5
FD
330
1F
100
AcDbEntity
  8
1
 62
     4
420
    65535
100
AcDbLine
 10
138.0363059186
 20
-0.0019940657
 30
0.0
 11
153.7727086782
 21
-15.7383968253
 31
0.0
  0
LINE
  5
FE
330
1F
100
AcDbEntity
  8
1
 62
     4
420
    65535
100
AcDbLine
 10
153.7727086782
 20
-16.2076473958
 30
0.0
 11
153.7727086782
 21
-15.7383968253
 31
0.0
  0
LINE
  5
FF
330
1F
100
AcDbEntity
  8
1
 62
     4
420
    65535
100
AcDbLine
 10
152.7941366828
 20
-19.8597278013
 30
0.0
 11
153.7727086782
 21
-16.2076473958
 31
0.0
  0
ARC
  5
100
330
1F
100
AcDbEntity
  8
1
 62
     4
420
    65535
100
AcDbCircle
 10
152.3887575548
 20
-20.533523359
 30
0.0
 40
0.786341332381974
100
AcDbArc
 50
58.96740323419999
 51
74.9659379816
  0
ARC
  5
101
330
1F
100
AcDbEntity
  8
1
 62
     4
420
    65535
100
AcDbCircle
 10
138.7769824375
 20
-28.3579834883
 30
0.0
 40
0.7997354094579563
100
AcDbArc
 50
164.4113839095
 51
176.9527910566
  0
LINE
  5
102
330
1F
100
AcDbEntity
  8
1
 62
     4
420
    65535
100
AcDbLine
 10
134.3417550224
 20
-27.3410404099
 30
0.0
 11
137.9783777951
 21
-28.3154705451
 31
0.0
  0
LINE
  5
103
330
1F
100
AcDbEntity
  8
1
 62
     4
420
    65535
100
AcDbLine
 10
134.3417550224
 20
-27.3410404099
 30
0.0
 11
132.0027086782
 21
-25.0019940657
 31
0.0
  0
LINE
  5
104
330
1F
100
AcDbEntity
  8
1
 62
     4
420
    65535
100
AcDbLine
 10
125.3314880972
 20
-25.0019940657
 30
0.0
 11
132.0027086782
 21
-25.0019940657
 31
0.0
  0
LINE
  5
105
330
1F
100
AcDbEntity
  8
1
 62
     4
420
    65535
100
AcDbLine
 10
138.0363059186
 20
-0.0019940657
 30
0.0
 11
136.1434720088
 21
-0.0019940657
 31
0.0
  0
LINE
  5
106
330
1F
100
AcDbEntity
  8
1
 62
     4
420
    65535
100
AcDbLine
 10
126.8227086782
 20
-0.0019940657
 30
0.0
 11
136.1434720088
 21
-0.0019940657
 31
0.0
  0
SPLINE
  5
107
330
1F
100
AcDbEntity
  8
1
 62
     4
420
    65535
100
AcDbSpline
210
0.0
220
0.0
230
1.0
 70
     8
 71
     3
 72
    10
 73
     6
 74
     0
 42
0.000000001
 43
0.00000001
 40
0.0
 40
0.0
 40
0.0
 40
0.0
 40
0.5
 40
0.5
 40
1.0
 40
1.0
 40
1.0
 40
1.0
 10
147.1720566751535
 20
-24.90412653042366
 30
0.0
 10
147.0174760471401
 20
-24.92989891224638
 30
0.0
 10
146.8469755799679
 20
-24.94564278377612
 30
0.0
 10
146.4828324810222
 20
-24.95753812367133
 30
0.0
 10
146.2884991776973
 20
-24.95384326666129
 30
0.0
 10
146.0815744903258
 20
-24.93999238933125
 30
0.0
  0
SPLINE
  5
108
330
1F
100
AcDbEntity
  8
1
 62
     4
420
    65535
100
AcDbSpline
210
0.0
220
0.0
230
1.0
 70
     8
 71
     3
 72
     8
 73
     4
 74
     0
 42
0.000000001
 43
0.00000001
 40
0.0
 40
0.0
 40
0.0
 40
0.0
 40
0.00007260154708
 40
0.00007260154708
 40
0.00007260154708
 40
0.00007260154708
 10
147.6802675053854
 20
-23.72445933604688
 30
0.0
 10
147.6898755831349
 20
-23.74608412717579
 30
0.0
 10
147.6994102687148
 20
-23.7676172902948
 30
0.0
 10
147.7088708063078
 20
-23.78904559156101
 30
0.0
  0
SPLINE
  5
109
330
1F
100
AcDbEntity
  8
1
 62
     4
420
    65535
100
AcDbSpline
210
0.0
220
0.0
230
1.0
 70
     8
 71
     3
 72
     8
 73
     4
 74
     0
 42
0.000000001
 43
0.00000001
 40
0.0
 40
0.0
 40
0.0
 40
0.0
 40
1.0
 40
1.0
 40
1.0
 40
1.0
 10
147.7088708063075
 20
-23.78904559156076
 30
0.0
 10
147.7593179457108
 20
-23.90330934143023
 30
0.0
 10
147.802076111953
 20
-24.02436215510909
 30
0.0
 10
147.8345320057658
 20
-24.14614437640805
 30
0.0
  0
SPLINE
  5
10A
330
1F
100
AcDbEntity
  8
1
 62
     4
420
    65535
100
AcDbSpline
210
0.0
220
0.0
230
1.0
 70
     8
 71
     3
 72
    14
 73
    10
 74
     0
 42
0.000000001
 43
0.00000001
 40
0.0
 40
0.0
 40
0.0
 40
0.0
 40
0.25
 40
0.25
 40
0.5
 40
0.5
 40
0.75
 40
0.75
 40
1.0
 40
1.0
 40
1.0
 40
1.0
 10
147.8345320057655
 20
-24.14614437640248
 30
0.0
 10
147.8141380472717
 20
-24.16501821226677
 30
0.0
 10
147.7892609172781
 20
-24.18272504766893
 30
0.0
 10
147.7303416357937
 20
-24.21218695368582
 30
0.0
 10
147.6960796871012
 20
-24.2242160683276
 30
0.0
 10
147.6194252252753
 20
-24.23223657084013
 30
0.0
 10
147.5763358956079
 20
-24.22831998791423
 30
0.0
 10
147.4861833008471
 20
-24.17974376465625
 30
0.0
 10
147.4406147461183
 20
-24.13305612623212
 30
0.0
 10
147.3979385041584
 20
-24.06916909111147
 30
0.0
  0
SPLINE
  5
10B
330
1F
100
AcDbEntity
  8
1
 62
     4
420
    65535
100
AcDbSpline
210
0.0
220
0.0
230
1.0
 70
     8
 71
     3
 72
    22
 73
    18
 74
     0
 42
0.000000001
 43
0.00000001
 40
0.0
 40
0.0
 40
0.0
 40
0.0
 40
0.2499999999999949
 40
0.2499999999999949
 40
0.3750000000000064
 40
0.3750000000000064
 40
0.4375000000000043
 40
0.4375000000000043
 40
0.5000000000000022
 40
0.5000000000000022
 40
0.5625000000000001
 40
0.5625000000000001
 40
0.6249999999999981
 40
0.6249999999999981
 40
0.7499999999999978
 40
0.7499999999999978
 40
1.0
 40
1.0
 40
1.0
 40
1.0
 10
147.3979385041584
 20
-24.06916909111145
 30
0.0
 10
147.3436969303617
 20
-23.98796856428439
 30
0.0
 10
147.2872851579685
 20
-23.91189997314278
 30
0.0
 10
147.1971991385788
 20
-23.81932126803207
 30
0.0
 10
147.1664225453875
 20
-23.79183130855267
 30
0.0
 10
147.1170188892604
 20
-23.76518800341129
 30
0.0
 10
147.0998022156603
 20
-23.75865361511598
 30
0.0
 10
147.064824168334
 20
-23.75888530296155
 30
0.0
 10
147.0461272163059
 20
-23.76636018277352
 30
0.0
 10
147.018695816103
 20
-23.81393008803313
 30
0.0
 10
147.0125794967671
 20
-23.85209207216833
 30
0.0
 10
147.0109672805903
 20
-23.92446506685632
 30
0.0
 10
147.014220322625
 20
-23.95943359467003
 30
0.0
 10
147.0283038219154
 20
-24.06082242828188
 30
0.0
 10
147.0434210147421
 20
-24.12235977931799
 30
0.0
 10
147.0949993095536
 20
-24.30038964498015
 30
0.0
 10
147.1377984793556
 20
-24.40689936958622
 30
0.0
 10
147.1842419525315
 20
-24.50625799386604
 30
0.0
  0
SPLINE
  5
10C
330
1F
100
AcDbEntity
  8
1
 62
     4
420
    65535
100
AcDbSpline
210
0.0
220
0.0
230
1.0
 70
     8
 71
     3
 72
    10
 73
     6
 74
     0
 42
0.000000001
 43
0.00000001
 40
0.0
 40
0.0
 40
0.0
 40
0.0
 40
0.5
 40
0.5
 40
1.0
 40
1.0
 40
1.0
 40
1.0
 10
147.1842419525315
 20
-24.50625799386604
 30
0.0
 10
147.2079765654939
 20
-24.55703452564754
 30
0.0
 10
147.2211561083633
 20
-24.62245341499613
 30
0.0
 10
147.2135033768203
 20
-24.76520200060167
 30
0.0
 10
147.1957122511712
 20
-24.83664558807495
 30
0.0
 10
147.1720566751535
 20
-24.90412653042361
 30
0.0
  0
SPLINE
  5
10D
330
1F
100
AcDbEntity
  8
1
 62
     4
420
    65535
100
AcDbSpline
210
0.0
220
0.0
230
1.0
 70
     8
 71
     3
 72
    22
 73
    18
 74
     0
 42
0.000000001
 43
0.00000001
 40
0.0
 40
0.0
 40
0.0
 40
0.0
 40
0.2499999999999712
 40
0.2499999999999712
 40
0.3749999999999605
 40
0.3749999999999605
 40
0.437499999999951
 40
0.437499999999951
 40
0.4999999999999416
 40
0.4999999999999416
 40
0.5624999999999322
 40
0.5624999999999322
 40
0.6249999999999228
 40
0.6249999999999228
 40
0.7499999999999486
 40
0.7499999999999486
 40
1.0
 40
1.0
 40
1.0
 40
1.0
 10
145.2810194096376
 20
-26.28997230366522
 30
0.0
 10
145.1968057221308
 20
-26.24021471982746
 30
0.0
 10
145.1175967136723
 20
-26.1880620994048
 30
0.0
 10
145.0199798573801
 20
-26.10338379389526
 30
0.0
 10
144.9907653774634
 20
-26.07425506314993
 30
0.0
 10
144.9613398332697
 20
-26.02665325501968
 30
0.0
 10
144.9538336637914
 20
-26.00993183652303
 30
0.0
 10
144.9520802450481
 20
-25.9753084550017
 30
0.0
 10
144.9584881409109
 20
-25.95644651023481
 30
0.0
 10
145.0044633468166
 20
-25.92700750803476
 30
0.0
 10
145.0422477336362
 20
-25.91911443531585
 30
0.0
 10
145.114471376332
 20
-25.91402820493838
 30
0.0
 10
145.1495965490831
 20
-25.91556053272806
 30
0.0
 10
145.2517035270925
 20
-25.92460628869025
 30
0.0
 10
145.314049543633
 20
-25.93659714373831
 30
0.0
 10
145.4948640197063
 20
-25.97904878761401
 30
0.0
 10
145.6037173408363
 20
-26.01626286844269
 30
0.0
 10
145.7056320845689
 20
-26.05742806616716
 30
0.0
  0
SPLINE
  5
10E
330
1F
100
AcDbEntity
  8
1
 62
     4
420
    65535
100
AcDbSpline
210
0.0
220
0.0
230
1.0
 70
     8
 71
     3
 72
    14
 73
    10
 74
     0
 42
0.000000001
 43
0.00000001
 40
0.0
 40
0.0
 40
0.0
 40
0.0
 40
0.25
 40
0.25
 40
0.5
 40
0.5
 40
0.75
 40
0.75
 40
1.0
 40
1.0
 40
1.0
 40
1.0
 10
145.3847611731785
 20
-26.71613344643723
 30
0.0
 10
145.4021113764092
 20
-26.69541089156902
 30
0.0
 10
145.4180850665376
 20
-26.67026222399025
 30
0.0
 10
145.4436536752708
 20
-26.61109014370601
 30
0.0
 10
145.4535093317267
 20
-26.57683665855373
 30
0.0
 10
145.4568311065352
 20
-26.50095622989027
 30
0.0
 10
145.4503479415703
 20
-26.4586370984748
 30
0.0
 10
145.3965411830507
 20
-26.3719314303537
 30
0.0
 10
145.3472771424546
 20
-26.32912062733025
 30
0.0
 10
145.2810194096377
 20
-26.28997230366522
 30
0.0
  0
SPLINE
  5
10F
330
1F
100
AcDbEntity
  8
1
 62
     4
420
    65535
100
AcDbSpline
210
0.0
220
0.0
230
1.0
 70
     8
 71
     3
 72
     8
 73
     4
 74
     0
 42
0.000000001
 43
0.00000001
 40
0.0
 40
0.0
 40
0.0
 40
0.0
 40
1.0
 40
1.0
 40
1.0
 40
1.0
 10
145.3847611731836
 20
-26.71613344643752
 30
0.0
 10
145.2621189752961
 20
-26.68956393608521
 30
0.0
 10
145.1379292750556
 20
-26.65221299581689
 30
0.0
 10
145.0220085482657
 20
-26.6077609358843
 30
0.0
  0
SPLINE
  5
110
330
1F
100
AcDbEntity
  8
1
 62
     4
420
    65535
100
AcDbSpline
210
0.0
220
0.0
230
1.0
 70
     8
 71
     3
 72
     8
 73
     4
 74
     0
 42
0.000000001
 43
0.00000001
 40
0.0
 40
0.0
 40
0.0
 40
0.0
 40
0.0000726015470976
 40
0.0000726015470976
 40
0.0000726015470976
 40
0.0000726015470976
 10
145.0220085482657
 20
-26.6077609358843
 30
0.0
 10
145.0001222215276
 20
-26.59936819771913
 30
0.0
 10
144.9781298574685
 20
-26.59090405194977
 30
0.0
 10
144.956045167484
 20
-26.58236814106605
 30
0.0
  0
SPLINE
  5
111
330
1F
100
AcDbEntity
  8
1
 62
     4
420
    65535
100
AcDbSpline
210
0.0
220
0.0
230
1.0
 70
     8
 71
     3
 72
    10
 73
     6
 74
     0
 42
0.000000001
 43
0.00000001
 40
0.0
 40
0.0
 40
0.0
 40
0.0
 40
0.5
 40
0.5
 40
1.0
 40
1.0
 40
1.0
 40
1.0
 10
146.1029384763476
 20
-26.02570984299913
 30
0.0
 10
146.1203213351374
 20
-25.87107992937085
 30
0.0
 10
146.1269796019577
 20
-25.70097131055312
 30
0.0
 10
146.1197642469063
 20
-25.33842329910161
 30
0.0
 10
146.1060061981683
 20
-25.14529177135828
 30
0.0
 10
146.0815744903257
 20
-24.93999238933125
 30
0.0
  0
SPLINE
  5
112
330
1F
100
AcDbEntity
  8
1
 62
     4
420
    65535
100
AcDbSpline
210
0.0
220
0.0
230
1.0
 70
     8
 71
     3
 72
    10
 73
     6
 74
     0
 42
0.000000001
 43
0.00000001
 40
0.0
 40
0.0
 40
0.0
 40
0.0
 40
0.5
 40
0.5
 40
1.0
 40
1.0
 40
1.0
 40
1.0
 10
146.1029384763523
 20
-26.02570984300839
 30
0.0
 10
146.0364513684128
 20
-26.05263273861659
 30
0.0
 10
145.9661123400208
 20
-26.07363124246915
 30
0.0
 10
145.8251974622794
 20
-26.08826787976788
 30
0.0
 10
145.7577944109479
 20
-26.07849736782573
 30
0.0
 10
145.7056320845689
 20
-26.05742806616716
 30
0.0
  0
SPLINE
  5
113
330
1F
100
AcDbEntity
  8
1
 62
     4
420
    65535
100
AcDbSpline
210
0.0
220
0.0
230
1.0
 70
     8
 71
     3
 72
    12
 73
     8
 74
     0
 42
0.000000001
 43
0.00000001
 40
0.0
 40
0.0
 40
0.0
 40
0.0
 40
0.2500000000000078
 40
0.2500000000000078
 40
0.5000000000000157
 40
0.5000000000000157
 40
1.0
 40
1.0
 40
1.0
 40
1.0
 10
147.1720566751418
 20
-24.90412653042555
 30
0.0
 10
147.127797883
 20
-25.0303811182983
 30
0.0
 10
147.0716304226699
 20
-25.15040606441549
 30
0.0
 10
146.9343895690184
 20
-25.3772599054963
 30
0.0
 10
146.8521008218479
 20
-25.48520063355297
 30
0.0
 10
146.5770493124177
 20
-25.77394058571814
 30
0.0
 10
146.3508805084874
 20
-25.92530966536661
 30
0.0
 10
146.1029384763537
 20
-26.02570984300784
 30
0.0
  0
LINE
  5
114
330
1F
100
AcDbEntity
  8
1
 62
     4
420
    65535
100
AcDbLine
 10
147.3979385042
 20
-24.0691690911
 30
0.0
 11
147.4052625445
 21
-24.4597567482
 31
0.0
  0
LINE
  5
115
330
1F
100
AcDbEntity
  8
1
 62
     4
420
    65535
100
AcDbLine
 10
147.1842419525
 20
-24.5062579939
 30
0.0
 11
147.4052625445
 21
-24.4597567482
 31
0.0
  0
LINE
  5
116
330
1F
100
AcDbEntity
  8
1
 62
     4
420
    65535
100
AcDbLine
 10
145.7056320846
 20
-26.0574280662
 30
0.0
 11
145.6717104121
 21
-26.2783799326
 31
0.0
  0
LINE
  5
117
330
1F
100
AcDbEntity
  8
1
 62
     4
420
    65535
100
AcDbLine
 10
145.2810194096
 20
-26.2899723037
 30
0.0
 11
145.6717104121
 21
-26.2783799326
 31
0.0
  0
ARC
  5
118
330
1F
100
AcDbEntity
  8
1
 62
     4
420
    65535
100
AcDbCircle
 10
145.6157978014
 20
-24.489540939
 30
0.0
 40
1.789712592847767
100
AcDbArc
 50
271.7902751382001
 51
0.9535537828000001
  0
SPLINE
  5
119
330
1F
100
AcDbEntity
  8
1
 62
     4
420
    65535
100
AcDbSpline
210
0.0
220
0.0
230
1.0
 70
     8
 71
     3
 72
     8
 73
     4
 74
     0
 42
0.000000001
 43
0.00000001
 40
0.0
 40
0.0
 40
0.0
 40
0.0
 40
1.0
 40
1.0
 40
1.0
 40
1.0
 10
147.8345320057657
 20
-24.14614437640822
 30
0.0
 10
147.8437395388842
 20
-24.19695930638041
 30
0.0
 10
147.8516562370329
 20
-24.25098473183663
 30
0.0
 10
147.858185285645
 20
-24.3115409968345
 30
0.0
  0
ARC
  5
11A
330
1F
100
AcDbEntity
  8
1
 62
     4
420
    65535
100
AcDbCircle
 10
147.1867860118
 20
-23.0259924732
 30
0.0
 40
1.450314445757087
100
AcDbArc
 50
278.6640638451
 51
297.5765693530001
  0
ARC
  5
11B
330
1F
100
AcDbEntity
  8
1
 62
     4
420
    65535
100
AcDbCircle
 10
144.2362998595
 20
-26.1403796535
 30
0.0
 40
1.44202896340503
100
AcDbArc
 50
335.8153454818
 51
354.5084651179
  0
SPLINE
  5
11C
330
1F
100
AcDbEntity
  8
1
 62
     4
420
    65535
100
AcDbSpline
210
0.0
220
0.0
230
1.0
 70
     8
 71
     3
 72
     8
 73
     4
 74
     0
 42
0.000000001
 43
0.00000001
 40
0.0
 40
0.0
 40
0.0
 40
0.0
 40
1.0
 40
1.0
 40
1.0
 40
1.0
 10
145.3847611731841
 20
-26.71613344643711
 30
0.0
 10
145.4361977230339
 20
-26.72264704422469
 30
0.0
 10
145.4907657268646
 20
-26.72773183241667
 30
0.0
 10
145.5517617574132
 20
-26.73114824319464
 30
0.0
  0
SPLINE
  5
11D
330
1F
100
AcDbEntity
  8
1
 62
     4
420
    65535
100
AcDbSpline
210
0.0
220
0.0
230
1.0
 70
     8
 71
     3
 72
     9
 73
     5
 74
     0
 42
0.000000001
 43
0.00000001
 40
0.0
 40
0.0
 40
0.0
 40
0.0
 40
0.8377976160154849
 40
1.0
 40
1.0
 40
1.0
 40
1.0
 10
146.4151504758367
 20
-26.56690301274092
 30
0.0
 10
146.1769419567289
 20
-26.64751994120278
 30
0.0
 10
145.8926149133547
 20
-26.74374476557657
 30
0.0
 10
145.5993328132331
 20
-26.73290627259499
 30
0.0
 10
145.5517617574134
 20
-26.73114824319458
 30
0.0
  0
SPLINE
  5
11E
330
1F
100
AcDbEntity
  8
1
 62
     4
420
    65535
100
AcDbSpline
210
0.0
220
0.0
230
1.0
 70
     8
 71
     3
 72
     9
 73
     5
 74
     0
 42
0.000000001
 43
0.00000001
 40
0.0
 40
0.0
 40
0.0
 40
0.0
 40
0.6956259287337596
 40
1.0
 40
1.0
 40
1.0
 40
1.0
 10
147.858185285645
 20
-24.3115409968347
 30
0.0
 10
147.8710231104086
 20
-24.52335178320714
 30
0.0
 10
147.8894781797688
 20
-24.82784127622817
 30
0.0
 10
147.7496463614355
 20
-25.10037130630733
 30
0.0
 10
147.7070851815968
 20
-25.18332238110483
 30
0.0
  0
LINE
  5
11F
330
1F
100
AcDbEntity
  8
1
 62
     4
420
    65535
100
AcDbLine
 10
1.0027086782
 20
-0.0019940657
 30
0.0
 11
1.0027086782
 21
-25.0019940657
 31
0.0
  0
LINE
  5
120
330
1F
100
AcDbEntity
  8
1
 62
     4
420
    65535
100
AcDbLine
 10
122.0027086782
 20
-25.0019940657
 30
0.0
 11
1.0027086782
 21
-25.0019940657
 31
0.0
  0
LINE
  5
121
330
1F
100
AcDbEntity
  8
1
 62
     4
420
    65535
100
AcDbLine
 10
122.0027086782
 20
-0.0019940657
 30
0.0
 11
1.0027086782
 21
-0.0019940657
 31
0.0
  0
LINE
  5
122
330
1F
100
AcDbEntity
  8
1
 62
     4
420
    65535
100
AcDbLine
 10
1.0027086782
 20
-25.0019940657
 30
0.0
 11
0.0027086782
 21
-24.0019940657
 31
0.0
  0
LINE
  5
123
330
1F
100
AcDbEntity
  8
1
 62
     4
420
    65535
100
AcDbLine
 10
0.0027086782
 20
-24.0019940657
 30
0.0
 11
0.0027086782
 21
-1.0019940657
 31
0.0
  0
LINE
  5
124
330
1F
100
AcDbEntity
  8
1
 62
     4
420
    65535
100
AcDbLine
 10
1.0027086782
 20
-0.0019940657
 30
0.0
 11
0.0027086782
 21
-1.0019940657
 31
0.0
  0
DIMENSION
  5
125
330
1F
100
AcDbEntity
  8
2
  6
SLD-Durchgehend
 62
     7
370
    15
100
AcDbDimension
  2
_D
 10
0.0027086781999941
 20
5.9980309343
 30
0.0
 11
75.0027086782
 21
5.9980309343
 31
0.0
 70
   160
  1
<>
 71
     2
 42
150.0
  3
SLDDIMSTYLE0
100
AcDbAlignedDimension
 13
150.0027086782
 23
-32.0019940657
 33
0.0
 14
0.0027086782
 24
-0.0019940657
 34
0.0
100
AcDbRotatedDimension
  0
DIMENSION
  5
131
330
1F
100
AcDbEntity
  8
2
  6
SLD-Durchgehend
 62
     7
370
    15
100
AcDbDimension
  2
_D_1
 10
-5.997291321799999
 20
-0.0019940656999999
 30
0.0
 11
-5.9972913218
 21
-12.5019940657
 31
0.0
 70
   160
  1
<>
 71
     2
 42
25.0
  3
SLDDIMSTYLE0
100
AcDbAlignedDimension
 13
1.0027086782
 23
-25.0019940657
 33
0.0
 14
1.0027086782
 24
-0.0019940657
 34
0.0
 50
90.0
100
AcDbRotatedDimension
  0
DIMENSION
  5
13B
330
1F
100
AcDbEntity
  8
2
  6
SLD-Durchgehend
 62
     7
370
    15
100
AcDbDimension
  2
_D_2
 10
159.7727086782
 20
-0.0019940656999999
 30
0.0
 11
159.7727086782
 21
-16.0019940657
 31
0.0
 70
   160
  1
<>
 71
     2
 42
32.0
  3
SLDDIMSTYLE0
100
AcDbAlignedDimension
 13
150.0027086782
 23
-32.0019940657
 33
0.0
 14
153.7727086782
 24
-0.0019940657
 34
0.0
 50
90.0
100
AcDbRotatedDimension
  0
DIMENSION
  5
145
330
1F
100
AcDbEntity
  8
2
  6
SLD-Durchgehend
 62
     7
370
    15
100
AcDbDimension
  2
_D_3
 10
150.0027086782
 20
-38.0019940657
 30
0.0
 11
136.0027086782
 21
-38.0019940657
 31
0.0
 70
   160
  1
<>
 71
     2
 42
28.00000000000001
  3
SLDDIMSTYLE0
100
AcDbAlignedDimension
 13
122.0027086782
 23
-0.0019940657
 33
0.0
 14
150.0027086782
 24
-32.0019940657
 34
0.0
100
AcDbRotatedDimension
  0
ENDSEC
  0
SECTION
  2
OBJECTS
  0
DICTIONARY
  5
C
330
0
100
AcDbDictionary
281
     1
  3
ACAD_DETAILVIEWSTYLE
350
16B
  3
ACAD_GROUP
350
D
  3
ACAD_IMAGE_VARS
350
189
  3
ACAD_LAYOUT
350
1A
  3
ACAD_MATERIAL
350
43
  3
ACAD_MLEADERSTYLE
350
16A
  3
ACAD_MLINESTYLE
350
17
  3
ACAD_PLOTSETTINGS
350
19
  3
ACAD_PLOTSTYLENAME
350
E
  3
ACAD_SCALELIST
350
47
  3
ACAD_SECTIONVIEWSTYLE
350
16C
  3
ACAD_TABLESTYLE
350
169
  3
ACDB_RECOMPOSE_DATA
350
19A
  3
AcDbVariableDictionary
350
167
  3
APPDATA
350
187
  0
DICTIONARY
  5
16B
102
{ACAD_REACTORS
330
C
102
}
330
C
100
AcDbDictionary
281
     1
  0
DICTIONARY
  5
D
102
{ACAD_REACTORS
330
C
102
}
330
C
100
AcDbDictionary
281
     1
  0
RASTERVARIABLES
  5
189
102
{ACAD_REACTORS
330
C
102
}
330
C
100
AcDbRasterVariables
 90
        0
 70
     1
 71
     1
 72
     1
  0
DICTIONARY
  5
1A
102
{ACAD_REACTORS
330
C
102
}
330
C
100
AcDbDictionary
281
     1
  3
Layout1
350
1E
  3
Layout2
350
26
  3
Model
350
22
  0
DICTIONARY
  5
43
102
{ACAD_REACTORS
330
C
102
}
330
C
100
AcDbDictionary
281
     1
  3
ByBlock
350
45
  3
ByLayer
350
44
  3
Global
350
46
  0
DICTIONARY
  5
16A
102
{ACAD_REACTORS
330
C
102
}
330
C
100
AcDbDictionary
281
     1
  0
DICTIONARY
  5
17
102
{ACAD_REACTORS
330
C
102
}
330
C
100
AcDbDictionary
281
     1
  3
Standard
350
18
  0
DICTIONARY
  5
19
102
{ACAD_REACTORS
330
C
102
}
330
C
100
AcDbDictionary
281
     1
  0
ACDBDICTIONARYWDFLT
  5
E
102
{ACAD_REACTORS
330
C
102
}
330
C
100
AcDbDictionary
281
     1
  3
Normal
350
F
100
AcDbDictionaryWithDefault
340
F
  0
DICTIONARY
  5
47
102
{ACAD_REACTORS
330
C
102
}
330
C
100
AcDbDictionary
281
     1
  3
A0
350
48
  3
A1
350
49
  3
A2
350
4A
  3
A3
350
4B
  3
A4
350
4C
  3
A5
350
4D
  3
A6
350
4E
  3
A7
350
4F
  3
A8
350
50
  3
A9
350
51
  3
B0
350
52
  3
B1
350
53
  3
B2
350
54
  3
B3
350
55
  3
B4
350
56
  3
B5
350
57
  3
B6
350
58
  3
B7
350
59
  3
B8
350
5A
  3
B9
350
5B
  3
C0
350
5C
  3
C1
350
5D
  3
C2
350
5E
  3
C3
350
5F
  3
C4
350
60
  3
C5
350
61
  3
C6
350
62
  3
C7
350
63
  3
C8
350
64
  3
C9
350
65
  3
D0
350
66
  3
D1
350
67
  3
D2
350
68
  0
DICTIONARY
  5
16C
102
{ACAD_REACTORS
330
C
102
}
330
C
100
AcDbDictionary
281
     1
  0
DICTIONARY
  5
169
102
{ACAD_REACTORS
330
C
102
}
330
C
100
AcDbDictionary
281
     1
  3
Standard
350
186
  0
XRECORD
  5
19A
102
{ACAD_REACTORS
330
C
102
}
330
C
100
AcDbXrecord
280
     1
 90
        1
330
186
  0
DICTIONARY
  5
167
102
{ACAD_REACTORS
330
C
102
}
330
C
100
AcDbDictionary
281
     1
  3
CANNOSCALE
350
168
  3
CTABLESTYLE
350
19B
  3
MSLTSCALE
350
19C
  3
XCLIPFRAME
350
19D
  0
DICTIONARY
  5
187
102
{ACAD_REACTORS
330
C
102
}
330
C
100
AcDbDictionary
281
     1
  0
LAYOUT
  5
1E
102
{ACAD_REACTORS
330
1A
102
}
330
1A
100
AcDbPlotSettings
  1

  2
none_device
  4

  6

 40
0.0
 41
0.0
 42
0.0
 43
0.0
 44
0.0
 45
0.0
 46
0.0
 47
0.0
 48
0.0
 49
0.0
140
0.0
141
0.0
142
1.0
143
1.0
 70
   688
 72
     1
 73
     0
 74
     5
  7

 75
    16
 76
     0
 77
     2
 78
   300
147
1.0
148
0.0
149
0.0
100
AcDbLayout
  1
Layout1
 70
     1
 71
     1
 10
0.0
 20
0.0
 11
420.0
 21
297.0
 12
0.0
 22
0.0
 32
0.0
 14
1.000000000000000E+20
 24
1.000000000000000E+20
 34
1.000000000000000E+20
 15
-1.000000000000000E+20
 25
-1.000000000000000E+20
 35
-1.000000000000000E+20
146
0.0
 13
0.0
 23
0.0
 33
0.0
 16
1.0
 26
0.0
 36
0.0
 17
0.0
 27
1.0
 37
0.0
 76
     0
330
1B
  0
LAYOUT
  5
26
102
{ACAD_REACTORS
330
1A
102
}
330
1A
100
AcDbPlotSettings
  1

  2
none_device
  4

  6

 40
0.0
 41
0.0
 42
0.0
 43
0.0
 44
0.0
 45
0.0
 46
0.0
 47
0.0
 48
0.0
 49
0.0
140
0.0
141
0.0
142
1.0
143
1.0
 70
   688
 72
     1
 73
     0
 74
     5
  7

 75
    16
 76
     0
 77
     2
 78
   300
147
1.0
148
0.0
149
0.0
100
AcDbLayout
  1
Layout2
 70
     1
 71
     2
 10
0.0
 20
0.0
 11
0.0
 21
0.0
 12
0.0
 22
0.0
 32
0.0
 14
0.0
 24
0.0
 34
0.0
 15
0.0
 25
0.0
 35
0.0
146
0.0
 13
0.0
 23
0.0
 33
0.0
 16
1.0
 26
0.0
 36
0.0
 17
0.0
 27
1.0
 37
0.0
 76
     0
330
23
  0
LAYOUT
  5
22
102
{ACAD_REACTORS
330
1A
102
}
330
1A
100
AcDbPlotSettings
  1

  2
none_device
  4
Letter_(8.50_x_11.00_Inches)
  6

 40
6.35
 41
6.35
 42
6.35000508
 43
6.35000508
 44
215.9
 45
279.4
 46
0.0
 47
0.0
 48
0.0
 49
0.0
140
0.0
141
0.0
142
1.0
143
1.0
 70
  1712
 72
     1
 73
     0
 74
     0
  7

 75
     0
 76
     0
 77
     2
 78
   300
147
1.0
148
0.0
149
0.0
100
AcDbLayout
  1
Model
 70
     1
 71
     0
 10
0.0
 20
0.0
 11
297.0
 21
210.0
 12
0.0
 22
0.0
 32
0.0
 14
0.0
 24
0.0
 34
0.0
 15
297.0
 25
210.0
 35
0.0
146
0.0
 13
0.0
 23
0.0
 33
0.0
 16
1.0
 26
0.0
 36
0.0
 17
0.0
 27
1.0
 37
0.0
 76
     0
330
1F
331
29
  0
MATERIAL
  5
45
102
{ACAD_REACTORS
330
43
102
}
330
43
100
AcDbMaterial
  1
ByBlock
  0
MATERIAL
  5
44
102
{ACAD_REACTORS
330
43
102
}
330
43
100
AcDbMaterial
  1
ByLayer
  0
MATERIAL
  5
46
102
{ACAD_REACTORS
330
43
102
}
330
43
100
AcDbMaterial
  1
Global
  0
MLINESTYLE
  5
18
102
{ACAD_REACTORS
330
17
102
}
330
17
100
AcDbMlineStyle
  2
Standard
 70
     0
  3

 62
   256
 51
90.0
 52
90.0
 71
     2
 49
0.5
 62
   256
  6
BYLAYER
 49
-0.5
 62
   256
  6
BYLAYER
  0
ACDBPLACEHOLDER
  5
F
102
{ACAD_REACTORS
330
E
102
}
330
E
  0
SCALE
  5
48
102
{ACAD_REACTORS
330
47
102
}
330
47
100
AcDbScale
 70
     0
300
1:1
140
1.0
141
1.0
290
     1
  0
SCALE
  5
49
102
{ACAD_REACTORS
330
47
102
}
330
47
100
AcDbScale
 70
     0
300
1:2
140
1.0
141
2.0
290
     0
  0
SCALE
  5
4A
102
{ACAD_REACTORS
330
47
102
}
330
47
100
AcDbScale
 70
     0
300
1:4
140
1.0
141
4.0
290
     0
  0
SCALE
  5
4B
102
{ACAD_REACTORS
330
47
102
}
330
47
100
AcDbScale
 70
     0
300
1:5
140
1.0
141
5.0
290
     0
  0
SCALE
  5
4C
102
{ACAD_REACTORS
330
47
102
}
330
47
100
AcDbScale
 70
     0
300
1:8
140
1.0
141
8.0
290
     0
  0
SCALE
  5
4D
102
{ACAD_REACTORS
330
47
102
}
330
47
100
AcDbScale
 70
     0
300
1:10
140
1.0
141
10.0
290
     0
  0
SCALE
  5
4E
102
{ACAD_REACTORS
330
47
102
}
330
47
100
AcDbScale
 70
     0
300
1:16
140
1.0
141
16.0
290
     0
  0
SCALE
  5
4F
102
{ACAD_REACTORS
330
47
102
}
330
47
100
AcDbScale
 70
     0
300
1:20
140
1.0
141
20.0
290
     0
  0
SCALE
  5
50
102
{ACAD_REACTORS
330
47
102
}
330
47
100
AcDbScale
 70
     0
300
1:30
140
1.0
141
30.0
290
     0
  0
SCALE
  5
51
102
{ACAD_REACTORS
330
47
102
}
330
47
100
AcDbScale
 70
     0
300
1:40
140
1.0
141
40.0
290
     0
  0
SCALE
  5
52
102
{ACAD_REACTORS
330
47
102
}
330
47
100
AcDbScale
 70
     0
300
1:50
140
1.0
141
50.0
290
     0
  0
SCALE
  5
53
102
{ACAD_REACTORS
330
47
102
}
330
47
100
AcDbScale
 70
     0
300
1:100
140
1.0
141
100.0
290
     0
  0
SCALE
  5
54
102
{ACAD_REACTORS
330
47
102
}
330
47
100
AcDbScale
 70
     0
300
2:1
140
2.0
141
1.0
290
     0
  0
SCALE
  5
55
102
{ACAD_REACTORS
330
47
102
}
330
47
100
AcDbScale
 70
     0
300
4:1
140
4.0
141
1.0
290
     0
  0
SCALE
  5
56
102
{ACAD_REACTORS
330
47
102
}
330
47
100
AcDbScale
 70
     0
300
8:1
140
8.0
141
1.0
290
     0
  0
SCALE
  5
57
102
{ACAD_REACTORS
330
47
102
}
330
47
100
AcDbScale
 70
     0
300
10:1
140
10.0
141
1.0
290
     0
  0
SCALE
  5
58
102
{ACAD_REACTORS
330
47
102
}
330
47
100
AcDbScale
 70
     0
300
100:1
140
100.0
141
1.0
290
     0
  0
SCALE
  5
59
102
{ACAD_REACTORS
330
47
102
}
330
47
100
AcDbScale
 70
     0
300
1/128" = 1'-0"
140
0.0078125
141
12.0
290
     0
  0
SCALE
  5
5A
102
{ACAD_REACTORS
330
47
102
}
330
47
100
AcDbScale
 70
     0
300
1/64" = 1'-0"
140
0.015625
141
12.0
290
     0
  0
SCALE
  5
5B
102
{ACAD_REACTORS
330
47
102
}
330
47
100
AcDbScale
 70
     0
300
1/32" = 1'-0"
140
0.03125
141
12.0
290
     0
  0
SCALE
  5
5C
102
{ACAD_REACTORS
330
47
102
}
330
47
100
AcDbScale
 70
     0
300
1/16" = 1'-0"
140
0.0625
141
12.0
290
     0
  0
SCALE
  5
5D
102
{ACAD_REACTORS
330
47
102
}
330
47
100
AcDbScale
 70
     0
300
3/32" = 1'-0"
140
0.09375
141
12.0
290
     0
  0
SCALE
  5
5E
102
{ACAD_REACTORS
330
47
102
}
330
47
100
AcDbScale
 70
     0
300
1/8" = 1'-0"
140
0.125
141
12.0
290
     0
  0
SCALE
  5
5F
102
{ACAD_REACTORS
330
47
102
}
330
47
100
AcDbScale
 70
     0
300
3/16" = 1'-0"
140
0.1875
141
12.0
290
     0
  0
SCALE
  5
60
102
{ACAD_REACTORS
330
47
102
}
330
47
100
AcDbScale
 70
     0
300
1/4" = 1'-0"
140
0.25
141
12.0
290
     0
  0
SCALE
  5
61
102
{ACAD_REACTORS
330
47
102
}
330
47
100
AcDbScale
 70
     0
300
3/8" = 1'-0"
140
0.375
141
12.0
290
     0
  0
SCALE
  5
62
102
{ACAD_REACTORS
330
47
102
}
330
47
100
AcDbScale
 70
     0
300
1/2" = 1'-0"
140
0.5
141
12.0
290
     0
  0
SCALE
  5
63
102
{ACAD_REACTORS
330
47
102
}
330
47
100
AcDbScale
 70
     0
300
3/4" = 1'-0"
140
0.75
141
12.0
290
     0
  0
SCALE
  5
64
102
{ACAD_REACTORS
330
47
102
}
330
47
100
AcDbScale
 70
     0
300
1" = 1'-0"
140
1.0
141
12.0
290
     0
  0
SCALE
  5
65
102
{ACAD_REACTORS
330
47
102
}
330
47
100
AcDbScale
 70
     0
300
1-1/2" = 1'-0"
140
1.5
141
12.0
290
     0
  0
SCALE
  5
66
102
{ACAD_REACTORS
330
47
102
}
330
47
100
AcDbScale
 70
     0
300
3" = 1'-0"
140
3.0
141
12.0
290
     0
  0
SCALE
  5
67
102
{ACAD_REACTORS
330
47
102
}
330
47
100
AcDbScale
 70
     0
300
6" = 1'-0"
140
6.0
141
12.0
290
     0
  0
SCALE
  5
68
102
{ACAD_REACTORS
330
47
102
}
330
47
100
AcDbScale
 70
     0
300
1'-0" = 1'-0"
140
12.0
141
12.0
290
     0
  0
TABLESTYLE
  5
186
102
{ACAD_REACTORS
330
169
102
}
102
{ACAD_XDICTIONARY
360
197
102
}
330
169
100
AcDbTableStyle
  3
Standard
 70
     0
 71
     0
 40
0.06
 41
0.06
280
     0
281
     0
  7
Standard
140
4.5
170
     2
 62
     0
 63
   257
283
     0
274
    -2
284
     1
 64
     0
275
    -2
285
     1
 65
     0
276
    -2
286
     1
 66
     0
277
    -2
287
     1
 67
     0
278
    -2
288
     1
 68
     0
279
    -2
289
     1
 69
     0
  7
Standard
140
6.0
170
     5
 62
     0
 63
   257
283
     0
274
    -2
284
     1
 64
     0
275
    -2
285
     1
 65
     0
276
    -2
286
     1
 66
     0
277
    -2
287
     1
 67
     0
278
    -2
288
     1
 68
     0
279
    -2
289
     1
 69
     0
  7
Standard
140
4.5
170
     5
 62
     0
 63
   257
283
     0
274
    -2
284
     1
 64
     0
275
    -2
285
     1
 65
     0
276
    -2
286
     1
 66
     0
277
    -2
287
     1
 67
     0
278
    -2
288
     1
 68
     0
279
    -2
289
     1
 69
     0
  0
DICTIONARYVAR
  5
168
102
{ACAD_REACTORS
330
167
102
}
330
167
100
DictionaryVariables
280
     0
  1
1:1
  0
DICTIONARYVAR
  5
19B
102
{ACAD_REACTORS
330
167
102
}
330
167
100
DictionaryVariables
280
     0
  1
Standard
  0
DICTIONARYVAR
  5
19C
102
{ACAD_REACTORS
330
167
102
}
330
167
100
DictionaryVariables
280
     0
  1
0
  0
DICTIONARYVAR
  5
19D
102
{ACAD_REACTORS
330
167
102
}
330
167
100
DictionaryVariables
280
     0
  1
0
  0
DICTIONARY
  5
197
330
186
100
AcDbDictionary
280
     1
281
     1
  3
ACAD_ROUNDTRIP_2008_TABLESTYLE_CELLSTYLEMAP
360
199
  3
ACAD_XREC_ROUNDTRIP
360
198
  0
CELLSTYLEMAP
  5
199
102
{ACAD_REACTORS
330
197
102
}
330
197
100
AcDbCellStyleMap
 90
        3
300
CELLSTYLE
  1
TABLEFORMAT_BEGIN
 90
        5
170
     1
 91
        0
 92
        0
 62
   257
 93
        1
300
CONTENTFORMAT
  1
CONTENTFORMAT_BEGIN
 90
        0
 91
        0
 92
        4
 93
        0
300

 40
0.0
140
1.0
 94
        5
 62
     0
340
11
144
6.0
309
CONTENTFORMAT_END
171
     1
301
MARGIN
  1
CELLMARGIN_BEGIN
 40
1.5
 40
1.5
 40
1.5
 40
1.5
 40
1.5
 40
1.5
309
CELLMARGIN_END
 94
        6
 95
        1
302
GRIDFORMAT
  1
GRIDFORMAT_BEGIN
 90
        0
 91
        1
 62
     0
 92
       -2
340
14
 93
        0
 40
0.045
309
GRIDFORMAT_END
 95
        2
302
GRIDFORMAT
  1
GRIDFORMAT_BEGIN
 90
        0
 91
        1
 62
     0
 92
       -2
340
14
 93
        0
 40
0.045
309
GRIDFORMAT_END
 95
        4
302
GRIDFORMAT
  1
GRIDFORMAT_BEGIN
 90
        0
 91
        1
 62
     0
 92
       -2
340
14
 93
        0
 40
0.045
309
GRIDFORMAT_END
 95
        8
302
GRIDFORMAT
  1
GRIDFORMAT_BEGIN
 90
        0
 91
        1
 62
     0
 92
       -2
340
14
 93
        0
 40
0.045
309
GRIDFORMAT_END
 95
       16
302
GRIDFORMAT
  1
GRIDFORMAT_BEGIN
 90
        0
 91
        1
 62
     0
 92
       -2
340
14
 93
        0
 40
0.045
309
GRIDFORMAT_END
 95
       32
302
GRIDFORMAT
  1
GRIDFORMAT_BEGIN
 90
        0
 91
        1
 62
     0
 92
       -2
340
14
 93
        0
 40
0.045
309
GRIDFORMAT_END
309
TABLEFORMAT_END
  1
CELLSTYLE_BEGIN
 90
        1
 91
        1
300
_TITLE
309
CELLSTYLE_END
300
CELLSTYLE
  1
TABLEFORMAT_BEGIN
 90
        5
170
     1
 91
        0
 92
        0
 62
   257
 93
        1
300
CONTENTFORMAT
  1
CONTENTFORMAT_BEGIN
 90
        0
 91
        0
 92
        4
 93
        0
300

 40
0.0
140
1.0
 94
        5
 62
     0
340
11
144
4.5
309
CONTENTFORMAT_END
171
     1
301
MARGIN
  1
CELLMARGIN_BEGIN
 40
1.5
 40
1.5
 40
1.5
 40
1.5
 40
1.5
 40
1.5
309
CELLMARGIN_END
 94
        6
 95
        1
302
GRIDFORMAT
  1
GRIDFORMAT_BEGIN
 90
        0
 91
        1
 62
     0
 92
       -2
340
14
 93
        0
 40
0.045
309
GRIDFORMAT_END
 95
        2
302
GRIDFORMAT
  1
GRIDFORMAT_BEGIN
 90
        0
 91
        1
 62
     0
 92
       -2
340
14
 93
        0
 40
0.045
309
GRIDFORMAT_END
 95
        4
302
GRIDFORMAT
  1
GRIDFORMAT_BEGIN
 90
        0
 91
        1
 62
     0
 92
       -2
340
14
 93
        0
 40
0.045
309
GRIDFORMAT_END
 95
        8
302
GRIDFORMAT
  1
GRIDFORMAT_BEGIN
 90
        0
 91
        1
 62
     0
 92
       -2
340
14
 93
        0
 40
0.045
309
GRIDFORMAT_END
 95
       16
302
GRIDFORMAT
  1
GRIDFORMAT_BEGIN
 90
        0
 91
        1
 62
     0
 92
       -2
340
14
 93
        0
 40
0.045
309
GRIDFORMAT_END
 95
       32
302
GRIDFORMAT
  1
GRIDFORMAT_BEGIN
 90
        0
 91
        1
 62
     0
 92
       -2
340
14
 93
        0
 40
0.045
309
GRIDFORMAT_END
309
TABLEFORMAT_END
  1
CELLSTYLE_BEGIN
 90
        2
 91
        1
300
_HEADER
309
CELLSTYLE_END
300
CELLSTYLE
  1
TABLEFORMAT_BEGIN
 90
        5
170
     1
 91
        0
 92
        0
 62
   257
 93
        1
300
CONTENTFORMAT
  1
CONTENTFORMAT_BEGIN
 90
        0
 91
        0
 92
        4
 93
        0
300

 40
0.0
140
1.0
 94
        2
 62
     0
340
11
144
4.5
309
CONTENTFORMAT_END
171
     1
301
MARGIN
  1
CELLMARGIN_BEGIN
 40
1.5
 40
1.5
 40
1.5
 40
1.5
 40
1.5
 40
1.5
309
CELLMARGIN_END
 94
        6
 95
        1
302
GRIDFORMAT
  1
GRIDFORMAT_BEGIN
 90
        0
 91
        1
 62
     0
 92
       -2
340
14
 93
        0
 40
0.045
309
GRIDFORMAT_END
 95
        2
302
GRIDFORMAT
  1
GRIDFORMAT_BEGIN
 90
        0
 91
        1
 62
     0
 92
       -2
340
14
 93
        0
 40
0.045
309
GRIDFORMAT_END
 95
        4
302
GRIDFORMAT
  1
GRIDFORMAT_BEGIN
 90
        0
 91
        1
 62
     0
 92
       -2
340
14
 93
        0
 40
0.045
309
GRIDFORMAT_END
 95
        8
302
GRIDFORMAT
  1
GRIDFORMAT_BEGIN
 90
        0
 91
        1
 62
     0
 92
       -2
340
14
 93
        0
 40
0.045
309
GRIDFORMAT_END
 95
       16
302
GRIDFORMAT
  1
GRIDFORMAT_BEGIN
 90
        0
 91
        1
 62
     0
 92
       -2
340
14
 93
        0
 40
0.045
309
GRIDFORMAT_END
 95
       32
302
GRIDFORMAT
  1
GRIDFORMAT_BEGIN
 90
        0
 91
        1
 62
     0
 92
       -2
340
14
 93
        0
 40
0.045
309
GRIDFORMAT_END
309
TABLEFORMAT_END
  1
CELLSTYLE_BEGIN
 90
        3
 91
        2
300
_DATA
309
CELLSTYLE_END
  0
XRECORD
  5
198
102
{ACAD_REACTORS
330
197
102
}
330
197
100
AcDbXrecord
280
     1
102
ACAD_ROUNDTRIP_PRE2007_TABLESTYLE
 90
        4
 91
        0
  1

 92
        4
 93
        0
  2

 94
        4
 95
        0
  3

  0
ENDSEC
  0
EOF
