999
DXF file: 70528020_MCS.dxf
999
Pro/ENGINEER 2016380 by Parametric Technology Corporation
  0
SECTION
  2
HEADER
  9
$ACADVER
  1
AC1027
  9
$DWGCODEPAGE
  3
ANSI_1252
  9
$EXTMAX
 10
420.0
 20
297.0
 30
0.0
  9
$EXTMIN
 10
0.0
 20
0.0
 30
0.0
  9
$LIMMIN
 10
0.0
 20
0.0
  9
$LIMMAX
 10
420.0
 20
297.0
  9
$VIEWCTR
 10
210.0
 20
148.5
  9
$VIEWSIZE
 40
297.0
  9
$CLAYER
  8
0
  9
$LTSCALE
 40
23.1
  9
$CELTYPE
  6
BYLAYER
  9
$DIMSCALE
 40
1.0
  9
$DIMASZ
 40
3.5
  9
$DIMEXO
 40
0.0
  9
$DIMDLI
 40
15.96
  9
$DIMEXE
 40
1.5
  9
$DIMCEN
 40
3.78
  9
$DIMLFAC
 40
1.0
  9
$DIMBLK
  1
_FILLED
  9
$DIMALT
 70
0
  9
$DIMALTF
 40
25.4
  9
$DIMTXT
 40
3.5
  9
$DIMTOL
 70
1
  9
$DIMLIM
 70
0
  9
$DIMTFAC
 40
1.0
  9
$DIMTP
 40
0.05
  9
$DIMTM
 40
0.05
  9
$DIMGAP
 40
0.625
  9
$DIMDSEP
 70
46
  9
$AUNITS
 70
0
  9
$PDMODE
 70
3
  9
$PDSIZE
 40
0.3125
  9
$HANDSEED
  5
26C
  9
$TILEMODE
 70
1
  9
$MEASUREMENT
 70
1
  9
$INSUNITS
 70
4
  0
ENDSEC
  0
SECTION
  2
CLASSES
  0
CLASS
  1
ACDBDICTIONARYWDFLT
  2
AcDbDictionaryWithDefault
  3
AutoCAD 2000
 90
0
 91
1
280
0
281
0
  0
CLASS
  1
ACDBPLACEHOLDER
  2
AcDbPlaceHolder
  3
AutoCAD 2000
 90
0
 91
1
280
0
281
0
  0
CLASS
  1
LAYOUT
  2
AcDbLayout
  3
AutoCAD 2000
 90
0
 91
0
280
0
281
0
  0
ENDSEC
  0
SECTION
  2
TABLES
  0
TABLE
  2
VPORT
  5
8
100
AcDbSymbolTable
 70
2
  0
VPORT
  5
1F4
100
AcDbSymbolTableRecord
100
AcDbViewportTableRecord
  2
*ACTIVE
 70
0
 10
0.0
 20
0.0
 11
1.0
 21
1.0
 12
210.0
 22
148.5
 13
0.0
 23
0.0
 14
1.0
 24
1.0
 15
0.0
 25
0.0
 16
0.0
 26
0.0
 36
1.0
 17
0.0
 27
0.0
 37
0.0
 40
297.0
 41
1.4141414141
 42
50.0
 43
0.0
 44
0.0
 50
0.0
 51
0.0
 71
0
 72
100
 73
1
 74
1
 75
0
 76
0
 77
0
 78
0
  0
ENDTAB
  0
TABLE
  2
LTYPE
  5
5
100
AcDbSymbolTable
 70
6
  0
LTYPE
  5
14
100
AcDbSymbolTableRecord
100
AcDbLinetypeTableRecord
  2
BYBLOCK
 70
0
  3

 72
65
 73
0
 40
0.0
  0
LTYPE
  5
15
100
AcDbSymbolTableRecord
100
AcDbLinetypeTableRecord
  2
BYLAYER
 70
0
  3

 72
65
 73
0
 40
0.0
  0
LTYPE
  5
16
100
AcDbSymbolTableRecord
100
AcDbLinetypeTableRecord
  2
CONTINUOUS
 70
64
  3
Solid line
 72
65
 73
0
 40
0.0
  0
LTYPE
  5
1F5
100
AcDbSymbolTableRecord
100
AcDbLinetypeTableRecord
  2
CENTER
 70
64
  3
____ _ ____ _ ____ _ ____ _ ____ _ ____ _ ____
 72
65
 73
4
 40
0.6
 49
0.375
 74
0
 49
-0.075
 74
0
 49
0.075
 74
0
 49
-0.075
 74
0
  0
LTYPE
  5
1F6
100
AcDbSymbolTableRecord
100
AcDbLinetypeTableRecord
  2
HIDDEN
 70
64
  3
- - - - - - - - - - - - - - - - - - - -
 72
65
 73
2
 40
0.2
 49
0.1
 74
0
 49
-0.1
 74
0
  0
LTYPE
  5
1F7
100
AcDbSymbolTableRecord
100
AcDbLinetypeTableRecord
  2
PHANTOM
 70
64
  3
_____ _ _ _____ _ _ _____ _ _ _____
 72
65
 73
6
 40
0.8
 49
0.45
 74
0
 49
-0.05
 74
0
 49
0.1
 74
0
 49
-0.05
 74
0
 49
0.1
 74
0
 49
-0.05
 74
0
  0
LTYPE
  5
1F8
100
AcDbSymbolTableRecord
100
AcDbLinetypeTableRecord
  2
DOT
 70
64
  3
. . . . . . . . . . . . . . . . . . . .
 72
65
 73
2
 40
0.2
 49
0.1
 74
0
 49
-0.1
 74
0
  0
LTYPE
  5
1F9
100
AcDbSymbolTableRecord
100
AcDbLinetypeTableRecord
  2
DASHED
 70
64
  3
- - - - - - - - - - - - - - - - - - - -
 72
65
 73
2
 40
0.2
 49
0.1
 74
0
 49
-0.1
 74
0
  0
ENDTAB
  0
TABLE
  2
LAYER
  5
2
100
AcDbSymbolTable
 70
36
  0
LAYER
  5
10
100
AcDbSymbolTableRecord
100
AcDbLayerTableRecord
  2
0
 70
0
 62
7
  6
CONTINUOUS
370
-3
390
F
  0
LAYER
  5
1FA
100
AcDbSymbolTableRecord
100
AcDbLayerTableRecord
  2
DEFAULT_1
 70
0
 62
7
  6
CENTER
370
-3
390
F
  0
LAYER
  5
1FB
100
AcDbSymbolTableRecord
100
AcDbLayerTableRecord
  2
DEFAULT_2
 70
0
 62
1
  6
HIDDEN
370
-3
390
F
  0
LAYER
  5
1FC
100
AcDbSymbolTableRecord
100
AcDbLayerTableRecord
  2
DEFAULT_3
 70
0
 62
7
  6
PHANTOM
370
-3
390
F
  0
LAYER
  5
1FD
100
AcDbSymbolTableRecord
100
AcDbLayerTableRecord
  2
BG_STARTBEZUEGE
 70
0
 62
7
  6
CONTINUOUS
370
-3
390
F
  0
LAYER
  5
1FE
100
AcDbSymbolTableRecord
100
AcDbLayerTableRecord
  2
HILFEN
 70
0
 62
7
  6
CONTINUOUS
370
-3
390
F
  0
LAYER
  5
1FF
100
AcDbSymbolTableRecord
100
AcDbLayerTableRecord
  2
PLATZIERUNG
 70
0
 62
7
  6
CONTINUOUS
370
-3
390
F
  0
LAYER
  5
200
100
AcDbSymbolTableRecord
100
AcDbLayerTableRecord
  2
T_STARTBEZUEGE
 70
0
 62
7
  6
CONTINUOUS
370
-3
390
F
  0
LAYER
  5
201
100
AcDbSymbolTableRecord
100
AcDbLayerTableRecord
  2
_03_2D_ZEICHNUNG_BEMASSUNGEN
 70
0
 62
7
  6
CONTINUOUS
370
-3
390
F
  0
LAYER
  5
202
100
AcDbSymbolTableRecord
100
AcDbLayerTableRecord
  2
_04_NOTIZEN
 70
0
 62
7
  6
CONTINUOUS
370
-3
390
F
  0
LAYER
  5
203
100
AcDbSymbolTableRecord
100
AcDbLayerTableRecord
  2
_05_2D_ELEMENTE
 70
0
 62
7
  6
CONTINUOUS
370
-3
390
F
  0
LAYER
  5
204
100
AcDbSymbolTableRecord
100
AcDbLayerTableRecord
  2
_07_EINRASTLINIEN
 70
0
 62
7
  6
CONTINUOUS
370
-3
390
F
  0
LAYER
  5
205
100
AcDbSymbolTableRecord
100
AcDbLayerTableRecord
  2
_21_KURVEN
 70
0
 62
7
  6
CONTINUOUS
370
-3
390
F
  0
LAYER
  5
206
100
AcDbSymbolTableRecord
100
AcDbLayerTableRecord
  2
_24_IMPORT
 70
0
 62
7
  6
CONTINUOUS
370
-3
390
F
  0
LAYER
  5
207
100
AcDbSymbolTableRecord
100
AcDbLayerTableRecord
  2
_26_BEZUGSACHSEN
 70
0
 62
7
  6
CONTINUOUS
370
-3
390
F
  0
LAYER
  5
208
100
AcDbSymbolTableRecord
100
AcDbLayerTableRecord
  2
_27_BEZUGSEBENEN
 70
0
 62
7
  6
CONTINUOUS
370
-3
390
F
  0
LAYER
  5
209
100
AcDbSymbolTableRecord
100
AcDbLayerTableRecord
  2
_28_BEZUGSPUNKTE
 70
0
 62
7
  6
CONTINUOUS
370
-3
390
F
  0
LAYER
  5
20A
100
AcDbSymbolTableRecord
100
AcDbLayerTableRecord
  2
_29_KOORDINATENSYSTEME
 70
0
 62
7
  6
CONTINUOUS
370
-3
390
F
  0
LAYER
  5
20B
100
AcDbSymbolTableRecord
100
AcDbLayerTableRecord
  2
_30_VOLUMEN
 70
0
 62
7
  6
CONTINUOUS
370
-3
390
F
  0
ENDTAB
  0
TABLE
  2
STYLE
  5
3
100
AcDbSymbolTable
 70
1
  0
STYLE
  5
11
100
AcDbSymbolTableRecord
100
AcDbTextStyleTableRecord
  2
STANDARD
 70
0
 40
0.0
 41
0.7
 50
0.0
 71
0
 42
0.2
  3
SIMPLEX.SHX
  4

  0
STYLE
  5
20C
100
AcDbSymbolTableRecord
100
AcDbTextStyleTableRecord
  2
TEXTSTYLE_1
 70
0
 40
0.0
 41
0.8
 50
0.0
 71
0
 42
0.2
  3
gdt
  4

  0
ENDTAB
  0
TABLE
  2
VIEW
  5
6
100
AcDbSymbolTable
 70
0
  0
ENDTAB
  0
TABLE
  2
UCS
  5
7
100
AcDbSymbolTable
 70
0
  0
ENDTAB
  0
TABLE
  2
APPID
  5
9
100
AcDbSymbolTable
 70
1
  0
APPID
  5
20D
100
AcDbSymbolTableRecord
100
AcDbRegAppTableRecord
  2
ACAD
 70
0
  0
ENDTAB
  0
TABLE
  2
BLOCK_RECORD
  5
1
100
AcDbSymbolTable
 70
0
  0
BLOCK_RECORD
  5
20E
100
AcDbSymbolTableRecord
100
AcDbBlockTableRecord
  2
*Model_Space
  0
BLOCK_RECORD
  5
20F
100
AcDbSymbolTableRecord
100
AcDbBlockTableRecord
  2
*Paper_Space
  0
BLOCK_RECORD
  5
210
100
AcDbSymbolTableRecord
100
AcDbBlockTableRecord
  2
_FILLED
  0
BLOCK_RECORD
  5
211
100
AcDbSymbolTableRecord
100
AcDbBlockTableRecord
  2
*D0
  0
BLOCK_RECORD
  5
212
100
AcDbSymbolTableRecord
100
AcDbBlockTableRecord
  2
*D1
  0
BLOCK_RECORD
  5
213
100
AcDbSymbolTableRecord
100
AcDbBlockTableRecord
  2
*D2
  0
ENDTAB
  0
TABLE
  2
DIMSTYLE
  5
A
100
AcDbSymbolTable
 70
1
100
AcDbDimStyleTable
 71
0
  0
DIMSTYLE
105
214
100
AcDbSymbolTableRecord
100
AcDbDimStyleTableRecord
  2
STANDARD
 70
0
  3

  4

 40
1.0
 41
3.5
 42
0.0
 43
0.38
 44
1.5
 45
0.0
 46
0.0
 47
0.05
 48
0.05
140
3.5
141
0.09
142
0.0
143
25.4
144
1.0
145
0.0
146
1.0
147
0.625
 71
1.0
 72
0.0
 73
0
 74
0
 75
0
 76
0
 77
1
 78
8
170
0
171
1
172
0
173
0
174
0
175
0
176
0
177
0
178
2
270
2
271
2
272
2
273
2
274
2
275
0
280
0
281
0
282
0
283
1
284
8
285
0
286
0
287
3
288
0
340
11
278
46
341
210
342
210
343
210
344
210
  0
DIMSTYLE
105
215
100
AcDbSymbolTableRecord
100
AcDbDimStyleTableRecord
  2
DIMSTYLE_1
 70
0
  3

  4

 40
1.0
 41
3.5
 42
0.0
 43
0.38
 44
1.5
 45
0.0
 46
0.0
 47
0.2
 48
0.2
140
3.5
141
0.09
142
0.0
143
25.4
144
1.0
145
0.0
146
1.0
147
0.875
 71
0.0
 72
0.0
 73
0
 74
0
 75
0
 76
0
 77
1
 78
8
170
0
171
1
172
0
173
0
174
0
175
0
176
0
177
0
178
2
270
2
271
2
272
2
273
2
274
2
275
0
280
0
281
0
282
0
283
1
284
8
285
0
286
0
287
3
288
0
340
11
278
46
341
210
342
210
343
210
344
210
  0
DIMSTYLE
105
216
100
AcDbSymbolTableRecord
100
AcDbDimStyleTableRecord
  2
DIMSTYLE_2
 70
0
  3

  4

 40
1.0
 41
3.5
 42
0.0
 43
0.38
 44
1.5
 45
0.0
 46
0.0
 47
0.5
 48
0.5
140
3.5
141
0.09
142
0.0
143
25.4
144
1.0
145
0.0
146
1.0
147
0.875
 71
0.0
 72
0.0
 73
0
 74
0
 75
0
 76
0
 77
1
 78
8
170
0
171
1
172
0
173
0
174
0
175
0
176
0
177
0
178
2
270
2
271
2
272
2
273
2
274
2
275
0
280
0
281
0
282
0
283
1
284
8
285
0
286
0
287
3
288
0
340
11
278
46
341
210
342
210
343
210
344
210
  0
ENDTAB
  0
ENDSEC
  0
SECTION
  2
BLOCKS
  0
BLOCK
  5
20
100
AcDbEntity
  8
0
100
AcDbBlockBegin
  2
*Model_Space
 70
0
 10
0.0
 20
0.0
 30
0.0
  3
*Model_Space
  1

  0
ENDBLK
  5
21
100
AcDbEntity
  8
0
100
AcDbBlockEnd
  0
BLOCK
  5
1C
100
AcDbEntity
  8
0
100
AcDbBlockBegin
  2
*Paper_Space
 70
0
 10
0.0
 20
0.0
 30
0.0
  3
*Paper_Space
  1

  0
ENDBLK
  5
1D
100
AcDbEntity
  8
0
100
AcDbBlockEnd
  0
BLOCK
  5
217
100
AcDbEntity
  8
0
100
AcDbBlockBegin
  2
_FILLED
 70
64
 10
0.0
 20
0.0
  3
_FILLED
  1

  0
SOLID
  5
218
100
AcDbEntity
  8
0
  6
BYBLOCK
 62
0
100
AcDbTrace
 10
0.0
 20
0.0
 11
-1.0
 21
0.125
 12
-1.0
 22
-0.125
 13
-1.0
 23
-0.125
  0
ENDBLK
  5
219
100
AcDbEntity
  8
0
  6
BYBLOCK
 62
0
100
AcDbBlockEnd
  0
BLOCK
  5
21A
100
AcDbEntity
  8
_03_2D_ZEICHNUNG_BEMASSUNGEN
100
AcDbBlockBegin
 62
7
  6
CONTINUOUS
  2
*D0
 70
65
 10
0.0
 20
0.0
  3
*D0
  1

  0
TEXT
  5
21B
100
AcDbEntity
  8
_03_2D_ZEICHNUNG_BEMASSUNGEN
100
AcDbText
 62
2
  6
CONTINUOUS
 10
-103.625
 20
-2.75
  7
STANDARD
 40
3.5
  1
20
 50
90.0
 41
0.7857142857
 72
1
 11
-103.625
 21
-0.0
100
AcDbText
  0
LINE
  5
21C
100
AcDbEntity
  8
_03_2D_ZEICHNUNG_BEMASSUNGEN
100
AcDbLine
 62
7
  6
CONTINUOUS
 10
-93.75
 20
10.0
 11
-104.25
 21
10.0
  0
LINE
  5
21D
100
AcDbEntity
  8
_03_2D_ZEICHNUNG_BEMASSUNGEN
100
AcDbLine
 62
7
  6
CONTINUOUS
 10
-93.75
 20
-10.0
 11
-104.25
 21
-10.0
  0
LINE
  5
21E
100
AcDbEntity
  8
_03_2D_ZEICHNUNG_BEMASSUNGEN
100
AcDbLine
 62
7
  6
CONTINUOUS
 10
-102.75
 20
10.0
 11
-102.75
 21
16.0
  0
LINE
  5
21F
100
AcDbEntity
  8
_03_2D_ZEICHNUNG_BEMASSUNGEN
100
AcDbLine
 62
7
  6
CONTINUOUS
 10
-102.75
 20
16.0
 11
-102.75
 21
-0.0
  0
LINE
  5
220
100
AcDbEntity
  8
_03_2D_ZEICHNUNG_BEMASSUNGEN
100
AcDbLine
 62
7
  6
CONTINUOUS
 10
-102.75
 20
-10.0
 11
-102.75
 21
-16.0
  0
LINE
  5
221
100
AcDbEntity
  8
_03_2D_ZEICHNUNG_BEMASSUNGEN
100
AcDbLine
 62
7
  6
CONTINUOUS
 10
-102.75
 20
-16.0
 11
-102.75
 21
-0.0
  0
INSERT
  5
222
100
AcDbEntity
  8
_03_2D_ZEICHNUNG_BEMASSUNGEN
100
AcDbBlockReference
 62
7
  6
CONTINUOUS
  2
_FILLED
 10
-102.75
 20
10.0
 41
3.5
 42
3.5
 43
3.5
 50
270.0
  0
INSERT
  5
223
100
AcDbEntity
  8
_03_2D_ZEICHNUNG_BEMASSUNGEN
100
AcDbBlockReference
 62
7
  6
CONTINUOUS
  2
_FILLED
 10
-102.75
 20
-10.0
 41
3.5
 42
3.5
 43
3.5
 50
90.0
  0
ENDBLK
  5
224
100
AcDbEntity
  8
0
  6
BYBLOCK
 62
0
100
AcDbBlockEnd
  0
BLOCK
  5
225
100
AcDbEntity
  8
_03_2D_ZEICHNUNG_BEMASSUNGEN
100
AcDbBlockBegin
 62
7
  6
CONTINUOUS
  2
*D1
 70
65
 10
0.0
 20
0.0
  3
*D1
  1

  0
TEXT
  5
226
100
AcDbEntity
  8
_03_2D_ZEICHNUNG_BEMASSUNGEN
100
AcDbText
 62
2
  6
CONTINUOUS
 10
-34.875
 20
25.081036129
  7
STANDARD
 40
3.5
  1
125
 41
0.6904761905
 72
1
 11
-31.25
 21
25.081036129
100
AcDbText
  0
LINE
  5
227
100
AcDbEntity
  8
_03_2D_ZEICHNUNG_BEMASSUNGEN
100
AcDbLine
 62
7
  6
CONTINUOUS
 10
31.25
 20
-10.0
 11
31.25
 21
25.706036129
  0
LINE
  5
228
100
AcDbEntity
  8
_03_2D_ZEICHNUNG_BEMASSUNGEN
100
AcDbLine
 62
7
  6
CONTINUOUS
 10
-93.75
 20
-10.0
 11
-93.75
 21
25.706036129
  0
LINE
  5
229
100
AcDbEntity
  8
_03_2D_ZEICHNUNG_BEMASSUNGEN
100
AcDbLine
 62
7
  6
CONTINUOUS
 10
31.25
 20
24.206036129
 11
-31.25
 21
24.206036129
  0
LINE
  5
22A
100
AcDbEntity
  8
_03_2D_ZEICHNUNG_BEMASSUNGEN
100
AcDbLine
 62
7
  6
CONTINUOUS
 10
-93.75
 20
24.206036129
 11
-31.25
 21
24.206036129
  0
INSERT
  5
22B
100
AcDbEntity
  8
_03_2D_ZEICHNUNG_BEMASSUNGEN
100
AcDbBlockReference
 62
7
  6
CONTINUOUS
  2
_FILLED
 10
31.25
 20
24.206036129
 41
3.5
 42
3.5
 43
3.5
 50
360.0
  0
INSERT
  5
22C
100
AcDbEntity
  8
_03_2D_ZEICHNUNG_BEMASSUNGEN
100
AcDbBlockReference
 62
7
  6
CONTINUOUS
  2
_FILLED
 10
-93.75
 20
24.206036129
 41
3.5
 42
3.5
 43
3.5
 50
180.0
  0
ENDBLK
  5
22D
100
AcDbEntity
  8
0
  6
BYBLOCK
 62
0
100
AcDbBlockEnd
  0
BLOCK
  5
22E
100
AcDbEntity
  8
_03_2D_ZEICHNUNG_BEMASSUNGEN
100
AcDbBlockBegin
 62
7
  6
CONTINUOUS
  2
*D2
 70
65
 10
0.0
 20
0.0
  3
*D2
  1

  0
TEXT
  5
22F
100
AcDbEntity
  8
_03_2D_ZEICHNUNG_BEMASSUNGEN
100
AcDbText
 62
2
  6
CONTINUOUS
 10
39.7712137473
 20
-3.875
  7
STANDARD
 40
3.5
  1
17
 50
90.0
 41
0.6785714286
 72
1
 11
39.7712137473
 21
-1.5
100
AcDbText
  0
LINE
  5
230
100
AcDbEntity
  8
_03_2D_ZEICHNUNG_BEMASSUNGEN
100
AcDbLine
 62
7
  6
CONTINUOUS
 10
31.25
 20
7.0
 11
42.1462137473
 21
7.0
  0
LINE
  5
231
100
AcDbEntity
  8
_03_2D_ZEICHNUNG_BEMASSUNGEN
100
AcDbLine
 62
7
  6
CONTINUOUS
 10
-93.75
 20
-10.0
 11
42.1462137473
 21
-10.0
  0
LINE
  5
232
100
AcDbEntity
  8
_03_2D_ZEICHNUNG_BEMASSUNGEN
100
AcDbLine
 62
7
  6
CONTINUOUS
 10
40.6462137473
 20
7.0
 11
40.6462137473
 21
-1.5
  0
LINE
  5
233
100
AcDbEntity
  8
_03_2D_ZEICHNUNG_BEMASSUNGEN
100
AcDbLine
 62
7
  6
CONTINUOUS
 10
40.6462137473
 20
-10.0
 11
40.6462137473
 21
-1.5
  0
INSERT
  5
234
100
AcDbEntity
  8
_03_2D_ZEICHNUNG_BEMASSUNGEN
100
AcDbBlockReference
 62
7
  6
CONTINUOUS
  2
_FILLED
 10
40.6462137473
 20
7.0
 41
3.5
 42
3.5
 43
3.5
 50
90.0
  0
INSERT
  5
235
100
AcDbEntity
  8
_03_2D_ZEICHNUNG_BEMASSUNGEN
100
AcDbBlockReference
 62
7
  6
CONTINUOUS
  2
_FILLED
 10
40.6462137473
 20
-10.0
 41
3.5
 42
3.5
 43
3.5
 50
270.0
  0
ENDBLK
  5
236
100
AcDbEntity
  8
0
  6
BYBLOCK
 62
0
100
AcDbBlockEnd
  0
ENDSEC
  0
SECTION
  2
ENTITIES
  0
DIMENSION
  5
237
100
AcDbEntity
  8
_03_2D_ZEICHNUNG_BEMASSUNGEN
100
AcDbDimension
 62
7
  6
CONTINUOUS
  2
*D0
 10
-102.75
 20
-10.0
 11
-102.75
 21
-0.5000006104
 70
160
 71
2
 42
20.0
  3
DIMSTYLE_1
100
AcDbAlignedDimension
 13
-93.75
 23
10.0
 14
-93.75
 24
-10.0
 50
270.0
100
AcDbRotatedDimension
  0
DIMENSION
  5
238
100
AcDbEntity
  8
_03_2D_ZEICHNUNG_BEMASSUNGEN
100
AcDbDimension
 62
7
  6
CONTINUOUS
  2
*D1
 10
-93.75
 20
24.206036129
 11
-31.7499998474
 21
24.206036129
 70
160
 71
2
 42
125.0
  3
DIMSTYLE_2
100
AcDbAlignedDimension
 13
31.25
 23
-10.0
 14
-93.75
 24
-10.0
 50
180.0
100
AcDbRotatedDimension
  0
DIMENSION
  5
239
100
AcDbEntity
  8
_03_2D_ZEICHNUNG_BEMASSUNGEN
100
AcDbDimension
 62
7
  6
CONTINUOUS
  2
*D2
 10
40.6462137473
 20
-10.0
 11
40.6462137473
 21
-1.9999991476
 70
160
 71
2
 42
17.0
  3
DIMSTYLE_1
100
AcDbAlignedDimension
 13
31.25
 23
7.0
 14
-93.75
 24
-10.0
 50
270.0
100
AcDbRotatedDimension
  0
LINE
  5
23A
100
AcDbEntity
  8
_30_VOLUMEN
100
AcDbLine
 62
4
  6
CONTINUOUS
 10
-93.75
 20
-9.5
 11
-93.75
 21
9.5
  0
LINE
  5
23B
100
AcDbEntity
  8
_30_VOLUMEN
100
AcDbLine
 62
4
  6
CONTINUOUS
 10
-93.25
 20
-10.0
 11
-93.25
 21
10.0
  0
LINE
  5
23C
100
AcDbEntity
  8
_30_VOLUMEN
100
AcDbLine
 62
4
  6
CONTINUOUS
 10
-93.25
 20
-10.0
 11
-93.75
 21
-9.5
  0
LINE
  5
23D
100
AcDbEntity
  8
_30_VOLUMEN
100
AcDbLine
 62
4
  6
CONTINUOUS
 10
-93.25
 20
10.0
 11
-93.75
 21
9.5
  0
LINE
  5
23E
100
AcDbEntity
  8
_30_VOLUMEN
100
AcDbLine
 62
4
  6
CONTINUOUS
 10
-93.25
 20
-10.0
 11
5.35
 21
-10.0
  0
LINE
  5
23F
100
AcDbEntity
  8
0
100
AcDbLine
 62
4
  6
CONTINUOUS
 10
5.35
 20
-10.0
 11
17.2392662143
 21
-10.0
  0
LINE
  5
240
100
AcDbEntity
  8
_30_VOLUMEN
100
AcDbLine
 62
4
  6
CONTINUOUS
 10
-93.25
 20
10.0
 11
5.35
 21
10.0
  0
LINE
  5
241
100
AcDbEntity
  8
0
100
AcDbLine
 62
4
  6
CONTINUOUS
 10
6.1538475773
 20
13.0
 11
6.2301698058
 21
13.0
  0
LINE
  5
242
100
AcDbEntity
  8
_26_BEZUGSACHSEN
100
AcDbLine
 62
4
  6
CONTINUOUS
 10
6.2301698058
 20
13.0
 11
17.452164309
 21
13.0
  0
LINE
  5
243
100
AcDbEntity
  8
_26_BEZUGSACHSEN
100
AcDbLine
 62
4
  6
CONTINUOUS
 10
17.7313451181
 20
-0.9336115213
 11
17.548795299
 21
-1.0409342412
  0
LINE
  5
244
100
AcDbEntity
  8
_30_VOLUMEN
100
AcDbLine
 62
4
  6
CONTINUOUS
 10
31.0586789051
 20
6.6569153064
 11
18.1380076456
 21
-0.9392663256
  0
LINE
  5
245
100
AcDbEntity
  8
_21_KURVEN
100
AcDbLine
 62
5
  6
CONTINUOUS
 10
31.0586789051
 20
6.6569153064
 11
18.1380076456
 21
-0.9392663256
  0
LINE
  5
246
100
AcDbEntity
  8
_26_BEZUGSACHSEN
100
AcDbLine
 62
4
  6
CONTINUOUS
 10
28.0606366887
 20
4.8943386756
 11
17.5504728035
 21
-1.2846834705
  0
LINE
  5
247
100
AcDbEntity
  8
0
100
AcDbLine
 62
4
  6
CONTINUOUS
 10
5.35
 20
10.0
 11
6.1538475773
 21
13.0
  0
LINE
  5
248
100
AcDbEntity
  8
0
100
AcDbLine
 62
4
  6
CONTINUOUS
 10
6.2301698058
 20
13.0
 11
6.4049123137
 21
-10.0
  0
LINE
  5
249
100
AcDbEntity
  8
0
100
AcDbLine
 62
4
  6
CONTINUOUS
 10
5.35
 20
10.0
 11
5.35
 21
-10.0
  0
LINE
  5
24A
100
AcDbEntity
  8
_30_VOLUMEN
100
AcDbLine
 62
4
  6
CONTINUOUS
 10
18.0292474952
 20
14.8640915825
 11
31.0539484193
 21
7.3442769978
  0
LINE
  5
24B
100
AcDbEntity
  8
_21_KURVEN
100
AcDbLine
 62
5
  6
CONTINUOUS
 10
18.0292474952
 20
14.8640915825
 11
31.0539484193
 21
7.3442769978
  0
LINE
  5
24C
100
AcDbEntity
  8
_26_BEZUGSACHSEN
100
AcDbLine
 62
4
  6
CONTINUOUS
 10
28.0606366887
 20
4.8943386756
 11
17.2392662143
 21
-10.0
  0
LINE
  5
24D
100
AcDbEntity
  8
_30_VOLUMEN
100
AcDbLine
 62
4
  6
CONTINUOUS
 10
17.5457423176
 20
-0.5973217791
 11
17.5483106656
 21
-0.6323625123
  0
LINE
  5
24E
100
AcDbEntity
  8
_30_VOLUMEN
100
AcDbLine
 62
4
  6
CONTINUOUS
 10
17.3755932737
 20
13.369917009
 11
17.3781425822
 21
12.9994905757
  0
LINE
  5
24F
100
AcDbEntity
  8
_26_BEZUGSACHSEN
100
AcDbLine
 62
4
  6
CONTINUOUS
 10
17.452164309
 20
13.0
 11
17.5504728035
 21
-1.2846834705
  0
LINE
  5
250
100
AcDbEntity
  8
_30_VOLUMEN
100
AcDbLine
 62
4
  6
CONTINUOUS
 10
17.5457423176
 20
-0.5973217791
 11
17.441712653
 21
14.5186744376
  0
LINE
  5
251
100
AcDbEntity
  8
_21_KURVEN
100
AcDbLine
 62
5
  6
CONTINUOUS
 10
17.5457423176
 20
-0.5973217791
 11
17.441712653
 21
14.5186744376
  0
LINE
  5
252
100
AcDbEntity
  8
_30_VOLUMEN
100
AcDbLine
 62
4
  6
CONTINUOUS
 10
17.4431011406
 20
14.5454532523
 11
17.441712653
 21
14.5186744376
  0
LINE
  5
253
100
AcDbEntity
  8
_30_VOLUMEN
100
AcDbLine
 62
4
  6
CONTINUOUS
 10
17.3762716791
 20
13.3967538754
 11
17.4408492611
 21
14.5187241321
  0
LINE
  5
254
100
AcDbEntity
  8
_30_VOLUMEN
100
AcDbLine
 62
7
  6
CONTINUOUS
 10
17.3755932737
 20
13.369917009
 11
17.377135071
 21
13.3967041809
  0
ARC
  5
255
100
AcDbEntity
  8
_30_VOLUMEN
100
AcDbCircle
 62
4
  6
CONTINUOUS
 10
21.5526307723
 20
6.8577129439
 40
1.8823248387
100
AcDbArc
 50
89.4260643071
 51
95.6411741763
  0
ARC
  5
256
100
AcDbEntity
  8
_30_VOLUMEN
100
AcDbCircle
 62
7
  6
CONTINUOUS
 10
21.9722689404
 20
6.8970000216
 40
1.8788313568
100
AcDbArc
 50
282.0685978015
 51
330.6393425216
  0
ARC
  5
257
100
AcDbEntity
  8
_30_VOLUMEN
100
AcDbCircle
 62
4
  6
CONTINUOUS
 10
21.5632585394
 20
6.8078601714
 40
1.8768510843
100
AcDbArc
 50
294.7369423148
 51
296.6655161814
  0
ARC
  5
258
100
AcDbEntity
  8
_30_VOLUMEN
100
AcDbCircle
 62
4
  6
CONTINUOUS
 10
21.5653516679
 20
6.8031961136
 40
1.8717391324
100
AcDbArc
 50
288.6858266272
 51
294.7384920824
  0
SPLINE
  5
259
100
AcDbEntity
  8
_30_VOLUMEN
100
AcDbSpline
 62
4
  6
CONTINUOUS
 70
0
 71
3
 72
9
 73
5
 74
0
 42
0.0000001
 43
0.0000001
 44
0.0000000001
 40
0.0
 40
0.0
 40
0.0
 40
0.0
 40
0.5002449433
 40
1.0
 40
1.0
 40
1.0
 40
1.0
 10
23.1999489275
 20
5.8886895922
 30
0.0
 10
23.1089748709
 20
5.7274758343
 30
0.0
 10
22.8781819189
 20
5.430531206
 30
0.0
 10
22.5708151828
 20
5.2136209114
 30
0.0
 10
22.4055540892
 20
5.130627868
 30
0.0
  0
SPLINE
  5
25A
100
AcDbEntity
  8
_30_VOLUMEN
100
AcDbSpline
 62
4
  6
CONTINUOUS
 70
0
 71
3
 72
9
 73
5
 74
0
 42
0.0000001
 43
0.0000001
 44
0.0000000001
 40
0.0
 40
0.0
 40
0.0
 40
0.0
 40
0.5046400949
 40
1.0
 40
1.0
 40
1.0
 40
1.0
 10
20.3552231159
 20
7.8866161603
 30
0.0
 10
20.4832685257
 20
8.1135235056
 30
0.0
 10
20.8352697639
 20
8.5150712009
 30
0.0
 10
21.3227904519
 20
8.7332783888
 30
0.0
 10
21.5729531955
 20
8.7864521214
 30
0.0
  0
SPLINE
  5
25B
100
AcDbEntity
  8
_30_VOLUMEN
100
AcDbSpline
 62
4
  6
CONTINUOUS
 70
0
 71
3
 72
15
 73
11
 74
0
 42
0.0000001
 43
0.0000001
 44
0.0000000001
 40
0.0
 40
0.0
 40
0.0
 40
0.0
 40
0.1243096915
 40
0.2488859149
 40
0.3737814492
 40
0.4989577387
 40
0.6243188885
 40
0.7496795867
 40
0.8751166584
 40
1.0
 40
1.0
 40
1.0
 40
1.0
 10
21.571485832
 20
8.7399433456
 30
0.0
 10
21.7347429985
 20
8.7383018848
 30
0.0
 10
22.0627291461
 20
8.6913579638
 30
0.0
 10
22.5191423038
 20
8.496533613
 30
0.0
 10
22.9110263177
 20
8.1897182369
 30
0.0
 10
23.2117663182
 20
7.792068795
 30
0.0
 10
23.401686008
 20
7.3304565673
 30
0.0
 10
23.4677317322
 20
6.8351986384
 30
0.0
 10
23.4049779829
 20
6.3405218424
 30
0.0
 10
23.2805570124
 20
6.0315339672
 30
0.0
 10
23.1999489275
 20
5.8886895922
 30
0.0
  0
SPLINE
  5
25C
100
AcDbEntity
  8
_30_VOLUMEN
100
AcDbSpline
 62
4
  6
CONTINUOUS
 70
0
 71
3
 72
15
 73
11
 74
0
 42
0.0000001
 43
0.0000001
 44
0.0000000001
 40
0.0
 40
0.0
 40
0.0
 40
0.0
 40
0.1204258777
 40
0.2423660334
 40
0.3659724678
 40
0.4917647641
 40
0.6191415104
 40
0.7470080698
 40
0.8744143415
 40
1.0
 40
1.0
 40
1.0
 40
1.0
 10
22.3650967375
 20
5.0597097626
 30
0.0
 10
22.1948282437
 20
5.023518077
 30
0.0
 10
21.8394904198
 20
5.0008068701
 30
0.0
 10
21.3167435239
 20
5.1197073774
 30
0.0
 10
20.8427168648
 20
5.3872154974
 30
0.0
 10
20.4577541824
 20
5.7829249295
 30
0.0
 10
20.1974027359
 20
6.2767972577
 30
0.0
 10
20.0852197373
 20
6.8261700422
 30
0.0
 10
20.1320492033
 20
7.3819169693
 30
0.0
 10
20.266008707
 20
7.7285206478
 30
0.0
 10
20.3552231159
 20
7.8866161603
 30
0.0
  0
SPLINE
  5
25D
100
AcDbEntity
  8
_30_VOLUMEN
100
AcDbSpline
 62
4
  6
CONTINUOUS
 70
0
 71
3
 72
15
 73
11
 74
0
 42
0.0000001
 43
0.0000001
 44
0.0000000001
 40
0.0
 40
0.0
 40
0.0
 40
0.0
 40
0.1247956412
 40
0.2493186476
 40
0.3736982068
 40
0.4983931998
 40
0.6235592539
 40
0.7490745997
 40
0.8747338546
 40
1.0
 40
1.0
 40
1.0
 40
1.0
 10
24.1557226057
 20
5.8172803537
 30
0.0
 10
24.0091365179
 20
5.5575173516
 30
0.0
 10
23.609240049
 20
5.0914253516
 30
0.0
 10
22.7908282658
 20
4.6799970905
 30
0.0
 10
21.8761277364
 20
4.6174177265
 30
0.0
 10
21.0068408647
 20
4.9123345602
 30
0.0
 10
20.3154481508
 20
5.519793467
 30
0.0
 10
19.905243207
 20
6.3461925524
 30
0.0
 10
19.8389013607
 20
7.2655733572
 30
0.0
 10
20.031918616
 20
7.8524667426
 30
0.0
 10
20.1790573623
 20
8.1132091025
 30
0.0
  0
SPLINE
  5
25E
100
AcDbEntity
  8
_30_VOLUMEN
100
AcDbSpline
 62
7
  6
CONTINUOUS
 70
0
 71
3
 72
15
 73
11
 74
0
 42
0.0000001
 43
0.0000001
 44
0.0000000001
 40
0.0
 40
0.0
 40
0.0
 40
0.0
 40
0.1249236529
 40
0.2505288555
 40
0.3759816922
 40
0.5013578279
 40
0.6264857864
 40
0.7512861867
 40
0.8757502415
 40
1.0
 40
1.0
 40
1.0
 40
1.0
 10
23.609765702
 20
5.9757988367
 30
0.0
 10
23.6987328413
 20
6.1334561664
 30
0.0
 10
23.8316240198
 20
6.4775508007
 30
0.0
 10
23.8791722774
 20
7.0273675816
 30
0.0
 10
23.7692768003
 20
7.5694414269
 30
0.0
 10
23.5117212827
 20
8.0578331667
 30
0.0
 10
23.1284547149
 20
8.4540586688
 30
0.0
 10
22.6493802304
 20
8.72473385
 30
0.0
 10
22.1147275255
 20
8.847025486
 30
0.0
 10
21.7490630117
 20
8.8239182275
 30
0.0
 10
21.5729499798
 20
8.7864672434
 30
0.0
  0
SPLINE
  5
25F
100
AcDbEntity
  8
_30_VOLUMEN
100
AcDbSpline
 62
4
  6
CONTINUOUS
 70
0
 71
3
 72
15
 73
11
 74
0
 42
0.0000001
 43
0.0000001
 44
0.0000000001
 40
0.0
 40
0.0
 40
0.0
 40
0.0
 40
0.1252661454
 40
0.2509254003
 40
0.3764407461
 40
0.5016068002
 40
0.6263017932
 40
0.7506813524
 40
0.8752043588
 40
1.0
 40
1.0
 40
1.0
 40
1.0
 10
24.1557226057
 20
5.8172803537
 30
0.0
 10
24.3028613521
 20
6.0780227136
 30
0.0
 10
24.4958786074
 20
6.6649160989
 30
0.0
 10
24.4295367611
 20
7.5842969038
 30
0.0
 10
24.0193318172
 20
8.4106959892
 30
0.0
 10
23.3279391033
 20
9.018154896
 30
0.0
 10
22.4586522317
 20
9.3130717296
 30
0.0
 10
21.5439517022
 20
9.2504923656
 30
0.0
 10
20.725539919
 20
8.8390641045
 30
0.0
 10
20.3256434502
 20
8.3729721046
 30
0.0
 10
20.1790573623
 20
8.1132091025
 30
0.0
  0
SPLINE
  5
260
100
AcDbEntity
  8
_30_VOLUMEN
100
AcDbSpline
 62
4
  6
CONTINUOUS
 70
0
 71
3
 72
15
 73
11
 74
0
 42
0.0000001
 43
0.0000001
 44
0.0000000001
 40
0.0
 40
0.0
 40
0.0
 40
0.0
 40
0.1248307214
 40
0.2492893404
 40
0.373693563
 40
0.4983933112
 40
0.623563891
 40
0.7491044629
 40
0.8746989391
 40
1.0
 40
1.0
 40
1.0
 40
1.0
 10
20.1742928065
 20
8.1505838445
 30
0.0
 10
20.3245134386
 20
8.416787568
 30
0.0
 10
20.7339770753
 20
8.894493016
 30
0.0
 10
21.5726309456
 20
9.3154741597
 30
0.0
 10
22.5096124355
 20
9.3802756922
 30
0.0
 10
23.4001803732
 20
9.0777255962
 30
0.0
 10
24.1088544144
 20
8.4556025485
 30
0.0
 10
24.52845444
 20
7.6087212453
 30
0.0
 10
24.5969686852
 20
6.6669192717
 30
0.0
 10
24.3989396417
 20
6.0657462926
 30
0.0
 10
24.2481530055
 20
5.798539562
 30
0.0
  0
SPLINE
  5
261
100
AcDbEntity
  8
_30_VOLUMEN
100
AcDbSpline
 62
4
  6
CONTINUOUS
 70
0
 71
3
 72
15
 73
11
 74
0
 42
0.0000001
 43
0.0000001
 44
0.0000000001
 40
0.0
 40
0.0
 40
0.0
 40
0.0
 40
0.1248307214
 40
0.2492893404
 40
0.373693563
 40
0.4983933112
 40
0.623563891
 40
0.7491044629
 40
0.8746989391
 40
1.0
 40
1.0
 40
1.0
 40
1.0
 10
24.2481530055
 20
5.798539562
 30
0.0
 10
24.0979323733
 20
5.5323358386
 30
0.0
 10
23.6884687366
 20
5.0546303906
 30
0.0
 10
22.8498148663
 20
4.6336492468
 30
0.0
 10
21.9128333764
 20
4.5688477144
 30
0.0
 10
21.0222654387
 20
4.8713978104
 30
0.0
 10
20.3135913975
 20
5.493520858
 30
0.0
 10
19.8939913719
 20
6.3404021613
 30
0.0
 10
19.8254771267
 20
7.2822041348
 30
0.0
 10
20.0235061703
 20
7.8833771139
 30
0.0
 10
20.1742928065
 20
8.1505838445
 30
0.0
  0
SPLINE
  5
262
100
AcDbEntity
  8
_21_KURVEN
100
AcDbSpline
 62
1
  6
CENTER
 70
0
 71
3
 72
131
 73
127
 74
0
 42
0.0000001
 43
0.0000001
 44
0.0000000001
 40
0.0
 40
0.0
 40
0.0
 40
0.0
 40
0.015625
 40
0.03125
 40
0.046875
 40
0.0546875
 40
0.05859375
 40
0.0625
 40
0.06640625
 40
0.0703125
 40
0.078125
 40
0.09375
 40
0.109375
 40
0.1171875
 40
0.12109375
 40
0.125
 40
0.12890625
 40
0.1328125
 40
0.140625
 40
0.15625
 40
0.171875
 40
0.1796875
 40
0.18359375
 40
0.1875
 40
0.19140625
 40
0.1953125
 40
0.203125
 40
0.21875
 40
0.234375
 40
0.2421875
 40
0.24609375
 40
0.25
 40
0.25390625
 40
0.2578125
 40
0.265625
 40
0.28125
 40
0.296875
 40
0.3046875
 40
0.30859375
 40
0.3125
 40
0.31640625
 40
0.3203125
 40
0.328125
 40
0.34375
 40
0.359375
 40
0.3671875
 40
0.37109375
 40
0.375
 40
0.37890625
 40
0.3828125
 40
0.390625
 40
0.40625
 40
0.421875
 40
0.4296875
 40
0.43359375
 40
0.4375
 40
0.44140625
 40
0.4453125
 40
0.453125
 40
0.46875
 40
0.484375
 40
0.4921875
 40
0.49609375
 40
0.5
 40
0.50390625
 40
0.5078125
 40
0.515625
 40
0.53125
 40
0.546875
 40
0.5546875
 40
0.55859375
 40
0.5625
 40
0.56640625
 40
0.5703125
 40
0.578125
 40
0.59375
 40
0.609375
 40
0.6171875
 40
0.62109375
 40
0.625
 40
0.62890625
 40
0.6328125
 40
0.640625
 40
0.65625
 40
0.671875
 40
0.6796875
 40
0.68359375
 40
0.6875
 40
0.69140625
 40
0.6953125
 40
0.703125
 40
0.71875
 40
0.734375
 40
0.7421875
 40
0.74609375
 40
0.75
 40
0.75390625
 40
0.7578125
 40
0.765625
 40
0.78125
 40
0.796875
 40
0.8046875
 40
0.80859375
 40
0.8125
 40
0.81640625
 40
0.8203125
 40
0.828125
 40
0.84375
 40
0.859375
 40
0.8671875
 40
0.87109375
 40
0.875
 40
0.87890625
 40
0.8828125
 40
0.890625
 40
0.90625
 40
0.921875
 40
0.9296875
 40
0.93359375
 40
0.9375
 40
0.94140625
 40
0.9453125
 40
0.953125
 40
0.96875
 40
0.984375
 40
1.0
 40
1.0
 40
1.0
 40
1.0
 10
26.3130747448
 20
4.6063564399
 30
0.0
 10
26.3442847244
 20
4.6769578287
 30
0.0
 10
26.4066726092
 20
4.8181715044
 30
0.0
 10
26.5004468827
 20
5.0299266291
 30
0.0
 10
26.5780308091
 20
5.2065799504
 30
0.0
 10
26.6334340955
 20
5.3298653764
 30
0.0
 10
26.663385156
 20
5.400894517
 30
0.0
 10
26.6906596071
 20
5.4525316521
 30
0.0
 10
26.6995434153
 20
5.510417506
 30
0.0
 10
26.7178052462
 20
5.5854187626
 30
0.0
 10
26.7467547908
 20
5.7176892058
 30
0.0
 10
26.7898369675
 20
5.9060937322
 30
0.0
 10
26.8317471864
 20
6.0947717446
 30
0.0
 10
26.8623374719
 20
6.2266593074
 30
0.0
 10
26.8780209957
 20
6.3022622333
 30
0.0
 10
26.8948155188
 20
6.3583020566
 30
0.0
 10
26.8923808405
 20
6.4168720621
 30
0.0
 10
26.895843912
 20
6.4940827975
 30
0.0
 10
26.8987587462
 20
6.6296133013
 30
0.0
 10
26.9047246651
 20
6.8230090749
 30
0.0
 10
26.90947461
 20
7.0164975535
 30
0.0
 10
26.9140918079
 20
7.1518982703
 30
0.0
 10
26.9148797364
 20
7.2293129568
 30
0.0
 10
26.9206528831
 20
7.2872572034
 30
0.0
 10
26.9066224635
 20
7.345647099
 30
0.0
 10
26.8948247737
 20
7.4233455065
 30
0.0
 10
26.8709411676
 20
7.5593832076
 30
0.0
 10
26.8386622455
 20
7.7537419049
 30
0.0
 10
26.8051882129
 20
7.9478993663
 30
0.0
 10
26.7829777615
 20
8.0842187976
 30
0.0
 10
26.7685508286
 20
8.1614744864
 30
0.0
 10
26.7625874047
 20
8.2212227236
 30
0.0
 10
26.7380645011
 20
8.2740656428
 30
0.0
 10
26.7118427603
 20
8.3469323713
 30
0.0
 10
26.6629205214
 20
8.4733179793
 30
0.0
 10
26.5947559825
 20
8.6545289286
 30
0.0
 10
26.5254733627
 20
8.8352541587
 30
0.0
 10
26.478116437
 20
8.9623197736
 30
0.0
 10
26.4494349183
 20
9.0341179198
 30
0.0
 10
26.4324590604
 20
9.0902394438
 30
0.0
 10
26.3981522872
 20
9.1376746988
 30
0.0
 10
26.3584566535
 20
9.2039527389
 30
0.0
 10
26.2861568276
 20
9.3185153985
 30
0.0
 10
26.1844744102
 20
9.4830149132
 30
0.0
 10
26.0817749754
 20
9.646872349
 30
0.0
 10
26.0108989738
 20
9.7623339189
 30
0.0
 10
25.9689659019
 20
9.8271993858
 30
0.0
 10
25.9415239959
 20
9.8789686724
 30
0.0
 10
25.8987667478
 20
9.9188134994
 30
0.0
 10
25.8471006531
 20
9.9761006756
 30
0.0
 10
25.7541812048
 20
10.0744010699
 30
0.0
 10
25.6228617439
 20
10.2159602635
 30
0.0
 10
25.4906209603
 20
10.3567176293
 30
0.0
 10
25.3989913639
 20
10.4561405826
 30
0.0
 10
25.3452983591
 20
10.5116637375
 30
0.0
 10
25.3087600397
 20
10.5569209027
 30
0.0
 10
25.2579626014
 20
10.5883638522
 30
0.0
 10
25.1952072502
 20
10.6351081132
 30
0.0
 10
25.083059353
 20
10.7146468765
 30
0.0
 10
24.9241308689
 20
10.8296005369
 30
0.0
 10
24.7645017328
 20
10.9435585717
 30
0.0
 10
24.6533347485
 20
11.0244912109
 30
0.0
 10
24.5890379629
 20
11.0690450955
 30
0.0
 10
24.5429699257
 20
11.107208518
 30
0.0
 10
24.4886700777
 20
11.1272265733
 30
0.0
 10
24.419142236
 20
11.1602484447
 30
0.0
 10
24.2961243158
 20
11.2150686291
 30
0.0
 10
24.1211362871
 20
11.2950822128
 30
0.0
 10
23.9457012052
 20
11.373953164
 30
0.0
 10
23.8233091593
 20
11.4303730338
 30
0.0
 10
23.752797801
 20
11.4608811138
 30
0.0
 10
23.701515561
 20
11.4886119381
 30
0.0
 10
23.6441147289
 20
11.4978096281
 30
0.0
 10
23.5697147684
 20
11.5165396867
 30
0.0
 10
23.4385178458
 20
11.5462853029
 30
0.0
 10
23.2516350061
 20
11.5905182254
 30
0.0
 10
23.0644858563
 20
11.6335696199
 30
0.0
 10
22.9336617678
 20
11.6649693753
 30
0.0
 10
22.858675925
 20
11.6811000724
 30
0.0
 10
22.8030726864
 20
11.6982730764
 30
0.0
 10
22.7450394843
 20
11.6960521656
 30
0.0
 10
22.6685095211
 20
11.6998577317
 30
0.0
 10
22.5341867429
 20
11.7033449787
 30
0.0
 10
22.3425070614
 20
11.7101441366
 30
0.0
 10
22.1507404068
 20
11.7157166336
 30
0.0
 10
22.016539391
 20
11.7209212059
 30
0.0
 10
21.9398180869
 20
11.722028118
 30
0.0
 10
21.8823719532
 20
11.7280871683
 30
0.0
 10
21.8245639467
 20
11.7141643183
 30
0.0
 10
21.7476121677
 20
11.7025722787
 30
0.0
 10
21.6128946967
 20
11.6790193753
 30
0.0
 10
21.4204148011
 20
11.6472297037
 30
0.0
 10
21.2281391445
 20
11.6142332405
 30
0.0
 10
21.093135739
 20
11.5923698453
 30
0.0
 10
21.0166332856
 20
11.5781228644
 30
0.0
 10
20.9574466666
 20
11.5723458569
 30
0.0
 10
20.9051779886
 20
11.5478127429
 30
0.0
 10
20.8330725128
 20
11.5216459927
 30
0.0
 10
20.7080211405
 20
11.472787833
 30
0.0
 10
20.5287152359
 20
11.4047331789
 30
0.0
 10
20.3498951837
 20
11.3355483178
 30
0.0
 10
20.2241636181
 20
11.288272448
 30
0.0
 10
20.1531270175
 20
11.2596192423
 30
0.0
 10
20.0975788362
 20
11.2427150261
 30
0.0
 10
20.0507085741
 20
11.208287269
 30
0.0
 10
19.9851867747
 20
11.1684975318
 30
0.0
 10
19.8719461332
 20
11.0960015261
 30
0.0
 10
19.7093363042
 20
10.9940568103
 30
0.0
 10
19.5473668731
 20
10.8910832404
 30
0.0
 10
19.4332296745
 20
10.8200276305
 30
0.0
 10
19.3691167506
 20
10.7779744142
 30
0.0
 10
19.3179238023
 20
10.7504914227
 30
0.0
 10
19.2786097091
 20
10.7075057536
 30
0.0
 10
19.2220460918
 20
10.6556004606
 30
0.0
 10
19.1250044452
 20
10.5622317784
 30
0.0
 10
18.9852479036
 20
10.4302880451
 30
0.0
 10
18.8462896739
 20
10.2974113836
 30
0.0
 10
18.7481303907
 20
10.2053488009
 30
0.0
 10
18.6933230594
 20
10.1513910658
 30
0.0
 10
18.6486203616
 20
10.1147026622
 30
0.0
 10
18.6176646169
 20
10.0635699402
 30
0.0
 10
18.5715951904
 20
10.0004313271
 30
0.0
 10
18.493207911
 20
9.8875911982
 30
0.0
 10
18.3800572777
 20
9.7276191118
 30
0.0
 10
18.2447800031
 20
9.5351235814
 30
0.0
 10
18.1544992515
 20
9.4068939948
 30
0.0
 10
18.1093708634
 20
9.3427666056
 30
0.0
  0
SPLINE
  5
263
100
AcDbEntity
  8
_21_KURVEN
100
AcDbSpline
 62
1
  6
CENTER
 70
0
 71
3
 72
131
 73
127
 74
0
 42
0.0000001
 43
0.0000001
 44
0.0000000001
 40
0.0
 40
0.0
 40
0.0
 40
0.0
 40
0.015625
 40
0.03125
 40
0.046875
 40
0.0546875
 40
0.05859375
 40
0.0625
 40
0.06640625
 40
0.0703125
 40
0.078125
 40
0.09375
 40
0.109375
 40
0.1171875
 40
0.12109375
 40
0.125
 40
0.12890625
 40
0.1328125
 40
0.140625
 40
0.15625
 40
0.171875
 40
0.1796875
 40
0.18359375
 40
0.1875
 40
0.19140625
 40
0.1953125
 40
0.203125
 40
0.21875
 40
0.234375
 40
0.2421875
 40
0.24609375
 40
0.25
 40
0.25390625
 40
0.2578125
 40
0.265625
 40
0.28125
 40
0.296875
 40
0.3046875
 40
0.30859375
 40
0.3125
 40
0.31640625
 40
0.3203125
 40
0.328125
 40
0.34375
 40
0.359375
 40
0.3671875
 40
0.37109375
 40
0.375
 40
0.37890625
 40
0.3828125
 40
0.390625
 40
0.40625
 40
0.421875
 40
0.4296875
 40
0.43359375
 40
0.4375
 40
0.44140625
 40
0.4453125
 40
0.453125
 40
0.46875
 40
0.484375
 40
0.4921875
 40
0.49609375
 40
0.5
 40
0.50390625
 40
0.5078125
 40
0.515625
 40
0.53125
 40
0.546875
 40
0.5546875
 40
0.55859375
 40
0.5625
 40
0.56640625
 40
0.5703125
 40
0.578125
 40
0.59375
 40
0.609375
 40
0.6171875
 40
0.62109375
 40
0.625
 40
0.62890625
 40
0.6328125
 40
0.640625
 40
0.65625
 40
0.671875
 40
0.6796875
 40
0.68359375
 40
0.6875
 40
0.69140625
 40
0.6953125
 40
0.703125
 40
0.71875
 40
0.734375
 40
0.7421875
 40
0.74609375
 40
0.75
 40
0.75390625
 40
0.7578125
 40
0.765625
 40
0.78125
 40
0.796875
 40
0.8046875
 40
0.80859375
 40
0.8125
 40
0.81640625
 40
0.8203125
 40
0.828125
 40
0.84375
 40
0.859375
 40
0.8671875
 40
0.87109375
 40
0.875
 40
0.87890625
 40
0.8828125
 40
0.890625
 40
0.90625
 40
0.921875
 40
0.9296875
 40
0.93359375
 40
0.9375
 40
0.94140625
 40
0.9453125
 40
0.953125
 40
0.96875
 40
0.984375
 40
1.0
 40
1.0
 40
1.0
 40
1.0
 10
18.1093710671
 20
9.3427669666
 30
0.0
 10
18.0781610875
 20
9.2721655778
 30
0.0
 10
18.0157732027
 20
9.1309519022
 30
0.0
 10
17.9219989292
 20
8.9191967774
 30
0.0
 10
17.8444150029
 20
8.7425434561
 30
0.0
 10
17.7890117165
 20
8.6192580301
 30
0.0
 10
17.759060656
 20
8.5482288895
 30
0.0
 10
17.7317862048
 20
8.4965917545
 30
0.0
 10
17.7229023966
 20
8.4387059006
 30
0.0
 10
17.7046405658
 20
8.3637046439
 30
0.0
 10
17.6756910212
 20
8.2314342007
 30
0.0
 10
17.6326088445
 20
8.0430296743
 30
0.0
 10
17.5906986255
 20
7.8543516619
 30
0.0
 10
17.56010834
 20
7.7224640991
 30
0.0
 10
17.5444248163
 20
7.6468611733
 30
0.0
 10
17.5276302932
 20
7.5908213499
 30
0.0
 10
17.5300649714
 20
7.5322513445
 30
0.0
 10
17.5266018999
 20
7.455040609
 30
0.0
 10
17.5236870658
 20
7.3195101052
 30
0.0
 10
17.5177211468
 20
7.1261143316
 30
0.0
 10
17.5129712019
 20
6.932625853
 30
0.0
 10
17.5083540041
 20
6.7972251362
 30
0.0
 10
17.5075660756
 20
6.7198104497
 30
0.0
 10
17.5017929288
 20
6.6618662032
 30
0.0
 10
17.5158233484
 20
6.6034763076
 30
0.0
 10
17.5276210382
 20
6.5257779
 30
0.0
 10
17.5515046443
 20
6.3897401989
 30
0.0
 10
17.5837835664
 20
6.1953815017
 30
0.0
 10
17.617257599
 20
6.0012240402
 30
0.0
 10
17.6394680504
 20
5.8649046089
 30
0.0
 10
17.6538949833
 20
5.7876489202
 30
0.0
 10
17.6598584072
 20
5.727900683
 30
0.0
 10
17.6843813108
 20
5.6750577637
 30
0.0
 10
17.7106030516
 20
5.6021910352
 30
0.0
 10
17.7595252905
 20
5.4758054272
 30
0.0
 10
17.8276898294
 20
5.2945944779
 30
0.0
 10
17.8969724492
 20
5.1138692478
 30
0.0
 10
17.9443293749
 20
4.9868036329
 30
0.0
 10
17.9730108936
 20
4.9150054867
 30
0.0
 10
17.9899867515
 20
4.8588839627
 30
0.0
 10
18.0242935247
 20
4.8114487078
 30
0.0
 10
18.0639891584
 20
4.7451706676
 30
0.0
 10
18.1362889843
 20
4.630608008
 30
0.0
 10
18.2379714017
 20
4.4661084934
 30
0.0
 10
18.3406708366
 20
4.3022510575
 30
0.0
 10
18.4115468381
 20
4.1867894876
 30
0.0
 10
18.45347991
 20
4.1219240208
 30
0.0
 10
18.480921816
 20
4.0701547341
 30
0.0
 10
18.5236790642
 20
4.0303099071
 30
0.0
 10
18.5753451588
 20
3.9730227309
 30
0.0
 10
18.6682646071
 20
3.8747223366
 30
0.0
 10
18.799584068
 20
3.733163143
 30
0.0
 10
18.9318248516
 20
3.5924057773
 30
0.0
 10
19.023454448
 20
3.4929828239
 30
0.0
 10
19.0771474528
 20
3.4374596691
 30
0.0
 10
19.1136857723
 20
3.3922025038
 30
0.0
 10
19.1644832105
 20
3.3607595544
 30
0.0
 10
19.2272385617
 20
3.3140152933
 30
0.0
 10
19.3393864589
 20
3.23447653
 30
0.0
 10
19.498314943
 20
3.1195228696
 30
0.0
 10
19.6579440791
 20
3.0055648348
 30
0.0
 10
19.7691110634
 20
2.9246321957
 30
0.0
 10
19.8334078491
 20
2.880078311
 30
0.0
 10
19.8794758862
 20
2.8419148885
 30
0.0
 10
19.9337757343
 20
2.8218968333
 30
0.0
 10
20.0033035759
 20
2.7888749619
 30
0.0
 10
20.1263214961
 20
2.7340547775
 30
0.0
 10
20.3013095249
 20
2.6540411938
 30
0.0
 10
20.4767446067
 20
2.5751702425
 30
0.0
 10
20.5991366526
 20
2.5187503727
 30
0.0
 10
20.669648011
 20
2.4882422927
 30
0.0
 10
20.7209302509
 20
2.4605114684
 30
0.0
 10
20.778331083
 20
2.4513137785
 30
0.0
 10
20.8527310435
 20
2.4325837198
 30
0.0
 10
20.9839279662
 20
2.4028381036
 30
0.0
 10
21.1708108058
 20
2.3586051811
 30
0.0
 10
21.3579599557
 20
2.3155537866
 30
0.0
 10
21.4887840441
 20
2.2841540312
 30
0.0
 10
21.5637698869
 20
2.2680233342
 30
0.0
 10
21.6193731256
 20
2.2508503301
 30
0.0
 10
21.6774063276
 20
2.2530712409
 30
0.0
 10
21.7539362909
 20
2.2492656748
 30
0.0
 10
21.888259069
 20
2.2457784278
 30
0.0
 10
22.0799387505
 20
2.2389792699
 30
0.0
 10
22.2717054051
 20
2.2334067729
 30
0.0
 10
22.405906421
 20
2.2282022007
 30
0.0
 10
22.482627725
 20
2.2270952885
 30
0.0
 10
22.5400738587
 20
2.2210362382
 30
0.0
 10
22.5978818653
 20
2.2349590883
 30
0.0
 10
22.6748336442
 20
2.2465511279
 30
0.0
 10
22.8095511152
 20
2.2701040312
 30
0.0
 10
23.0020310108
 20
2.3018937029
 30
0.0
 10
23.1943066675
 20
2.334890166
 30
0.0
 10
23.329310073
 20
2.3567535613
 30
0.0
 10
23.4058125263
 20
2.3710005421
 30
0.0
 10
23.4649991454
 20
2.3767775496
 30
0.0
 10
23.5172678233
 20
2.4013106637
 30
0.0
 10
23.5893732991
 20
2.4274774138
 30
0.0
 10
23.7144246714
 20
2.4763355735
 30
0.0
 10
23.893730576
 20
2.5443902276
 30
0.0
 10
24.0725506282
 20
2.6135750887
 30
0.0
 10
24.1982821938
 20
2.6608509585
 30
0.0
 10
24.2693187944
 20
2.6895041643
 30
0.0
 10
24.3248669757
 20
2.7064083805
 30
0.0
 10
24.3717372378
 20
2.7408361375
 30
0.0
 10
24.4372590372
 20
2.7806258747
 30
0.0
 10
24.5504996787
 20
2.8531218804
 30
0.0
 10
24.7131095077
 20
2.9550665962
 30
0.0
 10
24.8750789388
 20
3.0580401661
 30
0.0
 10
24.9892161374
 20
3.129095776
 30
0.0
 10
25.0533290614
 20
3.1711489923
 30
0.0
 10
25.1045220096
 20
3.1986319838
 30
0.0
 10
25.1438361029
 20
3.241617653
 30
0.0
 10
25.2003997201
 20
3.293522946
 30
0.0
 10
25.2974413668
 20
3.3868916282
 30
0.0
 10
25.4371979083
 20
3.5188353614
 30
0.0
 10
25.5761561381
 20
3.6517120229
 30
0.0
 10
25.6743154212
 20
3.7437746056
 30
0.0
 10
25.7291227526
 20
3.7977323407
 30
0.0
 10
25.7738254503
 20
3.8344207443
 30
0.0
 10
25.804781195
 20
3.8855534663
 30
0.0
 10
25.8508506215
 20
3.9486920794
 30
0.0
 10
25.9292379009
 20
4.0615322083
 30
0.0
 10
26.0423885343
 20
4.2215042947
 30
0.0
 10
26.1776658088
 20
4.4139998251
 30
0.0
 10
26.2679465605
 20
4.5422294118
 30
0.0
 10
26.3130749486
 20
4.6063568009
 30
0.0
  0
ELLIPSE
  5
264
100
AcDbEntity
  8
_30_VOLUMEN
100
AcDbEllipse
 62
4
  6
CONTINUOUS
 10
17.8409796016
 20
14.5094867233
 30
0.0
 11
-0.1789945832
 21
0.3706183755
 31
0.0
 40
0.9630053357
 41
5.3273100373
 42
7.3304294519
  0
ELLIPSE
  5
265
100
AcDbEntity
  8
_30_VOLUMEN
100
AcDbEllipse
 62
4
  6
CONTINUOUS
 10
30.8478224842
 20
6.9999824837
 30
0.0
 11
0.4063658694
 21
-0.0372536024
 31
0.0
 40
0.9796374315
 41
-0.9381156862
 42
1.130740262
  0
ELLIPSE
  5
266
100
AcDbEntity
  8
_30_VOLUMEN
100
AcDbEllipse
 62
4
  6
CONTINUOUS
 10
17.9448666321
 20
-0.5857840972
 30
0.0
 11
0.1454149161
 21
0.3837746191
 31
0.0
 40
0.9685433104
 41
2.0368967199
 42
4.0196071142
  0
ELLIPSE
  5
267
100
AcDbEntity
  8
_21_KURVEN
100
AcDbEllipse
 62
5
  6
CONTINUOUS
 10
30.8478224842
 20
6.9999824837
 30
0.0
 11
0.4063658694
 21
-0.0372536024
 31
0.0
 40
0.9796374315
 41
5.345069621
 42
7.4139255691
  0
ELLIPSE
  5
268
100
AcDbEntity
  8
_21_KURVEN
100
AcDbEllipse
 62
5
  6
CONTINUOUS
 10
17.9448666321
 20
-0.5857840972
 30
0.0
 11
0.1454149161
 21
0.3837746191
 31
0.0
 40
0.9685433104
 41
1.950751166
 42
4.0196071142
  0
ELLIPSE
  5
269
100
AcDbEntity
  8
_21_KURVEN
100
AcDbEllipse
 62
5
  6
CONTINUOUS
 10
17.8409796016
 20
14.5094867233
 30
0.0
 11
-0.1789945832
 21
0.3706183755
 31
0.0
 40
0.9630053357
 41
5.3273100373
 42
7.3961659855
  0
ENDSEC
  0
SECTION
  2
OBJECTS
  0
DICTIONARY
  5
C
100
AcDbDictionary
280
0
281
1
  3
ACAD_GROUP
350
D
  3
ACAD_MLINESTYLE
350
17
  3
ACAD_LAYOUT
350
1A
  3
ACAD_PLOTSETTINGS
350
19
  3
ACAD_PLOTSTYLENAME
350
E
  0
DICTIONARY
  5
D
102
{ACAD_REACTORS
330
C
102
}
100
AcDbDictionary
280
0
281
1
  0
ACDBDICTIONARYWDFLT
  5
E
102
{ACAD_REACTORS
330
C
102
}
100
AcDbDictionary
281
1
  3
Normal
350
F
100
AcDbDictionaryWithDefault
340
F
  0
DICTIONARY
  5
17
102
{ACAD_REACTORS
330
C
102
}
100
AcDbDictionary
280
0
281
1
  3
Standard
350
18
  0
DICTIONARY
  5
19
102
{ACAD_REACTORS
330
C
102
}
100
AcDbDictionary
281
1
  0
DICTIONARY
  5
1A
102
{ACAD_REACTORS
330
C
102
}
100
AcDbDictionary
281
1
  3
Model
350
26A
  3
Layout1
350
26B
  0
ACDBPLACEHOLDER
  5
F
102
{ACAD_REACTORS
330
E
102
}
  0
MLINESTYLE
  5
18
102
{ACAD_REACTORS
330
17
102
}
100
AcDbMlineStyle
  2
STANDARD
 70
0
  3

 62
256
 51
90.0
 52
90.0
 71
2
 49
0.5
 62
256
  6
BYLAYER
 49
-0.5
 62
256
  6
BYLAYER
  0
LAYOUT
  5
26A
102
{ACAD_REACTORS
330
1A
102
}
100
AcDbPlotSettings
  1

  2
none_device
  4
ISO_A3_(420.00_x_297.00_MM)
  6

 40
0.0
 41
0.0
 42
0.0
 43
0.0
 44
420.0
 45
297.0
 46
0.0
 47
0.0
 48
0.0
 49
0.0
140
0.0
141
0.0
142
1.0
143
1.0
 70
1024
 72
1
 73
0
 74
0
  7

 75
0
147
1.0
148
0.0
149
0.0
100
AcDbLayout
  1
Model
 70
0
 71
0
 10
0.0
 20
0.0
 11
420.0
 21
297.0
 12
0.0
 22
0.0
 32
0.0
 14
0.0
 24
0.0
 34
0.0
 15
0.0
 25
0.0
 35
0.0
146
0.0
 13
0.0
 23
0.0
 33
0.0
 16
1.0
 26
0.0
 36
0.0
 17
0.0
 27
1.0
 37
0.0
 76
0
330
20E
345
0
346
0
  0
LAYOUT
  5
26B
102
{ACAD_REACTORS
330
1A
102
}
100
AcDbPlotSettings
  1

  2
none_device
  4
ISO_A3_(420.00_x_297.00_MM)
  6

 40
0.0
 41
0.0
 42
0.0
 43
0.0
 44
420.0
 45
297.0
 46
0.0
 47
0.0
 48
0.0
 49
0.0
140
0.0
141
0.0
142
1.0
143
1.0
 70
0
 72
1
 73
0
 74
0
  7

 75
0
147
1.0
148
0.0
149
0.0
100
AcDbLayout
  1
Layout1
 70
0
 71
1
 10
0.0
 20
0.0
 11
420.0
 21
297.0
 12
0.0
 22
0.0
 32
0.0
 14
0.0
 24
0.0
 34
0.0
 15
0.0
 25
0.0
 35
0.0
146
0.0
 13
0.0
 23
0.0
 33
0.0
 16
1.0
 26
0.0
 36
0.0
 17
0.0
 27
1.0
 37
0.0
 76
0
330
20F
345
0
346
0
  0
ENDSEC
  0
EOF
