999
DXF file: 70529025_MCS.dxf
999
Pro/ENGINEER 2016380 by Parametric Technology Corporation
  0
SECTION
  2
HEADER
  9
$ACADVER
  1
AC1027
  9
$DWGCODEPAGE
  3
ANSI_1252
  9
$EXTMAX
 10
420.0
 20
297.0
 30
0.0
  9
$EXTMIN
 10
0.0
 20
0.0
 30
0.0
  9
$LIMMIN
 10
0.0
 20
0.0
  9
$LIMMAX
 10
420.0
 20
297.0
  9
$VIEWCTR
 10
210.0
 20
148.5
  9
$VIEWSIZE
 40
297.0
  9
$CLAYER
  8
0
  9
$LTSCALE
 40
23.1
  9
$CELTYPE
  6
BYLAYER
  9
$DIMSCALE
 40
1.0
  9
$DIMASZ
 40
3.5
  9
$DIMEXO
 40
0.0
  9
$DIMDLI
 40
15.96
  9
$DIMEXE
 40
1.5
  9
$DIMCEN
 40
3.78
  9
$DIMLFAC
 40
1.0
  9
$DIMBLK
  1
_FILLED
  9
$DIMALT
 70
0
  9
$DIMALTF
 40
25.4
  9
$DIMTXT
 40
3.5
  9
$DIMTOL
 70
1
  9
$DIMLIM
 70
0
  9
$DIMTFAC
 40
1.0
  9
$DIMTP
 40
0.05
  9
$DIMTM
 40
0.05
  9
$DIMGAP
 40
0.625
  9
$DIMDSEP
 70
46
  9
$AUNITS
 70
0
  9
$PDMODE
 70
3
  9
$PDSIZE
 40
0.3125
  9
$HANDSEED
  5
26B
  9
$TILEMODE
 70
1
  9
$MEASUREMENT
 70
1
  9
$INSUNITS
 70
4
  0
ENDSEC
  0
SECTION
  2
CLASSES
  0
CLASS
  1
ACDBDICTIONARYWDFLT
  2
AcDbDictionaryWithDefault
  3
AutoCAD 2000
 90
0
 91
1
280
0
281
0
  0
CLASS
  1
ACDBPLACEHOLDER
  2
AcDbPlaceHolder
  3
AutoCAD 2000
 90
0
 91
1
280
0
281
0
  0
CLASS
  1
LAYOUT
  2
AcDbLayout
  3
AutoCAD 2000
 90
0
 91
0
280
0
281
0
  0
ENDSEC
  0
SECTION
  2
TABLES
  0
TABLE
  2
VPORT
  5
8
100
AcDbSymbolTable
 70
2
  0
VPORT
  5
1F4
100
AcDbSymbolTableRecord
100
AcDbViewportTableRecord
  2
*ACTIVE
 70
0
 10
0.0
 20
0.0
 11
1.0
 21
1.0
 12
210.0
 22
148.5
 13
0.0
 23
0.0
 14
1.0
 24
1.0
 15
0.0
 25
0.0
 16
0.0
 26
0.0
 36
1.0
 17
0.0
 27
0.0
 37
0.0
 40
297.0
 41
1.4141414141
 42
50.0
 43
0.0
 44
0.0
 50
0.0
 51
0.0
 71
0
 72
100
 73
1
 74
1
 75
0
 76
0
 77
0
 78
0
  0
ENDTAB
  0
TABLE
  2
LTYPE
  5
5
100
AcDbSymbolTable
 70
6
  0
LTYPE
  5
14
100
AcDbSymbolTableRecord
100
AcDbLinetypeTableRecord
  2
BYBLOCK
 70
0
  3

 72
65
 73
0
 40
0.0
  0
LTYPE
  5
15
100
AcDbSymbolTableRecord
100
AcDbLinetypeTableRecord
  2
BYLAYER
 70
0
  3

 72
65
 73
0
 40
0.0
  0
LTYPE
  5
16
100
AcDbSymbolTableRecord
100
AcDbLinetypeTableRecord
  2
CONTINUOUS
 70
64
  3
Solid line
 72
65
 73
0
 40
0.0
  0
LTYPE
  5
1F5
100
AcDbSymbolTableRecord
100
AcDbLinetypeTableRecord
  2
CENTER
 70
64
  3
____ _ ____ _ ____ _ ____ _ ____ _ ____ _ ____
 72
65
 73
4
 40
0.6
 49
0.375
 74
0
 49
-0.075
 74
0
 49
0.075
 74
0
 49
-0.075
 74
0
  0
LTYPE
  5
1F6
100
AcDbSymbolTableRecord
100
AcDbLinetypeTableRecord
  2
HIDDEN
 70
64
  3
- - - - - - - - - - - - - - - - - - - -
 72
65
 73
2
 40
0.2
 49
0.1
 74
0
 49
-0.1
 74
0
  0
LTYPE
  5
1F7
100
AcDbSymbolTableRecord
100
AcDbLinetypeTableRecord
  2
PHANTOM
 70
64
  3
_____ _ _ _____ _ _ _____ _ _ _____
 72
65
 73
6
 40
0.8
 49
0.45
 74
0
 49
-0.05
 74
0
 49
0.1
 74
0
 49
-0.05
 74
0
 49
0.1
 74
0
 49
-0.05
 74
0
  0
LTYPE
  5
1F8
100
AcDbSymbolTableRecord
100
AcDbLinetypeTableRecord
  2
DOT
 70
64
  3
. . . . . . . . . . . . . . . . . . . .
 72
65
 73
2
 40
0.2
 49
0.1
 74
0
 49
-0.1
 74
0
  0
LTYPE
  5
1F9
100
AcDbSymbolTableRecord
100
AcDbLinetypeTableRecord
  2
DASHED
 70
64
  3
- - - - - - - - - - - - - - - - - - - -
 72
65
 73
2
 40
0.2
 49
0.1
 74
0
 49
-0.1
 74
0
  0
ENDTAB
  0
TABLE
  2
LAYER
  5
2
100
AcDbSymbolTable
 70
36
  0
LAYER
  5
10
100
AcDbSymbolTableRecord
100
AcDbLayerTableRecord
  2
0
 70
0
 62
7
  6
CONTINUOUS
370
-3
390
F
  0
LAYER
  5
1FA
100
AcDbSymbolTableRecord
100
AcDbLayerTableRecord
  2
DEFAULT_1
 70
0
 62
7
  6
CENTER
370
-3
390
F
  0
LAYER
  5
1FB
100
AcDbSymbolTableRecord
100
AcDbLayerTableRecord
  2
DEFAULT_2
 70
0
 62
1
  6
HIDDEN
370
-3
390
F
  0
LAYER
  5
1FC
100
AcDbSymbolTableRecord
100
AcDbLayerTableRecord
  2
DEFAULT_3
 70
0
 62
7
  6
PHANTOM
370
-3
390
F
  0
LAYER
  5
1FD
100
AcDbSymbolTableRecord
100
AcDbLayerTableRecord
  2
BG_STARTBEZUEGE
 70
0
 62
7
  6
CONTINUOUS
370
-3
390
F
  0
LAYER
  5
1FE
100
AcDbSymbolTableRecord
100
AcDbLayerTableRecord
  2
HILFEN
 70
0
 62
7
  6
CONTINUOUS
370
-3
390
F
  0
LAYER
  5
1FF
100
AcDbSymbolTableRecord
100
AcDbLayerTableRecord
  2
PLATZIERUNG
 70
0
 62
7
  6
CONTINUOUS
370
-3
390
F
  0
LAYER
  5
200
100
AcDbSymbolTableRecord
100
AcDbLayerTableRecord
  2
T_STARTBEZUEGE
 70
0
 62
7
  6
CONTINUOUS
370
-3
390
F
  0
LAYER
  5
201
100
AcDbSymbolTableRecord
100
AcDbLayerTableRecord
  2
_03_2D_ZEICHNUNG_BEMASSUNGEN
 70
0
 62
7
  6
CONTINUOUS
370
-3
390
F
  0
LAYER
  5
202
100
AcDbSymbolTableRecord
100
AcDbLayerTableRecord
  2
_04_NOTIZEN
 70
0
 62
7
  6
CONTINUOUS
370
-3
390
F
  0
LAYER
  5
203
100
AcDbSymbolTableRecord
100
AcDbLayerTableRecord
  2
_05_2D_ELEMENTE
 70
0
 62
7
  6
CONTINUOUS
370
-3
390
F
  0
LAYER
  5
204
100
AcDbSymbolTableRecord
100
AcDbLayerTableRecord
  2
_07_EINRASTLINIEN
 70
0
 62
7
  6
CONTINUOUS
370
-3
390
F
  0
LAYER
  5
205
100
AcDbSymbolTableRecord
100
AcDbLayerTableRecord
  2
_21_KURVEN
 70
0
 62
7
  6
CONTINUOUS
370
-3
390
F
  0
LAYER
  5
206
100
AcDbSymbolTableRecord
100
AcDbLayerTableRecord
  2
_26_BEZUGSACHSEN
 70
0
 62
7
  6
CONTINUOUS
370
-3
390
F
  0
LAYER
  5
207
100
AcDbSymbolTableRecord
100
AcDbLayerTableRecord
  2
_27_BEZUGSEBENEN
 70
0
 62
7
  6
CONTINUOUS
370
-3
390
F
  0
LAYER
  5
208
100
AcDbSymbolTableRecord
100
AcDbLayerTableRecord
  2
_28_BEZUGSPUNKTE
 70
0
 62
7
  6
CONTINUOUS
370
-3
390
F
  0
LAYER
  5
209
100
AcDbSymbolTableRecord
100
AcDbLayerTableRecord
  2
_29_KOORDINATENSYSTEME
 70
0
 62
7
  6
CONTINUOUS
370
-3
390
F
  0
LAYER
  5
20A
100
AcDbSymbolTableRecord
100
AcDbLayerTableRecord
  2
_30_VOLUMEN
 70
0
 62
7
  6
CONTINUOUS
370
-3
390
F
  0
ENDTAB
  0
TABLE
  2
STYLE
  5
3
100
AcDbSymbolTable
 70
1
  0
STYLE
  5
11
100
AcDbSymbolTableRecord
100
AcDbTextStyleTableRecord
  2
STANDARD
 70
0
 40
0.0
 41
0.7
 50
0.0
 71
0
 42
0.2
  3
SIMPLEX.SHX
  4

  0
STYLE
  5
20B
100
AcDbSymbolTableRecord
100
AcDbTextStyleTableRecord
  2
TEXTSTYLE_1
 70
0
 40
0.0
 41
0.8
 50
0.0
 71
0
 42
0.2
  3
gdt
  4

  0
ENDTAB
  0
TABLE
  2
VIEW
  5
6
100
AcDbSymbolTable
 70
0
  0
ENDTAB
  0
TABLE
  2
UCS
  5
7
100
AcDbSymbolTable
 70
0
  0
ENDTAB
  0
TABLE
  2
APPID
  5
9
100
AcDbSymbolTable
 70
1
  0
APPID
  5
20C
100
AcDbSymbolTableRecord
100
AcDbRegAppTableRecord
  2
ACAD
 70
0
  0
ENDTAB
  0
TABLE
  2
BLOCK_RECORD
  5
1
100
AcDbSymbolTable
 70
0
  0
BLOCK_RECORD
  5
20D
100
AcDbSymbolTableRecord
100
AcDbBlockTableRecord
  2
*Model_Space
  0
BLOCK_RECORD
  5
20E
100
AcDbSymbolTableRecord
100
AcDbBlockTableRecord
  2
*Paper_Space
  0
BLOCK_RECORD
  5
20F
100
AcDbSymbolTableRecord
100
AcDbBlockTableRecord
  2
_FILLED
  0
BLOCK_RECORD
  5
210
100
AcDbSymbolTableRecord
100
AcDbBlockTableRecord
  2
*D0
  0
BLOCK_RECORD
  5
211
100
AcDbSymbolTableRecord
100
AcDbBlockTableRecord
  2
*D1
  0
BLOCK_RECORD
  5
212
100
AcDbSymbolTableRecord
100
AcDbBlockTableRecord
  2
*D2
  0
ENDTAB
  0
TABLE
  2
DIMSTYLE
  5
A
100
AcDbSymbolTable
 70
1
100
AcDbDimStyleTable
 71
0
  0
DIMSTYLE
105
213
100
AcDbSymbolTableRecord
100
AcDbDimStyleTableRecord
  2
STANDARD
 70
0
  3

  4

 40
1.0
 41
3.5
 42
0.0
 43
0.38
 44
1.5
 45
0.0
 46
0.0
 47
0.05
 48
0.05
140
3.5
141
0.09
142
0.0
143
25.4
144
1.0
145
0.0
146
1.0
147
0.625
 71
1.0
 72
0.0
 73
0
 74
0
 75
0
 76
0
 77
1
 78
8
170
0
171
1
172
0
173
0
174
0
175
0
176
0
177
0
178
2
270
2
271
2
272
2
273
2
274
2
275
0
280
0
281
0
282
0
283
1
284
8
285
0
286
0
287
3
288
0
340
11
278
46
341
20F
342
20F
343
20F
344
20F
  0
DIMSTYLE
105
214
100
AcDbSymbolTableRecord
100
AcDbDimStyleTableRecord
  2
DIMSTYLE_1
 70
0
  3

  4

 40
1.0
 41
3.5
 42
0.0
 43
0.38
 44
1.5
 45
0.0
 46
0.0
 47
0.2
 48
0.2
140
3.5
141
0.09
142
0.0
143
25.4
144
1.0
145
0.0
146
1.0
147
0.875
 71
0.0
 72
0.0
 73
0
 74
0
 75
0
 76
0
 77
1
 78
8
170
0
171
1
172
0
173
0
174
0
175
0
176
0
177
0
178
2
270
2
271
2
272
2
273
2
274
2
275
0
280
0
281
0
282
0
283
1
284
8
285
0
286
0
287
3
288
0
340
11
278
46
341
20F
342
20F
343
20F
344
20F
  0
DIMSTYLE
105
215
100
AcDbSymbolTableRecord
100
AcDbDimStyleTableRecord
  2
DIMSTYLE_2
 70
0
  3

  4

 40
1.0
 41
3.5
 42
0.0
 43
0.38
 44
1.5
 45
0.0
 46
0.0
 47
0.5
 48
0.5
140
3.5
141
0.09
142
0.0
143
25.4
144
1.0
145
0.0
146
1.0
147
0.875
 71
0.0
 72
0.0
 73
0
 74
0
 75
0
 76
0
 77
1
 78
8
170
0
171
1
172
0
173
0
174
0
175
0
176
0
177
0
178
2
270
2
271
2
272
2
273
2
274
2
275
0
280
0
281
0
282
0
283
1
284
8
285
0
286
0
287
3
288
0
340
11
278
46
341
20F
342
20F
343
20F
344
20F
  0
ENDTAB
  0
ENDSEC
  0
SECTION
  2
BLOCKS
  0
BLOCK
  5
20
100
AcDbEntity
  8
0
100
AcDbBlockBegin
  2
*Model_Space
 70
0
 10
0.0
 20
0.0
 30
0.0
  3
*Model_Space
  1

  0
ENDBLK
  5
21
100
AcDbEntity
  8
0
100
AcDbBlockEnd
  0
BLOCK
  5
1C
100
AcDbEntity
  8
0
100
AcDbBlockBegin
  2
*Paper_Space
 70
0
 10
0.0
 20
0.0
 30
0.0
  3
*Paper_Space
  1

  0
ENDBLK
  5
1D
100
AcDbEntity
  8
0
100
AcDbBlockEnd
  0
BLOCK
  5
216
100
AcDbEntity
  8
0
100
AcDbBlockBegin
  2
_FILLED
 70
64
 10
0.0
 20
0.0
  3
_FILLED
  1

  0
SOLID
  5
217
100
AcDbEntity
  8
0
  6
BYBLOCK
 62
0
100
AcDbTrace
 10
0.0
 20
0.0
 11
-1.0
 21
0.125
 12
-1.0
 22
-0.125
 13
-1.0
 23
-0.125
  0
ENDBLK
  5
218
100
AcDbEntity
  8
0
  6
BYBLOCK
 62
0
100
AcDbBlockEnd
  0
BLOCK
  5
219
100
AcDbEntity
  8
_03_2D_ZEICHNUNG_BEMASSUNGEN
100
AcDbBlockBegin
 62
7
  6
CONTINUOUS
  2
*D0
 70
65
 10
0.0
 20
0.0
  3
*D0
  1

  0
TEXT
  5
21A
100
AcDbEntity
  8
_03_2D_ZEICHNUNG_BEMASSUNGEN
100
AcDbText
 62
2
  6
CONTINUOUS
 10
-122.375
 20
-2.625
  7
STANDARD
 40
3.5
  1
25
 50
90.0
 41
0.75
 72
1
 11
-122.375
 21
-0.0
100
AcDbText
  0
LINE
  5
21B
100
AcDbEntity
  8
_03_2D_ZEICHNUNG_BEMASSUNGEN
100
AcDbLine
 62
7
  6
CONTINUOUS
 10
-112.5
 20
12.5
 11
-123.0
 21
12.5
  0
LINE
  5
21C
100
AcDbEntity
  8
_03_2D_ZEICHNUNG_BEMASSUNGEN
100
AcDbLine
 62
7
  6
CONTINUOUS
 10
-112.5
 20
-12.5
 11
-123.0
 21
-12.5
  0
LINE
  5
21D
100
AcDbEntity
  8
_03_2D_ZEICHNUNG_BEMASSUNGEN
100
AcDbLine
 62
7
  6
CONTINUOUS
 10
-121.5
 20
12.5
 11
-121.5
 21
18.5
  0
LINE
  5
21E
100
AcDbEntity
  8
_03_2D_ZEICHNUNG_BEMASSUNGEN
100
AcDbLine
 62
7
  6
CONTINUOUS
 10
-121.5
 20
18.5
 11
-121.5
 21
-0.0
  0
LINE
  5
21F
100
AcDbEntity
  8
_03_2D_ZEICHNUNG_BEMASSUNGEN
100
AcDbLine
 62
7
  6
CONTINUOUS
 10
-121.5
 20
-12.5
 11
-121.5
 21
-18.5
  0
LINE
  5
220
100
AcDbEntity
  8
_03_2D_ZEICHNUNG_BEMASSUNGEN
100
AcDbLine
 62
7
  6
CONTINUOUS
 10
-121.5
 20
-18.5
 11
-121.5
 21
-0.0
  0
INSERT
  5
221
100
AcDbEntity
  8
_03_2D_ZEICHNUNG_BEMASSUNGEN
100
AcDbBlockReference
 62
7
  6
CONTINUOUS
  2
_FILLED
 10
-121.5
 20
12.5
 41
3.5
 42
3.5
 43
3.5
 50
270.0
  0
INSERT
  5
222
100
AcDbEntity
  8
_03_2D_ZEICHNUNG_BEMASSUNGEN
100
AcDbBlockReference
 62
7
  6
CONTINUOUS
  2
_FILLED
 10
-121.5
 20
-12.5
 41
3.5
 42
3.5
 43
3.5
 50
90.0
  0
ENDBLK
  5
223
100
AcDbEntity
  8
0
  6
BYBLOCK
 62
0
100
AcDbBlockEnd
  0
BLOCK
  5
224
100
AcDbEntity
  8
_03_2D_ZEICHNUNG_BEMASSUNGEN
100
AcDbBlockBegin
 62
7
  6
CONTINUOUS
  2
*D1
 70
65
 10
0.0
 20
0.0
  3
*D1
  1

  0
TEXT
  5
225
100
AcDbEntity
  8
_03_2D_ZEICHNUNG_BEMASSUNGEN
100
AcDbText
 62
2
  6
CONTINUOUS
 10
-41.125
 20
22.956849383
  7
STANDARD
 40
3.5
  1
150
 41
0.6904761905
 72
1
 11
-37.5
 21
22.956849383
100
AcDbText
  0
LINE
  5
226
100
AcDbEntity
  8
_03_2D_ZEICHNUNG_BEMASSUNGEN
100
AcDbLine
 62
7
  6
CONTINUOUS
 10
37.5
 20
12.5
 11
37.5
 21
23.581849383
  0
LINE
  5
227
100
AcDbEntity
  8
_03_2D_ZEICHNUNG_BEMASSUNGEN
100
AcDbLine
 62
7
  6
CONTINUOUS
 10
-112.5
 20
12.5
 11
-112.5
 21
23.581849383
  0
LINE
  5
228
100
AcDbEntity
  8
_03_2D_ZEICHNUNG_BEMASSUNGEN
100
AcDbLine
 62
7
  6
CONTINUOUS
 10
37.5
 20
22.081849383
 11
-37.5
 21
22.081849383
  0
LINE
  5
229
100
AcDbEntity
  8
_03_2D_ZEICHNUNG_BEMASSUNGEN
100
AcDbLine
 62
7
  6
CONTINUOUS
 10
-112.5
 20
22.081849383
 11
-37.5
 21
22.081849383
  0
INSERT
  5
22A
100
AcDbEntity
  8
_03_2D_ZEICHNUNG_BEMASSUNGEN
100
AcDbBlockReference
 62
7
  6
CONTINUOUS
  2
_FILLED
 10
37.5
 20
22.081849383
 41
3.5
 42
3.5
 43
3.5
 50
360.0
  0
INSERT
  5
22B
100
AcDbEntity
  8
_03_2D_ZEICHNUNG_BEMASSUNGEN
100
AcDbBlockReference
 62
7
  6
CONTINUOUS
  2
_FILLED
 10
-112.5
 20
22.081849383
 41
3.5
 42
3.5
 43
3.5
 50
180.0
  0
ENDBLK
  5
22C
100
AcDbEntity
  8
0
  6
BYBLOCK
 62
0
100
AcDbBlockEnd
  0
BLOCK
  5
22D
100
AcDbEntity
  8
_03_2D_ZEICHNUNG_BEMASSUNGEN
100
AcDbBlockBegin
 62
7
  6
CONTINUOUS
  2
*D2
 70
65
 10
0.0
 20
0.0
  3
*D2
  1

  0
TEXT
  5
22E
100
AcDbEntity
  8
_03_2D_ZEICHNUNG_BEMASSUNGEN
100
AcDbText
 62
2
  6
CONTINUOUS
 10
46.4174368047
 20
-1.25
  7
STANDARD
 40
3.5
  1
22
 50
90.0
 41
0.7857142857
 72
1
 11
46.4174368047
 21
1.5
100
AcDbText
  0
LINE
  5
22F
100
AcDbEntity
  8
_03_2D_ZEICHNUNG_BEMASSUNGEN
100
AcDbLine
 62
7
  6
CONTINUOUS
 10
37.5
 20
-9.5
 11
48.7924368047
 21
-9.5
  0
LINE
  5
230
100
AcDbEntity
  8
_03_2D_ZEICHNUNG_BEMASSUNGEN
100
AcDbLine
 62
7
  6
CONTINUOUS
 10
-112.5
 20
12.5
 11
48.7924368047
 21
12.5
  0
LINE
  5
231
100
AcDbEntity
  8
_03_2D_ZEICHNUNG_BEMASSUNGEN
100
AcDbLine
 62
7
  6
CONTINUOUS
 10
47.2924368047
 20
-9.5
 11
47.2924368047
 21
1.5
  0
LINE
  5
232
100
AcDbEntity
  8
_03_2D_ZEICHNUNG_BEMASSUNGEN
100
AcDbLine
 62
7
  6
CONTINUOUS
 10
47.2924368047
 20
12.5
 11
47.2924368047
 21
1.5
  0
INSERT
  5
233
100
AcDbEntity
  8
_03_2D_ZEICHNUNG_BEMASSUNGEN
100
AcDbBlockReference
 62
7
  6
CONTINUOUS
  2
_FILLED
 10
47.2924368047
 20
-9.5
 41
3.5
 42
3.5
 43
3.5
 50
270.0
  0
INSERT
  5
234
100
AcDbEntity
  8
_03_2D_ZEICHNUNG_BEMASSUNGEN
100
AcDbBlockReference
 62
7
  6
CONTINUOUS
  2
_FILLED
 10
47.2924368047
 20
12.5
 41
3.5
 42
3.5
 43
3.5
 50
90.0
  0
ENDBLK
  5
235
100
AcDbEntity
  8
0
  6
BYBLOCK
 62
0
100
AcDbBlockEnd
  0
ENDSEC
  0
SECTION
  2
ENTITIES
  0
DIMENSION
  5
236
100
AcDbEntity
  8
_03_2D_ZEICHNUNG_BEMASSUNGEN
100
AcDbDimension
 62
7
  6
CONTINUOUS
  2
*D0
 10
-121.5
 20
-12.5
 11
-121.5
 21
-0.5000003052
 70
160
 71
2
 42
25.0
  3
DIMSTYLE_1
100
AcDbAlignedDimension
 13
-112.5
 23
12.5
 14
-112.5
 24
-12.5
 50
270.0
100
AcDbRotatedDimension
  0
DIMENSION
  5
237
100
AcDbEntity
  8
_03_2D_ZEICHNUNG_BEMASSUNGEN
100
AcDbDimension
 62
7
  6
CONTINUOUS
  2
*D1
 10
-112.5
 20
22.081849383
 11
-37.9999992371
 21
22.081849383
 70
160
 71
2
 42
150.0
  3
DIMSTYLE_2
100
AcDbAlignedDimension
 13
37.5
 23
12.5
 14
-112.5
 24
12.5
 50
180.0
100
AcDbRotatedDimension
  0
DIMENSION
  5
238
100
AcDbEntity
  8
_03_2D_ZEICHNUNG_BEMASSUNGEN
100
AcDbDimension
 62
7
  6
CONTINUOUS
  2
*D2
 10
47.2924368047
 20
12.5
 11
47.2924368047
 21
1.0000007106
 70
160
 71
2
 42
22.0
  3
DIMSTYLE_1
100
AcDbAlignedDimension
 13
37.5
 23
-9.5
 14
-112.5
 24
12.5
 50
90.0
100
AcDbRotatedDimension
  0
LINE
  5
239
100
AcDbEntity
  8
_30_VOLUMEN
100
AcDbLine
 62
4
  6
CONTINUOUS
 10
-112.5
 20
-12.0
 11
-112.5
 21
12.0
  0
LINE
  5
23A
100
AcDbEntity
  8
_30_VOLUMEN
100
AcDbLine
 62
4
  6
CONTINUOUS
 10
-112.0
 20
-12.5
 11
-112.0
 21
12.5
  0
LINE
  5
23B
100
AcDbEntity
  8
_30_VOLUMEN
100
AcDbLine
 62
4
  6
CONTINUOUS
 10
-112.0
 20
12.5
 11
-112.5
 21
12.0
  0
LINE
  5
23C
100
AcDbEntity
  8
_30_VOLUMEN
100
AcDbLine
 62
4
  6
CONTINUOUS
 10
-112.0
 20
-12.5
 11
-112.5
 21
-12.0
  0
LINE
  5
23D
100
AcDbEntity
  8
_26_BEZUGSACHSEN
100
AcDbLine
 62
4
  6
CONTINUOUS
 10
19.3601501117
 20
-18.5
 11
6.4076951546
 21
-18.5
  0
LINE
  5
23E
100
AcDbEntity
  8
_30_VOLUMEN
100
AcDbLine
 62
4
  6
CONTINUOUS
 10
-112.0
 20
-12.5
 11
4.8
 21
-12.5
  0
LINE
  5
23F
100
AcDbEntity
  8
_30_VOLUMEN
100
AcDbLine
 62
4
  6
CONTINUOUS
 10
-112.0
 20
12.5
 11
4.8
 21
12.5
  0
LINE
  5
240
100
AcDbEntity
  8
0
100
AcDbLine
 62
4
  6
CONTINUOUS
 10
4.8
 20
12.5
 11
20.2924790911
 21
12.5
  0
LINE
  5
241
100
AcDbEntity
  8
_26_BEZUGSACHSEN
100
AcDbLine
 62
4
  6
CONTINUOUS
 10
20.1062889034
 20
0.9447359535
 11
19.4964380419
 21
1.3032728917
  0
LINE
  5
242
100
AcDbEntity
  8
_26_BEZUGSACHSEN
100
AcDbLine
 62
4
  6
CONTINUOUS
 10
34.7761655529
 20
-7.4350841878
 11
19.4981155463
 21
1.547022121
  0
LINE
  5
243
100
AcDbEntity
  8
_30_VOLUMEN
100
AcDbLine
 62
4
  6
CONTINUOUS
 10
20.6731852306
 20
0.8561878313
 11
37.1173671204
 21
-8.8114981517
  0
LINE
  5
244
100
AcDbEntity
  8
_21_KURVEN
100
AcDbLine
 62
5
  6
CONTINUOUS
 10
20.6731852306
 20
0.8561878313
 11
37.1173671204
 21
-8.8114981517
  0
LINE
  5
245
100
AcDbEntity
  8
0
100
AcDbLine
 62
4
  6
CONTINUOUS
 10
6.4076951546
 20
-18.5
 11
4.8
 21
-12.5
  0
LINE
  5
246
100
AcDbEntity
  8
0
100
AcDbLine
 62
4
  6
CONTINUOUS
 10
4.8
 20
12.5
 11
4.8
 21
-12.5
  0
LINE
  5
247
100
AcDbEntity
  8
0
100
AcDbLine
 62
4
  6
CONTINUOUS
 10
6.0057713659
 20
12.5
 11
6.0057713659
 21
-4.6350786287
  0
LINE
  5
248
100
AcDbEntity
  8
0
100
AcDbLine
 62
4
  6
CONTINUOUS
 10
6.0057713659
 20
-4.6350786287
 11
5.9144190973
 21
-16.6590686921
  0
LINE
  5
249
100
AcDbEntity
  8
0
100
AcDbLine
 62
4
  6
CONTINUOUS
 10
9.6479447632
 20
12.5
 11
6.0057713659
 21
-4.6350786287
  0
LINE
  5
24A
100
AcDbEntity
  8
_30_VOLUMEN
100
AcDbLine
 62
4
  6
CONTINUOUS
 10
37.1079061487
 20
-10.1862215344
 11
20.5313253539
 21
-19.7567149186
  0
LINE
  5
24B
100
AcDbEntity
  8
_21_KURVEN
100
AcDbLine
 62
5
  6
CONTINUOUS
 10
37.1079061487
 20
-10.1862215344
 11
20.5313253539
 21
-19.7567149186
  0
LINE
  5
24C
100
AcDbEntity
  8
_30_VOLUMEN
100
AcDbLine
 62
4
  6
CONTINUOUS
 10
19.322078727
 20
-18.5021912862
 11
19.3545288859
 21
-19.0659800179
  0
LINE
  5
24D
100
AcDbEntity
  8
_30_VOLUMEN
100
AcDbLine
 62
4
  6
CONTINUOUS
 10
19.3574656937
 20
-19.1170040886
 11
19.3576124806
 21
-19.1195543616
  0
LINE
  5
24E
100
AcDbEntity
  8
_30_VOLUMEN
100
AcDbLine
 62
4
  6
CONTINUOUS
 10
19.3562556696
 20
-19.0658806289
 11
19.3583770557
 21
-19.1194995793
  0
LINE
  5
24F
100
AcDbEntity
  8
_30_VOLUMEN
100
AcDbLine
 62
4
  6
CONTINUOUS
 10
19.3562556696
 20
-19.0658806289
 11
19.4886545746
 21
0.1722987382
  0
LINE
  5
250
100
AcDbEntity
  8
_21_KURVEN
100
AcDbLine
 62
5
  6
CONTINUOUS
 10
19.3562556696
 20
-19.0658806289
 11
19.4886545746
 21
0.1722987382
  0
LINE
  5
251
100
AcDbEntity
  8
_26_BEZUGSACHSEN
100
AcDbLine
 62
4
  6
CONTINUOUS
 10
19.3601501117
 20
-18.5
 11
19.4981155463
 21
1.547022121
  0
LINE
  5
252
100
AcDbEntity
  8
_30_VOLUMEN
100
AcDbLine
 62
4
  6
CONTINUOUS
 10
19.4929857534
 20
0.2424715502
 11
19.4886545746
 21
0.1722987382
  0
LINE
  5
253
100
AcDbEntity
  8
_26_BEZUGSACHSEN
100
AcDbLine
 62
4
  6
CONTINUOUS
 10
34.7761655529
 20
-7.4350841878
 11
20.2924790911
 21
12.5
  0
ARC
  5
254
100
AcDbEntity
  8
_30_VOLUMEN
100
AcDbCircle
 62
4
  6
CONTINUOUS
 10
25.0622026759
 20
-9.2937709412
 40
2.5480131028
100
AcDbArc
 50
29.3783271312
 51
68.6093127019
  0
ARC
  5
255
100
AcDbEntity
  8
_30_VOLUMEN
100
AcDbCircle
 62
4
  6
CONTINUOUS
 10
25.0514450335
 20
-9.3715360957
 40
2.5341134896
100
AcDbArc
 50
262.43839336
 51
267.4199719051
  0
ARC
  5
256
100
AcDbEntity
  8
_30_VOLUMEN
100
AcDbCircle
 62
4
  6
CONTINUOUS
 10
25.0748283335
 20
-9.2690078627
 40
2.5203556208
100
AcDbArc
 50
69.6525826775
 51
72.9371962671
  0
ARC
  5
257
100
AcDbEntity
  8
_30_VOLUMEN
100
AcDbCircle
 62
4
  6
CONTINUOUS
 10
25.0775225252
 20
-9.2614025812
 40
2.5122880982
100
AcDbArc
 50
68.6653927008
 51
69.6498831663
  0
SPLINE
  5
258
100
AcDbEntity
  8
_30_VOLUMEN
100
AcDbSpline
 62
4
  6
CONTINUOUS
 70
0
 71
3
 72
15
 73
11
 74
0
 42
0.0000001
 43
0.0000001
 44
0.0000000001
 40
0.0
 40
0.0
 40
0.0
 40
0.0
 40
0.1249778543
 40
0.2503631039
 40
0.3757459603
 40
0.5011276767
 40
0.6263014028
 40
0.7511641644
 40
0.8757026162
 40
1.0
 40
1.0
 40
1.0
 40
1.0
 10
27.2825398654
 20
-8.0437815266
 30
0.0
 10
27.394629912
 20
-8.2424146126
 30
0.0
 10
27.5664802265
 20
-8.6726199416
 30
0.0
 10
27.6463085748
 20
-9.3614286444
 30
0.0
 10
27.5427162005
 20
-10.0482360036
 30
0.0
 10
27.2640113017
 20
-10.6838892955
 30
0.0
 10
26.828993267
 20
-11.2236207134
 30
0.0
 10
26.2684820587
 20
-11.6291144419
 30
0.0
 10
25.6227385855
 20
-11.8716787312
 30
0.0
 10
25.163978927
 20
-11.9132734242
 30
0.0
 10
24.9373725008
 20
-11.903080809
 30
0.0
  0
SPLINE
  5
259
100
AcDbEntity
  8
_30_VOLUMEN
100
AcDbSpline
 62
4
  6
CONTINUOUS
 70
0
 71
3
 72
9
 73
5
 74
0
 42
0.0000001
 43
0.0000001
 44
0.0000000001
 40
0.0
 40
0.0
 40
0.0
 40
0.0
 40
0.4966834477
 40
1.0
 40
1.0
 40
1.0
 40
1.0
 10
24.9338389145
 20
-11.937444826
 30
0.0
 10
24.5922959384
 20
-11.8648476253
 30
0.0
 10
23.9284232878
 20
-11.5677120803
 30
0.0
 10
23.4489795071
 20
-11.0211672809
 30
0.0
 10
23.2750843987
 20
-10.7130103741
 30
0.0
  0
SPLINE
  5
25A
100
AcDbEntity
  8
_30_VOLUMEN
100
AcDbSpline
 62
4
  6
CONTINUOUS
 70
0
 71
3
 72
15
 73
11
 74
0
 42
0.0000001
 43
0.0000001
 44
0.0000000001
 40
0.0
 40
0.0
 40
0.0
 40
0.0
 40
0.1254506383
 40
0.2521230188
 40
0.3791914425
 40
0.505878731
 40
0.6314444896
 40
0.755484951
 40
0.878212068
 40
1.0
 40
1.0
 40
1.0
 40
1.0
 10
23.2750843987
 20
-10.7130103741
 30
0.0
 10
23.1543058108
 20
-10.4989804546
 30
0.0
 10
22.9729992535
 20
-10.0309826713
 30
0.0
 10
22.9097443827
 20
-9.2811371698
 30
0.0
 10
23.0600150797
 20
-8.5407766751
 30
0.0
 10
23.4105308949
 20
-7.874126221
 30
0.0
 10
23.9305014526
 20
-7.3374677136
 30
0.0
 10
24.5742095007
 20
-6.9731890463
 30
0.0
 10
25.2873542433
 20
-6.8093733091
 30
0.0
 10
25.7732954847
 20
-6.8405993587
 30
0.0
 10
26.0066632391
 20
-6.8902032062
 30
0.0
  0
SPLINE
  5
25B
100
AcDbEntity
  8
_30_VOLUMEN
100
AcDbSpline
 62
7
  6
CONTINUOUS
 70
0
 71
3
 72
15
 73
11
 74
0
 42
0.0000001
 43
0.0000001
 44
0.0000000001
 40
0.0
 40
0.0
 40
0.0
 40
0.0
 40
0.124281153
 40
0.2487437071
 40
0.3735183172
 40
0.4986489727
 40
0.6240498228
 40
0.7494836783
 40
0.874985523
 40
1.0
 40
1.0
 40
1.0
 40
1.0
 10
24.9338552144
 20
-11.937367896
 30
0.0
 10
25.1724762238
 20
-11.9879235761
 30
0.0
 10
25.667718571
 20
-12.0202656306
 30
0.0
 10
26.3917439536
 20
-11.8535166285
 30
0.0
 10
27.040421374
 20
-11.4871318859
 30
0.0
 10
27.5601585534
 20
-10.9509652993
 30
0.0
 10
27.9081279618
 20
-10.2889671713
 30
0.0
 10
28.0570569513
 20
-9.5551711135
 30
0.0
 10
27.993389083
 20
-8.8104338346
 30
0.0
 10
27.8129388651
 20
-8.344572719
 30
0.0
 10
27.6923566399
 20
-8.1308907711
 30
0.0
  0
SPLINE
  5
25C
100
AcDbEntity
  8
_30_VOLUMEN
100
AcDbSpline
 62
4
  6
CONTINUOUS
 70
0
 71
3
 72
15
 73
11
 74
0
 42
0.0000001
 43
0.0000001
 44
0.0000000001
 40
0.0
 40
0.0
 40
0.0
 40
0.0
 40
0.1253010609
 40
0.2508955371
 40
0.376436109
 40
0.5016066888
 40
0.626306437
 40
0.7507106596
 40
0.8751692786
 40
1.0
 40
1.0
 40
1.0
 40
1.0
 10
23.0989186451
 20
-10.9396033162
 30
0.0
 10
22.9086931511
 20
-10.6025075787
 30
0.0
 10
22.658868806
 20
-9.8440953625
 30
0.0
 10
22.7453032306
 20
-8.6559612534
 30
0.0
 10
23.2746513491
 20
-7.5875747019
 30
0.0
 10
24.1686819672
 20
-6.8027328415
 30
0.0
 10
25.2921815701
 20
-6.4210495378
 30
0.0
 10
26.4742343784
 20
-6.5028001745
 30
0.0
 10
27.5322415786
 20
-7.0338906481
 30
0.0
 10
28.0488020943
 20
-7.6365418984
 30
0.0
 10
28.2383135436
 20
-7.9723722881
 30
0.0
  0
SPLINE
  5
25D
100
AcDbEntity
  8
_30_VOLUMEN
100
AcDbSpline
 62
4
  6
CONTINUOUS
 70
0
 71
3
 72
15
 73
11
 74
0
 42
0.0000001
 43
0.0000001
 44
0.0000000001
 40
0.0
 40
0.0
 40
0.0
 40
0.0
 40
0.1248307214
 40
0.2492893404
 40
0.373693563
 40
0.4983933112
 40
0.623563891
 40
0.7491044629
 40
0.8746989391
 40
1.0
 40
1.0
 40
1.0
 40
1.0
 10
23.0989186451
 20
-10.9396033162
 30
0.0
 10
23.2884300944
 20
-11.2754337059
 30
0.0
 10
23.8049906101
 20
-11.8780849562
 30
0.0
 10
24.8629978103
 20
-12.4091754299
 30
0.0
 10
26.0450506186
 20
-12.4909260666
 30
0.0
 10
27.1685502215
 20
-12.1092427628
 30
0.0
 10
28.0625808396
 20
-11.3244009024
 30
0.0
 10
28.5919289581
 20
-10.2560143509
 30
0.0
 10
28.6783633827
 20
-9.0678802418
 30
0.0
 10
28.4285390376
 20
-8.3094680256
 30
0.0
 10
28.2383135436
 20
-7.9723722881
 30
0.0
  0
SPLINE
  5
25E
100
AcDbEntity
  8
_30_VOLUMEN
100
AcDbSpline
 62
4
  6
CONTINUOUS
 70
0
 71
3
 72
15
 73
11
 74
0
 42
0.0000001
 43
0.0000001
 44
0.0000000001
 40
0.0
 40
0.0
 40
0.0
 40
0.0
 40
0.125317186
 40
0.2508934626
 40
0.3764366314
 40
0.5016067794
 40
0.6263060284
 40
0.7507127659
 40
0.875153235
 40
1.0
 40
1.0
 40
1.0
 40
1.0
 10
23.0941540892
 20
-10.9769780583
 30
0.0
 10
22.900308267
 20
-10.6334667916
 30
0.0
 10
22.6457038353
 20
-9.8607155437
 30
0.0
 10
22.7340422361
 20
-8.650158978
 30
0.0
 10
23.2732156242
 20
-7.5615780994
 30
0.0
 10
24.1841433794
 20
-6.7618639841
 30
0.0
 10
25.328911128
 20
-6.3729857516
 30
0.0
 10
26.5332144657
 20
-6.4564389042
 30
0.0
 10
27.6113282743
 20
-6.9973146881
 30
0.0
 10
28.137625788
 20
-7.6114097171
 30
0.0
 10
28.3307439434
 20
-7.9536314964
 30
0.0
  0
SPLINE
  5
25F
100
AcDbEntity
  8
_30_VOLUMEN
100
AcDbSpline
 62
4
  6
CONTINUOUS
 70
0
 71
3
 72
15
 73
11
 74
0
 42
0.0000001
 43
0.0000001
 44
0.0000000001
 40
0.0
 40
0.0
 40
0.0
 40
0.0
 40
0.125317186
 40
0.2508934626
 40
0.3764366314
 40
0.5016067794
 40
0.6263060284
 40
0.7507127659
 40
0.875153235
 40
1.0
 40
1.0
 40
1.0
 40
1.0
 10
28.3307439434
 20
-7.9536314964
 30
0.0
 10
28.5245897656
 20
-8.2971427631
 30
0.0
 10
28.7791941973
 20
-9.0698940109
 30
0.0
 10
28.6908557965
 20
-10.2804505767
 30
0.0
 10
28.1516824084
 20
-11.3690314552
 30
0.0
 10
27.2407546533
 20
-12.1687455706
 30
0.0
 10
26.0959869047
 20
-12.557623803
 30
0.0
 10
24.891683567
 20
-12.4741706505
 30
0.0
 10
23.8135697583
 20
-11.9332948666
 30
0.0
 10
23.2872722446
 20
-11.3191998376
 30
0.0
 10
23.0941540892
 20
-10.9769780583
 30
0.0
  0
SPLINE
  5
260
100
AcDbEntity
  8
_30_VOLUMEN
100
AcDbSpline
 62
7
  6
CONTINUOUS
 70
0
 71
3
 72
9
 73
5
 74
0
 42
0.0000001
 43
0.0000001
 44
0.0000000001
 40
0.0
 40
0.0
 40
0.0
 40
0.0
 40
0.4991835682
 40
1.0
 40
1.0
 40
1.0
 40
1.0
 10
26.0066469392
 20
-6.8902801362
 30
0.0
 10
26.3551597702
 20
-6.9641181576
 30
0.0
 10
27.0292165432
 20
-7.2656135203
 30
0.0
 10
27.5167032074
 20
-7.8196179645
 30
0.0
 10
27.6923566399
 20
-8.1308907711
 30
0.0
  0
SPLINE
  5
261
100
AcDbEntity
  8
_21_KURVEN
100
AcDbSpline
 62
1
  6
CENTER
 70
0
 71
3
 72
163
 73
159
 74
0
 42
0.0000001
 43
0.0000001
 44
0.0000000001
 40
0.0
 40
0.0
 40
0.0
 40
0.0
 40
0.015625
 40
0.03125
 40
0.0390625
 40
0.046875
 40
0.0546875
 40
0.05859375
 40
0.060546875
 40
0.0625
 40
0.064453125
 40
0.06640625
 40
0.0703125
 40
0.078125
 40
0.09375
 40
0.109375
 40
0.1171875
 40
0.12109375
 40
0.123046875
 40
0.125
 40
0.126953125
 40
0.12890625
 40
0.1328125
 40
0.140625
 40
0.15625
 40
0.171875
 40
0.1796875
 40
0.18359375
 40
0.185546875
 40
0.1875
 40
0.189453125
 40
0.19140625
 40
0.1953125
 40
0.203125
 40
0.21875
 40
0.234375
 40
0.2421875
 40
0.24609375
 40
0.248046875
 40
0.25
 40
0.251953125
 40
0.25390625
 40
0.2578125
 40
0.265625
 40
0.28125
 40
0.296875
 40
0.3046875
 40
0.30859375
 40
0.310546875
 40
0.3125
 40
0.314453125
 40
0.31640625
 40
0.3203125
 40
0.328125
 40
0.34375
 40
0.359375
 40
0.3671875
 40
0.37109375
 40
0.373046875
 40
0.375
 40
0.376953125
 40
0.37890625
 40
0.3828125
 40
0.390625
 40
0.40625
 40
0.421875
 40
0.4296875
 40
0.43359375
 40
0.435546875
 40
0.4375
 40
0.439453125
 40
0.44140625
 40
0.4453125
 40
0.453125
 40
0.46875
 40
0.484375
 40
0.4921875
 40
0.49609375
 40
0.498046875
 40
0.5
 40
0.501953125
 40
0.50390625
 40
0.5078125
 40
0.515625
 40
0.53125
 40
0.546875
 40
0.5546875
 40
0.55859375
 40
0.560546875
 40
0.5625
 40
0.564453125
 40
0.56640625
 40
0.5703125
 40
0.578125
 40
0.59375
 40
0.609375
 40
0.6171875
 40
0.62109375
 40
0.623046875
 40
0.625
 40
0.626953125
 40
0.62890625
 40
0.6328125
 40
0.640625
 40
0.65625
 40
0.671875
 40
0.6796875
 40
0.68359375
 40
0.685546875
 40
0.6875
 40
0.689453125
 40
0.69140625
 40
0.6953125
 40
0.703125
 40
0.71875
 40
0.734375
 40
0.7421875
 40
0.74609375
 40
0.748046875
 40
0.75
 40
0.751953125
 40
0.75390625
 40
0.7578125
 40
0.765625
 40
0.78125
 40
0.796875
 40
0.8046875
 40
0.80859375
 40
0.810546875
 40
0.8125
 40
0.814453125
 40
0.81640625
 40
0.8203125
 40
0.828125
 40
0.84375
 40
0.859375
 40
0.8671875
 40
0.87109375
 40
0.873046875
 40
0.875
 40
0.876953125
 40
0.87890625
 40
0.8828125
 40
0.890625
 40
0.90625
 40
0.921875
 40
0.9296875
 40
0.93359375
 40
0.935546875
 40
0.9375
 40
0.939453125
 40
0.94140625
 40
0.9453125
 40
0.953125
 40
0.9609375
 40
0.96875
 40
0.984375
 40
1.0
 40
1.0
 40
1.0
 40
1.0
 10
20.2433132312
 20
-12.6229117951
 30
0.0
 10
20.3022863442
 20
-12.707024291
 30
0.0
 10
20.4202358412
 20
-12.8752464201
 30
0.0
 10
20.5676563577
 20
-13.0855383943
 30
0.0
 10
20.6856271159
 20
-13.2537419168
 30
0.0
 10
20.7740119623
 20
-13.3799761416
 30
0.0
 10
20.8479624314
 20
-13.4849119097
 30
0.0
 10
20.8991460406
 20
-13.5588760351
 30
0.0
 10
20.929302121
 20
-13.6003463536
 30
0.0
 10
20.9493604758
 20
-13.6336883268
 30
0.0
 10
20.9791995007
 20
-13.6584708108
 30
0.0
 10
21.0155735186
 20
-13.6944995622
 30
0.0
 10
21.0808148646
 20
-13.7561609754
 30
0.0
 10
21.2101653617
 20
-13.8804770648
 30
0.0
 10
21.3955888023
 20
-14.0574943776
 30
0.0
 10
21.5806207398
 20
-14.2349281635
 30
0.0
 10
21.7105193413
 20
-14.3586611906
 30
0.0
 10
21.7750070437
 20
-14.4211243145
 30
0.0
 10
21.8125947215
 20
-14.4558619993
 30
0.0
 10
21.8387046787
 20
-14.4846113894
 30
0.0
 10
21.8727690593
 20
-14.5030540381
 30
0.0
 10
21.9154138489
 20
-14.5312390885
 30
0.0
 10
21.9913327866
 20
-14.578890575
 30
0.0
 10
22.1422495096
 20
-14.6753887934
 30
0.0
 10
22.3583658159
 20
-14.8125547257
 30
0.0
 10
22.5741527469
 20
-14.9501986619
 30
0.0
 10
22.7255305954
 20
-15.0460276748
 30
0.0
 10
22.8008154855
 20
-15.0945993189
 30
0.0
 10
22.8444813388
 20
-15.1213025571
 30
0.0
 10
22.8754084188
 20
-15.1442981931
 30
0.0
 10
22.9133017805
 20
-15.1559469933
 30
0.0
 10
22.9613965496
 20
-15.1754363536
 30
0.0
 10
23.0466923963
 20
-15.2077015795
 30
0.0
 10
23.2164800755
 20
-15.2735483471
 30
0.0
 10
23.4594683073
 20
-15.3668533335
 30
0.0
 10
23.7022503769
 20
-15.4606983497
 30
0.0
 10
23.8723266832
 20
-15.5257890757
 30
0.0
 10
23.9572256675
 20
-15.5590938589
 30
0.0
 10
24.0059595398
 20
-15.5769091268
 30
0.0
 10
24.0418892057
 20
-15.5937017108
 30
0.0
 10
24.0801917413
 20
-15.597377781
 30
0.0
 10
24.1304341739
 20
-15.606854062
 30
0.0
 10
24.2187433429
 20
-15.6213093846
 30
0.0
 10
24.3950877159
 20
-15.6517400759
 30
0.0
 10
24.6471570234
 20
-15.6943444916
 30
0.0
 10
24.8991530706
 20
-15.7375255832
 30
0.0
 10
25.0756000079
 20
-15.7671489282
 30
0.0
 10
25.163768151
 20
-15.782714352
 30
0.0
 10
25.2142376903
 20
-15.7904029375
 30
0.0
 10
25.2518424225
 20
-15.7995718463
 30
0.0
 10
25.2903929719
 20
-15.7957338474
 30
0.0
 10
25.3414638319
 20
-15.7951531407
 30
0.0
 10
25.4309911381
 20
-15.7920265163
 30
0.0
 10
25.609937967
 20
-15.7872806379
 30
0.0
 10
25.8656241466
 20
-15.7796398522
 30
0.0
 10
26.1213242178
 20
-15.7725717224
 30
0.0
 10
26.3002515983
 20
-15.7670241259
 30
0.0
 10
26.389805646
 20
-15.7649998638
 30
0.0
 10
26.4408334419
 20
-15.7626439243
 30
0.0
 10
26.4795163094
 20
-15.7642604716
 30
0.0
 10
26.5166240673
 20
-15.7529426201
 30
0.0
 10
26.5666504625
 20
-15.7423634872
 30
0.0
 10
26.6539409995
 20
-15.7217513753
 30
0.0
 10
26.8287056583
 20
-15.682026191
 30
0.0
 10
27.0782567561
 20
-15.6244191844
 30
0.0
 10
27.3279089708
 20
-15.5673838381
 30
0.0
 10
27.502532066
 20
-15.5268583293
 30
0.0
 10
27.5900172531
 20
-15.5073466636
 30
0.0
 10
27.6397301858
 20
-15.4949953835
 30
0.0
 10
27.6778010823
 20
-15.4891225973
 30
0.0
 10
27.7128664926
 20
-15.470287994
 30
0.0
 10
27.7606686713
 20
-15.4496960761
 30
0.0
 10
27.8438345545
 20
-15.4115572717
 30
0.0
 10
28.0105179082
 20
-15.3367803851
 30
0.0
 10
28.2484115482
 20
-15.2291097754
 30
0.0
 10
28.4865372452
 20
-15.1219665911
 30
0.0
 10
28.6528957191
 20
-15.0464513089
 30
0.0
 10
28.736508312
 20
-15.0093277984
 30
0.0
 10
28.7835911141
 20
-14.9871008618
 30
0.0
 10
28.8208668669
 20
-14.9732899852
 30
0.0
 10
28.8506359262
 20
-14.9485485565
 30
0.0
 10
28.8929462395
 20
-14.9193724005
 30
0.0
 10
28.9657712553
 20
-14.8665406964
 30
0.0
 10
29.1122919479
 20
-14.7621432785
 30
0.0
 10
29.3211045997
 20
-14.6122866569
 30
0.0
 10
29.5302693426
 20
-14.4628884383
 30
0.0
 10
29.6762971077
 20
-14.3578492562
 30
0.0
 10
29.7497998987
 20
-14.3058999779
 30
0.0
 10
29.7910187298
 20
-14.2753027726
 30
0.0
 10
29.8241414563
 20
-14.2549276325
 30
0.0
 10
29.8488211521
 20
-14.2247173883
 30
0.0
 10
29.8846722335
 20
-14.187867397
 30
0.0
 10
29.9460416203
 20
-14.121784267
 30
0.0
 10
30.069760154
 20
-13.9907564935
 30
0.0
 10
30.2459315771
 20
-13.8029334772
 30
0.0
 10
30.422514148
 20
-13.6155038464
 30
0.0
 10
30.5456570748
 20
-13.4839253331
 30
0.0
 10
30.6078179212
 20
-13.4185994703
 30
0.0
 10
30.6423944444
 20
-13.3805299838
 30
0.0
 10
30.670990323
 20
-13.3540667369
 30
0.0
 10
30.6894042369
 20
-13.3196182291
 30
0.0
 10
30.7175074539
 20
-13.2764720255
 30
0.0
 10
30.7650359775
 20
-13.1996706107
 30
0.0
 10
30.8612738053
 20
-13.046992498
 30
0.0
 10
30.9980760459
 20
-12.8283579556
 30
0.0
 10
31.1353506628
 20
-12.6100538591
 30
0.0
 10
31.2309271639
 20
-12.456913122
 30
0.0
 10
31.2793650118
 20
-12.3807478158
 30
0.0
 10
31.3060038623
 20
-12.3365772297
 30
0.0
 10
31.3289171603
 20
-12.3052762198
 30
0.0
 10
31.3406137776
 20
-12.2669912682
 30
0.0
 10
31.3601214977
 20
-12.2183805383
 30
0.0
 10
31.392439971
 20
-12.1321788981
 30
0.0
 10
31.4583781513
 20
-11.9605816431
 30
0.0
 10
31.5518223316
 20
-11.7150074203
 30
0.0
 10
31.6458008522
 20
-11.4696390597
 30
0.0
 10
31.710990956
 20
-11.2977535975
 30
0.0
 10
31.7443380345
 20
-11.2119482423
 30
0.0
 10
31.7621892995
 20
-11.1626993392
 30
0.0
 10
31.7789755087
 20
-11.1263752262
 30
0.0
 10
31.7827727805
 20
-11.087709492
 30
0.0
 10
31.7923661668
 20
-11.0369718954
 30
0.0
 10
31.8070471228
 20
-10.9478012604
 30
0.0
 10
31.8379143004
 20
-10.7697303249
 30
0.0
 10
31.8811506772
 20
-10.5151966425
 30
0.0
 10
31.9249582461
 20
-10.2607345638
 30
0.0
 10
31.9550257548
 20
-10.082563383
 30
0.0
 10
31.9708062555
 20
-9.9935305853
 30
0.0
 10
31.9786289463
 20
-9.942571017
 30
0.0
 10
31.987866823
 20
-9.9045873088
 30
0.0
 10
31.9842186342
 20
-9.8657015707
 30
0.0
 10
31.9838488597
 20
-9.8141685198
 30
0.0
 10
31.9811109727
 20
-9.7238394856
 30
0.0
 10
31.9771285721
 20
-9.5432841096
 30
0.0
 10
31.9705864084
 20
-9.2853030383
 30
0.0
 10
31.9646118038
 20
-9.0273056423
 30
0.0
 10
31.9598348204
 20
-8.8467731208
 30
0.0
 10
31.9581894847
 20
-8.7564126617
 30
0.0
 10
31.9560602769
 20
-8.7049302171
 30
0.0
 10
31.9578180888
 20
-8.6658889871
 30
0.0
 10
31.9467515377
 20
-8.6284892917
 30
0.0
 10
31.936469093
 20
-8.5780504783
 30
0.0
 10
31.9163940387
 20
-8.4900489879
 30
0.0
 10
31.8777302212
 20
-8.3138547144
 30
0.0
 10
31.821646707
 20
-8.0622657859
 30
0.0
 10
31.7661301188
 20
-7.8105725185
 30
0.0
 10
31.726672605
 20
-7.6345243195
 30
0.0
 10
31.7076888832
 20
-7.5463219767
 30
0.0
 10
31.695648968
 20
-7.4962066139
 30
0.0
 10
31.6899823868
 20
-7.4578130906
 30
0.0
 10
31.6714584221
 20
-7.4225045842
 30
0.0
 10
31.651244602
 20
-7.3743504872
 30
0.0
 10
31.6137808652
 20
-7.2905821871
 30
0.0
 10
31.5613536854
 20
-7.1706510646
 30
0.0
 10
31.4979734551
 20
-7.0268459176
 30
0.0
 10
31.4136298778
 20
-6.835066516
 30
0.0
 10
31.3081439699
 20
-6.5953558054
 30
0.0
 10
31.2237724431
 20
-6.40358311
 30
0.0
 10
31.1815845298
 20
-6.3076972782
 30
0.0
  0
SPLINE
  5
262
100
AcDbEntity
  8
_21_KURVEN
100
AcDbSpline
 62
1
  6
CENTER
 70
0
 71
3
 72
163
 73
159
 74
0
 42
0.0000001
 43
0.0000001
 44
0.0000000001
 40
0.0
 40
0.0
 40
0.0
 40
0.0
 40
0.015625
 40
0.03125
 40
0.0390625
 40
0.046875
 40
0.0546875
 40
0.05859375
 40
0.060546875
 40
0.0625
 40
0.064453125
 40
0.06640625
 40
0.0703125
 40
0.078125
 40
0.09375
 40
0.109375
 40
0.1171875
 40
0.12109375
 40
0.123046875
 40
0.125
 40
0.126953125
 40
0.12890625
 40
0.1328125
 40
0.140625
 40
0.15625
 40
0.171875
 40
0.1796875
 40
0.18359375
 40
0.185546875
 40
0.1875
 40
0.189453125
 40
0.19140625
 40
0.1953125
 40
0.203125
 40
0.21875
 40
0.234375
 40
0.2421875
 40
0.24609375
 40
0.248046875
 40
0.25
 40
0.251953125
 40
0.25390625
 40
0.2578125
 40
0.265625
 40
0.28125
 40
0.296875
 40
0.3046875
 40
0.30859375
 40
0.310546875
 40
0.3125
 40
0.314453125
 40
0.31640625
 40
0.3203125
 40
0.328125
 40
0.34375
 40
0.359375
 40
0.3671875
 40
0.37109375
 40
0.373046875
 40
0.375
 40
0.376953125
 40
0.37890625
 40
0.3828125
 40
0.390625
 40
0.40625
 40
0.421875
 40
0.4296875
 40
0.43359375
 40
0.435546875
 40
0.4375
 40
0.439453125
 40
0.44140625
 40
0.4453125
 40
0.453125
 40
0.46875
 40
0.484375
 40
0.4921875
 40
0.49609375
 40
0.498046875
 40
0.5
 40
0.501953125
 40
0.50390625
 40
0.5078125
 40
0.515625
 40
0.53125
 40
0.546875
 40
0.5546875
 40
0.55859375
 40
0.560546875
 40
0.5625
 40
0.564453125
 40
0.56640625
 40
0.5703125
 40
0.578125
 40
0.59375
 40
0.609375
 40
0.6171875
 40
0.62109375
 40
0.623046875
 40
0.625
 40
0.626953125
 40
0.62890625
 40
0.6328125
 40
0.640625
 40
0.65625
 40
0.671875
 40
0.6796875
 40
0.68359375
 40
0.685546875
 40
0.6875
 40
0.689453125
 40
0.69140625
 40
0.6953125
 40
0.703125
 40
0.71875
 40
0.734375
 40
0.7421875
 40
0.74609375
 40
0.748046875
 40
0.75
 40
0.751953125
 40
0.75390625
 40
0.7578125
 40
0.765625
 40
0.78125
 40
0.796875
 40
0.8046875
 40
0.80859375
 40
0.810546875
 40
0.8125
 40
0.814453125
 40
0.81640625
 40
0.8203125
 40
0.828125
 40
0.84375
 40
0.859375
 40
0.8671875
 40
0.87109375
 40
0.873046875
 40
0.875
 40
0.876953125
 40
0.87890625
 40
0.8828125
 40
0.890625
 40
0.90625
 40
0.921875
 40
0.9296875
 40
0.93359375
 40
0.935546875
 40
0.9375
 40
0.939453125
 40
0.94140625
 40
0.9453125
 40
0.953125
 40
0.9609375
 40
0.96875
 40
0.984375
 40
1.0
 40
1.0
 40
1.0
 40
1.0
 10
31.1815848015
 20
-6.3076977595
 30
0.0
 10
31.1226116884
 20
-6.2235852637
 30
0.0
 10
31.0046621914
 20
-6.0553631346
 30
0.0
 10
30.857241675
 20
-5.8450711604
 30
0.0
 10
30.7392709167
 20
-5.6768676378
 30
0.0
 10
30.6508860703
 20
-5.5506334131
 30
0.0
 10
30.5769356012
 20
-5.445697645
 30
0.0
 10
30.525751992
 20
-5.3717335196
 30
0.0
 10
30.4955959116
 20
-5.3302632011
 30
0.0
 10
30.4755375568
 20
-5.2969212279
 30
0.0
 10
30.4456985319
 20
-5.2721387439
 30
0.0
 10
30.409324514
 20
-5.2361099925
 30
0.0
 10
30.344083168
 20
-5.1744485793
 30
0.0
 10
30.2147326709
 20
-5.0501324899
 30
0.0
 10
30.0293092303
 20
-4.8731151771
 30
0.0
 10
29.8442772928
 20
-4.6956813912
 30
0.0
 10
29.7143786913
 20
-4.5719483641
 30
0.0
 10
29.6498909889
 20
-4.5094852402
 30
0.0
 10
29.6123033111
 20
-4.4747475554
 30
0.0
 10
29.5861933539
 20
-4.4459981653
 30
0.0
 10
29.5521289733
 20
-4.4275555166
 30
0.0
 10
29.5094841837
 20
-4.3993704662
 30
0.0
 10
29.433565246
 20
-4.3517189797
 30
0.0
 10
29.2826485231
 20
-4.2552207613
 30
0.0
 10
29.0665322167
 20
-4.118054829
 30
0.0
 10
28.8507452857
 20
-3.9804108928
 30
0.0
 10
28.6993674372
 20
-3.8845818798
 30
0.0
 10
28.6240825471
 20
-3.8360102358
 30
0.0
 10
28.5804166938
 20
-3.8093069976
 30
0.0
 10
28.5494896138
 20
-3.7863113616
 30
0.0
 10
28.5115962522
 20
-3.7746625614
 30
0.0
 10
28.463501483
 20
-3.7551732011
 30
0.0
 10
28.3782056363
 20
-3.7229079752
 30
0.0
 10
28.2084179571
 20
-3.6570612075
 30
0.0
 10
27.9654297253
 20
-3.5637562212
 30
0.0
 10
27.7226476557
 20
-3.469911205
 30
0.0
 10
27.5525713494
 20
-3.404820479
 30
0.0
 10
27.4676723651
 20
-3.3715156958
 30
0.0
 10
27.4189384928
 20
-3.3537004279
 30
0.0
 10
27.3830088269
 20
-3.3369078439
 30
0.0
 10
27.3447062913
 20
-3.3332317737
 30
0.0
 10
27.2944638587
 20
-3.3237554927
 30
0.0
 10
27.2061546897
 20
-3.3093001701
 30
0.0
 10
27.0298103167
 20
-3.2788694788
 30
0.0
 10
26.7777410092
 20
-3.2362650631
 30
0.0
 10
26.525744962
 20
-3.1930839715
 30
0.0
 10
26.3492980247
 20
-3.1634606265
 30
0.0
 10
26.2611298816
 20
-3.1478952027
 30
0.0
 10
26.2106603424
 20
-3.1402066172
 30
0.0
 10
26.1730556101
 20
-3.1310377084
 30
0.0
 10
26.1345050607
 20
-3.1348757073
 30
0.0
 10
26.0834342007
 20
-3.135456414
 30
0.0
 10
25.9939068945
 20
-3.1385830384
 30
0.0
 10
25.8149600656
 20
-3.1433289168
 30
0.0
 10
25.5592738861
 20
-3.1509697024
 30
0.0
 10
25.3035738148
 20
-3.1580378323
 30
0.0
 10
25.1246464343
 20
-3.1635854288
 30
0.0
 10
25.0350923866
 20
-3.1656096909
 30
0.0
 10
24.9840645907
 20
-3.1679656304
 30
0.0
 10
24.9453817232
 20
-3.1663490831
 30
0.0
 10
24.9082739653
 20
-3.1776669346
 30
0.0
 10
24.8582475701
 20
-3.1882460675
 30
0.0
 10
24.7709570331
 20
-3.2088581794
 30
0.0
 10
24.5961923743
 20
-3.2485833636
 30
0.0
 10
24.3466412765
 20
-3.3061903703
 30
0.0
 10
24.0969890618
 20
-3.3632257166
 30
0.0
 10
23.9223659666
 20
-3.4037512254
 30
0.0
 10
23.8348807796
 20
-3.4232628911
 30
0.0
 10
23.7851678468
 20
-3.4356141712
 30
0.0
 10
23.7470969504
 20
-3.4414869574
 30
0.0
 10
23.71203154
 20
-3.4603215607
 30
0.0
 10
23.6642293613
 20
-3.4809134786
 30
0.0
 10
23.5810634781
 20
-3.5190522829
 30
0.0
 10
23.4143801244
 20
-3.5938291696
 30
0.0
 10
23.1764864844
 20
-3.7014997793
 30
0.0
 10
22.9383607874
 20
-3.8086429636
 30
0.0
 10
22.7720023135
 20
-3.8841582458
 30
0.0
 10
22.6883897206
 20
-3.9212817563
 30
0.0
 10
22.6413069185
 20
-3.9435086928
 30
0.0
 10
22.6040311657
 20
-3.9573195695
 30
0.0
 10
22.5742621064
 20
-3.9820609982
 30
0.0
 10
22.5319517931
 20
-4.0112371542
 30
0.0
 10
22.4591267774
 20
-4.0640688583
 30
0.0
 10
22.3126060848
 20
-4.1684662761
 30
0.0
 10
22.1037934329
 20
-4.3183228978
 30
0.0
 10
21.89462869
 20
-4.4677211164
 30
0.0
 10
21.7486009249
 20
-4.5727602985
 30
0.0
 10
21.6750981339
 20
-4.6247095768
 30
0.0
 10
21.6338793028
 20
-4.6553067821
 30
0.0
 10
21.6007565763
 20
-4.6756819222
 30
0.0
 10
21.5760768805
 20
-4.7058921664
 30
0.0
 10
21.5402257991
 20
-4.7427421577
 30
0.0
 10
21.4788564123
 20
-4.8088252877
 30
0.0
 10
21.3551378786
 20
-4.9398530612
 30
0.0
 10
21.1789664555
 20
-5.1276760775
 30
0.0
 10
21.0023838846
 20
-5.3151057083
 30
0.0
 10
20.8792409578
 20
-5.4466842216
 30
0.0
 10
20.8170801114
 20
-5.5120100844
 30
0.0
 10
20.7825035882
 20
-5.5500795709
 30
0.0
 10
20.7539077096
 20
-5.5765428178
 30
0.0
 10
20.7354937957
 20
-5.6109913256
 30
0.0
 10
20.7073905787
 20
-5.6541375292
 30
0.0
 10
20.6598620551
 20
-5.730938944
 30
0.0
 10
20.5636242273
 20
-5.8836170567
 30
0.0
 10
20.4268219867
 20
-6.1022515991
 30
0.0
 10
20.2895473698
 20
-6.3205556956
 30
0.0
 10
20.1939708688
 20
-6.4736964326
 30
0.0
 10
20.1455330208
 20
-6.5498617389
 30
0.0
 10
20.1188941703
 20
-6.594032325
 30
0.0
 10
20.0959808723
 20
-6.6253333349
 30
0.0
 10
20.084284255
 20
-6.6636182865
 30
0.0
 10
20.0647765349
 20
-6.7122290164
 30
0.0
 10
20.0324580616
 20
-6.7984306566
 30
0.0
 10
19.9665198813
 20
-6.9700279115
 30
0.0
 10
19.873075701
 20
-7.2156021344
 30
0.0
 10
19.7790971804
 20
-7.460970495
 30
0.0
 10
19.7139070766
 20
-7.6328559572
 30
0.0
 10
19.6805599981
 20
-7.7186613124
 30
0.0
 10
19.6627087331
 20
-7.7679102155
 30
0.0
 10
19.6459225239
 20
-7.8042343285
 30
0.0
 10
19.6421252521
 20
-7.8429000627
 30
0.0
 10
19.6325318658
 20
-7.8936376593
 30
0.0
 10
19.6178509098
 20
-7.9828082942
 30
0.0
 10
19.5869837322
 20
-8.1608792298
 30
0.0
 10
19.5437473554
 20
-8.4154129122
 30
0.0
 10
19.4999397865
 20
-8.6698749908
 30
0.0
 10
19.4698722778
 20
-8.8480461717
 30
0.0
 10
19.4540917771
 20
-8.9370789694
 30
0.0
 10
19.4462690863
 20
-8.9880385376
 30
0.0
 10
19.4370312096
 20
-9.0260222459
 30
0.0
 10
19.4406793984
 20
-9.064907984
 30
0.0
 10
19.4410491729
 20
-9.1164410349
 30
0.0
 10
19.4437870599
 20
-9.2067700691
 30
0.0
 10
19.4477694606
 20
-9.387325445
 30
0.0
 10
19.4543116243
 20
-9.6453065164
 30
0.0
 10
19.4602862288
 20
-9.9033039124
 30
0.0
 10
19.4650632122
 20
-10.0838364339
 30
0.0
 10
19.4667085479
 20
-10.174196893
 30
0.0
 10
19.4688377557
 20
-10.2256793376
 30
0.0
 10
19.4670799439
 20
-10.2647205676
 30
0.0
 10
19.478146495
 20
-10.302120263
 30
0.0
 10
19.4884289396
 20
-10.3525590764
 30
0.0
 10
19.5085039939
 20
-10.4405605668
 30
0.0
 10
19.5471678114
 20
-10.6167548403
 30
0.0
 10
19.6032513256
 20
-10.8683437688
 30
0.0
 10
19.6587679138
 20
-11.1200370362
 30
0.0
 10
19.6982254276
 20
-11.2960852352
 30
0.0
 10
19.7172091494
 20
-11.384287578
 30
0.0
 10
19.7292490646
 20
-11.4344029408
 30
0.0
 10
19.7349156458
 20
-11.4727964641
 30
0.0
 10
19.7534396105
 20
-11.5081049705
 30
0.0
 10
19.7736534306
 20
-11.5562590675
 30
0.0
 10
19.8111171675
 20
-11.6400273675
 30
0.0
 10
19.8635443472
 20
-11.7599584901
 30
0.0
 10
19.9269245775
 20
-11.9037636371
 30
0.0
 10
20.0112681548
 20
-12.0955430387
 30
0.0
 10
20.1167540628
 20
-12.3352537493
 30
0.0
 10
20.2011255895
 20
-12.5270264447
 30
0.0
 10
20.2433135028
 20
-12.6229122765
 30
0.0
  0
ELLIPSE
  5
263
100
AcDbEntity
  8
_30_VOLUMEN
100
AcDbEllipse
 62
4
  6
CONTINUOUS
 10
36.6956542786
 20
-9.4976325062
 30
0.0
 11
0.8127317388
 21
0.0745072047
 31
0.0
 40
0.9796374315
 41
-1.130740262
 42
0.9381156862
  0
ELLIPSE
  5
264
100
AcDbEntity
  8
_30_VOLUMEN
100
AcDbEllipse
 62
4
  6
CONTINUOUS
 10
20.2869032036
 20
0.1492233744
 30
0.0
 11
-0.2908298321
 21
0.7675492382
 31
0.0
 40
0.9685433104
 41
5.4051708465
 42
7.3878573035
  0
ELLIPSE
  5
265
100
AcDbEntity
  8
_30_VOLUMEN
100
AcDbEllipse
 62
4
  6
CONTINUOUS
 10
20.1547895667
 20
-19.0475052002
 30
0.0
 11
0.3579891665
 21
0.741236751
 31
0.0
 40
0.9630053357
 41
2.094373329
 42
4.0974679235
  0
ELLIPSE
  5
266
100
AcDbEntity
  8
_21_KURVEN
100
AcDbEllipse
 62
5
  6
CONTINUOUS
 10
20.2869032036
 20
0.1492233744
 30
0.0
 11
-0.2908298321
 21
0.7675492382
 31
0.0
 40
0.9685433104
 41
5.4051708465
 42
7.4740267947
  0
ELLIPSE
  5
267
100
AcDbEntity
  8
_21_KURVEN
100
AcDbEllipse
 62
5
  6
CONTINUOUS
 10
36.6956542786
 20
-9.4976325062
 30
0.0
 11
0.8127317388
 21
0.0745072047
 31
0.0
 40
0.9796374315
 41
5.1524450452
 42
7.2213009934
  0
ELLIPSE
  5
268
100
AcDbEntity
  8
_21_KURVEN
100
AcDbEllipse
 62
5
  6
CONTINUOUS
 10
20.1547895667
 20
-19.0475052002
 30
0.0
 11
0.3579891665
 21
0.741236751
 31
0.0
 40
0.9630053357
 41
2.0286119753
 42
4.0974679235
  0
ENDSEC
  0
SECTION
  2
OBJECTS
  0
DICTIONARY
  5
C
100
AcDbDictionary
280
0
281
1
  3
ACAD_GROUP
350
D
  3
ACAD_MLINESTYLE
350
17
  3
ACAD_LAYOUT
350
1A
  3
ACAD_PLOTSETTINGS
350
19
  3
ACAD_PLOTSTYLENAME
350
E
  0
DICTIONARY
  5
D
102
{ACAD_REACTORS
330
C
102
}
100
AcDbDictionary
280
0
281
1
  0
ACDBDICTIONARYWDFLT
  5
E
102
{ACAD_REACTORS
330
C
102
}
100
AcDbDictionary
281
1
  3
Normal
350
F
100
AcDbDictionaryWithDefault
340
F
  0
DICTIONARY
  5
17
102
{ACAD_REACTORS
330
C
102
}
100
AcDbDictionary
280
0
281
1
  3
Standard
350
18
  0
DICTIONARY
  5
19
102
{ACAD_REACTORS
330
C
102
}
100
AcDbDictionary
281
1
  0
DICTIONARY
  5
1A
102
{ACAD_REACTORS
330
C
102
}
100
AcDbDictionary
281
1
  3
Model
350
269
  3
Layout1
350
26A
  0
ACDBPLACEHOLDER
  5
F
102
{ACAD_REACTORS
330
E
102
}
  0
MLINESTYLE
  5
18
102
{ACAD_REACTORS
330
17
102
}
100
AcDbMlineStyle
  2
STANDARD
 70
0
  3

 62
256
 51
90.0
 52
90.0
 71
2
 49
0.5
 62
256
  6
BYLAYER
 49
-0.5
 62
256
  6
BYLAYER
  0
LAYOUT
  5
269
102
{ACAD_REACTORS
330
1A
102
}
100
AcDbPlotSettings
  1

  2
none_device
  4
ISO_A3_(420.00_x_297.00_MM)
  6

 40
0.0
 41
0.0
 42
0.0
 43
0.0
 44
420.0
 45
297.0
 46
0.0
 47
0.0
 48
0.0
 49
0.0
140
0.0
141
0.0
142
1.0
143
1.0
 70
1024
 72
1
 73
0
 74
0
  7

 75
0
147
1.0
148
0.0
149
0.0
100
AcDbLayout
  1
Model
 70
0
 71
0
 10
0.0
 20
0.0
 11
420.0
 21
297.0
 12
0.0
 22
0.0
 32
0.0
 14
0.0
 24
0.0
 34
0.0
 15
0.0
 25
0.0
 35
0.0
146
0.0
 13
0.0
 23
0.0
 33
0.0
 16
1.0
 26
0.0
 36
0.0
 17
0.0
 27
1.0
 37
0.0
 76
0
330
20D
345
0
346
0
  0
LAYOUT
  5
26A
102
{ACAD_REACTORS
330
1A
102
}
100
AcDbPlotSettings
  1

  2
none_device
  4
ISO_A3_(420.00_x_297.00_MM)
  6

 40
0.0
 41
0.0
 42
0.0
 43
0.0
 44
420.0
 45
297.0
 46
0.0
 47
0.0
 48
0.0
 49
0.0
140
0.0
141
0.0
142
1.0
143
1.0
 70
0
 72
1
 73
0
 74
0
  7

 75
0
147
1.0
148
0.0
149
0.0
100
AcDbLayout
  1
Layout1
 70
0
 71
1
 10
0.0
 20
0.0
 11
420.0
 21
297.0
 12
0.0
 22
0.0
 32
0.0
 14
0.0
 24
0.0
 34
0.0
 15
0.0
 25
0.0
 35
0.0
146
0.0
 13
0.0
 23
0.0
 33
0.0
 16
1.0
 26
0.0
 36
0.0
 17
0.0
 27
1.0
 37
0.0
 76
0
330
20E
345
0
346
0
  0
ENDSEC
  0
EOF
