999
DXF file: 70532125_MCS.dxf
999
Pro/ENGINEER 2016380 by Parametric Technology Corporation
  0
SECTION
  2
HEADER
  9
$ACADVER
  1
AC1027
  9
$DWGCODEPAGE
  3
ANSI_1252
  9
$EXTMAX
 10
420.0
 20
297.0
 30
0.0
  9
$EXTMIN
 10
0.0
 20
0.0
 30
0.0
  9
$LIMMIN
 10
0.0
 20
0.0
  9
$LIMMAX
 10
420.0
 20
297.0
  9
$VIEWCTR
 10
210.0
 20
148.5
  9
$VIEWSIZE
 40
297.0
  9
$CLAYER
  8
0
  9
$LTSCALE
 40
23.1
  9
$CELTYPE
  6
BYLAYER
  9
$DIMSCALE
 40
1.0
  9
$DIMASZ
 40
3.5
  9
$DIMEXO
 40
0.0
  9
$DIMDLI
 40
15.96
  9
$DIMEXE
 40
1.5
  9
$DIMCEN
 40
3.78
  9
$DIMLFAC
 40
1.0
  9
$DIMBLK
  1
_FILLED
  9
$DIMALT
 70
0
  9
$DIMALTF
 40
25.4
  9
$DIMTXT
 40
3.5
  9
$DIMTOL
 70
1
  9
$DIMLIM
 70
0
  9
$DIMTFAC
 40
1.0
  9
$DIMTP
 40
0.05
  9
$DIMTM
 40
0.05
  9
$DIMGAP
 40
0.625
  9
$DIMDSEP
 70
46
  9
$AUNITS
 70
0
  9
$PDMODE
 70
3
  9
$PDSIZE
 40
0.3125
  9
$HANDSEED
  5
276
  9
$TILEMODE
 70
1
  9
$MEASUREMENT
 70
1
  9
$INSUNITS
 70
4
  0
ENDSEC
  0
SECTION
  2
CLASSES
  0
CLASS
  1
ACDBDICTIONARYWDFLT
  2
AcDbDictionaryWithDefault
  3
AutoCAD 2000
 90
0
 91
1
280
0
281
0
  0
CLASS
  1
ACDBPLACEHOLDER
  2
AcDbPlaceHolder
  3
AutoCAD 2000
 90
0
 91
1
280
0
281
0
  0
CLASS
  1
LAYOUT
  2
AcDbLayout
  3
AutoCAD 2000
 90
0
 91
0
280
0
281
0
  0
ENDSEC
  0
SECTION
  2
TABLES
  0
TABLE
  2
VPORT
  5
8
100
AcDbSymbolTable
 70
2
  0
VPORT
  5
1F4
100
AcDbSymbolTableRecord
100
AcDbViewportTableRecord
  2
*ACTIVE
 70
0
 10
0.0
 20
0.0
 11
1.0
 21
1.0
 12
210.0
 22
148.5
 13
0.0
 23
0.0
 14
1.0
 24
1.0
 15
0.0
 25
0.0
 16
0.0
 26
0.0
 36
1.0
 17
0.0
 27
0.0
 37
0.0
 40
297.0
 41
1.4141414141
 42
50.0
 43
0.0
 44
0.0
 50
0.0
 51
0.0
 71
0
 72
100
 73
1
 74
1
 75
0
 76
0
 77
0
 78
0
  0
ENDTAB
  0
TABLE
  2
LTYPE
  5
5
100
AcDbSymbolTable
 70
6
  0
LTYPE
  5
14
100
AcDbSymbolTableRecord
100
AcDbLinetypeTableRecord
  2
BYBLOCK
 70
0
  3

 72
65
 73
0
 40
0.0
  0
LTYPE
  5
15
100
AcDbSymbolTableRecord
100
AcDbLinetypeTableRecord
  2
BYLAYER
 70
0
  3

 72
65
 73
0
 40
0.0
  0
LTYPE
  5
16
100
AcDbSymbolTableRecord
100
AcDbLinetypeTableRecord
  2
CONTINUOUS
 70
64
  3
Solid line
 72
65
 73
0
 40
0.0
  0
LTYPE
  5
1F5
100
AcDbSymbolTableRecord
100
AcDbLinetypeTableRecord
  2
CENTER
 70
64
  3
____ _ ____ _ ____ _ ____ _ ____ _ ____ _ ____
 72
65
 73
4
 40
0.6
 49
0.375
 74
0
 49
-0.075
 74
0
 49
0.075
 74
0
 49
-0.075
 74
0
  0
LTYPE
  5
1F6
100
AcDbSymbolTableRecord
100
AcDbLinetypeTableRecord
  2
HIDDEN
 70
64
  3
- - - - - - - - - - - - - - - - - - - -
 72
65
 73
2
 40
0.2
 49
0.1
 74
0
 49
-0.1
 74
0
  0
LTYPE
  5
1F7
100
AcDbSymbolTableRecord
100
AcDbLinetypeTableRecord
  2
PHANTOM
 70
64
  3
_____ _ _ _____ _ _ _____ _ _ _____
 72
65
 73
6
 40
0.8
 49
0.45
 74
0
 49
-0.05
 74
0
 49
0.1
 74
0
 49
-0.05
 74
0
 49
0.1
 74
0
 49
-0.05
 74
0
  0
LTYPE
  5
1F8
100
AcDbSymbolTableRecord
100
AcDbLinetypeTableRecord
  2
DOT
 70
64
  3
. . . . . . . . . . . . . . . . . . . .
 72
65
 73
2
 40
0.2
 49
0.1
 74
0
 49
-0.1
 74
0
  0
LTYPE
  5
1F9
100
AcDbSymbolTableRecord
100
AcDbLinetypeTableRecord
  2
DASHED
 70
64
  3
- - - - - - - - - - - - - - - - - - - -
 72
65
 73
2
 40
0.2
 49
0.1
 74
0
 49
-0.1
 74
0
  0
ENDTAB
  0
TABLE
  2
LAYER
  5
2
100
AcDbSymbolTable
 70
36
  0
LAYER
  5
10
100
AcDbSymbolTableRecord
100
AcDbLayerTableRecord
  2
0
 70
0
 62
7
  6
CONTINUOUS
370
-3
390
F
  0
LAYER
  5
1FA
100
AcDbSymbolTableRecord
100
AcDbLayerTableRecord
  2
DEFAULT_1
 70
0
 62
7
  6
CENTER
370
-3
390
F
  0
LAYER
  5
1FB
100
AcDbSymbolTableRecord
100
AcDbLayerTableRecord
  2
DEFAULT_2
 70
0
 62
1
  6
HIDDEN
370
-3
390
F
  0
LAYER
  5
1FC
100
AcDbSymbolTableRecord
100
AcDbLayerTableRecord
  2
DEFAULT_3
 70
0
 62
7
  6
PHANTOM
370
-3
390
F
  0
LAYER
  5
1FD
100
AcDbSymbolTableRecord
100
AcDbLayerTableRecord
  2
BG_STARTBEZUEGE
 70
0
 62
7
  6
CONTINUOUS
370
-3
390
F
  0
LAYER
  5
1FE
100
AcDbSymbolTableRecord
100
AcDbLayerTableRecord
  2
HILFEN
 70
0
 62
7
  6
CONTINUOUS
370
-3
390
F
  0
LAYER
  5
1FF
100
AcDbSymbolTableRecord
100
AcDbLayerTableRecord
  2
PLATZIERUNG
 70
0
 62
7
  6
CONTINUOUS
370
-3
390
F
  0
LAYER
  5
200
100
AcDbSymbolTableRecord
100
AcDbLayerTableRecord
  2
T_STARTBEZUEGE
 70
0
 62
7
  6
CONTINUOUS
370
-3
390
F
  0
LAYER
  5
201
100
AcDbSymbolTableRecord
100
AcDbLayerTableRecord
  2
_03_2D_ZEICHNUNG_BEMASSUNGEN
 70
0
 62
7
  6
CONTINUOUS
370
-3
390
F
  0
LAYER
  5
202
100
AcDbSymbolTableRecord
100
AcDbLayerTableRecord
  2
_04_NOTIZEN
 70
0
 62
7
  6
CONTINUOUS
370
-3
390
F
  0
LAYER
  5
203
100
AcDbSymbolTableRecord
100
AcDbLayerTableRecord
  2
_05_2D_ELEMENTE
 70
0
 62
7
  6
CONTINUOUS
370
-3
390
F
  0
LAYER
  5
204
100
AcDbSymbolTableRecord
100
AcDbLayerTableRecord
  2
_07_EINRASTLINIEN
 70
0
 62
7
  6
CONTINUOUS
370
-3
390
F
  0
LAYER
  5
205
100
AcDbSymbolTableRecord
100
AcDbLayerTableRecord
  2
_21_KURVEN
 70
0
 62
7
  6
CONTINUOUS
370
-3
390
F
  0
LAYER
  5
206
100
AcDbSymbolTableRecord
100
AcDbLayerTableRecord
  2
_24_IMPORT
 70
0
 62
7
  6
CONTINUOUS
370
-3
390
F
  0
LAYER
  5
207
100
AcDbSymbolTableRecord
100
AcDbLayerTableRecord
  2
_26_BEZUGSACHSEN
 70
0
 62
7
  6
CONTINUOUS
370
-3
390
F
  0
LAYER
  5
208
100
AcDbSymbolTableRecord
100
AcDbLayerTableRecord
  2
_27_BEZUGSEBENEN
 70
0
 62
7
  6
CONTINUOUS
370
-3
390
F
  0
LAYER
  5
209
100
AcDbSymbolTableRecord
100
AcDbLayerTableRecord
  2
_28_BEZUGSPUNKTE
 70
0
 62
7
  6
CONTINUOUS
370
-3
390
F
  0
LAYER
  5
20A
100
AcDbSymbolTableRecord
100
AcDbLayerTableRecord
  2
_29_KOORDINATENSYSTEME
 70
0
 62
7
  6
CONTINUOUS
370
-3
390
F
  0
LAYER
  5
20B
100
AcDbSymbolTableRecord
100
AcDbLayerTableRecord
  2
_30_VOLUMEN
 70
0
 62
7
  6
CONTINUOUS
370
-3
390
F
  0
ENDTAB
  0
TABLE
  2
STYLE
  5
3
100
AcDbSymbolTable
 70
1
  0
STYLE
  5
11
100
AcDbSymbolTableRecord
100
AcDbTextStyleTableRecord
  2
STANDARD
 70
0
 40
0.0
 41
0.7
 50
0.0
 71
0
 42
0.2
  3
SIMPLEX.SHX
  4

  0
STYLE
  5
20C
100
AcDbSymbolTableRecord
100
AcDbTextStyleTableRecord
  2
TEXTSTYLE_1
 70
0
 40
0.0
 41
0.8
 50
0.0
 71
0
 42
0.2
  3
gdt
  4

  0
ENDTAB
  0
TABLE
  2
VIEW
  5
6
100
AcDbSymbolTable
 70
0
  0
ENDTAB
  0
TABLE
  2
UCS
  5
7
100
AcDbSymbolTable
 70
0
  0
ENDTAB
  0
TABLE
  2
APPID
  5
9
100
AcDbSymbolTable
 70
1
  0
APPID
  5
20D
100
AcDbSymbolTableRecord
100
AcDbRegAppTableRecord
  2
ACAD
 70
0
  0
ENDTAB
  0
TABLE
  2
BLOCK_RECORD
  5
1
100
AcDbSymbolTable
 70
0
  0
BLOCK_RECORD
  5
20E
100
AcDbSymbolTableRecord
100
AcDbBlockTableRecord
  2
*Model_Space
  0
BLOCK_RECORD
  5
20F
100
AcDbSymbolTableRecord
100
AcDbBlockTableRecord
  2
*Paper_Space
  0
BLOCK_RECORD
  5
210
100
AcDbSymbolTableRecord
100
AcDbBlockTableRecord
  2
_FILLED
  0
BLOCK_RECORD
  5
211
100
AcDbSymbolTableRecord
100
AcDbBlockTableRecord
  2
*D0
  0
BLOCK_RECORD
  5
212
100
AcDbSymbolTableRecord
100
AcDbBlockTableRecord
  2
*D1
  0
BLOCK_RECORD
  5
213
100
AcDbSymbolTableRecord
100
AcDbBlockTableRecord
  2
*D2
  0
ENDTAB
  0
TABLE
  2
DIMSTYLE
  5
A
100
AcDbSymbolTable
 70
1
100
AcDbDimStyleTable
 71
0
  0
DIMSTYLE
105
214
100
AcDbSymbolTableRecord
100
AcDbDimStyleTableRecord
  2
STANDARD
 70
0
  3

  4

 40
1.0
 41
3.5
 42
0.0
 43
0.38
 44
1.5
 45
0.0
 46
0.0
 47
0.05
 48
0.05
140
3.5
141
0.09
142
0.0
143
25.4
144
1.0
145
0.0
146
1.0
147
0.625
 71
1.0
 72
0.0
 73
0
 74
0
 75
0
 76
0
 77
1
 78
8
170
0
171
1
172
0
173
0
174
0
175
0
176
0
177
0
178
2
270
2
271
2
272
2
273
2
274
2
275
0
280
0
281
0
282
0
283
1
284
8
285
0
286
0
287
3
288
0
340
11
278
46
341
210
342
210
343
210
344
210
  0
DIMSTYLE
105
215
100
AcDbSymbolTableRecord
100
AcDbDimStyleTableRecord
  2
DIMSTYLE_1
 70
0
  3

  4

 40
1.0
 41
3.5
 42
0.0
 43
0.38
 44
1.5
 45
0.0
 46
0.0
 47
0.2
 48
0.2
140
3.5
141
0.09
142
0.0
143
25.4
144
1.0
145
0.0
146
1.0
147
0.875
 71
0.0
 72
0.0
 73
0
 74
0
 75
0
 76
0
 77
1
 78
8
170
0
171
1
172
0
173
0
174
0
175
0
176
0
177
0
178
2
270
2
271
2
272
2
273
2
274
2
275
0
280
0
281
0
282
0
283
1
284
8
285
0
286
0
287
3
288
0
340
11
278
46
341
210
342
210
343
210
344
210
  0
DIMSTYLE
105
216
100
AcDbSymbolTableRecord
100
AcDbDimStyleTableRecord
  2
DIMSTYLE_2
 70
0
  3

  4

 40
1.0
 41
3.5
 42
0.0
 43
0.38
 44
1.5
 45
0.0
 46
0.0
 47
0.5
 48
0.5
140
3.5
141
0.09
142
0.0
143
25.4
144
1.0
145
0.0
146
1.0
147
0.875
 71
0.0
 72
0.0
 73
0
 74
0
 75
0
 76
0
 77
1
 78
8
170
0
171
1
172
0
173
0
174
0
175
0
176
0
177
0
178
2
270
2
271
2
272
2
273
2
274
2
275
0
280
0
281
0
282
0
283
1
284
8
285
0
286
0
287
3
288
0
340
11
278
46
341
210
342
210
343
210
344
210
  0
DIMSTYLE
105
217
100
AcDbSymbolTableRecord
100
AcDbDimStyleTableRecord
  2
DIMSTYLE_3
 70
0
  3

  4

 40
1.0
 41
3.5
 42
0.0
 43
0.38
 44
1.5
 45
0.0
 46
0.0
 47
0.3
 48
0.3
140
3.5
141
0.09
142
0.0
143
25.4
144
1.0
145
0.0
146
1.0
147
0.875
 71
0.0
 72
0.0
 73
0
 74
0
 75
0
 76
0
 77
1
 78
8
170
0
171
1
172
0
173
0
174
0
175
0
176
0
177
0
178
2
270
2
271
2
272
2
273
2
274
2
275
0
280
0
281
0
282
0
283
1
284
8
285
0
286
0
287
3
288
0
340
11
278
46
341
210
342
210
343
210
344
210
  0
ENDTAB
  0
ENDSEC
  0
SECTION
  2
BLOCKS
  0
BLOCK
  5
20
100
AcDbEntity
  8
0
100
AcDbBlockBegin
  2
*Model_Space
 70
0
 10
0.0
 20
0.0
 30
0.0
  3
*Model_Space
  1

  0
ENDBLK
  5
21
100
AcDbEntity
  8
0
100
AcDbBlockEnd
  0
BLOCK
  5
1C
100
AcDbEntity
  8
0
100
AcDbBlockBegin
  2
*Paper_Space
 70
0
 10
0.0
 20
0.0
 30
0.0
  3
*Paper_Space
  1

  0
ENDBLK
  5
1D
100
AcDbEntity
  8
0
100
AcDbBlockEnd
  0
BLOCK
  5
218
100
AcDbEntity
  8
0
100
AcDbBlockBegin
  2
_FILLED
 70
64
 10
0.0
 20
0.0
  3
_FILLED
  1

  0
SOLID
  5
219
100
AcDbEntity
  8
0
  6
BYBLOCK
 62
0
100
AcDbTrace
 10
0.0
 20
0.0
 11
-1.0
 21
0.125
 12
-1.0
 22
-0.125
 13
-1.0
 23
-0.125
  0
ENDBLK
  5
21A
100
AcDbEntity
  8
0
  6
BYBLOCK
 62
0
100
AcDbBlockEnd
  0
BLOCK
  5
21B
100
AcDbEntity
  8
_03_2D_ZEICHNUNG_BEMASSUNGEN
100
AcDbBlockBegin
 62
7
  6
CONTINUOUS
  2
*D0
 70
65
 10
0.0
 20
0.0
  3
*D0
  1

  0
TEXT
  5
21C
100
AcDbEntity
  8
_03_2D_ZEICHNUNG_BEMASSUNGEN
100
AcDbText
 62
2
  6
CONTINUOUS
 10
-122.375
 20
-2.625
  7
STANDARD
 40
3.5
  1
25
 50
90.0
 41
0.75
 72
1
 11
-122.375
 21
-0.0
100
AcDbText
  0
LINE
  5
21D
100
AcDbEntity
  8
_03_2D_ZEICHNUNG_BEMASSUNGEN
100
AcDbLine
 62
7
  6
CONTINUOUS
 10
-112.5
 20
12.5
 11
-123.0
 21
12.5
  0
LINE
  5
21E
100
AcDbEntity
  8
_03_2D_ZEICHNUNG_BEMASSUNGEN
100
AcDbLine
 62
7
  6
CONTINUOUS
 10
-112.5
 20
-12.5
 11
-123.0
 21
-12.5
  0
LINE
  5
21F
100
AcDbEntity
  8
_03_2D_ZEICHNUNG_BEMASSUNGEN
100
AcDbLine
 62
7
  6
CONTINUOUS
 10
-121.5
 20
12.5
 11
-121.5
 21
18.5
  0
LINE
  5
220
100
AcDbEntity
  8
_03_2D_ZEICHNUNG_BEMASSUNGEN
100
AcDbLine
 62
7
  6
CONTINUOUS
 10
-121.5
 20
18.5
 11
-121.5
 21
-0.0
  0
LINE
  5
221
100
AcDbEntity
  8
_03_2D_ZEICHNUNG_BEMASSUNGEN
100
AcDbLine
 62
7
  6
CONTINUOUS
 10
-121.5
 20
-12.5
 11
-121.5
 21
-18.5
  0
LINE
  5
222
100
AcDbEntity
  8
_03_2D_ZEICHNUNG_BEMASSUNGEN
100
AcDbLine
 62
7
  6
CONTINUOUS
 10
-121.5
 20
-18.5
 11
-121.5
 21
-0.0
  0
INSERT
  5
223
100
AcDbEntity
  8
_03_2D_ZEICHNUNG_BEMASSUNGEN
100
AcDbBlockReference
 62
7
  6
CONTINUOUS
  2
_FILLED
 10
-121.5
 20
12.5
 41
3.5
 42
3.5
 43
3.5
 50
270.0
  0
INSERT
  5
224
100
AcDbEntity
  8
_03_2D_ZEICHNUNG_BEMASSUNGEN
100
AcDbBlockReference
 62
7
  6
CONTINUOUS
  2
_FILLED
 10
-121.5
 20
-12.5
 41
3.5
 42
3.5
 43
3.5
 50
90.0
  0
ENDBLK
  5
225
100
AcDbEntity
  8
0
  6
BYBLOCK
 62
0
100
AcDbBlockEnd
  0
BLOCK
  5
226
100
AcDbEntity
  8
_03_2D_ZEICHNUNG_BEMASSUNGEN
100
AcDbBlockBegin
 62
7
  6
CONTINUOUS
  2
*D1
 70
65
 10
0.0
 20
0.0
  3
*D1
  1

  0
TEXT
  5
227
100
AcDbEntity
  8
_03_2D_ZEICHNUNG_BEMASSUNGEN
100
AcDbText
 62
2
  6
CONTINUOUS
 10
-41.125
 20
29.375
  7
STANDARD
 40
3.5
  1
150
 41
0.6904761905
 72
1
 11
-37.5
 21
29.375
100
AcDbText
  0
LINE
  5
228
100
AcDbEntity
  8
_03_2D_ZEICHNUNG_BEMASSUNGEN
100
AcDbLine
 62
7
  6
CONTINUOUS
 10
37.5
 20
-12.5
 11
37.5
 21
30.0
  0
LINE
  5
229
100
AcDbEntity
  8
_03_2D_ZEICHNUNG_BEMASSUNGEN
100
AcDbLine
 62
7
  6
CONTINUOUS
 10
-112.5
 20
-12.5
 11
-112.5
 21
30.0
  0
LINE
  5
22A
100
AcDbEntity
  8
_03_2D_ZEICHNUNG_BEMASSUNGEN
100
AcDbLine
 62
7
  6
CONTINUOUS
 10
37.5
 20
28.5
 11
-37.5
 21
28.5
  0
LINE
  5
22B
100
AcDbEntity
  8
_03_2D_ZEICHNUNG_BEMASSUNGEN
100
AcDbLine
 62
7
  6
CONTINUOUS
 10
-112.5
 20
28.5
 11
-37.5
 21
28.5
  0
INSERT
  5
22C
100
AcDbEntity
  8
_03_2D_ZEICHNUNG_BEMASSUNGEN
100
AcDbBlockReference
 62
7
  6
CONTINUOUS
  2
_FILLED
 10
37.5
 20
28.5
 41
3.5
 42
3.5
 43
3.5
 50
360.0
  0
INSERT
  5
22D
100
AcDbEntity
  8
_03_2D_ZEICHNUNG_BEMASSUNGEN
100
AcDbBlockReference
 62
7
  6
CONTINUOUS
  2
_FILLED
 10
-112.5
 20
28.5
 41
3.5
 42
3.5
 43
3.5
 50
180.0
  0
ENDBLK
  5
22E
100
AcDbEntity
  8
0
  6
BYBLOCK
 62
0
100
AcDbBlockEnd
  0
BLOCK
  5
22F
100
AcDbEntity
  8
_03_2D_ZEICHNUNG_BEMASSUNGEN
100
AcDbBlockBegin
 62
7
  6
CONTINUOUS
  2
*D2
 70
65
 10
0.0
 20
0.0
  3
*D2
  1

  0
TEXT
  5
230
100
AcDbEntity
  8
_03_2D_ZEICHNUNG_BEMASSUNGEN
100
AcDbText
 62
2
  6
CONTINUOUS
 10
46.1986913552
 20
0.875
  7
STANDARD
 40
3.5
  1
32
 50
90.0
 41
0.75
 72
1
 11
46.1986913552
 21
3.5
100
AcDbText
  0
LINE
  5
231
100
AcDbEntity
  8
_03_2D_ZEICHNUNG_BEMASSUNGEN
100
AcDbLine
 62
7
  6
CONTINUOUS
 10
37.5
 20
19.5
 11
48.5736913552
 21
19.5
  0
LINE
  5
232
100
AcDbEntity
  8
_03_2D_ZEICHNUNG_BEMASSUNGEN
100
AcDbLine
 62
7
  6
CONTINUOUS
 10
-112.5
 20
-12.5
 11
48.5736913552
 21
-12.5
  0
LINE
  5
233
100
AcDbEntity
  8
_03_2D_ZEICHNUNG_BEMASSUNGEN
100
AcDbLine
 62
7
  6
CONTINUOUS
 10
47.0736913552
 20
19.5
 11
47.0736913552
 21
3.5
  0
LINE
  5
234
100
AcDbEntity
  8
_03_2D_ZEICHNUNG_BEMASSUNGEN
100
AcDbLine
 62
7
  6
CONTINUOUS
 10
47.0736913552
 20
-12.5
 11
47.0736913552
 21
3.5
  0
INSERT
  5
235
100
AcDbEntity
  8
_03_2D_ZEICHNUNG_BEMASSUNGEN
100
AcDbBlockReference
 62
7
  6
CONTINUOUS
  2
_FILLED
 10
47.0736913552
 20
19.5
 41
3.5
 42
3.5
 43
3.5
 50
90.0
  0
INSERT
  5
236
100
AcDbEntity
  8
_03_2D_ZEICHNUNG_BEMASSUNGEN
100
AcDbBlockReference
 62
7
  6
CONTINUOUS
  2
_FILLED
 10
47.0736913552
 20
-12.5
 41
3.5
 42
3.5
 43
3.5
 50
270.0
  0
ENDBLK
  5
237
100
AcDbEntity
  8
0
  6
BYBLOCK
 62
0
100
AcDbBlockEnd
  0
ENDSEC
  0
SECTION
  2
ENTITIES
  0
DIMENSION
  5
238
100
AcDbEntity
  8
_03_2D_ZEICHNUNG_BEMASSUNGEN
100
AcDbDimension
 62
7
  6
CONTINUOUS
  2
*D0
 10
-121.5
 20
-12.5
 11
-121.5
 21
-0.5000003052
 70
160
 71
2
 42
25.0
  3
DIMSTYLE_1
100
AcDbAlignedDimension
 13
-112.5
 23
12.5
 14
-112.5
 24
-12.5
 50
270.0
100
AcDbRotatedDimension
  0
DIMENSION
  5
239
100
AcDbEntity
  8
_03_2D_ZEICHNUNG_BEMASSUNGEN
100
AcDbDimension
 62
7
  6
CONTINUOUS
  2
*D1
 10
-112.5
 20
28.5
 11
-37.9999992371
 21
28.5
 70
160
 71
2
 42
150.0
  3
DIMSTYLE_2
100
AcDbAlignedDimension
 13
37.5
 23
-12.5
 14
-112.5
 24
-12.5
 50
180.0
100
AcDbRotatedDimension
  0
DIMENSION
  5
23A
100
AcDbEntity
  8
_03_2D_ZEICHNUNG_BEMASSUNGEN
100
AcDbDimension
 62
7
  6
CONTINUOUS
  2
*D2
 10
47.0736913552
 20
-12.5
 11
47.0736913552
 21
2.9999999748
 70
160
 71
2
 42
32.0
  3
DIMSTYLE_3
100
AcDbAlignedDimension
 13
37.5
 23
19.5
 14
-112.5
 24
-12.5
 50
270.0
100
AcDbRotatedDimension
  0
LINE
  5
23B
100
AcDbEntity
  8
_30_VOLUMEN
100
AcDbLine
 62
4
  6
CONTINUOUS
 10
-112.5
 20
-12.0
 11
-112.5
 21
12.0
  0
LINE
  5
23C
100
AcDbEntity
  8
_30_VOLUMEN
100
AcDbLine
 62
4
  6
CONTINUOUS
 10
-112.0
 20
-12.5
 11
-112.0
 21
12.5
  0
LINE
  5
23D
100
AcDbEntity
  8
_30_VOLUMEN
100
AcDbLine
 62
4
  6
CONTINUOUS
 10
-112.0
 20
-12.5
 11
-112.5
 21
-12.0
  0
LINE
  5
23E
100
AcDbEntity
  8
_30_VOLUMEN
100
AcDbLine
 62
4
  6
CONTINUOUS
 10
-112.0
 20
12.5
 11
-112.5
 21
12.0
  0
LINE
  5
23F
100
AcDbEntity
  8
_30_VOLUMEN
100
AcDbLine
 62
4
  6
CONTINUOUS
 10
-112.0
 20
-12.5
 11
8.5
 21
-12.5
  0
LINE
  5
240
100
AcDbEntity
  8
0
100
AcDbLine
 62
4
  6
CONTINUOUS
 10
8.5
 20
-12.5
 11
19.5616238222
 21
-12.5
  0
LINE
  5
241
100
AcDbEntity
  8
_30_VOLUMEN
100
AcDbLine
 62
4
  6
CONTINUOUS
 10
-112.0
 20
12.5
 11
8.5
 21
12.5
  0
LINE
  5
242
100
AcDbEntity
  8
_21_KURVEN
100
AcDbLine
 62
7
  6
CONTINUOUS
 10
26.7095658296
 20
12.6895496061
 11
29.2754323197
 21
12.6895496061
  0
LINE
  5
243
100
AcDbEntity
  8
_21_KURVEN
100
AcDbLine
 62
7
  6
CONTINUOUS
 10
30.2277717552
 20
13.1844089697
 11
27.2044251933
 21
13.1844089697
  0
LINE
  5
244
100
AcDbEntity
  8
_21_KURVEN
100
AcDbLine
 62
7
  6
CONTINUOUS
 10
30.138388365
 20
13.1511411133
 11
30.2277717552
 21
13.1844089697
  0
LINE
  5
245
100
AcDbEntity
  8
_26_BEZUGSACHSEN
100
AcDbLine
 62
4
  6
CONTINUOUS
 10
9.9201307199
 20
17.8
 11
17.1971596234
 21
17.8
  0
LINE
  5
246
100
AcDbEntity
  8
_30_VOLUMEN
100
AcDbLine
 62
4
  6
CONTINUOUS
 10
17.5649264007
 20
19.5
 11
36.705913169
 21
19.5
  0
LINE
  5
247
100
AcDbEntity
  8
_21_KURVEN
100
AcDbLine
 62
7
  6
CONTINUOUS
 10
8.5
 20
19.5
 11
38.0736913552
 21
19.5
  0
LINE
  5
248
100
AcDbEntity
  8
0
100
AcDbLine
 62
4
  6
CONTINUOUS
 10
24.0778915612
 20
-9.8925316052
 11
9.7057713659
 21
4.4795885901
  0
LINE
  5
249
100
AcDbEntity
  8
_21_KURVEN
100
AcDbLine
 62
7
  6
CONTINUOUS
 10
27.2044251933
 20
13.1844089697
 11
26.7095658296
 21
12.6895496061
  0
LINE
  5
24A
100
AcDbEntity
  8
_21_KURVEN
100
AcDbLine
 62
7
  6
CONTINUOUS
 10
29.2754323197
 20
12.6895496061
 11
29.5864708037
 21
13.0005880902
  0
LINE
  5
24B
100
AcDbEntity
  8
0
100
AcDbLine
 62
4
  6
CONTINUOUS
 10
8.5
 20
12.5
 11
8.5
 21
-12.5
  0
LINE
  5
24C
100
AcDbEntity
  8
0
100
AcDbLine
 62
4
  6
CONTINUOUS
 10
8.5
 20
12.5
 11
9.9201307199
 21
17.8
  0
LINE
  5
24D
100
AcDbEntity
  8
0
100
AcDbLine
 62
4
  6
CONTINUOUS
 10
33.4180302828
 20
-4.5
 11
19.5616238222
 21
-12.5
  0
LINE
  5
24E
100
AcDbEntity
  8
0
100
AcDbLine
 62
4
  6
CONTINUOUS
 10
9.3946290419
 20
15.8388010384
 11
9.7057713659
 21
4.4795885901
  0
LINE
  5
24F
100
AcDbEntity
  8
0
100
AcDbLine
 62
4
  6
CONTINUOUS
 10
9.7057713659
 20
4.4795885901
 11
9.7057713659
 21
-12.5
  0
LINE
  5
250
100
AcDbEntity
  8
_30_VOLUMEN
100
AcDbLine
 62
4
  6
CONTINUOUS
 10
26.6456037259
 20
1.7378282772
 11
26.7012523932
 21
1.656634045
  0
LINE
  5
251
100
AcDbEntity
  8
_26_BEZUGSACHSEN
100
AcDbLine
 62
4
  6
CONTINUOUS
 10
17.1971596234
 20
17.8
 11
27.34243601
 21
0.5532269092
  0
LINE
  5
252
100
AcDbEntity
  8
_30_VOLUMEN
100
AcDbLine
 62
4
  6
CONTINUOUS
 10
26.6456037259
 20
1.7378282772
 11
16.8939804987
 21
18.315398632
  0
LINE
  5
253
100
AcDbEntity
  8
_21_KURVEN
100
AcDbLine
 62
7
  6
CONTINUOUS
 10
27.34243601
 20
0.5532269092
 11
16.1971482145
 21
19.5
  0
LINE
  5
254
100
AcDbEntity
  8
_30_VOLUMEN
100
AcDbLine
 62
4
  6
CONTINUOUS
 10
16.8622444885
 20
18.3767208099
 11
16.8939804987
 21
18.315398632
  0
LINE
  5
255
100
AcDbEntity
  8
_30_VOLUMEN
100
AcDbLine
 62
4
  6
CONTINUOUS
 10
17.1390033979
 20
17.8
 11
16.8913967217
 21
18.3141543355
  0
LINE
  5
256
100
AcDbEntity
  8
_30_VOLUMEN
100
AcDbLine
 62
4
  6
CONTINUOUS
 10
16.8629175729
 20
18.3732911813
 11
16.8614451381
 21
18.3763486866
  0
LINE
  5
257
100
AcDbEntity
  8
_26_BEZUGSACHSEN
100
AcDbLine
 62
4
  6
CONTINUOUS
 10
27.6015036752
 20
1.3894778288
 11
27.2331174087
 21
0.7390664112
  0
LINE
  5
258
100
AcDbEntity
  8
_30_VOLUMEN
100
AcDbLine
 62
4
  6
CONTINUOUS
 10
37.4027454531
 20
18.315398632
 11
28.0133819121
 21
1.7378282772
  0
LINE
  5
259
100
AcDbEntity
  8
_21_KURVEN
100
AcDbLine
 62
7
  6
CONTINUOUS
 10
38.0736913552
 20
19.5
 11
27.34243601
 21
0.5532269092
  0
LINE
  5
25A
100
AcDbEntity
  8
_26_BEZUGSACHSEN
100
AcDbLine
 62
4
  6
CONTINUOUS
 10
34.9
 20
13.8966285367
 11
27.34243601
 21
0.5532269092
  0
LINE
  5
25B
100
AcDbEntity
  8
_26_BEZUGSACHSEN
100
AcDbLine
 62
4
  6
CONTINUOUS
 10
34.9
 20
13.8966285367
 11
34.9
 21
9.6
  0
LINE
  5
25C
100
AcDbEntity
  8
_21_KURVEN
100
AcDbLine
 62
7
  6
CONTINUOUS
 10
37.5
 20
19.5
 11
37.5
 21
-12.5
  0
LINE
  5
25D
100
AcDbEntity
  8
0
100
AcDbLine
 62
4
  6
CONTINUOUS
 10
34.9
 20
9.6
 11
33.4180302828
 21
-4.5
  0
ARC
  5
25E
100
AcDbEntity
  8
_30_VOLUMEN
100
AcDbCircle
 62
4
  6
CONTINUOUS
 10
26.7314395831
 20
12.6597836112
 40
2.5441668692
100
AcDbArc
 50
324.921305915
 51
0.6703588561
  0
ARC
  5
25F
100
AcDbEntity
  8
_30_VOLUMEN
100
AcDbCircle
 62
4
  6
CONTINUOUS
 10
26.6790531751
 20
12.7187154267
 40
2.5376909483
100
AcDbArc
 50
125.1432502856
 51
130.2639154086
  0
ARC
  5
260
100
AcDbEntity
  8
_30_VOLUMEN
100
AcDbCircle
 62
4
  6
CONTINUOUS
 10
26.7544859683
 20
12.6460298757
 40
2.5174030499
100
AcDbArc
 50
320.9372157288
 51
324.8760313906
  0
ARC
  5
261
100
AcDbEntity
  8
_30_VOLUMEN
100
AcDbCircle
 62
4
  6
CONTINUOUS
 10
26.7641634815
 20
12.6383410913
 40
2.5050436374
100
AcDbArc
 50
320.3577694542
 51
320.9342768378
  0
SPLINE
  5
262
100
AcDbEntity
  8
_30_VOLUMEN
100
AcDbSpline
 62
4
  6
CONTINUOUS
 70
0
 71
3
 72
15
 73
11
 74
0
 42
0.0000001
 43
0.0000001
 44
0.0000000001
 40
0.0
 40
0.0
 40
0.0
 40
0.0
 40
0.1214692931
 40
0.2440145459
 40
0.3680627159
 40
0.4938161222
 40
0.6207721976
 40
0.748052572
 40
0.8747598007
 40
1.0
 40
1.0
 40
1.0
 40
1.0
 10
28.8449398092
 20
11.1762525947
 30
0.0
 10
28.6730276584
 20
11.004340444
 30
0.0
 10
28.2734967326
 20
10.7089424957
 30
0.0
 10
27.569172736
 20
10.4598699627
 30
0.0
 10
26.8137222714
 20
10.4265397811
 30
0.0
 10
26.0723329368
 20
10.614519324
 30
0.0
 10
25.41073042
 20
11.0110404969
 30
0.0
 10
24.8886487579
 20
11.5815653864
 30
0.0
 10
24.5536436589
 20
12.2741584231
 30
0.0
 10
24.4726480816
 20
12.7805266296
 30
0.0
 10
24.469909397
 20
13.0311796232
 30
0.0
  0
SPLINE
  5
263
100
AcDbEntity
  8
_30_VOLUMEN
100
AcDbSpline
 62
4
  6
CONTINUOUS
 70
0
 71
3
 72
15
 73
11
 74
0
 42
0.0000001
 43
0.0000001
 44
0.0000000001
 40
0.0
 40
0.0
 40
0.0
 40
0.0
 40
0.1242319357
 40
0.2487439815
 40
0.3736250461
 40
0.4988459969
 40
0.6242821066
 40
0.7497027669
 40
0.875074266
 40
1.0
 40
1.0
 40
1.0
 40
1.0
 10
25.2183007192
 20
14.7938244868
 30
0.0
 10
25.4074606317
 20
14.9269696329
 30
0.0
 10
25.8255251608
 20
15.1419772549
 30
0.0
 10
26.5154529507
 20
15.2820919352
 30
0.0
 10
27.219897343
 20
15.2311876248
 30
0.0
 10
27.8863669621
 20
14.9927142934
 30
0.0
 10
28.4657142383
 20
14.5844493456
 30
0.0
 10
28.9161564162
 20
14.0367157162
 30
0.0
 10
29.2033896014
 20
13.3898397239
 30
0.0
 10
29.272890904
 20
12.9221479236
 30
0.0
 10
29.2754323197
 20
12.6895496061
 30
0.0
  0
SPLINE
  5
264
100
AcDbEntity
  8
_30_VOLUMEN
100
AcDbSpline
 62
4
  6
CONTINUOUS
 70
0
 71
3
 72
9
 73
5
 74
0
 42
0.0000001
 43
0.0000001
 44
0.0000000001
 40
0.0
 40
0.0
 40
0.0
 40
0.0
 40
0.5033098443
 40
1.0
 40
1.0
 40
1.0
 40
1.0
 10
24.469909397
 20
13.0311796232
 30
0.0
 10
24.4662904785
 20
13.3623943746
 30
0.0
 10
24.5897438436
 20
14.0289813255
 30
0.0
 10
24.9651311528
 20
14.5937859202
 30
0.0
 10
25.1962688182
 20
14.8249235856
 30
0.0
  0
SPLINE
  5
265
100
AcDbEntity
  8
_30_VOLUMEN
100
AcDbSpline
 62
4
  6
CONTINUOUS
 70
0
 71
3
 72
15
 73
11
 74
0
 42
0.0000001
 43
0.0000001
 44
0.0000000001
 40
0.0
 40
0.0
 40
0.0
 40
0.0
 40
0.1247622821
 40
0.2491154819
 40
0.3734835748
 40
0.4982155044
 40
0.623470171
 40
0.7491001455
 40
0.8747150228
 40
1.0
 40
1.0
 40
1.0
 40
1.0
 10
24.1810786313
 20
13.1844089697
 30
0.0
 10
24.176790512
 20
13.5768710741
 30
0.0
 10
24.3246447026
 20
14.3710917927
 30
0.0
 10
24.9869836637
 20
15.3777214971
 30
0.0
 10
25.9876617713
 20
16.0514072293
 30
0.0
 10
27.1731722342
 20
16.2866146028
 30
0.0
 10
28.3619105773
 20
16.0497401693
 30
0.0
 10
29.373678458
 20
15.3774605841
 30
0.0
 10
30.0565868836
 20
14.3744579644
 30
0.0
 10
30.2234656707
 20
13.5785153053
 30
0.0
 10
30.2277717552
 20
13.1844089697
 30
0.0
  0
SPLINE
  5
266
100
AcDbEntity
  8
_30_VOLUMEN
100
AcDbSpline
 62
7
  6
CONTINUOUS
 70
0
 71
3
 72
9
 73
5
 74
0
 42
0.0000001
 43
0.0000001
 44
0.0000000001
 40
0.0
 40
0.0
 40
0.0
 40
0.0
 40
0.5007599525
 40
1.0
 40
1.0
 40
1.0
 40
1.0
 10
29.5864708037
 20
13.0005880902
 30
0.0
 10
29.5901346152
 20
12.6652645905
 30
0.0
 10
29.463519191
 20
11.9872446382
 30
0.0
 10
29.0814297922
 20
11.412570493
 30
0.0
 10
28.8449363586
 20
11.1762560478
 30
0.0
  0
SPLINE
  5
267
100
AcDbEntity
  8
_30_VOLUMEN
100
AcDbSpline
 62
4
  6
CONTINUOUS
 70
0
 71
3
 72
15
 73
11
 74
0
 42
0.0000001
 43
0.0000001
 44
0.0000000001
 40
0.0
 40
0.0
 40
0.0
 40
0.0
 40
0.1247462506
 40
0.2491175803
 40
0.3734831702
 40
0.498215605
 40
0.6234707019
 40
0.7490980824
 40
0.8747311449
 40
1.0
 40
1.0
 40
1.0
 40
1.0
 10
30.138388365
 20
13.1511411133
 30
0.0
 10
30.1425963987
 20
12.7660086928
 30
0.0
 10
29.9974363836
 20
11.9865531912
 30
0.0
 10
29.3476010205
 20
10.998435565
 30
0.0
 10
28.3653309168
 20
10.3373358893
 30
0.0
 10
27.2018306257
 20
10.1065240984
 30
0.0
 10
26.0351616004
 20
10.3389717895
 30
0.0
 10
25.0420100762
 20
10.998691318
 30
0.0
 10
24.3719822855
 20
11.9832498339
 30
0.0
 10
24.2081519713
 20
12.7643952421
 30
0.0
 10
24.2039263087
 20
13.1511411133
 30
0.0
  0
SPLINE
  5
268
100
AcDbEntity
  8
_30_VOLUMEN
100
AcDbSpline
 62
7
  6
CONTINUOUS
 70
0
 71
3
 72
15
 73
11
 74
0
 42
0.0000001
 43
0.0000001
 44
0.0000000001
 40
0.0
 40
0.0
 40
0.0
 40
0.0
 40
0.1249753725
 40
0.2504756797
 40
0.3759601485
 40
0.501423776
 40
0.6266011882
 40
0.7513802915
 40
0.8757976097
 40
1.0
 40
1.0
 40
1.0
 40
1.0
 10
29.5864708037
 20
13.0005880902
 30
0.0
 10
29.5837321446
 20
13.2512387519
 30
0.0
 10
29.5031163742
 20
13.7556962642
 30
0.0
 10
29.1710851282
 20
14.4441496893
 30
0.0
 10
28.6540722278
 20
15.0091687726
 30
0.0
 10
27.9979233496
 20
15.4026091346
 30
0.0
 10
27.2574957654
 20
15.5901550112
 30
0.0
 10
26.4963996217
 20
15.555825941
 30
0.0
 10
25.7803067583
 20
15.3028107643
 30
0.0
 10
25.3724900141
 20
15.0010045086
 30
0.0
 10
25.1962722688
 20
14.8249201325
 30
0.0
  0
SPLINE
  5
269
100
AcDbEntity
  8
_30_VOLUMEN
100
AcDbSpline
 62
4
  6
CONTINUOUS
 70
0
 71
3
 72
15
 73
11
 74
0
 42
0.0000001
 43
0.0000001
 44
0.0000000001
 40
0.0
 40
0.0
 40
0.0
 40
0.0
 40
0.1247622821
 40
0.2491154819
 40
0.3734835748
 40
0.4982155044
 40
0.623470171
 40
0.7491001455
 40
0.8747150228
 40
1.0
 40
1.0
 40
1.0
 40
1.0
 10
30.2277717552
 20
13.1844089697
 30
0.0
 10
30.2320598745
 20
12.7919468654
 30
0.0
 10
30.0842056839
 20
11.9977261468
 30
0.0
 10
29.4218667228
 20
10.9910964423
 30
0.0
 10
28.4211886152
 20
10.3174107102
 30
0.0
 10
27.2356781523
 20
10.0822033366
 30
0.0
 10
26.0469398093
 20
10.3190777701
 30
0.0
 10
25.0351719285
 20
10.9913573554
 30
0.0
 10
24.3522635029
 20
11.9943599751
 30
0.0
 10
24.1853847158
 20
12.7903026342
 30
0.0
 10
24.1810786313
 20
13.1844089697
 30
0.0
  0
SPLINE
  5
26A
100
AcDbEntity
  8
_30_VOLUMEN
100
AcDbSpline
 62
4
  6
CONTINUOUS
 70
0
 71
3
 72
15
 73
11
 74
0
 42
0.0000001
 43
0.0000001
 44
0.0000000001
 40
0.0
 40
0.0
 40
0.0
 40
0.0
 40
0.1252688551
 40
0.2509019176
 40
0.3765292981
 40
0.501784395
 40
0.6265168298
 40
0.7508824197
 40
0.8752537494
 40
1.0
 40
1.0
 40
1.0
 40
1.0
 10
30.138388365
 20
13.1511411133
 30
0.0
 10
30.1341627024
 20
13.5378869846
 30
0.0
 10
29.9703323882
 20
14.3190323928
 30
0.0
 10
29.3003045976
 20
15.3035909087
 30
0.0
 10
28.3071530733
 20
15.9633104372
 30
0.0
 10
27.140484048
 20
16.1957581283
 30
0.0
 10
25.9769837569
 20
15.9649463374
 30
0.0
 10
24.9947136533
 20
15.3038466617
 30
0.0
 10
24.3448782901
 20
14.3157290355
 30
0.0
 10
24.199718275
 20
13.5362735339
 30
0.0
 10
24.2039263087
 20
13.1511411133
 30
0.0
  0
SPLINE
  5
26B
100
AcDbEntity
  8
_21_KURVEN
100
AcDbSpline
 62
1
  6
CENTER
 70
0
 71
3
 72
163
 73
159
 74
0
 42
0.0000001
 43
0.0000001
 44
0.0000000001
 40
0.0
 40
0.0
 40
0.0
 40
0.0
 40
0.015625
 40
0.03125
 40
0.0390625
 40
0.046875
 40
0.0546875
 40
0.05859375
 40
0.060546875
 40
0.0625
 40
0.064453125
 40
0.06640625
 40
0.0703125
 40
0.078125
 40
0.09375
 40
0.109375
 40
0.1171875
 40
0.12109375
 40
0.123046875
 40
0.125
 40
0.126953125
 40
0.12890625
 40
0.1328125
 40
0.140625
 40
0.15625
 40
0.171875
 40
0.1796875
 40
0.18359375
 40
0.185546875
 40
0.1875
 40
0.189453125
 40
0.19140625
 40
0.1953125
 40
0.203125
 40
0.21875
 40
0.234375
 40
0.2421875
 40
0.24609375
 40
0.248046875
 40
0.25
 40
0.251953125
 40
0.25390625
 40
0.2578125
 40
0.265625
 40
0.28125
 40
0.296875
 40
0.3046875
 40
0.30859375
 40
0.310546875
 40
0.3125
 40
0.314453125
 40
0.31640625
 40
0.3203125
 40
0.328125
 40
0.34375
 40
0.359375
 40
0.3671875
 40
0.37109375
 40
0.373046875
 40
0.375
 40
0.376953125
 40
0.37890625
 40
0.3828125
 40
0.390625
 40
0.40625
 40
0.421875
 40
0.4296875
 40
0.43359375
 40
0.435546875
 40
0.4375
 40
0.439453125
 40
0.44140625
 40
0.4453125
 40
0.453125
 40
0.46875
 40
0.484375
 40
0.4921875
 40
0.49609375
 40
0.498046875
 40
0.5
 40
0.501953125
 40
0.50390625
 40
0.5078125
 40
0.515625
 40
0.53125
 40
0.546875
 40
0.5546875
 40
0.55859375
 40
0.560546875
 40
0.5625
 40
0.564453125
 40
0.56640625
 40
0.5703125
 40
0.578125
 40
0.59375
 40
0.609375
 40
0.6171875
 40
0.62109375
 40
0.623046875
 40
0.625
 40
0.626953125
 40
0.62890625
 40
0.6328125
 40
0.640625
 40
0.65625
 40
0.671875
 40
0.6796875
 40
0.68359375
 40
0.685546875
 40
0.6875
 40
0.689453125
 40
0.69140625
 40
0.6953125
 40
0.703125
 40
0.71875
 40
0.734375
 40
0.7421875
 40
0.74609375
 40
0.748046875
 40
0.75
 40
0.751953125
 40
0.75390625
 40
0.7578125
 40
0.765625
 40
0.78125
 40
0.796875
 40
0.8046875
 40
0.80859375
 40
0.810546875
 40
0.8125
 40
0.814453125
 40
0.81640625
 40
0.8203125
 40
0.828125
 40
0.84375
 40
0.859375
 40
0.8671875
 40
0.87109375
 40
0.873046875
 40
0.875
 40
0.876953125
 40
0.87890625
 40
0.8828125
 40
0.890625
 40
0.90625
 40
0.921875
 40
0.9296875
 40
0.93359375
 40
0.935546875
 40
0.9375
 40
0.939453125
 40
0.94140625
 40
0.9453125
 40
0.953125
 40
0.9609375
 40
0.96875
 40
0.984375
 40
1.0
 40
1.0
 40
1.0
 40
1.0
 10
33.5196392288
 20
13.1844089697
 30
0.0
 10
33.5084996046
 20
13.2866343636
 30
0.0
 10
33.4862161096
 20
13.4910843086
 30
0.0
 10
33.4583829734
 20
13.7466509534
 30
0.0
 10
33.4360718761
 20
13.9510954208
 30
0.0
 10
33.4194595785
 20
14.1044527885
 30
0.0
 10
33.4052311578
 20
14.2321742248
 30
0.0
 10
33.3960264773
 20
14.3217290999
 30
0.0
 10
33.3895874592
 20
14.3726693057
 30
0.0
 10
33.3880800222
 20
14.4115336659
 30
0.0
 10
33.3738748792
 20
14.4478782072
 30
0.0
 10
33.3593634644
 20
14.4972164875
 30
0.0
 10
33.3319083127
 20
14.5831494801
 30
0.0
 10
33.2784690468
 20
14.7553092577
 30
0.0
 10
33.201290778
 20
15.0010707071
 30
0.0
 10
33.1246563747
 20
15.2469969124
 30
0.0
 10
33.0704556971
 20
15.4189260317
 30
0.0
 10
33.0440474865
 20
15.5051761795
 30
0.0
 10
33.0278500885
 20
15.5540037164
 30
0.0
 10
33.0188252649
 20
15.5919175578
 30
0.0
 10
32.997861038
 20
15.6248877754
 30
0.0
 10
32.9740730284
 20
15.67057234
 30
0.0
 10
32.9305068469
 20
15.7497181289
 30
0.0
 10
32.8447579245
 20
15.9085836553
 30
0.0
 10
32.7214709136
 20
16.1351988433
 30
0.0
 10
32.5987029788
 20
16.362063052
 30
0.0
 10
32.5122273498
 20
16.5205799494
 30
0.0
 10
32.4696603898
 20
16.6002051032
 30
0.0
 10
32.4442632442
 20
16.6451177035
 30
0.0
 10
32.4282432179
 20
16.6804598436
 30
0.0
 10
32.4006484439
 20
16.7094649682
 30
0.0
 10
32.3678925012
 20
16.7503487521
 30
0.0
 10
32.30869178
 20
16.8208669411
 30
0.0
 10
32.1916294776
 20
16.9626405198
 30
0.0
 10
32.0236496837
 20
17.1647320993
 30
0.0
 10
31.85611088
 20
17.3671879042
 30
0.0
 10
31.7384311913
 20
17.5084515675
 30
0.0
 10
31.6800793762
 20
17.5796708901
 30
0.0
 10
31.6459563641
 20
17.6194255757
 30
0.0
 10
31.6225620213
 20
17.6518999459
 30
0.0
 10
31.5907655723
 20
17.6742119273
 30
0.0
 10
31.5513008352
 20
17.7075057371
 30
0.0
 10
31.4808743718
 20
17.7641210009
 30
0.0
 10
31.3409942524
 20
17.8785297375
 30
0.0
 10
31.1406167241
 20
18.0412941598
 30
0.0
 10
30.9405813747
 20
18.2045208945
 30
0.0
 10
30.8002222048
 20
18.3182823939
 30
0.0
 10
30.7304544359
 20
18.3757876089
 30
0.0
 10
30.689928944
 20
18.4076482505
 30
0.0
 10
30.6613917498
 20
18.4343637569
 30
0.0
 10
30.6257559541
 20
18.4502989029
 30
0.0
 10
30.5807174384
 20
18.4753058088
 30
0.0
 10
30.5007484177
 20
18.5173186873
 30
0.0
 10
30.3416314318
 20
18.6025946928
 30
0.0
 10
30.1138645079
 20
18.7236966099
 30
0.0
 10
29.886361445
 20
18.8453008927
 30
0.0
 10
29.7268750537
 20
18.9298735863
 30
0.0
 10
29.6474139655
 20
18.9728535187
 30
0.0
 10
29.6015574804
 20
18.9963030911
 30
0.0
 10
29.5684349615
 20
19.0170232699
 30
0.0
 10
29.5304581375
 20
19.0257666452
 30
0.0
 10
29.4815154776
 20
19.0416018232
 30
0.0
 10
29.3950782823
 20
19.0673700819
 30
0.0
 10
29.2227655756
 20
19.1202951755
 30
0.0
 10
28.9762903633
 20
19.1951049572
 30
0.0
 10
28.7300020879
 20
19.2704598114
 30
0.0
 10
28.5574276696
 20
19.3226218035
 30
0.0
 10
28.4713503277
 20
19.3494393268
 30
0.0
 10
28.4218281635
 20
19.36358478
 30
0.0
 10
28.3856319135
 20
19.3775199708
 30
0.0
 10
28.3458217267
 20
19.3787401811
 30
0.0
 10
28.2940019381
 20
19.3848019367
 30
0.0
 10
28.2027312519
 20
19.3933469513
 30
0.0
 10
28.0206051368
 20
19.4119109275
 30
0.0
 10
27.7602145161
 20
19.4375859625
 30
0.0
 10
27.4998747538
 20
19.4638332035
 30
0.0
 10
27.317677437
 20
19.4815960913
 30
0.0
 10
27.226504653
 20
19.4912426026
 30
0.0
 10
27.1745272037
 20
19.4955305193
 30
0.0
 10
27.1352014423
 20
19.5022009924
 30
0.0
 10
27.0971857362
 20
19.4956655113
 30
0.0
 10
27.0460411912
 20
19.4915575838
 30
0.0
 10
26.9567508813
 20
19.4822260532
 30
0.0
 10
26.7780174543
 20
19.4650931347
 30
0.0
 10
26.5227786551
 20
19.4397457854
 30
0.0
 10
26.2674522454
 20
19.4149708839
 30
0.0
 10
26.0888414731
 20
19.3970365386
 30
0.0
 10
25.999382513
 20
19.3888069698
 30
0.0
 10
25.9485095604
 20
19.3829244544
 30
0.0
 10
25.9096593646
 20
19.3818415381
 30
0.0
 10
25.8734678677
 20
19.368032693
 30
0.0
 10
25.8242852073
 20
19.3540595193
 30
0.0
 10
25.7386470825
 20
19.3275417086
 30
0.0
 10
25.567060951
 20
19.2759804149
 30
0.0
 10
25.3221281459
 20
19.201482939
 30
0.0
 10
25.0770246326
 20
19.1275311597
 30
0.0
 10
24.9056774924
 20
19.0752058906
 30
0.0
 10
24.8197107545
 20
19.0497385462
 30
0.0
 10
24.7710572893
 20
19.0340737125
 30
0.0
 10
24.7332397975
 20
19.025462629
 30
0.0
 10
24.7004966847
 20
19.0048574114
 30
0.0
 10
24.655069321
 20
18.9815671703
 30
0.0
 10
24.5763948486
 20
18.9388632022
 30
0.0
 10
24.4184568043
 20
18.854845061
 30
0.0
 10
24.1931752271
 20
18.7340268809
 30
0.0
 10
23.9676389425
 20
18.613730529
 30
0.0
 10
23.8100574887
 20
18.5289818284
 30
0.0
 10
23.7308927044
 20
18.4872823796
 30
0.0
 10
23.6862549338
 20
18.4623744711
 30
0.0
 10
23.6510857324
 20
18.4467396669
 30
0.0
 10
23.6223804003
 20
18.4194601802
 30
0.0
 10
23.5818520951
 20
18.3871490133
 30
0.0
 10
23.511976574
 20
18.3287152998
 30
0.0
 10
23.3714736544
 20
18.2131951481
 30
0.0
 10
23.171205501
 20
18.0474135512
 30
0.0
 10
22.970568282
 20
17.8820769506
 30
0.0
 10
22.8305820543
 20
17.7659338041
 30
0.0
 10
22.7599960818
 20
17.7083567085
 30
0.0
 10
22.7206118801
 20
17.674666053
 30
0.0
 10
22.6883911978
 20
17.6516251562
 30
0.0
 10
22.6664253196
 20
17.6200706089
 30
0.0
 10
22.6335607476
 20
17.5809673123
 30
0.0
 10
22.5777116437
 20
17.5111552714
 30
0.0
 10
22.4648245266
 20
17.372516929
 30
0.0
 10
22.3042398834
 20
17.1739059416
 30
0.0
 10
22.1431891613
 20
16.9756422052
 30
0.0
 10
22.0309545547
 20
16.8365177114
 30
0.0
 10
21.9742082489
 20
16.7673741287
 30
0.0
 10
21.9427885214
 20
16.727194354
 30
0.0
 10
21.9163832418
 20
16.6989473726
 30
0.0
 10
21.9008365316
 20
16.6634835706
 30
0.0
 10
21.8763202621
 20
16.618715613
 30
0.0
 10
21.8351786852
 20
16.5392008869
 30
0.0
 10
21.7516362368
 20
16.3810062006
 30
0.0
 10
21.6330158658
 20
16.1545489426
 30
0.0
 10
21.513890216
 20
15.9283610507
 30
0.0
 10
21.4310551579
 20
15.7697892519
 30
0.0
 10
21.3889409193
 20
15.6907930555
 30
0.0
 10
21.3659910141
 20
15.645190063
 30
0.0
 10
21.3456315232
 20
15.6122919731
 30
0.0
 10
21.3373025931
 20
15.5744084195
 30
0.0
 10
21.322001259
 20
15.5256358667
 30
0.0
 10
21.2971759485
 20
15.4394750773
 30
0.0
 10
21.2461305308
 20
15.2677303889
 30
0.0
 10
21.1740094817
 20
15.022057898
 30
0.0
 10
21.1013412834
 20
14.7765783124
 30
0.0
 10
21.0510618746
 20
14.6045635567
 30
0.0
 10
21.0251833019
 20
14.5187741099
 30
0.0
 10
21.0115781303
 20
14.4694035508
 30
0.0
 10
20.9980376041
 20
14.4333574197
 30
0.0
 10
20.9972523759
 20
14.3935581447
 30
0.0
 10
20.991756214
 20
14.3418015833
 30
0.0
 10
20.9842108917
 20
14.2506176488
 30
0.0
 10
20.9723480893
 20
14.1206737761
 30
0.0
 10
20.9585766282
 20
13.9646046294
 30
0.0
 10
20.9400525811
 20
13.7565601301
 30
0.0
 10
20.9169535103
 20
13.496488032
 30
0.0
 10
20.8984571906
 20
13.2884353741
 30
0.0
 10
20.8892111637
 20
13.1844084176
 30
0.0
  0
SPLINE
  5
26C
100
AcDbEntity
  8
_21_KURVEN
100
AcDbSpline
 62
1
  6
CENTER
 70
0
 71
3
 72
163
 73
159
 74
0
 42
0.0000001
 43
0.0000001
 44
0.0000000001
 40
0.0
 40
0.0
 40
0.0
 40
0.0
 40
0.015625
 40
0.03125
 40
0.0390625
 40
0.046875
 40
0.0546875
 40
0.05859375
 40
0.060546875
 40
0.0625
 40
0.064453125
 40
0.06640625
 40
0.0703125
 40
0.078125
 40
0.09375
 40
0.109375
 40
0.1171875
 40
0.12109375
 40
0.123046875
 40
0.125
 40
0.126953125
 40
0.12890625
 40
0.1328125
 40
0.140625
 40
0.15625
 40
0.171875
 40
0.1796875
 40
0.18359375
 40
0.185546875
 40
0.1875
 40
0.189453125
 40
0.19140625
 40
0.1953125
 40
0.203125
 40
0.21875
 40
0.234375
 40
0.2421875
 40
0.24609375
 40
0.248046875
 40
0.25
 40
0.251953125
 40
0.25390625
 40
0.2578125
 40
0.265625
 40
0.28125
 40
0.296875
 40
0.3046875
 40
0.30859375
 40
0.310546875
 40
0.3125
 40
0.314453125
 40
0.31640625
 40
0.3203125
 40
0.328125
 40
0.34375
 40
0.359375
 40
0.3671875
 40
0.37109375
 40
0.373046875
 40
0.375
 40
0.376953125
 40
0.37890625
 40
0.3828125
 40
0.390625
 40
0.40625
 40
0.421875
 40
0.4296875
 40
0.43359375
 40
0.435546875
 40
0.4375
 40
0.439453125
 40
0.44140625
 40
0.4453125
 40
0.453125
 40
0.46875
 40
0.484375
 40
0.4921875
 40
0.49609375
 40
0.498046875
 40
0.5
 40
0.501953125
 40
0.50390625
 40
0.5078125
 40
0.515625
 40
0.53125
 40
0.546875
 40
0.5546875
 40
0.55859375
 40
0.560546875
 40
0.5625
 40
0.564453125
 40
0.56640625
 40
0.5703125
 40
0.578125
 40
0.59375
 40
0.609375
 40
0.6171875
 40
0.62109375
 40
0.623046875
 40
0.625
 40
0.626953125
 40
0.62890625
 40
0.6328125
 40
0.640625
 40
0.65625
 40
0.671875
 40
0.6796875
 40
0.68359375
 40
0.685546875
 40
0.6875
 40
0.689453125
 40
0.69140625
 40
0.6953125
 40
0.703125
 40
0.71875
 40
0.734375
 40
0.7421875
 40
0.74609375
 40
0.748046875
 40
0.75
 40
0.751953125
 40
0.75390625
 40
0.7578125
 40
0.765625
 40
0.78125
 40
0.796875
 40
0.8046875
 40
0.80859375
 40
0.810546875
 40
0.8125
 40
0.814453125
 40
0.81640625
 40
0.8203125
 40
0.828125
 40
0.84375
 40
0.859375
 40
0.8671875
 40
0.87109375
 40
0.873046875
 40
0.875
 40
0.876953125
 40
0.87890625
 40
0.8828125
 40
0.890625
 40
0.90625
 40
0.921875
 40
0.9296875
 40
0.93359375
 40
0.935546875
 40
0.9375
 40
0.939453125
 40
0.94140625
 40
0.9453125
 40
0.953125
 40
0.9609375
 40
0.96875
 40
0.984375
 40
1.0
 40
1.0
 40
1.0
 40
1.0
 10
20.8892111577
 20
13.1844089697
 30
0.0
 10
20.9003507819
 20
13.0821835759
 30
0.0
 10
20.9226342769
 20
12.8777336308
 30
0.0
 10
20.9504674131
 20
12.6221669861
 30
0.0
 10
20.9727785104
 20
12.4177225186
 30
0.0
 10
20.989390808
 20
12.264365151
 30
0.0
 10
21.0036192287
 20
12.1366437147
 30
0.0
 10
21.0128239092
 20
12.0470888395
 30
0.0
 10
21.0192629273
 20
11.9961486337
 30
0.0
 10
21.0207703643
 20
11.9572842736
 30
0.0
 10
21.0349755073
 20
11.9209397322
 30
0.0
 10
21.0494869221
 20
11.871601452
 30
0.0
 10
21.0769420738
 20
11.7856684593
 30
0.0
 10
21.1303813397
 20
11.6135086817
 30
0.0
 10
21.2075596085
 20
11.3677472323
 30
0.0
 10
21.2841940118
 20
11.1218210271
 30
0.0
 10
21.3383946894
 20
10.9498919077
 30
0.0
 10
21.3648029
 20
10.86364176
 30
0.0
 10
21.381000298
 20
10.814814223
 30
0.0
 10
21.3900251217
 20
10.7769003816
 30
0.0
 10
21.4109893485
 20
10.7439301641
 30
0.0
 10
21.4347773581
 20
10.6982455995
 30
0.0
 10
21.4783435397
 20
10.6190998106
 30
0.0
 10
21.564092462
 20
10.4602342841
 30
0.0
 10
21.6873794729
 20
10.2336190962
 30
0.0
 10
21.8101474077
 20
10.0067548875
 30
0.0
 10
21.8966230367
 20
9.8482379901
 30
0.0
 10
21.9391899967
 20
9.7686128362
 30
0.0
 10
21.9645871424
 20
9.7237002359
 30
0.0
 10
21.9806071686
 20
9.6883580958
 30
0.0
 10
22.0082019426
 20
9.6593529713
 30
0.0
 10
22.0409578853
 20
9.6184691874
 30
0.0
 10
22.1001586065
 20
9.5479509984
 30
0.0
 10
22.2172209089
 20
9.4061774197
 30
0.0
 10
22.3852007028
 20
9.2040858401
 30
0.0
 10
22.5527395065
 20
9.0016300353
 30
0.0
 10
22.6704191952
 20
8.8603663719
 30
0.0
 10
22.7287710103
 20
8.7891470493
 30
0.0
 10
22.7628940224
 20
8.7493923637
 30
0.0
 10
22.7862883652
 20
8.7169179935
 30
0.0
 10
22.8180848142
 20
8.6946060122
 30
0.0
 10
22.8575495513
 20
8.6613122024
 30
0.0
 10
22.9279760147
 20
8.6046969386
 30
0.0
 10
23.0678561341
 20
8.4902882019
 30
0.0
 10
23.2682336624
 20
8.3275237796
 30
0.0
 10
23.4682690118
 20
8.164297045
 30
0.0
 10
23.6086281817
 20
8.0505355456
 30
0.0
 10
23.6783959506
 20
7.9930303305
 30
0.0
 10
23.7189214426
 20
7.961169689
 30
0.0
 10
23.7474586367
 20
7.9344541825
 30
0.0
 10
23.7830944324
 20
7.9185190366
 30
0.0
 10
23.8281329482
 20
7.8935121306
 30
0.0
 10
23.9081019689
 20
7.8514992521
 30
0.0
 10
24.0672189547
 20
7.7662232466
 30
0.0
 10
24.2949858786
 20
7.6451213295
 30
0.0
 10
24.5224889415
 20
7.5235170467
 30
0.0
 10
24.6819753328
 20
7.4389443531
 30
0.0
 10
24.761436421
 20
7.3959644208
 30
0.0
 10
24.8072929061
 20
7.3725148484
 30
0.0
 10
24.840415425
 20
7.3517946695
 30
0.0
 10
24.878392249
 20
7.3430512943
 30
0.0
 10
24.9273349089
 20
7.3272161163
 30
0.0
 10
25.0137721042
 20
7.3014478576
 30
0.0
 10
25.1860848109
 20
7.248522764
 30
0.0
 10
25.4325600232
 20
7.1737129823
 30
0.0
 10
25.6788482986
 20
7.0983581281
 30
0.0
 10
25.8514227169
 20
7.0461961359
 30
0.0
 10
25.9375000588
 20
7.0193786127
 30
0.0
 10
25.987022223
 20
7.0052331594
 30
0.0
 10
26.023218473
 20
6.9912979686
 30
0.0
 10
26.0630286598
 20
6.9900777583
 30
0.0
 10
26.1148484484
 20
6.9840160028
 30
0.0
 10
26.2061191346
 20
6.9754709882
 30
0.0
 10
26.3882452497
 20
6.956907012
 30
0.0
 10
26.6486358704
 20
6.931231977
 30
0.0
 10
26.9089756327
 20
6.9049847359
 30
0.0
 10
27.0911729495
 20
6.8872218482
 30
0.0
 10
27.1823457335
 20
6.8775753369
 30
0.0
 10
27.2343231828
 20
6.8732874201
 30
0.0
 10
27.2736489442
 20
6.8666169471
 30
0.0
 10
27.3116646503
 20
6.8731524282
 30
0.0
 10
27.3628091953
 20
6.8772603556
 30
0.0
 10
27.4520995052
 20
6.8865918863
 30
0.0
 10
27.6308329322
 20
6.9037248048
 30
0.0
 10
27.8860717314
 20
6.929072154
 30
0.0
 10
28.1413981411
 20
6.9538470555
 30
0.0
 10
28.3200089135
 20
6.9717814009
 30
0.0
 10
28.4094678735
 20
6.9800109696
 30
0.0
 10
28.4603408261
 20
6.9858934851
 30
0.0
 10
28.4991910219
 20
6.9869764014
 30
0.0
 10
28.5353825188
 20
7.0007852464
 30
0.0
 10
28.5845651792
 20
7.0147584201
 30
0.0
 10
28.670203304
 20
7.0412762308
 30
0.0
 10
28.8417894355
 20
7.0928375245
 30
0.0
 10
29.0867222406
 20
7.1673350005
 30
0.0
 10
29.3318257539
 20
7.2412867797
 30
0.0
 10
29.5031728941
 20
7.2936120488
 30
0.0
 10
29.589139632
 20
7.3190793933
 30
0.0
 10
29.6377930972
 20
7.3347442269
 30
0.0
 10
29.675610589
 20
7.3433553104
 30
0.0
 10
29.7083537018
 20
7.3639605281
 30
0.0
 10
29.7537810655
 20
7.3872507692
 30
0.0
 10
29.8324555379
 20
7.4299547372
 30
0.0
 10
29.9903935822
 20
7.5139728784
 30
0.0
 10
30.2156751594
 20
7.6347910585
 30
0.0
 10
30.441211444
 20
7.7550874104
 30
0.0
 10
30.5987928979
 20
7.8398361111
 30
0.0
 10
30.6779576821
 20
7.8815355598
 30
0.0
 10
30.7225954527
 20
7.9064434683
 30
0.0
 10
30.7577646541
 20
7.9220782726
 30
0.0
 10
30.7864699862
 20
7.9493577592
 30
0.0
 10
30.8269982914
 20
7.9816689262
 30
0.0
 10
30.8968738125
 20
8.0401026396
 30
0.0
 10
31.0373767321
 20
8.1556227914
 30
0.0
 10
31.2376448855
 20
8.3214043883
 30
0.0
 10
31.4382821045
 20
8.4867409888
 30
0.0
 10
31.5782683322
 20
8.6028841354
 30
0.0
 10
31.6488543047
 20
8.660461231
 30
0.0
 10
31.6882385064
 20
8.6941518865
 30
0.0
 10
31.7204591887
 20
8.7171927833
 30
0.0
 10
31.7424250669
 20
8.7487473306
 30
0.0
 10
31.7752896389
 20
8.7878506271
 30
0.0
 10
31.8311387429
 20
8.8576626681
 30
0.0
 10
31.9440258599
 20
8.9963010105
 30
0.0
 10
32.1046105031
 20
9.1949119979
 30
0.0
 10
32.2656612252
 20
9.3931757342
 30
0.0
 10
32.3778958318
 20
9.5323002281
 30
0.0
 10
32.4346421376
 20
9.6014438108
 30
0.0
 10
32.4660618651
 20
9.6416235855
 30
0.0
 10
32.4924671447
 20
9.6698705669
 30
0.0
 10
32.5080138549
 20
9.7053343688
 30
0.0
 10
32.5325301244
 20
9.7501023265
 30
0.0
 10
32.5736717013
 20
9.8296170525
 30
0.0
 10
32.6572141497
 20
9.9878117388
 30
0.0
 10
32.7758345207
 20
10.2142689968
 30
0.0
 10
32.8949601706
 20
10.4404568888
 30
0.0
 10
32.9777952286
 20
10.5990286876
 30
0.0
 10
33.0199094672
 20
10.6780248839
 30
0.0
 10
33.0428593724
 20
10.7236278765
 30
0.0
 10
33.0632188633
 20
10.7565259663
 30
0.0
 10
33.0715477934
 20
10.7944095199
 30
0.0
 10
33.0868491275
 20
10.8431820728
 30
0.0
 10
33.111674438
 20
10.9293428622
 30
0.0
 10
33.1627198557
 20
11.1010875505
 30
0.0
 10
33.2348409048
 20
11.3467600414
 30
0.0
 10
33.3075091031
 20
11.592239627
 30
0.0
 10
33.3577885119
 20
11.7642543827
 30
0.0
 10
33.3836670846
 20
11.8500438295
 30
0.0
 10
33.3972722562
 20
11.8994143887
 30
0.0
 10
33.4108127824
 20
11.9354605198
 30
0.0
 10
33.4115980107
 20
11.9752597948
 30
0.0
 10
33.4170941725
 20
12.0270163561
 30
0.0
 10
33.4246394949
 20
12.1182002906
 30
0.0
 10
33.4365022972
 20
12.2481441634
 30
0.0
 10
33.4502737583
 20
12.4042133101
 30
0.0
 10
33.4687978054
 20
12.6122578094
 30
0.0
 10
33.4918968762
 20
12.8723299075
 30
0.0
 10
33.5103931959
 20
13.0803825653
 30
0.0
 10
33.5196392228
 20
13.1844095219
 30
0.0
  0
SPLINE
  5
26D
100
AcDbEntity
  8
_21_KURVEN
100
AcDbSpline
 62
7
  6
CONTINUOUS
 70
0
 71
3
 72
21
 73
17
 74
0
 42
0.0000001
 43
0.0000001
 44
0.0000000001
 40
0.0
 40
0.0
 40
0.0
 40
0.0
 40
0.125
 40
0.1875
 40
0.25
 40
0.3125
 40
0.375
 40
0.4375
 40
0.5
 40
0.5625
 40
0.625
 40
0.6875
 40
0.75
 40
0.8125
 40
0.875
 40
1.0
 40
1.0
 40
1.0
 40
1.0
 10
30.138388365
 20
13.1511411133
 30
0.0
 10
30.1037031242
 20
13.1455694535
 30
0.0
 10
30.0512270813
 20
13.1372805409
 30
0.0
 10
29.9830517506
 20
13.1259543492
 30
0.0
 10
29.9376456436
 20
13.1167020854
 30
0.0
 10
29.8888560243
 20
13.1077306749
 30
0.0
 10
29.8478750633
 20
13.0983934711
 30
0.0
 10
29.8098682109
 20
13.0889538379
 30
0.0
 10
29.7675688807
 20
13.0796473407
 30
0.0
 10
29.7394653531
 20
13.0699107287
 30
0.0
 10
29.7070458025
 20
13.0602985741
 30
0.0
 10
29.6776945413
 20
13.0506187049
 30
0.0
 10
29.656957825
 20
13.040756381
 30
0.0
 10
29.6318379995
 20
13.0310338795
 30
0.0
 10
29.6102354215
 20
13.0175680977
 30
0.0
 10
29.5962756005
 20
13.0073664534
 30
0.0
 10
29.5864708059
 20
13.0005880924
 30
0.0
  0
ELLIPSE
  5
26E
100
AcDbEntity
  8
_30_VOLUMEN
100
AcDbEllipse
 62
4
  6
CONTINUOUS
 10
17.594305973
 20
18.698359683
 30
0.0
 11
0.6842907508
 21
-0.4577963277
 31
0.0
 40
0.9616747458
 41
2.1786104954
 42
4.1627752429
  0
ELLIPSE
  5
26F
100
AcDbEntity
  8
_30_VOLUMEN
100
AcDbEllipse
 62
4
  6
CONTINUOUS
 10
36.694051361
 20
18.698359683
 30
0.0
 11
0.7523750433
 21
0.315065419
 31
0.0
 40
0.9797377506
 41
-0.9019796373
 42
1.1668763109
  0
ELLIPSE
  5
270
100
AcDbEntity
  8
_30_VOLUMEN
100
AcDbEllipse
 62
4
  6
CONTINUOUS
 10
27.3249182458
 20
2.1565075433
 30
0.0
 11
-0.1495995424
 21
0.8063752274
 31
0.0
 40
0.9691241017
 41
2.0500381107
 42
3.9981283194
  0
ELLIPSE
  5
271
100
AcDbEntity
  8
_21_KURVEN
100
AcDbEllipse
 62
5
  6
CONTINUOUS
 10
36.694051361
 20
18.698359683
 30
0.0
 11
0.7523750433
 21
0.315065419
 31
0.0
 40
0.9797377506
 41
5.3812056699
 42
7.4500616181
  0
ELLIPSE
  5
272
100
AcDbEntity
  8
_21_KURVEN
100
AcDbEllipse
 62
5
  6
CONTINUOUS
 10
27.3249182458
 20
2.1565075433
 30
0.0
 11
-0.1495995424
 21
0.8063752274
 31
0.0
 40
0.9691241017
 41
1.9292723712
 42
3.9981283194
  0
ELLIPSE
  5
273
100
AcDbEntity
  8
_21_KURVEN
100
AcDbEllipse
 62
5
  6
CONTINUOUS
 10
17.594305973
 20
18.698359683
 30
0.0
 11
0.6842907508
 21
-0.4577963277
 31
0.0
 40
0.9616747458
 41
2.1786104954
 42
4.2474664435
  0
ENDSEC
  0
SECTION
  2
OBJECTS
  0
DICTIONARY
  5
C
100
AcDbDictionary
280
0
281
1
  3
ACAD_GROUP
350
D
  3
ACAD_MLINESTYLE
350
17
  3
ACAD_LAYOUT
350
1A
  3
ACAD_PLOTSETTINGS
350
19
  3
ACAD_PLOTSTYLENAME
350
E
  0
DICTIONARY
  5
D
102
{ACAD_REACTORS
330
C
102
}
100
AcDbDictionary
280
0
281
1
  0
ACDBDICTIONARYWDFLT
  5
E
102
{ACAD_REACTORS
330
C
102
}
100
AcDbDictionary
281
1
  3
Normal
350
F
100
AcDbDictionaryWithDefault
340
F
  0
DICTIONARY
  5
17
102
{ACAD_REACTORS
330
C
102
}
100
AcDbDictionary
280
0
281
1
  3
Standard
350
18
  0
DICTIONARY
  5
19
102
{ACAD_REACTORS
330
C
102
}
100
AcDbDictionary
281
1
  0
DICTIONARY
  5
1A
102
{ACAD_REACTORS
330
C
102
}
100
AcDbDictionary
281
1
  3
Model
350
274
  3
Layout1
350
275
  0
ACDBPLACEHOLDER
  5
F
102
{ACAD_REACTORS
330
E
102
}
  0
MLINESTYLE
  5
18
102
{ACAD_REACTORS
330
17
102
}
100
AcDbMlineStyle
  2
STANDARD
 70
0
  3

 62
256
 51
90.0
 52
90.0
 71
2
 49
0.5
 62
256
  6
BYLAYER
 49
-0.5
 62
256
  6
BYLAYER
  0
LAYOUT
  5
274
102
{ACAD_REACTORS
330
1A
102
}
100
AcDbPlotSettings
  1

  2
none_device
  4
ISO_A3_(420.00_x_297.00_MM)
  6

 40
0.0
 41
0.0
 42
0.0
 43
0.0
 44
420.0
 45
297.0
 46
0.0
 47
0.0
 48
0.0
 49
0.0
140
0.0
141
0.0
142
1.0
143
1.0
 70
1024
 72
1
 73
0
 74
0
  7

 75
0
147
1.0
148
0.0
149
0.0
100
AcDbLayout
  1
Model
 70
0
 71
0
 10
0.0
 20
0.0
 11
420.0
 21
297.0
 12
0.0
 22
0.0
 32
0.0
 14
0.0
 24
0.0
 34
0.0
 15
0.0
 25
0.0
 35
0.0
146
0.0
 13
0.0
 23
0.0
 33
0.0
 16
1.0
 26
0.0
 36
0.0
 17
0.0
 27
1.0
 37
0.0
 76
0
330
20E
345
0
346
0
  0
LAYOUT
  5
275
102
{ACAD_REACTORS
330
1A
102
}
100
AcDbPlotSettings
  1

  2
none_device
  4
ISO_A3_(420.00_x_297.00_MM)
  6

 40
0.0
 41
0.0
 42
0.0
 43
0.0
 44
420.0
 45
297.0
 46
0.0
 47
0.0
 48
0.0
 49
0.0
140
0.0
141
0.0
142
1.0
143
1.0
 70
0
 72
1
 73
0
 74
0
  7

 75
0
147
1.0
148
0.0
149
0.0
100
AcDbLayout
  1
Layout1
 70
0
 71
1
 10
0.0
 20
0.0
 11
420.0
 21
297.0
 12
0.0
 22
0.0
 32
0.0
 14
0.0
 24
0.0
 34
0.0
 15
0.0
 25
0.0
 35
0.0
146
0.0
 13
0.0
 23
0.0
 33
0.0
 16
1.0
 26
0.0
 36
0.0
 17
0.0
 27
1.0
 37
0.0
 76
0
330
20F
345
0
346
0
  0
ENDSEC
  0
EOF
