999
DXF file: 70532132_MCS.dxf
999
Pro/ENGINEER 2016380 by Parametric Technology Corporation
  0
SECTION
  2
HEADER
  9
$ACADVER
  1
AC1027
  9
$DWGCODEPAGE
  3
ANSI_1252
  9
$EXTMAX
 10
420.0
 20
297.0
 30
0.0
  9
$EXTMIN
 10
0.0
 20
0.0
 30
0.0
  9
$LIMMIN
 10
0.0
 20
0.0
  9
$LIMMAX
 10
420.0
 20
297.0
  9
$VIEWCTR
 10
210.0
 20
148.5
  9
$VIEWSIZE
 40
297.0
  9
$CLAYER
  8
0
  9
$LTSCALE
 40
23.1
  9
$CELTYPE
  6
BYLAYER
  9
$DIMSCALE
 40
1.0
  9
$DIMASZ
 40
3.5
  9
$DIMEXO
 40
0.0
  9
$DIMDLI
 40
15.96
  9
$DIMEXE
 40
1.5
  9
$DIMCEN
 40
3.78
  9
$DIMLFAC
 40
1.0
  9
$DIMBLK
  1
_FILLED
  9
$DIMALT
 70
0
  9
$DIMALTF
 40
25.4
  9
$DIMTXT
 40
3.5
  9
$DIMTOL
 70
1
  9
$DIMLIM
 70
0
  9
$DIMTFAC
 40
1.0
  9
$DIMTP
 40
0.05
  9
$DIMTM
 40
0.05
  9
$DIMGAP
 40
0.625
  9
$DIMDSEP
 70
46
  9
$AUNITS
 70
0
  9
$PDMODE
 70
3
  9
$PDSIZE
 40
0.3125
  9
$HANDSEED
  5
26D
  9
$TILEMODE
 70
1
  9
$MEASUREMENT
 70
1
  9
$INSUNITS
 70
4
  0
ENDSEC
  0
SECTION
  2
CLASSES
  0
CLASS
  1
ACDBDICTIONARYWDFLT
  2
AcDbDictionaryWithDefault
  3
AutoCAD 2000
 90
0
 91
1
280
0
281
0
  0
CLASS
  1
ACDBPLACEHOLDER
  2
AcDbPlaceHolder
  3
AutoCAD 2000
 90
0
 91
1
280
0
281
0
  0
CLASS
  1
LAYOUT
  2
AcDbLayout
  3
AutoCAD 2000
 90
0
 91
0
280
0
281
0
  0
ENDSEC
  0
SECTION
  2
TABLES
  0
TABLE
  2
VPORT
  5
8
100
AcDbSymbolTable
 70
2
  0
VPORT
  5
1F4
100
AcDbSymbolTableRecord
100
AcDbViewportTableRecord
  2
*ACTIVE
 70
0
 10
0.0
 20
0.0
 11
1.0
 21
1.0
 12
210.0
 22
148.5
 13
0.0
 23
0.0
 14
1.0
 24
1.0
 15
0.0
 25
0.0
 16
0.0
 26
0.0
 36
1.0
 17
0.0
 27
0.0
 37
0.0
 40
297.0
 41
1.4141414141
 42
50.0
 43
0.0
 44
0.0
 50
0.0
 51
0.0
 71
0
 72
100
 73
1
 74
1
 75
0
 76
0
 77
0
 78
0
  0
ENDTAB
  0
TABLE
  2
LTYPE
  5
5
100
AcDbSymbolTable
 70
6
  0
LTYPE
  5
14
100
AcDbSymbolTableRecord
100
AcDbLinetypeTableRecord
  2
BYBLOCK
 70
0
  3

 72
65
 73
0
 40
0.0
  0
LTYPE
  5
15
100
AcDbSymbolTableRecord
100
AcDbLinetypeTableRecord
  2
BYLAYER
 70
0
  3

 72
65
 73
0
 40
0.0
  0
LTYPE
  5
16
100
AcDbSymbolTableRecord
100
AcDbLinetypeTableRecord
  2
CONTINUOUS
 70
64
  3
Solid line
 72
65
 73
0
 40
0.0
  0
LTYPE
  5
1F5
100
AcDbSymbolTableRecord
100
AcDbLinetypeTableRecord
  2
CENTER
 70
64
  3
____ _ ____ _ ____ _ ____ _ ____ _ ____ _ ____
 72
65
 73
4
 40
0.6
 49
0.375
 74
0
 49
-0.075
 74
0
 49
0.075
 74
0
 49
-0.075
 74
0
  0
LTYPE
  5
1F6
100
AcDbSymbolTableRecord
100
AcDbLinetypeTableRecord
  2
HIDDEN
 70
64
  3
- - - - - - - - - - - - - - - - - - - -
 72
65
 73
2
 40
0.2
 49
0.1
 74
0
 49
-0.1
 74
0
  0
LTYPE
  5
1F7
100
AcDbSymbolTableRecord
100
AcDbLinetypeTableRecord
  2
PHANTOM
 70
64
  3
_____ _ _ _____ _ _ _____ _ _ _____
 72
65
 73
6
 40
0.8
 49
0.45
 74
0
 49
-0.05
 74
0
 49
0.1
 74
0
 49
-0.05
 74
0
 49
0.1
 74
0
 49
-0.05
 74
0
  0
LTYPE
  5
1F8
100
AcDbSymbolTableRecord
100
AcDbLinetypeTableRecord
  2
DOT
 70
64
  3
. . . . . . . . . . . . . . . . . . . .
 72
65
 73
2
 40
0.2
 49
0.1
 74
0
 49
-0.1
 74
0
  0
LTYPE
  5
1F9
100
AcDbSymbolTableRecord
100
AcDbLinetypeTableRecord
  2
DASHED
 70
64
  3
- - - - - - - - - - - - - - - - - - - -
 72
65
 73
2
 40
0.2
 49
0.1
 74
0
 49
-0.1
 74
0
  0
ENDTAB
  0
TABLE
  2
LAYER
  5
2
100
AcDbSymbolTable
 70
36
  0
LAYER
  5
10
100
AcDbSymbolTableRecord
100
AcDbLayerTableRecord
  2
0
 70
0
 62
7
  6
CONTINUOUS
370
-3
390
F
  0
LAYER
  5
1FA
100
AcDbSymbolTableRecord
100
AcDbLayerTableRecord
  2
DEFAULT_1
 70
0
 62
7
  6
CENTER
370
-3
390
F
  0
LAYER
  5
1FB
100
AcDbSymbolTableRecord
100
AcDbLayerTableRecord
  2
DEFAULT_2
 70
0
 62
1
  6
HIDDEN
370
-3
390
F
  0
LAYER
  5
1FC
100
AcDbSymbolTableRecord
100
AcDbLayerTableRecord
  2
DEFAULT_3
 70
0
 62
7
  6
PHANTOM
370
-3
390
F
  0
LAYER
  5
1FD
100
AcDbSymbolTableRecord
100
AcDbLayerTableRecord
  2
BG_STARTBEZUEGE
 70
0
 62
7
  6
CONTINUOUS
370
-3
390
F
  0
LAYER
  5
1FE
100
AcDbSymbolTableRecord
100
AcDbLayerTableRecord
  2
HILFEN
 70
0
 62
7
  6
CONTINUOUS
370
-3
390
F
  0
LAYER
  5
1FF
100
AcDbSymbolTableRecord
100
AcDbLayerTableRecord
  2
PLATZIERUNG
 70
0
 62
7
  6
CONTINUOUS
370
-3
390
F
  0
LAYER
  5
200
100
AcDbSymbolTableRecord
100
AcDbLayerTableRecord
  2
T_STARTBEZUEGE
 70
0
 62
7
  6
CONTINUOUS
370
-3
390
F
  0
LAYER
  5
201
100
AcDbSymbolTableRecord
100
AcDbLayerTableRecord
  2
_03_2D_ZEICHNUNG_BEMASSUNGEN
 70
0
 62
7
  6
CONTINUOUS
370
-3
390
F
  0
LAYER
  5
202
100
AcDbSymbolTableRecord
100
AcDbLayerTableRecord
  2
_04_NOTIZEN
 70
0
 62
7
  6
CONTINUOUS
370
-3
390
F
  0
LAYER
  5
203
100
AcDbSymbolTableRecord
100
AcDbLayerTableRecord
  2
_05_2D_ELEMENTE
 70
0
 62
7
  6
CONTINUOUS
370
-3
390
F
  0
LAYER
  5
204
100
AcDbSymbolTableRecord
100
AcDbLayerTableRecord
  2
_07_EINRASTLINIEN
 70
0
 62
7
  6
CONTINUOUS
370
-3
390
F
  0
LAYER
  5
205
100
AcDbSymbolTableRecord
100
AcDbLayerTableRecord
  2
_21_KURVEN
 70
0
 62
7
  6
CONTINUOUS
370
-3
390
F
  0
LAYER
  5
206
100
AcDbSymbolTableRecord
100
AcDbLayerTableRecord
  2
_24_IMPORT
 70
0
 62
7
  6
CONTINUOUS
370
-3
390
F
  0
LAYER
  5
207
100
AcDbSymbolTableRecord
100
AcDbLayerTableRecord
  2
_26_BEZUGSACHSEN
 70
0
 62
7
  6
CONTINUOUS
370
-3
390
F
  0
LAYER
  5
208
100
AcDbSymbolTableRecord
100
AcDbLayerTableRecord
  2
_27_BEZUGSEBENEN
 70
0
 62
7
  6
CONTINUOUS
370
-3
390
F
  0
LAYER
  5
209
100
AcDbSymbolTableRecord
100
AcDbLayerTableRecord
  2
_28_BEZUGSPUNKTE
 70
0
 62
7
  6
CONTINUOUS
370
-3
390
F
  0
LAYER
  5
20A
100
AcDbSymbolTableRecord
100
AcDbLayerTableRecord
  2
_29_KOORDINATENSYSTEME
 70
0
 62
7
  6
CONTINUOUS
370
-3
390
F
  0
LAYER
  5
20B
100
AcDbSymbolTableRecord
100
AcDbLayerTableRecord
  2
_30_VOLUMEN
 70
0
 62
7
  6
CONTINUOUS
370
-3
390
F
  0
ENDTAB
  0
TABLE
  2
STYLE
  5
3
100
AcDbSymbolTable
 70
1
  0
STYLE
  5
11
100
AcDbSymbolTableRecord
100
AcDbTextStyleTableRecord
  2
STANDARD
 70
0
 40
0.0
 41
0.7
 50
0.0
 71
0
 42
0.2
  3
SIMPLEX.SHX
  4

  0
STYLE
  5
20C
100
AcDbSymbolTableRecord
100
AcDbTextStyleTableRecord
  2
TEXTSTYLE_1
 70
0
 40
0.0
 41
0.8
 50
0.0
 71
0
 42
0.2
  3
gdt
  4

  0
ENDTAB
  0
TABLE
  2
VIEW
  5
6
100
AcDbSymbolTable
 70
0
  0
ENDTAB
  0
TABLE
  2
UCS
  5
7
100
AcDbSymbolTable
 70
0
  0
ENDTAB
  0
TABLE
  2
APPID
  5
9
100
AcDbSymbolTable
 70
1
  0
APPID
  5
20D
100
AcDbSymbolTableRecord
100
AcDbRegAppTableRecord
  2
ACAD
 70
0
  0
ENDTAB
  0
TABLE
  2
BLOCK_RECORD
  5
1
100
AcDbSymbolTable
 70
0
  0
BLOCK_RECORD
  5
20E
100
AcDbSymbolTableRecord
100
AcDbBlockTableRecord
  2
*Model_Space
  0
BLOCK_RECORD
  5
20F
100
AcDbSymbolTableRecord
100
AcDbBlockTableRecord
  2
*Paper_Space
  0
BLOCK_RECORD
  5
210
100
AcDbSymbolTableRecord
100
AcDbBlockTableRecord
  2
_FILLED
  0
BLOCK_RECORD
  5
211
100
AcDbSymbolTableRecord
100
AcDbBlockTableRecord
  2
*D0
  0
BLOCK_RECORD
  5
212
100
AcDbSymbolTableRecord
100
AcDbBlockTableRecord
  2
*D1
  0
BLOCK_RECORD
  5
213
100
AcDbSymbolTableRecord
100
AcDbBlockTableRecord
  2
*D2
  0
ENDTAB
  0
TABLE
  2
DIMSTYLE
  5
A
100
AcDbSymbolTable
 70
1
100
AcDbDimStyleTable
 71
0
  0
DIMSTYLE
105
214
100
AcDbSymbolTableRecord
100
AcDbDimStyleTableRecord
  2
STANDARD
 70
0
  3

  4

 40
1.0
 41
3.5
 42
0.0
 43
0.38
 44
1.5
 45
0.0
 46
0.0
 47
0.05
 48
0.05
140
3.5
141
0.09
142
0.0
143
25.4
144
1.0
145
0.0
146
1.0
147
0.625
 71
1.0
 72
0.0
 73
0
 74
0
 75
0
 76
0
 77
1
 78
8
170
0
171
1
172
0
173
0
174
0
175
0
176
0
177
0
178
2
270
2
271
2
272
2
273
2
274
2
275
0
280
0
281
0
282
0
283
1
284
8
285
0
286
0
287
3
288
0
340
11
278
46
341
210
342
210
343
210
344
210
  0
DIMSTYLE
105
215
100
AcDbSymbolTableRecord
100
AcDbDimStyleTableRecord
  2
DIMSTYLE_1
 70
0
  3

  4

 40
1.0
 41
3.5
 42
0.0
 43
0.38
 44
1.5
 45
0.0
 46
0.0
 47
0.3
 48
0.3
140
3.5
141
0.09
142
0.0
143
25.4
144
1.0
145
0.0
146
1.0
147
0.875
 71
0.0
 72
0.0
 73
0
 74
0
 75
0
 76
0
 77
1
 78
8
170
0
171
1
172
0
173
0
174
0
175
0
176
0
177
0
178
2
270
2
271
2
272
2
273
2
274
2
275
0
280
0
281
0
282
0
283
1
284
8
285
0
286
0
287
3
288
0
340
11
278
46
341
210
342
210
343
210
344
210
  0
DIMSTYLE
105
216
100
AcDbSymbolTableRecord
100
AcDbDimStyleTableRecord
  2
DIMSTYLE_2
 70
0
  3

  4

 40
1.0
 41
3.5
 42
0.0
 43
0.38
 44
1.5
 45
0.0
 46
0.0
 47
0.5
 48
0.5
140
3.5
141
0.09
142
0.0
143
25.4
144
1.0
145
0.0
146
1.0
147
0.875
 71
0.0
 72
0.0
 73
0
 74
0
 75
0
 76
0
 77
1
 78
8
170
0
171
1
172
0
173
0
174
0
175
0
176
0
177
0
178
2
270
2
271
2
272
2
273
2
274
2
275
0
280
0
281
0
282
0
283
1
284
8
285
0
286
0
287
3
288
0
340
11
278
46
341
210
342
210
343
210
344
210
  0
ENDTAB
  0
ENDSEC
  0
SECTION
  2
BLOCKS
  0
BLOCK
  5
20
100
AcDbEntity
  8
0
100
AcDbBlockBegin
  2
*Model_Space
 70
0
 10
0.0
 20
0.0
 30
0.0
  3
*Model_Space
  1

  0
ENDBLK
  5
21
100
AcDbEntity
  8
0
100
AcDbBlockEnd
  0
BLOCK
  5
1C
100
AcDbEntity
  8
0
100
AcDbBlockBegin
  2
*Paper_Space
 70
0
 10
0.0
 20
0.0
 30
0.0
  3
*Paper_Space
  1

  0
ENDBLK
  5
1D
100
AcDbEntity
  8
0
100
AcDbBlockEnd
  0
BLOCK
  5
217
100
AcDbEntity
  8
0
100
AcDbBlockBegin
  2
_FILLED
 70
64
 10
0.0
 20
0.0
  3
_FILLED
  1

  0
SOLID
  5
218
100
AcDbEntity
  8
0
  6
BYBLOCK
 62
0
100
AcDbTrace
 10
0.0
 20
0.0
 11
-1.0
 21
0.125
 12
-1.0
 22
-0.125
 13
-1.0
 23
-0.125
  0
ENDBLK
  5
219
100
AcDbEntity
  8
0
  6
BYBLOCK
 62
0
100
AcDbBlockEnd
  0
BLOCK
  5
21A
100
AcDbEntity
  8
_03_2D_ZEICHNUNG_BEMASSUNGEN
100
AcDbBlockBegin
 62
7
  6
CONTINUOUS
  2
*D0
 70
65
 10
0.0
 20
0.0
  3
*D0
  1

  0
TEXT
  5
21B
100
AcDbEntity
  8
_03_2D_ZEICHNUNG_BEMASSUNGEN
100
AcDbText
 62
2
  6
CONTINUOUS
 10
-137.375
 20
-2.625
  7
STANDARD
 40
3.5
  1
32
 50
90.0
 41
0.75
 72
1
 11
-137.375
 21
-0.0
100
AcDbText
  0
LINE
  5
21C
100
AcDbEntity
  8
_03_2D_ZEICHNUNG_BEMASSUNGEN
100
AcDbLine
 62
7
  6
CONTINUOUS
 10
-127.5
 20
16.0
 11
-138.0
 21
16.0
  0
LINE
  5
21D
100
AcDbEntity
  8
_03_2D_ZEICHNUNG_BEMASSUNGEN
100
AcDbLine
 62
7
  6
CONTINUOUS
 10
-127.5
 20
-16.0
 11
-138.0
 21
-16.0
  0
LINE
  5
21E
100
AcDbEntity
  8
_03_2D_ZEICHNUNG_BEMASSUNGEN
100
AcDbLine
 62
7
  6
CONTINUOUS
 10
-136.5
 20
16.0
 11
-136.5
 21
22.0
  0
LINE
  5
21F
100
AcDbEntity
  8
_03_2D_ZEICHNUNG_BEMASSUNGEN
100
AcDbLine
 62
7
  6
CONTINUOUS
 10
-136.5
 20
22.0
 11
-136.5
 21
-0.0
  0
LINE
  5
220
100
AcDbEntity
  8
_03_2D_ZEICHNUNG_BEMASSUNGEN
100
AcDbLine
 62
7
  6
CONTINUOUS
 10
-136.5
 20
-16.0
 11
-136.5
 21
-22.0
  0
LINE
  5
221
100
AcDbEntity
  8
_03_2D_ZEICHNUNG_BEMASSUNGEN
100
AcDbLine
 62
7
  6
CONTINUOUS
 10
-136.5
 20
-22.0
 11
-136.5
 21
-0.0
  0
INSERT
  5
222
100
AcDbEntity
  8
_03_2D_ZEICHNUNG_BEMASSUNGEN
100
AcDbBlockReference
 62
7
  6
CONTINUOUS
  2
_FILLED
 10
-136.5
 20
16.0
 41
3.5
 42
3.5
 43
3.5
 50
270.0
  0
INSERT
  5
223
100
AcDbEntity
  8
_03_2D_ZEICHNUNG_BEMASSUNGEN
100
AcDbBlockReference
 62
7
  6
CONTINUOUS
  2
_FILLED
 10
-136.5
 20
-16.0
 41
3.5
 42
3.5
 43
3.5
 50
90.0
  0
ENDBLK
  5
224
100
AcDbEntity
  8
0
  6
BYBLOCK
 62
0
100
AcDbBlockEnd
  0
BLOCK
  5
225
100
AcDbEntity
  8
_03_2D_ZEICHNUNG_BEMASSUNGEN
100
AcDbBlockBegin
 62
7
  6
CONTINUOUS
  2
*D1
 70
65
 10
0.0
 20
0.0
  3
*D1
  1

  0
TEXT
  5
226
100
AcDbEntity
  8
_03_2D_ZEICHNUNG_BEMASSUNGEN
100
AcDbText
 62
2
  6
CONTINUOUS
 10
-46.25
 20
33.875
  7
STANDARD
 40
3.5
  1
170
 41
0.7142857143
 72
1
 11
-42.5
 21
33.875
100
AcDbText
  0
LINE
  5
227
100
AcDbEntity
  8
_03_2D_ZEICHNUNG_BEMASSUNGEN
100
AcDbLine
 62
7
  6
CONTINUOUS
 10
42.5
 20
-16.0
 11
42.5
 21
34.5
  0
LINE
  5
228
100
AcDbEntity
  8
_03_2D_ZEICHNUNG_BEMASSUNGEN
100
AcDbLine
 62
7
  6
CONTINUOUS
 10
-127.5
 20
-16.0
 11
-127.5
 21
34.5
  0
LINE
  5
229
100
AcDbEntity
  8
_03_2D_ZEICHNUNG_BEMASSUNGEN
100
AcDbLine
 62
7
  6
CONTINUOUS
 10
42.5
 20
33.0
 11
-42.5
 21
33.0
  0
LINE
  5
22A
100
AcDbEntity
  8
_03_2D_ZEICHNUNG_BEMASSUNGEN
100
AcDbLine
 62
7
  6
CONTINUOUS
 10
-127.5
 20
33.0
 11
-42.5
 21
33.0
  0
INSERT
  5
22B
100
AcDbEntity
  8
_03_2D_ZEICHNUNG_BEMASSUNGEN
100
AcDbBlockReference
 62
7
  6
CONTINUOUS
  2
_FILLED
 10
42.5
 20
33.0
 41
3.5
 42
3.5
 43
3.5
 50
360.0
  0
INSERT
  5
22C
100
AcDbEntity
  8
_03_2D_ZEICHNUNG_BEMASSUNGEN
100
AcDbBlockReference
 62
7
  6
CONTINUOUS
  2
_FILLED
 10
-127.5
 20
33.0
 41
3.5
 42
3.5
 43
3.5
 50
180.0
  0
ENDBLK
  5
22D
100
AcDbEntity
  8
0
  6
BYBLOCK
 62
0
100
AcDbBlockEnd
  0
BLOCK
  5
22E
100
AcDbEntity
  8
_03_2D_ZEICHNUNG_BEMASSUNGEN
100
AcDbBlockBegin
 62
7
  6
CONTINUOUS
  2
*D2
 70
65
 10
0.0
 20
0.0
  3
*D2
  1

  0
TEXT
  5
22F
100
AcDbEntity
  8
_03_2D_ZEICHNUNG_BEMASSUNGEN
100
AcDbText
 62
2
  6
CONTINUOUS
 10
51.1986913552
 20
1.25
  7
STANDARD
 40
3.5
  1
40
 50
90.0
 41
0.7857142857
 72
1
 11
51.1986913552
 21
4.0
100
AcDbText
  0
LINE
  5
230
100
AcDbEntity
  8
_03_2D_ZEICHNUNG_BEMASSUNGEN
100
AcDbLine
 62
7
  6
CONTINUOUS
 10
42.5
 20
24.0
 11
53.5736913552
 21
24.0
  0
LINE
  5
231
100
AcDbEntity
  8
_03_2D_ZEICHNUNG_BEMASSUNGEN
100
AcDbLine
 62
7
  6
CONTINUOUS
 10
-127.5
 20
-16.0
 11
53.5736913552
 21
-16.0
  0
LINE
  5
232
100
AcDbEntity
  8
_03_2D_ZEICHNUNG_BEMASSUNGEN
100
AcDbLine
 62
7
  6
CONTINUOUS
 10
52.0736913552
 20
24.0
 11
52.0736913552
 21
4.0
  0
LINE
  5
233
100
AcDbEntity
  8
_03_2D_ZEICHNUNG_BEMASSUNGEN
100
AcDbLine
 62
7
  6
CONTINUOUS
 10
52.0736913552
 20
-16.0
 11
52.0736913552
 21
4.0
  0
INSERT
  5
234
100
AcDbEntity
  8
_03_2D_ZEICHNUNG_BEMASSUNGEN
100
AcDbBlockReference
 62
7
  6
CONTINUOUS
  2
_FILLED
 10
52.0736913552
 20
24.0
 41
3.5
 42
3.5
 43
3.5
 50
90.0
  0
INSERT
  5
235
100
AcDbEntity
  8
_03_2D_ZEICHNUNG_BEMASSUNGEN
100
AcDbBlockReference
 62
7
  6
CONTINUOUS
  2
_FILLED
 10
52.0736913552
 20
-16.0
 41
3.5
 42
3.5
 43
3.5
 50
270.0
  0
ENDBLK
  5
236
100
AcDbEntity
  8
0
  6
BYBLOCK
 62
0
100
AcDbBlockEnd
  0
ENDSEC
  0
SECTION
  2
ENTITIES
  0
DIMENSION
  5
237
100
AcDbEntity
  8
_03_2D_ZEICHNUNG_BEMASSUNGEN
100
AcDbDimension
 62
7
  6
CONTINUOUS
  2
*D0
 10
-136.5
 20
-16.0
 11
-136.5
 21
-0.5000039673
 70
160
 71
2
 42
32.0
  3
DIMSTYLE_1
100
AcDbAlignedDimension
 13
-127.5
 23
16.0
 14
-127.5
 24
-16.0
 50
270.0
100
AcDbRotatedDimension
  0
DIMENSION
  5
238
100
AcDbEntity
  8
_03_2D_ZEICHNUNG_BEMASSUNGEN
100
AcDbDimension
 62
7
  6
CONTINUOUS
  2
*D1
 10
-127.5
 20
33.0
 11
-43.0000009918
 21
33.0
 70
160
 71
2
 42
170.0
  3
DIMSTYLE_2
100
AcDbAlignedDimension
 13
42.5
 23
-16.0
 14
-127.5
 24
-16.0
 50
180.0
100
AcDbRotatedDimension
  0
DIMENSION
  5
239
100
AcDbEntity
  8
_03_2D_ZEICHNUNG_BEMASSUNGEN
100
AcDbDimension
 62
7
  6
CONTINUOUS
  2
*D2
 10
52.0736913552
 20
-16.0
 11
52.0736913552
 21
3.5000016533
 70
160
 71
2
 42
40.0
  3
DIMSTYLE_1
100
AcDbAlignedDimension
 13
42.5
 23
24.0
 14
-127.5
 24
-16.0
 50
270.0
100
AcDbRotatedDimension
  0
LINE
  5
23A
100
AcDbEntity
  8
_30_VOLUMEN
100
AcDbLine
 62
4
  6
CONTINUOUS
 10
-127.5
 20
-15.5
 11
-127.5
 21
15.5
  0
LINE
  5
23B
100
AcDbEntity
  8
_30_VOLUMEN
100
AcDbLine
 62
4
  6
CONTINUOUS
 10
-127.0
 20
-16.0
 11
-127.0
 21
16.0
  0
LINE
  5
23C
100
AcDbEntity
  8
_30_VOLUMEN
100
AcDbLine
 62
4
  6
CONTINUOUS
 10
-127.0
 20
-16.0
 11
-127.5
 21
-15.5
  0
LINE
  5
23D
100
AcDbEntity
  8
_30_VOLUMEN
100
AcDbLine
 62
4
  6
CONTINUOUS
 10
-127.0
 20
16.0
 11
-127.5
 21
15.5
  0
LINE
  5
23E
100
AcDbEntity
  8
_30_VOLUMEN
100
AcDbLine
 62
4
  6
CONTINUOUS
 10
-127.0
 20
-16.0
 11
10.7052173617
 21
-16.0
  0
LINE
  5
23F
100
AcDbEntity
  8
_30_VOLUMEN
100
AcDbLine
 62
4
  6
CONTINUOUS
 10
-127.0
 20
16.0
 11
13.5
 21
16.0
  0
LINE
  5
240
100
AcDbEntity
  8
_26_BEZUGSACHSEN
100
AcDbLine
 62
4
  6
CONTINUOUS
 10
15.1880799123
 20
22.3
 11
22.1971596234
 21
22.3
  0
LINE
  5
241
100
AcDbEntity
  8
_30_VOLUMEN
100
AcDbLine
 62
4
  6
CONTINUOUS
 10
22.5649264007
 20
24.0
 11
41.705913169
 21
24.0
  0
LINE
  5
242
100
AcDbEntity
  8
_21_KURVEN
100
AcDbLine
 62
5
  6
CONTINUOUS
 10
22.5649264007
 20
24.0
 11
41.705913169
 21
24.0
  0
LINE
  5
243
100
AcDbEntity
  8
0
100
AcDbLine
 62
4
  6
CONTINUOUS
 10
10.7052173617
 20
-16.0
 11
38.4180302828
 21
0.0
  0
LINE
  5
244
100
AcDbEntity
  8
0
100
AcDbLine
 62
4
  6
CONTINUOUS
 10
29.0778915612
 20
-5.3925316052
 11
14.7057713659
 21
8.9795885901
  0
LINE
  5
245
100
AcDbEntity
  8
0
100
AcDbLine
 62
4
  6
CONTINUOUS
 10
13.5
 20
16.0
 11
15.1880799123
 21
22.3
  0
LINE
  5
246
100
AcDbEntity
  8
0
100
AcDbLine
 62
4
  6
CONTINUOUS
 10
14.4194798487
 20
19.4315455117
 11
14.7057713659
 21
8.9795885901
  0
LINE
  5
247
100
AcDbEntity
  8
0
100
AcDbLine
 62
4
  6
CONTINUOUS
 10
13.5
 20
16.0
 11
13.5
 21
-14.3864314914
  0
LINE
  5
248
100
AcDbEntity
  8
0
100
AcDbLine
 62
4
  6
CONTINUOUS
 10
14.7057713659
 20
8.9795885901
 11
14.7057713659
 21
-13.6902790687
  0
LINE
  5
249
100
AcDbEntity
  8
_26_BEZUGSACHSEN
100
AcDbLine
 62
4
  6
CONTINUOUS
 10
32.6015036752
 20
5.8894778288
 11
32.2331174087
 21
5.2390664112
  0
LINE
  5
24A
100
AcDbEntity
  8
_30_VOLUMEN
100
AcDbLine
 62
4
  6
CONTINUOUS
 10
42.4027454531
 20
22.815398632
 11
33.0133819121
 21
6.2378282772
  0
LINE
  5
24B
100
AcDbEntity
  8
_21_KURVEN
100
AcDbLine
 62
5
  6
CONTINUOUS
 10
42.4027454531
 20
22.815398632
 11
33.0133819121
 21
6.2378282772
  0
LINE
  5
24C
100
AcDbEntity
  8
_26_BEZUGSACHSEN
100
AcDbLine
 62
4
  6
CONTINUOUS
 10
39.9
 20
18.3966285367
 11
32.34243601
 21
5.0532269092
  0
LINE
  5
24D
100
AcDbEntity
  8
_30_VOLUMEN
100
AcDbLine
 62
4
  6
CONTINUOUS
 10
31.6456037259
 20
6.2378282772
 11
31.7012523932
 21
6.156634045
  0
LINE
  5
24E
100
AcDbEntity
  8
_26_BEZUGSACHSEN
100
AcDbLine
 62
4
  6
CONTINUOUS
 10
22.1971596234
 20
22.3
 11
32.34243601
 21
5.0532269092
  0
LINE
  5
24F
100
AcDbEntity
  8
_30_VOLUMEN
100
AcDbLine
 62
4
  6
CONTINUOUS
 10
31.6456037259
 20
6.2378282772
 11
21.8939804987
 21
22.815398632
  0
LINE
  5
250
100
AcDbEntity
  8
_21_KURVEN
100
AcDbLine
 62
5
  6
CONTINUOUS
 10
31.6456037259
 20
6.2378282772
 11
21.8939804987
 21
22.815398632
  0
LINE
  5
251
100
AcDbEntity
  8
_30_VOLUMEN
100
AcDbLine
 62
4
  6
CONTINUOUS
 10
21.8622444885
 20
22.8767208099
 11
21.8939804987
 21
22.815398632
  0
LINE
  5
252
100
AcDbEntity
  8
_30_VOLUMEN
100
AcDbLine
 62
4
  6
CONTINUOUS
 10
22.1390033979
 20
22.3
 11
21.8913967217
 21
22.8141543355
  0
LINE
  5
253
100
AcDbEntity
  8
_30_VOLUMEN
100
AcDbLine
 62
4
  6
CONTINUOUS
 10
21.8629175729
 20
22.8732911813
 11
21.8614451381
 21
22.8763486866
  0
LINE
  5
254
100
AcDbEntity
  8
_26_BEZUGSACHSEN
100
AcDbLine
 62
4
  6
CONTINUOUS
 10
39.9
 20
18.3966285367
 11
39.9
 21
14.1
  0
LINE
  5
255
100
AcDbEntity
  8
0
100
AcDbLine
 62
4
  6
CONTINUOUS
 10
39.9
 20
14.1
 11
38.4180302828
 21
0.0
  0
ARC
  5
256
100
AcDbEntity
  8
_30_VOLUMEN
100
AcDbCircle
 62
4
  6
CONTINUOUS
 10
31.7314395831
 20
17.1597836112
 40
2.5441668692
100
AcDbArc
 50
324.921305915
 51
0.6703588561
  0
ARC
  5
257
100
AcDbEntity
  8
_30_VOLUMEN
100
AcDbCircle
 62
4
  6
CONTINUOUS
 10
31.6790531751
 20
17.2187154267
 40
2.5376909482
100
AcDbArc
 50
125.1432502856
 51
130.2639154086
  0
ARC
  5
258
100
AcDbEntity
  8
_30_VOLUMEN
100
AcDbCircle
 62
4
  6
CONTINUOUS
 10
31.7544859683
 20
17.1460298757
 40
2.5174030499
100
AcDbArc
 50
320.9372157288
 51
324.8760313906
  0
ARC
  5
259
100
AcDbEntity
  8
_30_VOLUMEN
100
AcDbCircle
 62
4
  6
CONTINUOUS
 10
31.7641634812
 20
17.1383410915
 40
2.5050436378
100
AcDbArc
 50
320.3577694542
 51
320.9342768378
  0
SPLINE
  5
25A
100
AcDbEntity
  8
_30_VOLUMEN
100
AcDbSpline
 62
4
  6
CONTINUOUS
 70
0
 71
3
 72
9
 73
5
 74
0
 42
0.0000001
 43
0.0000001
 44
0.0000000001
 40
0.0
 40
0.0
 40
0.0
 40
0.0
 40
0.5033098443
 40
1.0
 40
1.0
 40
1.0
 40
1.0
 10
29.469909397
 20
17.5311796232
 30
0.0
 10
29.4662904785
 20
17.8623943746
 30
0.0
 10
29.5897438436
 20
18.5289813255
 30
0.0
 10
29.9651311528
 20
19.0937859202
 30
0.0
 10
30.1962688182
 20
19.3249235856
 30
0.0
  0
SPLINE
  5
25B
100
AcDbEntity
  8
_30_VOLUMEN
100
AcDbSpline
 62
4
  6
CONTINUOUS
 70
0
 71
3
 72
15
 73
11
 74
0
 42
0.0000001
 43
0.0000001
 44
0.0000000001
 40
0.0
 40
0.0
 40
0.0
 40
0.0
 40
0.1242319357
 40
0.2487439815
 40
0.3736250461
 40
0.4988459969
 40
0.6242821066
 40
0.7497027669
 40
0.875074266
 40
1.0
 40
1.0
 40
1.0
 40
1.0
 10
30.2183007192
 20
19.2938244868
 30
0.0
 10
30.4074606317
 20
19.4269696329
 30
0.0
 10
30.8255251608
 20
19.6419772549
 30
0.0
 10
31.5154529507
 20
19.7820919352
 30
0.0
 10
32.219897343
 20
19.7311876248
 30
0.0
 10
32.8863669621
 20
19.4927142934
 30
0.0
 10
33.4657142383
 20
19.0844493456
 30
0.0
 10
33.9161564162
 20
18.5367157162
 30
0.0
 10
34.2033896014
 20
17.8898397239
 30
0.0
 10
34.272890904
 20
17.4221479236
 30
0.0
 10
34.2754323197
 20
17.1895496061
 30
0.0
  0
SPLINE
  5
25C
100
AcDbEntity
  8
_30_VOLUMEN
100
AcDbSpline
 62
4
  6
CONTINUOUS
 70
0
 71
3
 72
15
 73
11
 74
0
 42
0.0000001
 43
0.0000001
 44
0.0000000001
 40
0.0
 40
0.0
 40
0.0
 40
0.0
 40
0.1214692931
 40
0.2440145459
 40
0.3680627159
 40
0.4938161222
 40
0.6207721976
 40
0.748052572
 40
0.8747598007
 40
1.0
 40
1.0
 40
1.0
 40
1.0
 10
33.8449398092
 20
15.6762525947
 30
0.0
 10
33.6730276584
 20
15.504340444
 30
0.0
 10
33.2734967326
 20
15.2089424957
 30
0.0
 10
32.569172736
 20
14.9598699627
 30
0.0
 10
31.8137222714
 20
14.9265397811
 30
0.0
 10
31.0723329368
 20
15.114519324
 30
0.0
 10
30.41073042
 20
15.5110404969
 30
0.0
 10
29.8886487579
 20
16.0815653864
 30
0.0
 10
29.5536436589
 20
16.7741584231
 30
0.0
 10
29.4726480816
 20
17.2805266296
 30
0.0
 10
29.469909397
 20
17.5311796232
 30
0.0
  0
SPLINE
  5
25D
100
AcDbEntity
  8
_30_VOLUMEN
100
AcDbSpline
 62
7
  6
CONTINUOUS
 70
0
 71
3
 72
9
 73
5
 74
0
 42
0.0000001
 43
0.0000001
 44
0.0000000001
 40
0.0
 40
0.0
 40
0.0
 40
0.0
 40
0.5007599525
 40
1.0
 40
1.0
 40
1.0
 40
1.0
 10
34.5864708037
 20
17.5005880902
 30
0.0
 10
34.5901346152
 20
17.1652645905
 30
0.0
 10
34.463519191
 20
16.4872446382
 30
0.0
 10
34.0814297922
 20
15.912570493
 30
0.0
 10
33.8449363586
 20
15.6762560478
 30
0.0
  0
SPLINE
  5
25E
100
AcDbEntity
  8
_30_VOLUMEN
100
AcDbSpline
 62
4
  6
CONTINUOUS
 70
0
 71
3
 72
15
 73
11
 74
0
 42
0.0000001
 43
0.0000001
 44
0.0000000001
 40
0.0
 40
0.0
 40
0.0
 40
0.0
 40
0.1247462506
 40
0.2491175803
 40
0.3734831702
 40
0.498215605
 40
0.6234707019
 40
0.7490980824
 40
0.8747311449
 40
1.0
 40
1.0
 40
1.0
 40
1.0
 10
35.138388365
 20
17.6511411133
 30
0.0
 10
35.1425963987
 20
17.2660086928
 30
0.0
 10
34.9974363836
 20
16.4865531912
 30
0.0
 10
34.3476010205
 20
15.498435565
 30
0.0
 10
33.3653309168
 20
14.8373358893
 30
0.0
 10
32.2018306257
 20
14.6065240984
 30
0.0
 10
31.0351616004
 20
14.8389717895
 30
0.0
 10
30.0420100762
 20
15.498691318
 30
0.0
 10
29.3719822855
 20
16.4832498339
 30
0.0
 10
29.2081519713
 20
17.2643952421
 30
0.0
 10
29.2039263087
 20
17.6511411133
 30
0.0
  0
SPLINE
  5
25F
100
AcDbEntity
  8
_30_VOLUMEN
100
AcDbSpline
 62
7
  6
CONTINUOUS
 70
0
 71
3
 72
15
 73
11
 74
0
 42
0.0000001
 43
0.0000001
 44
0.0000000001
 40
0.0
 40
0.0
 40
0.0
 40
0.0
 40
0.1249753725
 40
0.2504756797
 40
0.3759601485
 40
0.501423776
 40
0.6266011882
 40
0.7513802915
 40
0.8757976097
 40
1.0
 40
1.0
 40
1.0
 40
1.0
 10
34.5864708037
 20
17.5005880902
 30
0.0
 10
34.5837321446
 20
17.7512387519
 30
0.0
 10
34.5031163742
 20
18.2556962642
 30
0.0
 10
34.1710851282
 20
18.9441496893
 30
0.0
 10
33.6540722278
 20
19.5091687726
 30
0.0
 10
32.9979233496
 20
19.9026091346
 30
0.0
 10
32.2574957654
 20
20.0901550112
 30
0.0
 10
31.4963996217
 20
20.055825941
 30
0.0
 10
30.7803067583
 20
19.8028107643
 30
0.0
 10
30.3724900141
 20
19.5010045086
 30
0.0
 10
30.1962722688
 20
19.3249201325
 30
0.0
  0
SPLINE
  5
260
100
AcDbEntity
  8
_30_VOLUMEN
100
AcDbSpline
 62
4
  6
CONTINUOUS
 70
0
 71
3
 72
15
 73
11
 74
0
 42
0.0000001
 43
0.0000001
 44
0.0000000001
 40
0.0
 40
0.0
 40
0.0
 40
0.0
 40
0.1252688551
 40
0.2509019176
 40
0.3765292981
 40
0.501784395
 40
0.6265168298
 40
0.7508824197
 40
0.8752537494
 40
1.0
 40
1.0
 40
1.0
 40
1.0
 10
35.138388365
 20
17.6511411133
 30
0.0
 10
35.1341627024
 20
18.0378869846
 30
0.0
 10
34.9703323882
 20
18.8190323928
 30
0.0
 10
34.3003045976
 20
19.8035909087
 30
0.0
 10
33.3071530733
 20
20.4633104372
 30
0.0
 10
32.140484048
 20
20.6957581283
 30
0.0
 10
30.9769837569
 20
20.4649463374
 30
0.0
 10
29.9947136533
 20
19.8038466617
 30
0.0
 10
29.3448782901
 20
18.8157290355
 30
0.0
 10
29.199718275
 20
18.0362735339
 30
0.0
 10
29.2039263087
 20
17.6511411133
 30
0.0
  0
SPLINE
  5
261
100
AcDbEntity
  8
_30_VOLUMEN
100
AcDbSpline
 62
4
  6
CONTINUOUS
 70
0
 71
3
 72
15
 73
11
 74
0
 42
0.0000001
 43
0.0000001
 44
0.0000000001
 40
0.0
 40
0.0
 40
0.0
 40
0.0
 40
0.1247622821
 40
0.2491154819
 40
0.3734835748
 40
0.4982155044
 40
0.623470171
 40
0.7491001455
 40
0.8747150228
 40
1.0
 40
1.0
 40
1.0
 40
1.0
 10
29.1810786313
 20
17.6844089697
 30
0.0
 10
29.176790512
 20
18.0768710741
 30
0.0
 10
29.3246447026
 20
18.8710917927
 30
0.0
 10
29.9869836637
 20
19.8777214971
 30
0.0
 10
30.9876617713
 20
20.5514072293
 30
0.0
 10
32.1731722342
 20
20.7866146028
 30
0.0
 10
33.3619105773
 20
20.5497401693
 30
0.0
 10
34.373678458
 20
19.8774605841
 30
0.0
 10
35.0565868836
 20
18.8744579644
 30
0.0
 10
35.2234656707
 20
18.0785153053
 30
0.0
 10
35.2277717552
 20
17.6844089697
 30
0.0
  0
SPLINE
  5
262
100
AcDbEntity
  8
_30_VOLUMEN
100
AcDbSpline
 62
4
  6
CONTINUOUS
 70
0
 71
3
 72
15
 73
11
 74
0
 42
0.0000001
 43
0.0000001
 44
0.0000000001
 40
0.0
 40
0.0
 40
0.0
 40
0.0
 40
0.1247622821
 40
0.2491154819
 40
0.3734835748
 40
0.4982155044
 40
0.623470171
 40
0.7491001455
 40
0.8747150228
 40
1.0
 40
1.0
 40
1.0
 40
1.0
 10
35.2277717552
 20
17.6844089697
 30
0.0
 10
35.2320598745
 20
17.2919468654
 30
0.0
 10
35.0842056839
 20
16.4977261468
 30
0.0
 10
34.4218667228
 20
15.4910964423
 30
0.0
 10
33.4211886152
 20
14.8174107102
 30
0.0
 10
32.2356781523
 20
14.5822033366
 30
0.0
 10
31.0469398093
 20
14.8190777701
 30
0.0
 10
30.0351719285
 20
15.4913573554
 30
0.0
 10
29.3522635029
 20
16.4943599751
 30
0.0
 10
29.1853847158
 20
17.2903026342
 30
0.0
 10
29.1810786313
 20
17.6844089697
 30
0.0
  0
SPLINE
  5
263
100
AcDbEntity
  8
_21_KURVEN
100
AcDbSpline
 62
1
  6
CENTER
 70
0
 71
3
 72
163
 73
159
 74
0
 42
0.0000001
 43
0.0000001
 44
0.0000000001
 40
0.0
 40
0.0
 40
0.0
 40
0.0
 40
0.015625
 40
0.03125
 40
0.0390625
 40
0.046875
 40
0.0546875
 40
0.05859375
 40
0.060546875
 40
0.0625
 40
0.064453125
 40
0.06640625
 40
0.0703125
 40
0.078125
 40
0.09375
 40
0.109375
 40
0.1171875
 40
0.12109375
 40
0.123046875
 40
0.125
 40
0.126953125
 40
0.12890625
 40
0.1328125
 40
0.140625
 40
0.15625
 40
0.171875
 40
0.1796875
 40
0.18359375
 40
0.185546875
 40
0.1875
 40
0.189453125
 40
0.19140625
 40
0.1953125
 40
0.203125
 40
0.21875
 40
0.234375
 40
0.2421875
 40
0.24609375
 40
0.248046875
 40
0.25
 40
0.251953125
 40
0.25390625
 40
0.2578125
 40
0.265625
 40
0.28125
 40
0.296875
 40
0.3046875
 40
0.30859375
 40
0.310546875
 40
0.3125
 40
0.314453125
 40
0.31640625
 40
0.3203125
 40
0.328125
 40
0.34375
 40
0.359375
 40
0.3671875
 40
0.37109375
 40
0.373046875
 40
0.375
 40
0.376953125
 40
0.37890625
 40
0.3828125
 40
0.390625
 40
0.40625
 40
0.421875
 40
0.4296875
 40
0.43359375
 40
0.435546875
 40
0.4375
 40
0.439453125
 40
0.44140625
 40
0.4453125
 40
0.453125
 40
0.46875
 40
0.484375
 40
0.4921875
 40
0.49609375
 40
0.498046875
 40
0.5
 40
0.501953125
 40
0.50390625
 40
0.5078125
 40
0.515625
 40
0.53125
 40
0.546875
 40
0.5546875
 40
0.55859375
 40
0.560546875
 40
0.5625
 40
0.564453125
 40
0.56640625
 40
0.5703125
 40
0.578125
 40
0.59375
 40
0.609375
 40
0.6171875
 40
0.62109375
 40
0.623046875
 40
0.625
 40
0.626953125
 40
0.62890625
 40
0.6328125
 40
0.640625
 40
0.65625
 40
0.671875
 40
0.6796875
 40
0.68359375
 40
0.685546875
 40
0.6875
 40
0.689453125
 40
0.69140625
 40
0.6953125
 40
0.703125
 40
0.71875
 40
0.734375
 40
0.7421875
 40
0.74609375
 40
0.748046875
 40
0.75
 40
0.751953125
 40
0.75390625
 40
0.7578125
 40
0.765625
 40
0.78125
 40
0.796875
 40
0.8046875
 40
0.80859375
 40
0.810546875
 40
0.8125
 40
0.814453125
 40
0.81640625
 40
0.8203125
 40
0.828125
 40
0.84375
 40
0.859375
 40
0.8671875
 40
0.87109375
 40
0.873046875
 40
0.875
 40
0.876953125
 40
0.87890625
 40
0.8828125
 40
0.890625
 40
0.90625
 40
0.921875
 40
0.9296875
 40
0.93359375
 40
0.935546875
 40
0.9375
 40
0.939453125
 40
0.94140625
 40
0.9453125
 40
0.953125
 40
0.9609375
 40
0.96875
 40
0.984375
 40
1.0
 40
1.0
 40
1.0
 40
1.0
 10
38.5196392288
 20
17.6844089697
 30
0.0
 10
38.5084996046
 20
17.7866343636
 30
0.0
 10
38.4862161096
 20
17.9910843086
 30
0.0
 10
38.4583829734
 20
18.2466509534
 30
0.0
 10
38.4360718761
 20
18.4510954208
 30
0.0
 10
38.4194595785
 20
18.6044527885
 30
0.0
 10
38.4052311578
 20
18.7321742248
 30
0.0
 10
38.3960264773
 20
18.8217290999
 30
0.0
 10
38.3895874592
 20
18.8726693057
 30
0.0
 10
38.3880800222
 20
18.9115336659
 30
0.0
 10
38.3738748792
 20
18.9478782072
 30
0.0
 10
38.3593634644
 20
18.9972164875
 30
0.0
 10
38.3319083127
 20
19.0831494801
 30
0.0
 10
38.2784690468
 20
19.2553092577
 30
0.0
 10
38.201290778
 20
19.5010707071
 30
0.0
 10
38.1246563747
 20
19.7469969124
 30
0.0
 10
38.0704556971
 20
19.9189260317
 30
0.0
 10
38.0440474865
 20
20.0051761795
 30
0.0
 10
38.0278500885
 20
20.0540037164
 30
0.0
 10
38.0188252649
 20
20.0919175578
 30
0.0
 10
37.997861038
 20
20.1248877754
 30
0.0
 10
37.9740730284
 20
20.17057234
 30
0.0
 10
37.9305068469
 20
20.2497181289
 30
0.0
 10
37.8447579245
 20
20.4085836553
 30
0.0
 10
37.7214709136
 20
20.6351988433
 30
0.0
 10
37.5987029788
 20
20.862063052
 30
0.0
 10
37.5122273498
 20
21.0205799494
 30
0.0
 10
37.4696603898
 20
21.1002051032
 30
0.0
 10
37.4442632442
 20
21.1451177035
 30
0.0
 10
37.4282432179
 20
21.1804598436
 30
0.0
 10
37.4006484439
 20
21.2094649682
 30
0.0
 10
37.3678925012
 20
21.2503487521
 30
0.0
 10
37.30869178
 20
21.3208669411
 30
0.0
 10
37.1916294776
 20
21.4626405198
 30
0.0
 10
37.0236496837
 20
21.6647320993
 30
0.0
 10
36.85611088
 20
21.8671879042
 30
0.0
 10
36.7384311913
 20
22.0084515675
 30
0.0
 10
36.6800793762
 20
22.0796708901
 30
0.0
 10
36.6459563641
 20
22.1194255757
 30
0.0
 10
36.6225620213
 20
22.1518999459
 30
0.0
 10
36.5907655723
 20
22.1742119273
 30
0.0
 10
36.5513008352
 20
22.2075057371
 30
0.0
 10
36.4808743718
 20
22.2641210009
 30
0.0
 10
36.3409942524
 20
22.3785297375
 30
0.0
 10
36.1406167241
 20
22.5412941598
 30
0.0
 10
35.9405813747
 20
22.7045208945
 30
0.0
 10
35.8002222048
 20
22.8182823939
 30
0.0
 10
35.7304544359
 20
22.8757876089
 30
0.0
 10
35.689928944
 20
22.9076482505
 30
0.0
 10
35.6613917498
 20
22.9343637569
 30
0.0
 10
35.6257559541
 20
22.9502989029
 30
0.0
 10
35.5807174384
 20
22.9753058088
 30
0.0
 10
35.5007484177
 20
23.0173186873
 30
0.0
 10
35.3416314318
 20
23.1025946928
 30
0.0
 10
35.1138645079
 20
23.2236966099
 30
0.0
 10
34.886361445
 20
23.3453008927
 30
0.0
 10
34.7268750537
 20
23.4298735863
 30
0.0
 10
34.6474139655
 20
23.4728535187
 30
0.0
 10
34.6015574804
 20
23.4963030911
 30
0.0
 10
34.5684349615
 20
23.5170232699
 30
0.0
 10
34.5304581375
 20
23.5257666452
 30
0.0
 10
34.4815154776
 20
23.5416018232
 30
0.0
 10
34.3950782823
 20
23.5673700819
 30
0.0
 10
34.2227655756
 20
23.6202951755
 30
0.0
 10
33.9762903633
 20
23.6951049572
 30
0.0
 10
33.7300020879
 20
23.7704598114
 30
0.0
 10
33.5574276696
 20
23.8226218035
 30
0.0
 10
33.4713503277
 20
23.8494393268
 30
0.0
 10
33.4218281635
 20
23.86358478
 30
0.0
 10
33.3856319135
 20
23.8775199708
 30
0.0
 10
33.3458217267
 20
23.8787401811
 30
0.0
 10
33.2940019381
 20
23.8848019367
 30
0.0
 10
33.2027312519
 20
23.8933469513
 30
0.0
 10
33.0206051368
 20
23.9119109275
 30
0.0
 10
32.7602145161
 20
23.9375859625
 30
0.0
 10
32.4998747538
 20
23.9638332035
 30
0.0
 10
32.317677437
 20
23.9815960913
 30
0.0
 10
32.226504653
 20
23.9912426026
 30
0.0
 10
32.1745272037
 20
23.9955305193
 30
0.0
 10
32.1352014423
 20
24.0022009924
 30
0.0
 10
32.0971857362
 20
23.9956655113
 30
0.0
 10
32.0460411912
 20
23.9915575838
 30
0.0
 10
31.9567508813
 20
23.9822260532
 30
0.0
 10
31.7780174543
 20
23.9650931347
 30
0.0
 10
31.5227786551
 20
23.9397457854
 30
0.0
 10
31.2674522454
 20
23.9149708839
 30
0.0
 10
31.0888414731
 20
23.8970365386
 30
0.0
 10
30.999382513
 20
23.8888069698
 30
0.0
 10
30.9485095604
 20
23.8829244544
 30
0.0
 10
30.9096593646
 20
23.8818415381
 30
0.0
 10
30.8734678677
 20
23.868032693
 30
0.0
 10
30.8242852073
 20
23.8540595193
 30
0.0
 10
30.7386470825
 20
23.8275417086
 30
0.0
 10
30.567060951
 20
23.7759804149
 30
0.0
 10
30.3221281459
 20
23.701482939
 30
0.0
 10
30.0770246326
 20
23.6275311597
 30
0.0
 10
29.9056774924
 20
23.5752058906
 30
0.0
 10
29.8197107545
 20
23.5497385462
 30
0.0
 10
29.7710572893
 20
23.5340737125
 30
0.0
 10
29.7332397975
 20
23.525462629
 30
0.0
 10
29.7004966847
 20
23.5048574114
 30
0.0
 10
29.655069321
 20
23.4815671703
 30
0.0
 10
29.5763948486
 20
23.4388632022
 30
0.0
 10
29.4184568043
 20
23.354845061
 30
0.0
 10
29.1931752271
 20
23.2340268809
 30
0.0
 10
28.9676389425
 20
23.113730529
 30
0.0
 10
28.8100574887
 20
23.0289818284
 30
0.0
 10
28.7308927044
 20
22.9872823796
 30
0.0
 10
28.6862549338
 20
22.9623744711
 30
0.0
 10
28.6510857324
 20
22.9467396669
 30
0.0
 10
28.6223804003
 20
22.9194601802
 30
0.0
 10
28.5818520951
 20
22.8871490133
 30
0.0
 10
28.511976574
 20
22.8287152998
 30
0.0
 10
28.3714736544
 20
22.7131951481
 30
0.0
 10
28.171205501
 20
22.5474135512
 30
0.0
 10
27.970568282
 20
22.3820769506
 30
0.0
 10
27.8305820543
 20
22.2659338041
 30
0.0
 10
27.7599960818
 20
22.2083567085
 30
0.0
 10
27.7206118801
 20
22.174666053
 30
0.0
 10
27.6883911978
 20
22.1516251562
 30
0.0
 10
27.6664253196
 20
22.1200706089
 30
0.0
 10
27.6335607476
 20
22.0809673123
 30
0.0
 10
27.5777116437
 20
22.0111552714
 30
0.0
 10
27.4648245266
 20
21.872516929
 30
0.0
 10
27.3042398834
 20
21.6739059416
 30
0.0
 10
27.1431891613
 20
21.4756422052
 30
0.0
 10
27.0309545547
 20
21.3365177114
 30
0.0
 10
26.9742082489
 20
21.2673741287
 30
0.0
 10
26.9427885214
 20
21.227194354
 30
0.0
 10
26.9163832418
 20
21.1989473726
 30
0.0
 10
26.9008365316
 20
21.1634835706
 30
0.0
 10
26.8763202621
 20
21.118715613
 30
0.0
 10
26.8351786852
 20
21.0392008869
 30
0.0
 10
26.7516362368
 20
20.8810062006
 30
0.0
 10
26.6330158658
 20
20.6545489426
 30
0.0
 10
26.513890216
 20
20.4283610507
 30
0.0
 10
26.4310551579
 20
20.2697892519
 30
0.0
 10
26.3889409193
 20
20.1907930555
 30
0.0
 10
26.3659910141
 20
20.145190063
 30
0.0
 10
26.3456315232
 20
20.1122919731
 30
0.0
 10
26.3373025931
 20
20.0744084195
 30
0.0
 10
26.322001259
 20
20.0256358667
 30
0.0
 10
26.2971759485
 20
19.9394750773
 30
0.0
 10
26.2461305308
 20
19.7677303889
 30
0.0
 10
26.1740094817
 20
19.522057898
 30
0.0
 10
26.1013412834
 20
19.2765783124
 30
0.0
 10
26.0510618746
 20
19.1045635567
 30
0.0
 10
26.0251833019
 20
19.0187741099
 30
0.0
 10
26.0115781303
 20
18.9694035508
 30
0.0
 10
25.9980376041
 20
18.9333574197
 30
0.0
 10
25.9972523759
 20
18.8935581447
 30
0.0
 10
25.991756214
 20
18.8418015833
 30
0.0
 10
25.9842108917
 20
18.7506176488
 30
0.0
 10
25.9723480893
 20
18.6206737761
 30
0.0
 10
25.9585766282
 20
18.4646046294
 30
0.0
 10
25.9400525811
 20
18.2565601301
 30
0.0
 10
25.9169535103
 20
17.996488032
 30
0.0
 10
25.8984571906
 20
17.7884353741
 30
0.0
 10
25.8892111637
 20
17.6844084176
 30
0.0
  0
SPLINE
  5
264
100
AcDbEntity
  8
_21_KURVEN
100
AcDbSpline
 62
1
  6
CENTER
 70
0
 71
3
 72
163
 73
159
 74
0
 42
0.0000001
 43
0.0000001
 44
0.0000000001
 40
0.0
 40
0.0
 40
0.0
 40
0.0
 40
0.015625
 40
0.03125
 40
0.0390625
 40
0.046875
 40
0.0546875
 40
0.05859375
 40
0.060546875
 40
0.0625
 40
0.064453125
 40
0.06640625
 40
0.0703125
 40
0.078125
 40
0.09375
 40
0.109375
 40
0.1171875
 40
0.12109375
 40
0.123046875
 40
0.125
 40
0.126953125
 40
0.12890625
 40
0.1328125
 40
0.140625
 40
0.15625
 40
0.171875
 40
0.1796875
 40
0.18359375
 40
0.185546875
 40
0.1875
 40
0.189453125
 40
0.19140625
 40
0.1953125
 40
0.203125
 40
0.21875
 40
0.234375
 40
0.2421875
 40
0.24609375
 40
0.248046875
 40
0.25
 40
0.251953125
 40
0.25390625
 40
0.2578125
 40
0.265625
 40
0.28125
 40
0.296875
 40
0.3046875
 40
0.30859375
 40
0.310546875
 40
0.3125
 40
0.314453125
 40
0.31640625
 40
0.3203125
 40
0.328125
 40
0.34375
 40
0.359375
 40
0.3671875
 40
0.37109375
 40
0.373046875
 40
0.375
 40
0.376953125
 40
0.37890625
 40
0.3828125
 40
0.390625
 40
0.40625
 40
0.421875
 40
0.4296875
 40
0.43359375
 40
0.435546875
 40
0.4375
 40
0.439453125
 40
0.44140625
 40
0.4453125
 40
0.453125
 40
0.46875
 40
0.484375
 40
0.4921875
 40
0.49609375
 40
0.498046875
 40
0.5
 40
0.501953125
 40
0.50390625
 40
0.5078125
 40
0.515625
 40
0.53125
 40
0.546875
 40
0.5546875
 40
0.55859375
 40
0.560546875
 40
0.5625
 40
0.564453125
 40
0.56640625
 40
0.5703125
 40
0.578125
 40
0.59375
 40
0.609375
 40
0.6171875
 40
0.62109375
 40
0.623046875
 40
0.625
 40
0.626953125
 40
0.62890625
 40
0.6328125
 40
0.640625
 40
0.65625
 40
0.671875
 40
0.6796875
 40
0.68359375
 40
0.685546875
 40
0.6875
 40
0.689453125
 40
0.69140625
 40
0.6953125
 40
0.703125
 40
0.71875
 40
0.734375
 40
0.7421875
 40
0.74609375
 40
0.748046875
 40
0.75
 40
0.751953125
 40
0.75390625
 40
0.7578125
 40
0.765625
 40
0.78125
 40
0.796875
 40
0.8046875
 40
0.80859375
 40
0.810546875
 40
0.8125
 40
0.814453125
 40
0.81640625
 40
0.8203125
 40
0.828125
 40
0.84375
 40
0.859375
 40
0.8671875
 40
0.87109375
 40
0.873046875
 40
0.875
 40
0.876953125
 40
0.87890625
 40
0.8828125
 40
0.890625
 40
0.90625
 40
0.921875
 40
0.9296875
 40
0.93359375
 40
0.935546875
 40
0.9375
 40
0.939453125
 40
0.94140625
 40
0.9453125
 40
0.953125
 40
0.9609375
 40
0.96875
 40
0.984375
 40
1.0
 40
1.0
 40
1.0
 40
1.0
 10
25.8892111577
 20
17.6844089697
 30
0.0
 10
25.9003507819
 20
17.5821835759
 30
0.0
 10
25.9226342769
 20
17.3777336308
 30
0.0
 10
25.9504674131
 20
17.1221669861
 30
0.0
 10
25.9727785104
 20
16.9177225186
 30
0.0
 10
25.989390808
 20
16.764365151
 30
0.0
 10
26.0036192287
 20
16.6366437147
 30
0.0
 10
26.0128239092
 20
16.5470888395
 30
0.0
 10
26.0192629273
 20
16.4961486337
 30
0.0
 10
26.0207703643
 20
16.4572842736
 30
0.0
 10
26.0349755073
 20
16.4209397322
 30
0.0
 10
26.0494869221
 20
16.371601452
 30
0.0
 10
26.0769420738
 20
16.2856684593
 30
0.0
 10
26.1303813397
 20
16.1135086817
 30
0.0
 10
26.2075596085
 20
15.8677472323
 30
0.0
 10
26.2841940118
 20
15.6218210271
 30
0.0
 10
26.3383946894
 20
15.4498919077
 30
0.0
 10
26.3648029
 20
15.36364176
 30
0.0
 10
26.381000298
 20
15.314814223
 30
0.0
 10
26.3900251217
 20
15.2769003816
 30
0.0
 10
26.4109893485
 20
15.2439301641
 30
0.0
 10
26.4347773581
 20
15.1982455995
 30
0.0
 10
26.4783435397
 20
15.1190998106
 30
0.0
 10
26.564092462
 20
14.9602342841
 30
0.0
 10
26.6873794729
 20
14.7336190962
 30
0.0
 10
26.8101474077
 20
14.5067548875
 30
0.0
 10
26.8966230367
 20
14.3482379901
 30
0.0
 10
26.9391899967
 20
14.2686128362
 30
0.0
 10
26.9645871424
 20
14.2237002359
 30
0.0
 10
26.9806071686
 20
14.1883580958
 30
0.0
 10
27.0082019426
 20
14.1593529713
 30
0.0
 10
27.0409578853
 20
14.1184691874
 30
0.0
 10
27.1001586065
 20
14.0479509984
 30
0.0
 10
27.2172209089
 20
13.9061774197
 30
0.0
 10
27.3852007028
 20
13.7040858401
 30
0.0
 10
27.5527395065
 20
13.5016300353
 30
0.0
 10
27.6704191952
 20
13.3603663719
 30
0.0
 10
27.7287710103
 20
13.2891470493
 30
0.0
 10
27.7628940224
 20
13.2493923637
 30
0.0
 10
27.7862883652
 20
13.2169179935
 30
0.0
 10
27.8180848142
 20
13.1946060122
 30
0.0
 10
27.8575495513
 20
13.1613122024
 30
0.0
 10
27.9279760147
 20
13.1046969386
 30
0.0
 10
28.0678561341
 20
12.9902882019
 30
0.0
 10
28.2682336624
 20
12.8275237796
 30
0.0
 10
28.4682690118
 20
12.664297045
 30
0.0
 10
28.6086281817
 20
12.5505355456
 30
0.0
 10
28.6783959506
 20
12.4930303305
 30
0.0
 10
28.7189214426
 20
12.461169689
 30
0.0
 10
28.7474586367
 20
12.4344541825
 30
0.0
 10
28.7830944324
 20
12.4185190366
 30
0.0
 10
28.8281329482
 20
12.3935121306
 30
0.0
 10
28.9081019689
 20
12.3514992521
 30
0.0
 10
29.0672189547
 20
12.2662232466
 30
0.0
 10
29.2949858786
 20
12.1451213295
 30
0.0
 10
29.5224889415
 20
12.0235170467
 30
0.0
 10
29.6819753328
 20
11.9389443531
 30
0.0
 10
29.761436421
 20
11.8959644208
 30
0.0
 10
29.8072929061
 20
11.8725148484
 30
0.0
 10
29.840415425
 20
11.8517946695
 30
0.0
 10
29.878392249
 20
11.8430512943
 30
0.0
 10
29.9273349089
 20
11.8272161163
 30
0.0
 10
30.0137721042
 20
11.8014478576
 30
0.0
 10
30.1860848109
 20
11.748522764
 30
0.0
 10
30.4325600232
 20
11.6737129823
 30
0.0
 10
30.6788482986
 20
11.5983581281
 30
0.0
 10
30.8514227169
 20
11.5461961359
 30
0.0
 10
30.9375000588
 20
11.5193786127
 30
0.0
 10
30.987022223
 20
11.5052331594
 30
0.0
 10
31.023218473
 20
11.4912979686
 30
0.0
 10
31.0630286598
 20
11.4900777583
 30
0.0
 10
31.1148484484
 20
11.4840160028
 30
0.0
 10
31.2061191346
 20
11.4754709882
 30
0.0
 10
31.3882452497
 20
11.456907012
 30
0.0
 10
31.6486358704
 20
11.431231977
 30
0.0
 10
31.9089756327
 20
11.4049847359
 30
0.0
 10
32.0911729495
 20
11.3872218482
 30
0.0
 10
32.1823457335
 20
11.3775753369
 30
0.0
 10
32.2343231828
 20
11.3732874201
 30
0.0
 10
32.2736489442
 20
11.3666169471
 30
0.0
 10
32.3116646503
 20
11.3731524282
 30
0.0
 10
32.3628091953
 20
11.3772603556
 30
0.0
 10
32.4520995052
 20
11.3865918863
 30
0.0
 10
32.6308329322
 20
11.4037248048
 30
0.0
 10
32.8860717314
 20
11.429072154
 30
0.0
 10
33.1413981411
 20
11.4538470555
 30
0.0
 10
33.3200089135
 20
11.4717814009
 30
0.0
 10
33.4094678735
 20
11.4800109696
 30
0.0
 10
33.4603408261
 20
11.4858934851
 30
0.0
 10
33.4991910219
 20
11.4869764014
 30
0.0
 10
33.5353825188
 20
11.5007852464
 30
0.0
 10
33.5845651792
 20
11.5147584201
 30
0.0
 10
33.670203304
 20
11.5412762308
 30
0.0
 10
33.8417894355
 20
11.5928375245
 30
0.0
 10
34.0867222406
 20
11.6673350005
 30
0.0
 10
34.3318257539
 20
11.7412867797
 30
0.0
 10
34.5031728941
 20
11.7936120488
 30
0.0
 10
34.589139632
 20
11.8190793933
 30
0.0
 10
34.6377930972
 20
11.8347442269
 30
0.0
 10
34.675610589
 20
11.8433553104
 30
0.0
 10
34.7083537018
 20
11.8639605281
 30
0.0
 10
34.7537810655
 20
11.8872507692
 30
0.0
 10
34.8324555379
 20
11.9299547372
 30
0.0
 10
34.9903935822
 20
12.0139728784
 30
0.0
 10
35.2156751594
 20
12.1347910585
 30
0.0
 10
35.441211444
 20
12.2550874104
 30
0.0
 10
35.5987928979
 20
12.3398361111
 30
0.0
 10
35.6779576821
 20
12.3815355598
 30
0.0
 10
35.7225954527
 20
12.4064434683
 30
0.0
 10
35.7577646541
 20
12.4220782726
 30
0.0
 10
35.7864699862
 20
12.4493577592
 30
0.0
 10
35.8269982914
 20
12.4816689262
 30
0.0
 10
35.8968738125
 20
12.5401026396
 30
0.0
 10
36.0373767321
 20
12.6556227914
 30
0.0
 10
36.2376448855
 20
12.8214043883
 30
0.0
 10
36.4382821045
 20
12.9867409888
 30
0.0
 10
36.5782683322
 20
13.1028841354
 30
0.0
 10
36.6488543047
 20
13.160461231
 30
0.0
 10
36.6882385064
 20
13.1941518865
 30
0.0
 10
36.7204591887
 20
13.2171927833
 30
0.0
 10
36.7424250669
 20
13.2487473306
 30
0.0
 10
36.7752896389
 20
13.2878506271
 30
0.0
 10
36.8311387429
 20
13.3576626681
 30
0.0
 10
36.9440258599
 20
13.4963010105
 30
0.0
 10
37.1046105031
 20
13.6949119979
 30
0.0
 10
37.2656612252
 20
13.8931757342
 30
0.0
 10
37.3778958318
 20
14.0323002281
 30
0.0
 10
37.4346421376
 20
14.1014438108
 30
0.0
 10
37.4660618651
 20
14.1416235855
 30
0.0
 10
37.4924671447
 20
14.1698705669
 30
0.0
 10
37.5080138549
 20
14.2053343688
 30
0.0
 10
37.5325301244
 20
14.2501023265
 30
0.0
 10
37.5736717013
 20
14.3296170525
 30
0.0
 10
37.6572141497
 20
14.4878117388
 30
0.0
 10
37.7758345207
 20
14.7142689968
 30
0.0
 10
37.8949601706
 20
14.9404568888
 30
0.0
 10
37.9777952286
 20
15.0990286876
 30
0.0
 10
38.0199094672
 20
15.1780248839
 30
0.0
 10
38.0428593724
 20
15.2236278765
 30
0.0
 10
38.0632188633
 20
15.2565259663
 30
0.0
 10
38.0715477934
 20
15.2944095199
 30
0.0
 10
38.0868491275
 20
15.3431820728
 30
0.0
 10
38.111674438
 20
15.4293428622
 30
0.0
 10
38.1627198557
 20
15.6010875505
 30
0.0
 10
38.2348409048
 20
15.8467600414
 30
0.0
 10
38.3075091031
 20
16.092239627
 30
0.0
 10
38.3577885119
 20
16.2642543827
 30
0.0
 10
38.3836670846
 20
16.3500438295
 30
0.0
 10
38.3972722562
 20
16.3994143887
 30
0.0
 10
38.4108127824
 20
16.4354605198
 30
0.0
 10
38.4115980107
 20
16.4752597948
 30
0.0
 10
38.4170941725
 20
16.5270163561
 30
0.0
 10
38.4246394949
 20
16.6182002906
 30
0.0
 10
38.4365022972
 20
16.7481441634
 30
0.0
 10
38.4502737583
 20
16.9042133101
 30
0.0
 10
38.4687978054
 20
17.1122578094
 30
0.0
 10
38.4918968762
 20
17.3723299075
 30
0.0
 10
38.5103931959
 20
17.5803825653
 30
0.0
 10
38.5196392228
 20
17.6844095219
 30
0.0
  0
ELLIPSE
  5
265
100
AcDbEntity
  8
_30_VOLUMEN
100
AcDbEllipse
 62
4
  6
CONTINUOUS
 10
22.594305973
 20
23.198359683
 30
0.0
 11
0.6842907508
 21
-0.4577963277
 31
0.0
 40
0.9616747458
 41
2.1786104954
 42
4.1627752429
  0
ELLIPSE
  5
266
100
AcDbEntity
  8
_30_VOLUMEN
100
AcDbEllipse
 62
4
  6
CONTINUOUS
 10
41.694051361
 20
23.198359683
 30
0.0
 11
0.7523750433
 21
0.315065419
 31
0.0
 40
0.9797377506
 41
-0.9019796373
 42
1.1668763109
  0
ELLIPSE
  5
267
100
AcDbEntity
  8
_30_VOLUMEN
100
AcDbEllipse
 62
4
  6
CONTINUOUS
 10
32.3249182458
 20
6.6565075433
 30
0.0
 11
-0.1495995424
 21
0.8063752274
 31
0.0
 40
0.9691241017
 41
2.0500381107
 42
3.9981283194
  0
ELLIPSE
  5
268
100
AcDbEntity
  8
_21_KURVEN
100
AcDbEllipse
 62
5
  6
CONTINUOUS
 10
41.694051361
 20
23.198359683
 30
0.0
 11
0.7523750433
 21
0.315065419
 31
0.0
 40
0.9797377506
 41
5.3812056699
 42
7.4500616181
  0
ELLIPSE
  5
269
100
AcDbEntity
  8
_21_KURVEN
100
AcDbEllipse
 62
5
  6
CONTINUOUS
 10
32.3249182458
 20
6.6565075433
 30
0.0
 11
-0.1495995424
 21
0.8063752274
 31
0.0
 40
0.9691241017
 41
1.9292723712
 42
3.9981283194
  0
ELLIPSE
  5
26A
100
AcDbEntity
  8
_21_KURVEN
100
AcDbEllipse
 62
5
  6
CONTINUOUS
 10
22.594305973
 20
23.198359683
 30
0.0
 11
0.6842907508
 21
-0.4577963277
 31
0.0
 40
0.9616747458
 41
2.1786104954
 42
4.2474664435
  0
ENDSEC
  0
SECTION
  2
OBJECTS
  0
DICTIONARY
  5
C
100
AcDbDictionary
280
0
281
1
  3
ACAD_GROUP
350
D
  3
ACAD_MLINESTYLE
350
17
  3
ACAD_LAYOUT
350
1A
  3
ACAD_PLOTSETTINGS
350
19
  3
ACAD_PLOTSTYLENAME
350
E
  0
DICTIONARY
  5
D
102
{ACAD_REACTORS
330
C
102
}
100
AcDbDictionary
280
0
281
1
  0
ACDBDICTIONARYWDFLT
  5
E
102
{ACAD_REACTORS
330
C
102
}
100
AcDbDictionary
281
1
  3
Normal
350
F
100
AcDbDictionaryWithDefault
340
F
  0
DICTIONARY
  5
17
102
{ACAD_REACTORS
330
C
102
}
100
AcDbDictionary
280
0
281
1
  3
Standard
350
18
  0
DICTIONARY
  5
19
102
{ACAD_REACTORS
330
C
102
}
100
AcDbDictionary
281
1
  0
DICTIONARY
  5
1A
102
{ACAD_REACTORS
330
C
102
}
100
AcDbDictionary
281
1
  3
Model
350
26B
  3
Layout1
350
26C
  0
ACDBPLACEHOLDER
  5
F
102
{ACAD_REACTORS
330
E
102
}
  0
MLINESTYLE
  5
18
102
{ACAD_REACTORS
330
17
102
}
100
AcDbMlineStyle
  2
STANDARD
 70
0
  3

 62
256
 51
90.0
 52
90.0
 71
2
 49
0.5
 62
256
  6
BYLAYER
 49
-0.5
 62
256
  6
BYLAYER
  0
LAYOUT
  5
26B
102
{ACAD_REACTORS
330
1A
102
}
100
AcDbPlotSettings
  1

  2
none_device
  4
ISO_A3_(420.00_x_297.00_MM)
  6

 40
0.0
 41
0.0
 42
0.0
 43
0.0
 44
420.0
 45
297.0
 46
0.0
 47
0.0
 48
0.0
 49
0.0
140
0.0
141
0.0
142
1.0
143
1.0
 70
1024
 72
1
 73
0
 74
0
  7

 75
0
147
1.0
148
0.0
149
0.0
100
AcDbLayout
  1
Model
 70
0
 71
0
 10
0.0
 20
0.0
 11
420.0
 21
297.0
 12
0.0
 22
0.0
 32
0.0
 14
0.0
 24
0.0
 34
0.0
 15
0.0
 25
0.0
 35
0.0
146
0.0
 13
0.0
 23
0.0
 33
0.0
 16
1.0
 26
0.0
 36
0.0
 17
0.0
 27
1.0
 37
0.0
 76
0
330
20E
345
0
346
0
  0
LAYOUT
  5
26C
102
{ACAD_REACTORS
330
1A
102
}
100
AcDbPlotSettings
  1

  2
none_device
  4
ISO_A3_(420.00_x_297.00_MM)
  6

 40
0.0
 41
0.0
 42
0.0
 43
0.0
 44
420.0
 45
297.0
 46
0.0
 47
0.0
 48
0.0
 49
0.0
140
0.0
141
0.0
142
1.0
143
1.0
 70
0
 72
1
 73
0
 74
0
  7

 75
0
147
1.0
148
0.0
149
0.0
100
AcDbLayout
  1
Layout1
 70
0
 71
1
 10
0.0
 20
0.0
 11
420.0
 21
297.0
 12
0.0
 22
0.0
 32
0.0
 14
0.0
 24
0.0
 34
0.0
 15
0.0
 25
0.0
 35
0.0
146
0.0
 13
0.0
 23
0.0
 33
0.0
 16
1.0
 26
0.0
 36
0.0
 17
0.0
 27
1.0
 37
0.0
 76
0
330
20F
345
0
346
0
  0
ENDSEC
  0
EOF
