999
DXF file: 70533016_MCS.dxf
999
Pro/ENGINEER 2016380 by Parametric Technology Corporation
  0
SECTION
  2
HEADER
  9
$ACADVER
  1
AC1027
  9
$DWGCODEPAGE
  3
ANSI_1252
  9
$EXTMAX
 10
420.0
 20
297.0
 30
0.0
  9
$EXTMIN
 10
0.0
 20
0.0
 30
0.0
  9
$LIMMIN
 10
0.0
 20
0.0
  9
$LIMMAX
 10
420.0
 20
297.0
  9
$VIEWCTR
 10
210.0
 20
148.5
  9
$VIEWSIZE
 40
297.0
  9
$CLAYER
  8
0
  9
$LTSCALE
 40
23.1
  9
$CELTYPE
  6
BYLAYER
  9
$DIMSCALE
 40
1.0
  9
$DIMASZ
 40
3.5
  9
$DIMEXO
 40
0.0
  9
$DIMDLI
 40
15.96
  9
$DIMEXE
 40
1.5
  9
$DIMCEN
 40
3.78
  9
$DIMLFAC
 40
1.0
  9
$DIMBLK
  1
_FILLED
  9
$DIMALT
 70
0
  9
$DIMALTF
 40
25.4
  9
$DIMTXT
 40
3.5
  9
$DIMTOL
 70
1
  9
$DIMLIM
 70
0
  9
$DIMTFAC
 40
1.0
  9
$DIMTP
 40
0.05
  9
$DIMTM
 40
0.05
  9
$DIMGAP
 40
0.625
  9
$DIMDSEP
 70
46
  9
$AUNITS
 70
0
  9
$PDMODE
 70
3
  9
$PDSIZE
 40
0.3125
  9
$HANDSEED
  5
270
  9
$TILEMODE
 70
1
  9
$MEASUREMENT
 70
1
  9
$INSUNITS
 70
4
  0
ENDSEC
  0
SECTION
  2
CLASSES
  0
CLASS
  1
ACDBDICTIONARYWDFLT
  2
AcDbDictionaryWithDefault
  3
AutoCAD 2000
 90
0
 91
1
280
0
281
0
  0
CLASS
  1
ACDBPLACEHOLDER
  2
AcDbPlaceHolder
  3
AutoCAD 2000
 90
0
 91
1
280
0
281
0
  0
CLASS
  1
LAYOUT
  2
AcDbLayout
  3
AutoCAD 2000
 90
0
 91
0
280
0
281
0
  0
ENDSEC
  0
SECTION
  2
TABLES
  0
TABLE
  2
VPORT
  5
8
100
AcDbSymbolTable
 70
2
  0
VPORT
  5
1F4
100
AcDbSymbolTableRecord
100
AcDbViewportTableRecord
  2
*ACTIVE
 70
0
 10
0.0
 20
0.0
 11
1.0
 21
1.0
 12
210.0
 22
148.5
 13
0.0
 23
0.0
 14
1.0
 24
1.0
 15
0.0
 25
0.0
 16
0.0
 26
0.0
 36
1.0
 17
0.0
 27
0.0
 37
0.0
 40
297.0
 41
1.4141414141
 42
50.0
 43
0.0
 44
0.0
 50
0.0
 51
0.0
 71
0
 72
100
 73
1
 74
1
 75
0
 76
0
 77
0
 78
0
  0
ENDTAB
  0
TABLE
  2
LTYPE
  5
5
100
AcDbSymbolTable
 70
6
  0
LTYPE
  5
14
100
AcDbSymbolTableRecord
100
AcDbLinetypeTableRecord
  2
BYBLOCK
 70
0
  3

 72
65
 73
0
 40
0.0
  0
LTYPE
  5
15
100
AcDbSymbolTableRecord
100
AcDbLinetypeTableRecord
  2
BYLAYER
 70
0
  3

 72
65
 73
0
 40
0.0
  0
LTYPE
  5
16
100
AcDbSymbolTableRecord
100
AcDbLinetypeTableRecord
  2
CONTINUOUS
 70
64
  3
Solid line
 72
65
 73
0
 40
0.0
  0
LTYPE
  5
1F5
100
AcDbSymbolTableRecord
100
AcDbLinetypeTableRecord
  2
CENTER
 70
64
  3
____ _ ____ _ ____ _ ____ _ ____ _ ____ _ ____
 72
65
 73
4
 40
0.6
 49
0.375
 74
0
 49
-0.075
 74
0
 49
0.075
 74
0
 49
-0.075
 74
0
  0
LTYPE
  5
1F6
100
AcDbSymbolTableRecord
100
AcDbLinetypeTableRecord
  2
HIDDEN
 70
64
  3
- - - - - - - - - - - - - - - - - - - -
 72
65
 73
2
 40
0.2
 49
0.1
 74
0
 49
-0.1
 74
0
  0
LTYPE
  5
1F7
100
AcDbSymbolTableRecord
100
AcDbLinetypeTableRecord
  2
PHANTOM
 70
64
  3
_____ _ _ _____ _ _ _____ _ _ _____
 72
65
 73
6
 40
0.8
 49
0.45
 74
0
 49
-0.05
 74
0
 49
0.1
 74
0
 49
-0.05
 74
0
 49
0.1
 74
0
 49
-0.05
 74
0
  0
LTYPE
  5
1F8
100
AcDbSymbolTableRecord
100
AcDbLinetypeTableRecord
  2
DOT
 70
64
  3
. . . . . . . . . . . . . . . . . . . .
 72
65
 73
2
 40
0.2
 49
0.1
 74
0
 49
-0.1
 74
0
  0
LTYPE
  5
1F9
100
AcDbSymbolTableRecord
100
AcDbLinetypeTableRecord
  2
DASHED
 70
64
  3
- - - - - - - - - - - - - - - - - - - -
 72
65
 73
2
 40
0.2
 49
0.1
 74
0
 49
-0.1
 74
0
  0
ENDTAB
  0
TABLE
  2
LAYER
  5
2
100
AcDbSymbolTable
 70
36
  0
LAYER
  5
10
100
AcDbSymbolTableRecord
100
AcDbLayerTableRecord
  2
0
 70
0
 62
7
  6
CONTINUOUS
370
-3
390
F
  0
LAYER
  5
1FA
100
AcDbSymbolTableRecord
100
AcDbLayerTableRecord
  2
DEFAULT_1
 70
0
 62
7
  6
CENTER
370
-3
390
F
  0
LAYER
  5
1FB
100
AcDbSymbolTableRecord
100
AcDbLayerTableRecord
  2
DEFAULT_2
 70
0
 62
1
  6
HIDDEN
370
-3
390
F
  0
LAYER
  5
1FC
100
AcDbSymbolTableRecord
100
AcDbLayerTableRecord
  2
DEFAULT_3
 70
0
 62
7
  6
PHANTOM
370
-3
390
F
  0
LAYER
  5
1FD
100
AcDbSymbolTableRecord
100
AcDbLayerTableRecord
  2
BG_STARTBEZUEGE
 70
0
 62
7
  6
CONTINUOUS
370
-3
390
F
  0
LAYER
  5
1FE
100
AcDbSymbolTableRecord
100
AcDbLayerTableRecord
  2
HILFEN
 70
0
 62
7
  6
CONTINUOUS
370
-3
390
F
  0
LAYER
  5
1FF
100
AcDbSymbolTableRecord
100
AcDbLayerTableRecord
  2
PLATZIERUNG
 70
0
 62
7
  6
CONTINUOUS
370
-3
390
F
  0
LAYER
  5
200
100
AcDbSymbolTableRecord
100
AcDbLayerTableRecord
  2
T_STARTBEZUEGE
 70
0
 62
7
  6
CONTINUOUS
370
-3
390
F
  0
LAYER
  5
201
100
AcDbSymbolTableRecord
100
AcDbLayerTableRecord
  2
_03_2D_ZEICHNUNG_BEMASSUNGEN
 70
0
 62
7
  6
CONTINUOUS
370
-3
390
F
  0
LAYER
  5
202
100
AcDbSymbolTableRecord
100
AcDbLayerTableRecord
  2
_04_NOTIZEN
 70
0
 62
7
  6
CONTINUOUS
370
-3
390
F
  0
LAYER
  5
203
100
AcDbSymbolTableRecord
100
AcDbLayerTableRecord
  2
_05_2D_ELEMENTE
 70
0
 62
7
  6
CONTINUOUS
370
-3
390
F
  0
LAYER
  5
204
100
AcDbSymbolTableRecord
100
AcDbLayerTableRecord
  2
_07_EINRASTLINIEN
 70
0
 62
7
  6
CONTINUOUS
370
-3
390
F
  0
LAYER
  5
205
100
AcDbSymbolTableRecord
100
AcDbLayerTableRecord
  2
_21_KURVEN
 70
0
 62
7
  6
CONTINUOUS
370
-3
390
F
  0
LAYER
  5
206
100
AcDbSymbolTableRecord
100
AcDbLayerTableRecord
  2
_26_BEZUGSACHSEN
 70
0
 62
7
  6
CONTINUOUS
370
-3
390
F
  0
LAYER
  5
207
100
AcDbSymbolTableRecord
100
AcDbLayerTableRecord
  2
_27_BEZUGSEBENEN
 70
0
 62
7
  6
CONTINUOUS
370
-3
390
F
  0
LAYER
  5
208
100
AcDbSymbolTableRecord
100
AcDbLayerTableRecord
  2
_28_BEZUGSPUNKTE
 70
0
 62
7
  6
CONTINUOUS
370
-3
390
F
  0
LAYER
  5
209
100
AcDbSymbolTableRecord
100
AcDbLayerTableRecord
  2
_29_KOORDINATENSYSTEME
 70
0
 62
7
  6
CONTINUOUS
370
-3
390
F
  0
LAYER
  5
20A
100
AcDbSymbolTableRecord
100
AcDbLayerTableRecord
  2
_30_VOLUMEN
 70
0
 62
7
  6
CONTINUOUS
370
-3
390
F
  0
ENDTAB
  0
TABLE
  2
STYLE
  5
3
100
AcDbSymbolTable
 70
1
  0
STYLE
  5
11
100
AcDbSymbolTableRecord
100
AcDbTextStyleTableRecord
  2
STANDARD
 70
0
 40
0.0
 41
0.7
 50
0.0
 71
0
 42
0.2
  3
SIMPLEX.SHX
  4

  0
STYLE
  5
20B
100
AcDbSymbolTableRecord
100
AcDbTextStyleTableRecord
  2
TEXTSTYLE_1
 70
0
 40
0.0
 41
0.8
 50
0.0
 71
0
 42
0.2
  3
gdt
  4

  0
ENDTAB
  0
TABLE
  2
VIEW
  5
6
100
AcDbSymbolTable
 70
0
  0
ENDTAB
  0
TABLE
  2
UCS
  5
7
100
AcDbSymbolTable
 70
0
  0
ENDTAB
  0
TABLE
  2
APPID
  5
9
100
AcDbSymbolTable
 70
1
  0
APPID
  5
20C
100
AcDbSymbolTableRecord
100
AcDbRegAppTableRecord
  2
ACAD
 70
0
  0
ENDTAB
  0
TABLE
  2
BLOCK_RECORD
  5
1
100
AcDbSymbolTable
 70
0
  0
BLOCK_RECORD
  5
20D
100
AcDbSymbolTableRecord
100
AcDbBlockTableRecord
  2
*Model_Space
  0
BLOCK_RECORD
  5
20E
100
AcDbSymbolTableRecord
100
AcDbBlockTableRecord
  2
*Paper_Space
  0
BLOCK_RECORD
  5
20F
100
AcDbSymbolTableRecord
100
AcDbBlockTableRecord
  2
_FILLED
  0
BLOCK_RECORD
  5
210
100
AcDbSymbolTableRecord
100
AcDbBlockTableRecord
  2
*D0
  0
BLOCK_RECORD
  5
211
100
AcDbSymbolTableRecord
100
AcDbBlockTableRecord
  2
*D1
  0
BLOCK_RECORD
  5
212
100
AcDbSymbolTableRecord
100
AcDbBlockTableRecord
  2
*D2
  0
ENDTAB
  0
TABLE
  2
DIMSTYLE
  5
A
100
AcDbSymbolTable
 70
1
100
AcDbDimStyleTable
 71
0
  0
DIMSTYLE
105
213
100
AcDbSymbolTableRecord
100
AcDbDimStyleTableRecord
  2
STANDARD
 70
0
  3

  4

 40
1.0
 41
3.5
 42
0.0
 43
0.38
 44
1.5
 45
0.0
 46
0.0
 47
0.05
 48
0.05
140
3.5
141
0.09
142
0.0
143
25.4
144
1.0
145
0.0
146
1.0
147
0.625
 71
1.0
 72
0.0
 73
0
 74
0
 75
0
 76
0
 77
1
 78
8
170
0
171
1
172
0
173
0
174
0
175
0
176
0
177
0
178
2
270
2
271
2
272
2
273
2
274
2
275
0
280
0
281
0
282
0
283
1
284
8
285
0
286
0
287
3
288
0
340
11
278
46
341
20F
342
20F
343
20F
344
20F
  0
DIMSTYLE
105
214
100
AcDbSymbolTableRecord
100
AcDbDimStyleTableRecord
  2
DIMSTYLE_1
 70
0
  3

  4

 40
1.0
 41
3.5
 42
0.0
 43
0.38
 44
1.5
 45
0.0
 46
0.0
 47
0.2
 48
0.2
140
3.5
141
0.09
142
0.0
143
25.4
144
1.0
145
0.0
146
1.0
147
0.875
 71
0.0
 72
0.0
 73
0
 74
0
 75
0
 76
0
 77
1
 78
8
170
0
171
1
172
0
173
0
174
0
175
0
176
0
177
0
178
2
270
2
271
2
272
2
273
2
274
2
275
0
280
0
281
0
282
0
283
1
284
8
285
0
286
0
287
3
288
0
340
11
278
46
341
20F
342
20F
343
20F
344
20F
  0
DIMSTYLE
105
215
100
AcDbSymbolTableRecord
100
AcDbDimStyleTableRecord
  2
DIMSTYLE_2
 70
0
  3

  4

 40
1.0
 41
3.5
 42
0.0
 43
0.38
 44
1.5
 45
0.0
 46
0.0
 47
0.3
 48
0.3
140
3.5
141
0.09
142
0.0
143
25.4
144
1.0
145
0.0
146
1.0
147
0.875
 71
0.0
 72
0.0
 73
0
 74
0
 75
0
 76
0
 77
1
 78
8
170
0
171
1
172
0
173
0
174
0
175
0
176
0
177
0
178
2
270
2
271
2
272
2
273
2
274
2
275
0
280
0
281
0
282
0
283
1
284
8
285
0
286
0
287
3
288
0
340
11
278
46
341
20F
342
20F
343
20F
344
20F
  0
ENDTAB
  0
ENDSEC
  0
SECTION
  2
BLOCKS
  0
BLOCK
  5
20
100
AcDbEntity
  8
0
100
AcDbBlockBegin
  2
*Model_Space
 70
0
 10
0.0
 20
0.0
 30
0.0
  3
*Model_Space
  1

  0
ENDBLK
  5
21
100
AcDbEntity
  8
0
100
AcDbBlockEnd
  0
BLOCK
  5
1C
100
AcDbEntity
  8
0
100
AcDbBlockBegin
  2
*Paper_Space
 70
0
 10
0.0
 20
0.0
 30
0.0
  3
*Paper_Space
  1

  0
ENDBLK
  5
1D
100
AcDbEntity
  8
0
100
AcDbBlockEnd
  0
BLOCK
  5
216
100
AcDbEntity
  8
0
100
AcDbBlockBegin
  2
_FILLED
 70
64
 10
0.0
 20
0.0
  3
_FILLED
  1

  0
SOLID
  5
217
100
AcDbEntity
  8
0
  6
BYBLOCK
 62
0
100
AcDbTrace
 10
0.0
 20
0.0
 11
-1.0
 21
0.125
 12
-1.0
 22
-0.125
 13
-1.0
 23
-0.125
  0
ENDBLK
  5
218
100
AcDbEntity
  8
0
  6
BYBLOCK
 62
0
100
AcDbBlockEnd
  0
BLOCK
  5
219
100
AcDbEntity
  8
_03_2D_ZEICHNUNG_BEMASSUNGEN
100
AcDbBlockBegin
 62
7
  6
CONTINUOUS
  2
*D0
 70
65
 10
0.0
 20
0.0
  3
*D0
  1

  0
TEXT
  5
21A
100
AcDbEntity
  8
_03_2D_ZEICHNUNG_BEMASSUNGEN
100
AcDbText
 62
2
  6
CONTINUOUS
 10
-84.875
 20
-2.375
  7
STANDARD
 40
3.5
  1
16
 50
90.0
 41
0.6785714286
 72
1
 11
-84.875
 21
-0.0
100
AcDbText
  0
LINE
  5
21B
100
AcDbEntity
  8
_03_2D_ZEICHNUNG_BEMASSUNGEN
100
AcDbLine
 62
7
  6
CONTINUOUS
 10
-75.0
 20
8.0
 11
-85.5
 21
8.0
  0
LINE
  5
21C
100
AcDbEntity
  8
_03_2D_ZEICHNUNG_BEMASSUNGEN
100
AcDbLine
 62
7
  6
CONTINUOUS
 10
-75.0
 20
-8.0
 11
-85.5
 21
-8.0
  0
LINE
  5
21D
100
AcDbEntity
  8
_03_2D_ZEICHNUNG_BEMASSUNGEN
100
AcDbLine
 62
7
  6
CONTINUOUS
 10
-84.0
 20
8.0
 11
-84.0
 21
14.0
  0
LINE
  5
21E
100
AcDbEntity
  8
_03_2D_ZEICHNUNG_BEMASSUNGEN
100
AcDbLine
 62
7
  6
CONTINUOUS
 10
-84.0
 20
14.0
 11
-84.0
 21
-0.0
  0
LINE
  5
21F
100
AcDbEntity
  8
_03_2D_ZEICHNUNG_BEMASSUNGEN
100
AcDbLine
 62
7
  6
CONTINUOUS
 10
-84.0
 20
-8.0
 11
-84.0
 21
-14.0
  0
LINE
  5
220
100
AcDbEntity
  8
_03_2D_ZEICHNUNG_BEMASSUNGEN
100
AcDbLine
 62
7
  6
CONTINUOUS
 10
-84.0
 20
-14.0
 11
-84.0
 21
-0.0
  0
INSERT
  5
221
100
AcDbEntity
  8
_03_2D_ZEICHNUNG_BEMASSUNGEN
100
AcDbBlockReference
 62
7
  6
CONTINUOUS
  2
_FILLED
 10
-84.0
 20
8.0
 41
3.5
 42
3.5
 43
3.5
 50
270.0
  0
INSERT
  5
222
100
AcDbEntity
  8
_03_2D_ZEICHNUNG_BEMASSUNGEN
100
AcDbBlockReference
 62
7
  6
CONTINUOUS
  2
_FILLED
 10
-84.0
 20
-8.0
 41
3.5
 42
3.5
 43
3.5
 50
90.0
  0
ENDBLK
  5
223
100
AcDbEntity
  8
0
  6
BYBLOCK
 62
0
100
AcDbBlockEnd
  0
BLOCK
  5
224
100
AcDbEntity
  8
_03_2D_ZEICHNUNG_BEMASSUNGEN
100
AcDbBlockBegin
 62
7
  6
CONTINUOUS
  2
*D1
 70
65
 10
0.0
 20
0.0
  3
*D1
  1

  0
TEXT
  5
225
100
AcDbEntity
  8
_03_2D_ZEICHNUNG_BEMASSUNGEN
100
AcDbText
 62
2
  6
CONTINUOUS
 10
-28.75
 20
17.875
  7
STANDARD
 40
3.5
  1
100
 41
0.7142857143
 72
1
 11
-25.0
 21
17.875
100
AcDbText
  0
LINE
  5
226
100
AcDbEntity
  8
_03_2D_ZEICHNUNG_BEMASSUNGEN
100
AcDbLine
 62
7
  6
CONTINUOUS
 10
25.0
 20
8.0
 11
25.0
 21
18.5
  0
LINE
  5
227
100
AcDbEntity
  8
_03_2D_ZEICHNUNG_BEMASSUNGEN
100
AcDbLine
 62
7
  6
CONTINUOUS
 10
-75.0
 20
8.0
 11
-75.0
 21
18.5
  0
LINE
  5
228
100
AcDbEntity
  8
_03_2D_ZEICHNUNG_BEMASSUNGEN
100
AcDbLine
 62
7
  6
CONTINUOUS
 10
25.0
 20
17.0
 11
-25.0
 21
17.0
  0
LINE
  5
229
100
AcDbEntity
  8
_03_2D_ZEICHNUNG_BEMASSUNGEN
100
AcDbLine
 62
7
  6
CONTINUOUS
 10
-75.0
 20
17.0
 11
-25.0
 21
17.0
  0
INSERT
  5
22A
100
AcDbEntity
  8
_03_2D_ZEICHNUNG_BEMASSUNGEN
100
AcDbBlockReference
 62
7
  6
CONTINUOUS
  2
_FILLED
 10
25.0
 20
17.0
 41
3.5
 42
3.5
 43
3.5
 50
360.0
  0
INSERT
  5
22B
100
AcDbEntity
  8
_03_2D_ZEICHNUNG_BEMASSUNGEN
100
AcDbBlockReference
 62
7
  6
CONTINUOUS
  2
_FILLED
 10
-75.0
 20
17.0
 41
3.5
 42
3.5
 43
3.5
 50
180.0
  0
ENDBLK
  5
22C
100
AcDbEntity
  8
0
  6
BYBLOCK
 62
0
100
AcDbBlockEnd
  0
BLOCK
  5
22D
100
AcDbEntity
  8
_03_2D_ZEICHNUNG_BEMASSUNGEN
100
AcDbBlockBegin
 62
7
  6
CONTINUOUS
  2
*D2
 70
65
 10
0.0
 20
0.0
  3
*D2
  1

  0
TEXT
  5
22E
100
AcDbEntity
  8
_03_2D_ZEICHNUNG_BEMASSUNGEN
100
AcDbText
 62
2
  6
CONTINUOUS
 10
33.4118456776
 20
-4.75
  7
STANDARD
 40
3.5
  1
20
 50
90.0
 41
0.7857142857
 72
1
 11
33.4118456776
 21
-2.0
100
AcDbText
  0
LINE
  5
22F
100
AcDbEntity
  8
_03_2D_ZEICHNUNG_BEMASSUNGEN
100
AcDbLine
 62
7
  6
CONTINUOUS
 10
25.0
 20
-12.0
 11
35.7868456776
 21
-12.0
  0
LINE
  5
230
100
AcDbEntity
  8
_03_2D_ZEICHNUNG_BEMASSUNGEN
100
AcDbLine
 62
7
  6
CONTINUOUS
 10
-75.0
 20
8.0
 11
35.7868456776
 21
8.0
  0
LINE
  5
231
100
AcDbEntity
  8
_03_2D_ZEICHNUNG_BEMASSUNGEN
100
AcDbLine
 62
7
  6
CONTINUOUS
 10
34.2868456776
 20
-12.0
 11
34.2868456776
 21
-2.0
  0
LINE
  5
232
100
AcDbEntity
  8
_03_2D_ZEICHNUNG_BEMASSUNGEN
100
AcDbLine
 62
7
  6
CONTINUOUS
 10
34.2868456776
 20
8.0
 11
34.2868456776
 21
-2.0
  0
INSERT
  5
233
100
AcDbEntity
  8
_03_2D_ZEICHNUNG_BEMASSUNGEN
100
AcDbBlockReference
 62
7
  6
CONTINUOUS
  2
_FILLED
 10
34.2868456776
 20
-12.0
 41
3.5
 42
3.5
 43
3.5
 50
270.0
  0
INSERT
  5
234
100
AcDbEntity
  8
_03_2D_ZEICHNUNG_BEMASSUNGEN
100
AcDbBlockReference
 62
7
  6
CONTINUOUS
  2
_FILLED
 10
34.2868456776
 20
8.0
 41
3.5
 42
3.5
 43
3.5
 50
90.0
  0
ENDBLK
  5
235
100
AcDbEntity
  8
0
  6
BYBLOCK
 62
0
100
AcDbBlockEnd
  0
ENDSEC
  0
SECTION
  2
ENTITIES
  0
DIMENSION
  5
236
100
AcDbEntity
  8
_03_2D_ZEICHNUNG_BEMASSUNGEN
100
AcDbDimension
 62
7
  6
CONTINUOUS
  2
*D0
 10
-84.0
 20
-8.0
 11
-84.0
 21
-0.499997406
 70
160
 71
2
 42
16.0
  3
DIMSTYLE_1
100
AcDbAlignedDimension
 13
-75.0
 23
8.0
 14
-75.0
 24
-8.0
 50
270.0
100
AcDbRotatedDimension
  0
DIMENSION
  5
237
100
AcDbEntity
  8
_03_2D_ZEICHNUNG_BEMASSUNGEN
100
AcDbDimension
 62
7
  6
CONTINUOUS
  2
*D1
 10
-75.0
 20
17.0
 11
-25.4999988556
 21
17.0
 70
160
 71
2
 42
100.0
  3
DIMSTYLE_2
100
AcDbAlignedDimension
 13
25.0
 23
8.0
 14
-75.0
 24
8.0
 50
180.0
100
AcDbRotatedDimension
  0
DIMENSION
  5
238
100
AcDbEntity
  8
_03_2D_ZEICHNUNG_BEMASSUNGEN
100
AcDbDimension
 62
7
  6
CONTINUOUS
  2
*D2
 10
34.2868456776
 20
8.0
 11
34.2868456776
 21
-2.4999998219
 70
160
 71
2
 42
20.0
  3
DIMSTYLE_1
100
AcDbAlignedDimension
 13
25.0
 23
-12.0
 14
-75.0
 24
8.0
 50
90.0
100
AcDbRotatedDimension
  0
LINE
  5
239
100
AcDbEntity
  8
_30_VOLUMEN
100
AcDbLine
 62
4
  6
CONTINUOUS
 10
-75.0
 20
-7.5
 11
-75.0
 21
7.5
  0
LINE
  5
23A
100
AcDbEntity
  8
_30_VOLUMEN
100
AcDbLine
 62
4
  6
CONTINUOUS
 10
-74.5
 20
-8.0
 11
-74.5
 21
8.0
  0
LINE
  5
23B
100
AcDbEntity
  8
_30_VOLUMEN
100
AcDbLine
 62
4
  6
CONTINUOUS
 10
-74.5
 20
8.0
 11
-75.0
 21
7.5
  0
LINE
  5
23C
100
AcDbEntity
  8
_30_VOLUMEN
100
AcDbLine
 62
4
  6
CONTINUOUS
 10
-74.5
 20
-8.0
 11
-75.0
 21
-7.5
  0
LINE
  5
23D
100
AcDbEntity
  8
_30_VOLUMEN
100
AcDbLine
 62
4
  6
CONTINUOUS
 10
24.6029565845
 20
-12.0
 11
9.5633274152
 21
-12.0
  0
LINE
  5
23E
100
AcDbEntity
  8
_21_KURVEN
100
AcDbLine
 62
7
  6
CONTINUOUS
 10
25.2868456776
 20
-12.0
 11
5.0
 21
-12.0
  0
LINE
  5
23F
100
AcDbEntity
  8
_26_BEZUGSACHSEN
100
AcDbLine
 62
4
  6
CONTINUOUS
 10
9.6441529289
 20
-10.7
 11
5.7234628196
 21
-10.7
  0
LINE
  5
240
100
AcDbEntity
  8
_30_VOLUMEN
100
AcDbLine
 62
4
  6
CONTINUOUS
 10
-74.5
 20
-8.0
 11
5.0
 21
-8.0
  0
LINE
  5
241
100
AcDbEntity
  8
_21_KURVEN
100
AcDbLine
 62
7
  6
CONTINUOUS
 10
14.7828517736
 20
-7.2633067273
 11
17.1348960561
 21
-7.2633067273
  0
LINE
  5
242
100
AcDbEntity
  8
_21_KURVEN
100
AcDbLine
 62
7
  6
CONTINUOUS
 10
16.6400366925
 20
-6.7684473637
 11
15.1089640203
 21
-6.7684473637
  0
LINE
  5
243
100
AcDbEntity
  8
_30_VOLUMEN
100
AcDbLine
 62
4
  6
CONTINUOUS
 10
-74.5
 20
8.0
 11
5.0
 21
8.0
  0
LINE
  5
244
100
AcDbEntity
  8
0
100
AcDbLine
 62
4
  6
CONTINUOUS
 10
5.0
 20
8.0
 11
15.6655229517
 21
8.0
  0
LINE
  5
245
100
AcDbEntity
  8
_21_KURVEN
100
AcDbLine
 62
7
  6
CONTINUOUS
 10
17.1348960561
 20
-7.2633067273
 11
16.6400366925
 21
-6.7684473637
  0
LINE
  5
246
100
AcDbEntity
  8
0
100
AcDbLine
 62
4
  6
CONTINUOUS
 10
5.7234628196
 20
-10.7
 11
5.0
 21
-8.0
  0
LINE
  5
247
100
AcDbEntity
  8
0
100
AcDbLine
 62
4
  6
CONTINUOUS
 10
5.0
 20
8.0
 11
5.0
 21
-8.0
  0
LINE
  5
248
100
AcDbEntity
  8
0
100
AcDbLine
 62
4
  6
CONTINUOUS
 10
6.0956475211
 20
8.0
 11
5.5964193613
 21
-10.2258673589
  0
LINE
  5
249
100
AcDbEntity
  8
0
100
AcDbLine
 62
4
  6
CONTINUOUS
 10
15.6655229517
 20
8.0
 11
21.900905859
 21
4.4
  0
LINE
  5
24A
100
AcDbEntity
  8
_30_VOLUMEN
100
AcDbLine
 62
4
  6
CONTINUOUS
 10
9.2278544642
 20
-11.407699316
 11
16.8899880267
 21
1.6177791341
  0
LINE
  5
24B
100
AcDbEntity
  8
_21_KURVEN
100
AcDbLine
 62
7
  6
CONTINUOUS
 10
8.8794383221
 20
-12.0
 11
17.2384041687
 21
2.2100798181
  0
LINE
  5
24C
100
AcDbEntity
  8
_26_BEZUGSACHSEN
100
AcDbLine
 62
4
  6
CONTINUOUS
 10
9.6441529289
 20
-10.7
 11
17.2384041687
 21
2.2100798181
  0
LINE
  5
24D
100
AcDbEntity
  8
_30_VOLUMEN
100
AcDbLine
 62
4
  6
CONTINUOUS
 10
16.9182116972
 20
1.6580657122
 11
16.8899880267
 21
1.6177791341
  0
LINE
  5
24E
100
AcDbEntity
  8
_30_VOLUMEN
100
AcDbLine
 62
4
  6
CONTINUOUS
 10
9.5670771162
 20
-10.7
 11
9.2265625757
 21
-11.4070771678
  0
LINE
  5
24F
100
AcDbEntity
  8
_30_VOLUMEN
100
AcDbLine
 62
4
  6
CONTINUOUS
 10
9.2278544642
 20
-11.407699316
 11
9.2123524271
 21
-11.4385227264
  0
LINE
  5
250
100
AcDbEntity
  8
_26_BEZUGSACHSEN
100
AcDbLine
 62
4
  6
CONTINUOUS
 10
17.1290855674
 20
2.0242403161
 11
17.2468472555
 21
1.8163239156
  0
LINE
  5
251
100
AcDbEntity
  8
_30_VOLUMEN
100
AcDbLine
 62
4
  6
CONTINUOUS
 10
17.5738771198
 20
1.6177791341
 11
24.9513727266
 21
-11.407699316
  0
LINE
  5
252
100
AcDbEntity
  8
_21_KURVEN
100
AcDbLine
 62
7
  6
CONTINUOUS
 10
17.2384041687
 20
2.2100798181
 11
25.2868456776
 21
-12.0
  0
LINE
  5
253
100
AcDbEntity
  8
_26_BEZUGSACHSEN
100
AcDbLine
 62
4
  6
CONTINUOUS
 10
22.5
 20
-7.0796313205
 11
17.2384041687
 21
2.2100798181
  0
LINE
  5
254
100
AcDbEntity
  8
0
100
AcDbLine
 62
4
  6
CONTINUOUS
 10
21.900905859
 20
4.4
 11
22.5
 21
-1.3
  0
LINE
  5
255
100
AcDbEntity
  8
_26_BEZUGSACHSEN
100
AcDbLine
 62
4
  6
CONTINUOUS
 10
22.5
 20
-1.3
 11
22.5
 21
-7.0796313205
  0
LINE
  5
256
100
AcDbEntity
  8
_21_KURVEN
100
AcDbLine
 62
7
  6
CONTINUOUS
 10
25.0
 20
-12.0
 11
25.0
 21
8.0
  0
ARC
  5
257
100
AcDbEntity
  8
_30_VOLUMEN
100
AcDbCircle
 62
4
  6
CONTINUOUS
 10
16.6196363755
 20
-6.7850202021
 40
1.8789368367
100
AcDbArc
 50
230.8002624871
 51
238.1490580577
  0
ARC
  5
258
100
AcDbEntity
  8
_30_VOLUMEN
100
AcDbCircle
 62
7
  6
CONTINUOUS
 10
16.9700814674
 20
-7.0570472971
 40
1.8756921387
100
AcDbArc
 50
359.314565068
 51
44.9258645035
  0
ARC
  5
259
100
AcDbEntity
  8
_30_VOLUMEN
100
AcDbCircle
 62
4
  6
CONTINUOUS
 10
16.6631565288
 20
-6.7436627452
 40
1.8712102229
100
AcDbArc
 50
31.8570515286
 51
38.2057121701
  0
ARC
  5
25A
100
AcDbEntity
  8
_30_VOLUMEN
100
AcDbCircle
 62
4
  6
CONTINUOUS
 10
16.9051549427
 20
-7.1301284103
 40
1.8335820402
100
AcDbArc
 50
178.4834676823
 51
179.3734328526
  0
SPLINE
  5
25B
100
AcDbEntity
  8
_30_VOLUMEN
100
AcDbSpline
 62
4
  6
CONTINUOUS
 70
0
 71
3
 72
15
 73
11
 74
0
 42
0.0000001
 43
0.0000001
 44
0.0000000001
 40
0.0
 40
0.0
 40
0.0
 40
0.0
 40
0.1248300525
 40
0.2502477441
 40
0.3756359701
 40
0.5010548533
 40
0.6262779921
 40
0.7511894241
 40
0.8757480709
 40
1.0
 40
1.0
 40
1.0
 40
1.0
 10
18.5346009032
 20
-6.7684473637
 30
0.0
 10
18.5327740342
 20
-6.935648129
 30
0.0
 10
18.4838034011
 20
-7.2719173857
 30
0.0
 10
18.2825578707
 20
-7.7391451159
 30
0.0
 10
17.9657213217
 20
-8.1386435114
 30
0.0
 10
17.5563933313
 20
-8.4420018673
 30
0.0
 10
17.082948129
 20
-8.6285617754
 30
0.0
 10
16.5782273386
 20
-8.6850757707
 30
0.0
 10
16.0779422075
 20
-8.6072703491
 30
0.0
 10
15.7695512147
 20
-8.4689132085
 30
0.0
 10
15.6281759296
 20
-8.3810833409
 30
0.0
  0
SPLINE
  5
25C
100
AcDbEntity
  8
_30_VOLUMEN
100
AcDbSpline
 62
4
  6
CONTINUOUS
 70
0
 71
3
 72
9
 73
5
 74
0
 42
0.0000001
 43
0.0000001
 44
0.0000000001
 40
0.0
 40
0.0
 40
0.0
 40
0.0
 40
0.4998188962
 40
1.0
 40
1.0
 40
1.0
 40
1.0
 10
18.252514721
 20
-5.756054777
 30
0.0
 10
18.3458615379
 20
-5.9062739602
 30
0.0
 10
18.4899418722
 20
-6.2353645448
 30
0.0
 10
18.5365345949
 20
-6.591469841
 30
0.0
 10
18.5346009032
 20
-6.7684473637
 30
0.0
  0
SPLINE
  5
25D
100
AcDbEntity
  8
_30_VOLUMEN
100
AcDbSpline
 62
4
  6
CONTINUOUS
 70
0
 71
3
 72
15
 73
11
 74
0
 42
0.0000001
 43
0.0000001
 44
0.0000000001
 40
0.0
 40
0.0
 40
0.0
 40
0.0
 40
0.1254499329
 40
0.2529525522
 40
0.3811120038
 40
0.5088201499
 40
0.6348138473
 40
0.7583720397
 40
0.8800413712
 40
1.0
 40
1.0
 40
1.0
 40
1.0
 10
15.072215151
 20
-7.0816019434
 30
0.0
 10
15.0770849739
 20
-6.8975919927
 30
0.0
 10
15.1421232335
 20
-6.5259081691
 30
0.0
 10
15.3952816248
 20
-6.0188162904
 30
0.0
 10
15.7852548315
 20
-5.6024494954
 30
0.0
 10
16.275414291
 20
-5.3150702545
 30
0.0
 10
16.8207553427
 20
-5.1819061849
 30
0.0
 10
17.3726559561
 20
-5.2096464055
 30
0.0
 10
17.8838776313
 20
-5.3934769026
 30
0.0
 10
18.1736508408
 20
-5.6079846757
 30
0.0
 10
18.2981135947
 20
-5.7324474296
 30
0.0
  0
SPLINE
  5
25E
100
AcDbEntity
  8
_30_VOLUMEN
100
AcDbSpline
 62
4
  6
CONTINUOUS
 70
0
 71
3
 72
9
 73
5
 74
0
 42
0.0000001
 43
0.0000001
 44
0.0000000001
 40
0.0
 40
0.0
 40
0.0
 40
0.0
 40
0.495365115
 40
1.0
 40
1.0
 40
1.0
 40
1.0
 10
15.6040367584
 20
-8.4265242659
 30
0.0
 10
15.4348857055
 20
-8.2573732129
 30
0.0
 10
15.1594505741
 20
-7.8429543801
 30
0.0
 10
15.069020069
 20
-7.3537549939
 30
0.0
 10
15.0716825393
 20
-7.1100773807
 30
0.0
  0
SPLINE
  5
25F
100
AcDbEntity
  8
_30_VOLUMEN
100
AcDbSpline
 62
4
  6
CONTINUOUS
 70
0
 71
3
 72
15
 73
11
 74
0
 42
0.0000001
 43
0.0000001
 44
0.0000000001
 40
0.0
 40
0.0
 40
0.0
 40
0.0
 40
0.1252688551
 40
0.2509019176
 40
0.3765292981
 40
0.501784395
 40
0.6265168298
 40
0.7508824197
 40
0.8752537494
 40
1.0
 40
1.0
 40
1.0
 40
1.0
 10
19.4869403387
 20
-7.2633067273
 30
0.0
 10
19.4835907695
 20
-7.5698697844
 30
0.0
 10
19.3537268829
 20
-8.1890627539
 30
0.0
 10
18.8226138623
 20
-8.9694958263
 30
0.0
 10
18.0353693431
 20
-9.4924377646
 30
0.0
 10
17.1105821645
 20
-9.6766928016
 30
0.0
 10
16.1883067564
 20
-9.4937344987
 30
0.0
 10
15.4096876468
 20
-8.9696985549
 30
0.0
 10
14.8945806207
 20
-8.1864442713
 30
0.0
 10
14.7795161784
 20
-7.5685908454
 30
0.0
 10
14.7828517736
 20
-7.2633067273
 30
0.0
  0
SPLINE
  5
260
100
AcDbEntity
  8
_30_VOLUMEN
100
AcDbSpline
 62
4
  6
CONTINUOUS
 70
0
 71
3
 72
15
 73
11
 74
0
 42
0.0000001
 43
0.0000001
 44
0.0000000001
 40
0.0
 40
0.0
 40
0.0
 40
0.0
 40
0.1252688551
 40
0.2509019176
 40
0.3765292981
 40
0.501784395
 40
0.6265168298
 40
0.7508824197
 40
0.8752537494
 40
1.0
 40
1.0
 40
1.0
 40
1.0
 10
14.7828517736
 20
-7.2633067273
 30
0.0
 10
14.7862013428
 20
-6.9567436702
 30
0.0
 10
14.9160652294
 20
-6.3375507007
 30
0.0
 10
15.44717825
 20
-5.5571176282
 30
0.0
 10
16.2344227692
 20
-5.03417569
 30
0.0
 10
17.1592099478
 20
-4.849920653
 30
0.0
 10
18.0814853559
 20
-5.0328789558
 30
0.0
 10
18.8601044655
 20
-5.5569148997
 30
0.0
 10
19.3752114916
 20
-6.3401691833
 30
0.0
 10
19.4902759339
 20
-6.9580226092
 30
0.0
 10
19.4869403387
 20
-7.2633067273
 30
0.0
  0
SPLINE
  5
261
100
AcDbEntity
  8
_30_VOLUMEN
100
AcDbSpline
 62
4
  6
CONTINUOUS
 70
0
 71
3
 72
15
 73
11
 74
0
 42
0.0000001
 43
0.0000001
 44
0.0000000001
 40
0.0
 40
0.0
 40
0.0
 40
0.0
 40
0.1252339675
 40
0.2509317899
 40
0.3765339462
 40
0.5017845186
 40
0.6265121743
 40
0.7508531654
 40
0.87528882
 40
1.0
 40
1.0
 40
1.0
 40
1.0
 10
14.805699451
 20
-7.2300388709
 30
0.0
 10
14.8089679867
 20
-6.930892254
 30
0.0
 10
14.9360136391
 20
-6.3265610328
 30
0.0
 10
15.4540145071
 20
-5.5644366462
 30
0.0
 10
16.2228706922
 20
-5.0545188576
 30
0.0
 10
17.1253601537
 20
-4.8743184889
 30
0.0
 10
18.0253951133
 20
-5.0532541949
 30
0.0
 10
18.7858396343
 20
-5.5642390632
 30
0.0
 10
19.2882096318
 20
-6.329114713
 30
0.0
 10
19.4008118397
 20
-6.9321410374
 30
0.0
 10
19.3975569485
 20
-7.2300388709
 30
0.0
  0
SPLINE
  5
262
100
AcDbEntity
  8
_30_VOLUMEN
100
AcDbSpline
 62
7
  6
CONTINUOUS
 70
0
 71
3
 72
15
 73
11
 74
0
 42
0.0000001
 43
0.0000001
 44
0.0000000001
 40
0.0
 40
0.0
 40
0.0
 40
0.0
 40
0.1241601203
 40
0.2485912933
 40
0.3733927073
 40
0.4985617597
 40
0.6240113513
 40
0.7495084616
 40
0.875111275
 40
1.0
 40
1.0
 40
1.0
 40
1.0
 10
15.604039236
 20
-8.4265217895
 30
0.0
 10
15.7340244151
 20
-8.5565705749
 30
0.0
 10
16.0354135225
 20
-8.7789378294
 30
0.0
 10
16.5638151539
 20
-8.9664497633
 30
0.0
 10
17.125949682
 20
-8.9915501715
 30
0.0
 10
17.6724487607
 20
-8.8526929805
 30
0.0
 10
18.1572593699
 20
-8.5628416308
 30
0.0
 10
18.539058701
 20
-8.1453638462
 30
0.0
 10
18.7837370226
 20
-7.6368344305
 30
0.0
 10
18.8436186986
 20
-7.2644256027
 30
0.0
 10
18.8456393873
 20
-7.0794858477
 30
0.0
  0
SPLINE
  5
263
100
AcDbEntity
  8
_30_VOLUMEN
100
AcDbSpline
 62
4
  6
CONTINUOUS
 70
0
 71
3
 72
15
 73
11
 74
0
 42
0.0000001
 43
0.0000001
 44
0.0000000001
 40
0.0
 40
0.0
 40
0.0
 40
0.0
 40
0.12471118
 40
0.2491468346
 40
0.3734878257
 40
0.4982154814
 40
0.6234660538
 40
0.7490682101
 40
0.8747660325
 40
1.0
 40
1.0
 40
1.0
 40
1.0
 10
14.805699451
 20
-7.2300388709
 30
0.0
 10
14.8024445598
 20
-7.5279367044
 30
0.0
 10
14.9150467677
 20
-8.1309630288
 30
0.0
 10
15.4174167652
 20
-8.8958386787
 30
0.0
 10
16.1778612862
 20
-9.4068235469
 30
0.0
 10
17.0778962458
 20
-9.5857592529
 30
0.0
 10
17.9803857074
 20
-9.4055588842
 30
0.0
 10
18.7492418924
 20
-8.8956410957
 30
0.0
 10
19.2672427604
 20
-8.133516709
 30
0.0
 10
19.3942884129
 20
-7.5291854879
 30
0.0
 10
19.3975569485
 20
-7.2300388709
 30
0.0
  0
SPLINE
  5
264
100
AcDbEntity
  8
_21_KURVEN
100
AcDbSpline
 62
1
  6
CENTER
 70
0
 71
3
 72
131
 73
127
 74
0
 42
0.0000001
 43
0.0000001
 44
0.0000000001
 40
0.0
 40
0.0
 40
0.0
 40
0.0
 40
0.015625
 40
0.03125
 40
0.046875
 40
0.0546875
 40
0.05859375
 40
0.0625
 40
0.06640625
 40
0.0703125
 40
0.078125
 40
0.09375
 40
0.109375
 40
0.1171875
 40
0.12109375
 40
0.125
 40
0.12890625
 40
0.1328125
 40
0.140625
 40
0.15625
 40
0.171875
 40
0.1796875
 40
0.18359375
 40
0.1875
 40
0.19140625
 40
0.1953125
 40
0.203125
 40
0.21875
 40
0.234375
 40
0.2421875
 40
0.24609375
 40
0.25
 40
0.25390625
 40
0.2578125
 40
0.265625
 40
0.28125
 40
0.296875
 40
0.3046875
 40
0.30859375
 40
0.3125
 40
0.31640625
 40
0.3203125
 40
0.328125
 40
0.34375
 40
0.359375
 40
0.3671875
 40
0.37109375
 40
0.375
 40
0.37890625
 40
0.3828125
 40
0.390625
 40
0.40625
 40
0.421875
 40
0.4296875
 40
0.43359375
 40
0.4375
 40
0.44140625
 40
0.4453125
 40
0.453125
 40
0.46875
 40
0.484375
 40
0.4921875
 40
0.49609375
 40
0.5
 40
0.50390625
 40
0.5078125
 40
0.515625
 40
0.53125
 40
0.546875
 40
0.5546875
 40
0.55859375
 40
0.5625
 40
0.56640625
 40
0.5703125
 40
0.578125
 40
0.59375
 40
0.609375
 40
0.6171875
 40
0.62109375
 40
0.625
 40
0.62890625
 40
0.6328125
 40
0.640625
 40
0.65625
 40
0.671875
 40
0.6796875
 40
0.68359375
 40
0.6875
 40
0.69140625
 40
0.6953125
 40
0.703125
 40
0.71875
 40
0.734375
 40
0.7421875
 40
0.74609375
 40
0.75
 40
0.75390625
 40
0.7578125
 40
0.765625
 40
0.78125
 40
0.796875
 40
0.8046875
 40
0.80859375
 40
0.8125
 40
0.81640625
 40
0.8203125
 40
0.828125
 40
0.84375
 40
0.859375
 40
0.8671875
 40
0.87109375
 40
0.875
 40
0.87890625
 40
0.8828125
 40
0.890625
 40
0.90625
 40
0.921875
 40
0.9296875
 40
0.93359375
 40
0.9375
 40
0.94140625
 40
0.9453125
 40
0.953125
 40
0.96875
 40
0.984375
 40
1.0
 40
1.0
 40
1.0
 40
1.0
 10
12.3984855295
 20
-7.2633067273
 30
0.0
 10
12.4051648451
 20
-7.3399757727
 30
0.0
 10
12.4185568395
 20
-7.4933072711
 30
0.0
 10
12.4384446517
 20
-7.723344073
 30
0.0
 10
12.4556016852
 20
-7.9149260414
 30
0.0
 10
12.4664730881
 20
-8.0492583839
 30
0.0
 10
12.4744619109
 20
-8.1256686788
 30
0.0
 10
12.4754490419
 20
-8.1839652554
 30
0.0
 10
12.495565821
 20
-8.238481932
 30
0.0
 10
12.5157137756
 20
-8.3124900263
 30
0.0
 10
12.5541003125
 20
-8.4413823239
 30
0.0
 10
12.6071591478
 20
-8.6258974989
 30
0.0
 10
12.6613769168
 20
-8.8100638981
 30
0.0
 10
12.6981409464
 20
-8.9394444818
 30
0.0
 10
12.7208385553
 20
-9.0126852694
 30
0.0
 10
12.7331325315
 20
-9.0695561824
 30
0.0
 10
12.7634986334
 20
-9.1190112935
 30
0.0
 10
12.7976812783
 20
-9.1875390869
 30
0.0
 10
12.8604561235
 20
-9.3062477568
 30
0.0
 10
12.9484496357
 20
-9.476541918
 30
0.0
 10
13.0375535163
 20
-9.646308917
 30
0.0
 10
13.0987738458
 20
-9.7657556139
 30
0.0
 10
13.135399301
 20
-9.8331236507
 30
0.0
 10
13.1582704166
 20
-9.886137106
 30
0.0
 10
13.1987122306
 20
-9.9296444597
 30
0.0
 10
13.2465045071
 20
-9.9909715854
 30
0.0
 10
13.3330100395
 20
-10.0967335437
 30
0.0
 10
13.454985559
 20
-10.2487579164
 30
0.0
 10
13.5779114744
 20
-10.4000112485
 30
0.0
 10
13.6630864526
 20
-10.5068526638
 30
0.0
 10
13.7129696001
 20
-10.5664834999
 30
0.0
 10
13.7469962415
 20
-10.6151953782
 30
0.0
 10
13.7939598942
 20
-10.6486629523
 30
0.0
 10
13.852064435
 20
-10.6986053583
 30
0.0
 10
13.9558613
 20
-10.7835104084
 30
0.0
 10
14.1029494684
 20
-10.9062357033
 30
0.0
 10
14.2507833949
 20
-11.0279823152
 30
0.0
 10
14.3535361985
 20
-11.1142575215
 30
0.0
 10
14.4132814074
 20
-11.1620468249
 30
0.0
 10
14.455211192
 20
-11.2021205095
 30
0.0
 10
14.5081428044
 20
-11.226022773
 30
0.0
 10
14.5748799626
 20
-11.2635349946
 30
0.0
 10
14.6934660049
 20
-11.3265347176
 30
0.0
 10
14.8618739372
 20
-11.4180605075
 30
0.0
 10
15.0308636859
 20
-11.5085228215
 30
0.0
 10
15.1486351852
 20
-11.5730114106
 30
0.0
 10
15.2166523395
 20
-11.6081839856
 30
0.0
 10
15.2656566911
 20
-11.6392647106
 30
0.0
 10
15.322335522
 20
-11.6523792841
 30
0.0
 10
15.3952297726
 20
-11.676134052
 30
0.0
 10
15.5240480345
 20
-11.7147653922
 30
0.0
 10
15.7073720658
 20
-11.7716412553
 30
0.0
 10
15.8911170431
 20
-11.8273632358
 30
0.0
 10
16.0193459805
 20
-11.8676100116
 30
0.0
 10
16.0931663124
 20
-11.8888262377
 30
0.0
 10
16.1470037574
 20
-11.9097295192
 30
0.0
 10
16.2066790914
 20
-11.9115593186
 30
0.0
 10
16.284210014
 20
-11.9206540438
 30
0.0
 10
16.4208365057
 20
-11.933449577
 30
0.0
 10
16.6155325426
 20
-11.9535175672
 30
0.0
 10
16.8103627135
 20
-11.9723742353
 30
0.0
 10
16.9468014176
 20
-11.9868656195
 30
0.0
 10
17.0246274349
 20
-11.9932954358
 30
0.0
 10
17.0833973646
 20
-12.0033016601
 30
0.0
 10
17.1406351056
 20
-11.9934979236
 30
0.0
 10
17.2174868844
 20
-11.9873380925
 30
0.0
 10
17.3517248536
 20
-11.9733191658
 30
0.0
 10
17.5436534331
 20
-11.955137573
 30
0.0
 10
17.7354230306
 20
-11.9357441463
 30
0.0
 10
17.8698835746
 20
-11.9234217871
 30
0.0
 10
17.9463855931
 20
-11.9145959215
 30
0.0
 10
18.0046964622
 20
-11.9129720634
 30
0.0
 10
18.0594361994
 20
-11.8922582999
 30
0.0
 10
18.1336688677
 20
-11.8713004956
 30
0.0
 10
18.2629883022
 20
-11.8315032623
 30
0.0
 10
18.4480942589
 20
-11.7764250997
 30
0.0
 10
18.6328640815
 20
-11.7201917322
 30
0.0
 10
18.7626541038
 20
-11.6820117858
 30
0.0
 10
18.8361472771
 20
-11.6585125307
 30
0.0
 10
18.8931559195
 20
-11.6455964006
 30
0.0
 10
18.9429457888
 20
-11.6146880972
 30
0.0
 10
19.0118511818
 20
-11.5797546187
 30
0.0
 10
19.1312528696
 20
-11.515678914
 30
0.0
 10
19.3025186888
 20
-11.4258193698
 30
0.0
 10
19.4732694472
 20
-11.3348551513
 30
0.0
 10
19.59339222
 20
-11.2723259907
 30
0.0
 10
19.6611644794
 20
-11.2349622285
 30
0.0
 10
19.7144310087
 20
-11.2115104775
 30
0.0
 10
19.7583828613
 20
-11.1705908508
 30
0.0
 10
19.8202358671
 20
-11.1221256089
 30
0.0
 10
19.9269493721
 20
-11.0344592671
 30
0.0
 10
20.0803156286
 20
-10.9108153184
 30
0.0
 10
20.2329211832
 20
-10.786229342
 30
0.0
 10
20.3406996709
 20
-10.6998818389
 30
0.0
 10
20.4008791325
 20
-10.6493441362
 30
0.0
 10
20.4499657228
 20
-10.614783196
 30
0.0
 10
20.4839484597
 20
-10.5674510446
 30
0.0
 10
20.5345287468
 20
-10.5087973219
 30
0.0
 10
20.6205730384
 20
-10.4040665157
 30
0.0
 10
20.7449128701
 20
-10.2556285656
 30
0.0
 10
20.8682821092
 20
-10.1064555067
 30
0.0
 10
20.9556852306
 20
-10.0027538528
 30
0.0
 10
21.0041302138
 20
-9.9424828907
 30
0.0
 10
21.0446644512
 20
-9.9001127238
 30
0.0
 10
21.0691465174
 20
-9.8469167751
 30
0.0
 10
21.1073902055
 20
-9.7797657425
 30
0.0
 10
21.1716894614
 20
-9.6604842324
 30
0.0
 10
21.2650608836
 20
-9.491066158
 30
0.0
 10
21.3573751239
 20
-9.3210778529
 30
0.0
 10
21.4231544344
 20
-9.2025946658
 30
0.0
 10
21.4590723224
 20
-9.1341891256
 30
0.0
 10
21.4906903661
 20
-9.0848422342
 30
0.0
 10
21.5044250437
 20
-9.0280167188
 30
0.0
 10
21.5289777344
 20
-8.9548585519
 30
0.0
 10
21.5690189591
 20
-8.825610481
 30
0.0
 10
21.6279013691
 20
-8.6416540324
 30
0.0
 10
21.6856344402
 20
-8.4572892184
 30
0.0
 10
21.7272847393
 20
-8.328612859
 30
0.0
 10
21.7493088844
 20
-8.2545562884
 30
0.0
 10
21.7708015996
 20
-8.2004872389
 30
0.0
 10
21.7732839022
 20
-8.1407882866
 30
0.0
 10
21.7832246964
 20
-8.0631534605
 30
0.0
 10
21.7975314279
 20
-7.9263775174
 30
0.0
 10
21.8195859359
 20
-7.7314619836
 30
0.0
 10
21.8453550846
 20
-7.4973571465
 30
0.0
 10
21.8626671382
 20
-7.3413265306
 30
0.0
 10
21.8713065874
 20
-7.2633063132
 30
0.0
  0
SPLINE
  5
265
100
AcDbEntity
  8
_21_KURVEN
100
AcDbSpline
 62
1
  6
CENTER
 70
0
 71
3
 72
131
 73
127
 74
0
 42
0.0000001
 43
0.0000001
 44
0.0000000001
 40
0.0
 40
0.0
 40
0.0
 40
0.0
 40
0.015625
 40
0.03125
 40
0.046875
 40
0.0546875
 40
0.05859375
 40
0.0625
 40
0.06640625
 40
0.0703125
 40
0.078125
 40
0.09375
 40
0.109375
 40
0.1171875
 40
0.12109375
 40
0.125
 40
0.12890625
 40
0.1328125
 40
0.140625
 40
0.15625
 40
0.171875
 40
0.1796875
 40
0.18359375
 40
0.1875
 40
0.19140625
 40
0.1953125
 40
0.203125
 40
0.21875
 40
0.234375
 40
0.2421875
 40
0.24609375
 40
0.25
 40
0.25390625
 40
0.2578125
 40
0.265625
 40
0.28125
 40
0.296875
 40
0.3046875
 40
0.30859375
 40
0.3125
 40
0.31640625
 40
0.3203125
 40
0.328125
 40
0.34375
 40
0.359375
 40
0.3671875
 40
0.37109375
 40
0.375
 40
0.37890625
 40
0.3828125
 40
0.390625
 40
0.40625
 40
0.421875
 40
0.4296875
 40
0.43359375
 40
0.4375
 40
0.44140625
 40
0.4453125
 40
0.453125
 40
0.46875
 40
0.484375
 40
0.4921875
 40
0.49609375
 40
0.5
 40
0.50390625
 40
0.5078125
 40
0.515625
 40
0.53125
 40
0.546875
 40
0.5546875
 40
0.55859375
 40
0.5625
 40
0.56640625
 40
0.5703125
 40
0.578125
 40
0.59375
 40
0.609375
 40
0.6171875
 40
0.62109375
 40
0.625
 40
0.62890625
 40
0.6328125
 40
0.640625
 40
0.65625
 40
0.671875
 40
0.6796875
 40
0.68359375
 40
0.6875
 40
0.69140625
 40
0.6953125
 40
0.703125
 40
0.71875
 40
0.734375
 40
0.7421875
 40
0.74609375
 40
0.75
 40
0.75390625
 40
0.7578125
 40
0.765625
 40
0.78125
 40
0.796875
 40
0.8046875
 40
0.80859375
 40
0.8125
 40
0.81640625
 40
0.8203125
 40
0.828125
 40
0.84375
 40
0.859375
 40
0.8671875
 40
0.87109375
 40
0.875
 40
0.87890625
 40
0.8828125
 40
0.890625
 40
0.90625
 40
0.921875
 40
0.9296875
 40
0.93359375
 40
0.9375
 40
0.94140625
 40
0.9453125
 40
0.953125
 40
0.96875
 40
0.984375
 40
1.0
 40
1.0
 40
1.0
 40
1.0
 10
21.8713065828
 20
-7.2633067273
 30
0.0
 10
21.8646272672
 20
-7.1866376819
 30
0.0
 10
21.8512352728
 20
-7.0333061835
 30
0.0
 10
21.8313474606
 20
-6.8032693816
 30
0.0
 10
21.8141904271
 20
-6.6116874132
 30
0.0
 10
21.8033190242
 20
-6.4773550707
 30
0.0
 10
21.7953302014
 20
-6.4009447758
 30
0.0
 10
21.7943430704
 20
-6.3426481992
 30
0.0
 10
21.7742262913
 20
-6.2881315226
 30
0.0
 10
21.7540783367
 20
-6.2141234283
 30
0.0
 10
21.7156917998
 20
-6.0852311307
 30
0.0
 10
21.6626329645
 20
-5.9007159557
 30
0.0
 10
21.6084151955
 20
-5.7165495565
 30
0.0
 10
21.5716511659
 20
-5.5871689728
 30
0.0
 10
21.548953557
 20
-5.5139281852
 30
0.0
 10
21.5366595808
 20
-5.4570572722
 30
0.0
 10
21.5062934789
 20
-5.4076021611
 30
0.0
 10
21.472110834
 20
-5.3390743677
 30
0.0
 10
21.4093359888
 20
-5.2203656977
 30
0.0
 10
21.3213424766
 20
-5.0500715366
 30
0.0
 10
21.232238596
 20
-4.8803045375
 30
0.0
 10
21.1710182665
 20
-4.7608578407
 30
0.0
 10
21.1343928113
 20
-4.6934898039
 30
0.0
 10
21.1115216957
 20
-4.6404763486
 30
0.0
 10
21.0710798817
 20
-4.5969689948
 30
0.0
 10
21.0232876052
 20
-4.5356418692
 30
0.0
 10
20.9367820727
 20
-4.4298799109
 30
0.0
 10
20.8148065533
 20
-4.2778555382
 30
0.0
 10
20.6918806379
 20
-4.1266022061
 30
0.0
 10
20.6067056597
 20
-4.0197607908
 30
0.0
 10
20.5568225122
 20
-3.9601299547
 30
0.0
 10
20.5227958707
 20
-3.9114180764
 30
0.0
 10
20.4758322181
 20
-3.8779505022
 30
0.0
 10
20.4177276773
 20
-3.8280080962
 30
0.0
 10
20.3139308123
 20
-3.7431030462
 30
0.0
 10
20.1668426439
 20
-3.6203777513
 30
0.0
 10
20.0190087174
 20
-3.4986311394
 30
0.0
 10
19.9162559138
 20
-3.4123559331
 30
0.0
 10
19.8565107049
 20
-3.3645666297
 30
0.0
 10
19.8145809203
 20
-3.3244929451
 30
0.0
 10
19.7616493079
 20
-3.3005906816
 30
0.0
 10
19.6949121497
 20
-3.26307846
 30
0.0
 10
19.5763261074
 20
-3.200078737
 30
0.0
 10
19.4079181751
 20
-3.1085529471
 30
0.0
 10
19.2389284264
 20
-3.0180906331
 30
0.0
 10
19.1211569271
 20
-2.953602044
 30
0.0
 10
19.0531397728
 20
-2.918429469
 30
0.0
 10
19.0041354212
 20
-2.887348744
 30
0.0
 10
18.9474565903
 20
-2.8742341705
 30
0.0
 10
18.8745623397
 20
-2.8504794026
 30
0.0
 10
18.7457440778
 20
-2.8118480624
 30
0.0
 10
18.5624200465
 20
-2.7549721993
 30
0.0
 10
18.3786750692
 20
-2.6992502188
 30
0.0
 10
18.2504461318
 20
-2.659003443
 30
0.0
 10
18.1766257999
 20
-2.6377872169
 30
0.0
 10
18.1227883548
 20
-2.6168839353
 30
0.0
 10
18.0631130209
 20
-2.615054136
 30
0.0
 10
17.9855820983
 20
-2.6059594108
 30
0.0
 10
17.8489556066
 20
-2.5931638776
 30
0.0
 10
17.6542595697
 20
-2.5730958874
 30
0.0
 10
17.4594293988
 20
-2.5542392193
 30
0.0
 10
17.3229906947
 20
-2.5397478351
 30
0.0
 10
17.2451646774
 20
-2.5333180187
 30
0.0
 10
17.1863947476
 20
-2.5233117944
 30
0.0
 10
17.1291570067
 20
-2.533115531
 30
0.0
 10
17.0523052279
 20
-2.5392753621
 30
0.0
 10
16.9180672587
 20
-2.5532942888
 30
0.0
 10
16.7261386792
 20
-2.5714758816
 30
0.0
 10
16.5343690817
 20
-2.5908693083
 30
0.0
 10
16.3999085377
 20
-2.6031916675
 30
0.0
 10
16.3234065192
 20
-2.6120175331
 30
0.0
 10
16.2650956501
 20
-2.6136413912
 30
0.0
 10
16.2103559129
 20
-2.6343551547
 30
0.0
 10
16.1361232446
 20
-2.6553129589
 30
0.0
 10
16.0068038101
 20
-2.6951101923
 30
0.0
 10
15.8216978534
 20
-2.7501883549
 30
0.0
 10
15.6369280308
 20
-2.8064217224
 30
0.0
 10
15.5071380084
 20
-2.8446016688
 30
0.0
 10
15.4336448352
 20
-2.8681009239
 30
0.0
 10
15.3766361928
 20
-2.881017054
 30
0.0
 10
15.3268463235
 20
-2.9119253574
 30
0.0
 10
15.2579409305
 20
-2.9468588359
 30
0.0
 10
15.1385392427
 20
-3.0109345406
 30
0.0
 10
14.9672734235
 20
-3.1007940848
 30
0.0
 10
14.7965226651
 20
-3.1917583033
 30
0.0
 10
14.6763998923
 20
-3.2542874639
 30
0.0
 10
14.6086276329
 20
-3.2916512261
 30
0.0
 10
14.5553611036
 20
-3.3151029771
 30
0.0
 10
14.511409251
 20
-3.3560226038
 30
0.0
 10
14.4495562452
 20
-3.4044878457
 30
0.0
 10
14.3428427402
 20
-3.4921541875
 30
0.0
 10
14.1894764837
 20
-3.6157981362
 30
0.0
 10
14.0368709291
 20
-3.7403841126
 30
0.0
 10
13.9290924414
 20
-3.8267316157
 30
0.0
 10
13.8689129798
 20
-3.8772693184
 30
0.0
 10
13.8198263895
 20
-3.9118302586
 30
0.0
 10
13.7858436526
 20
-3.9591624099
 30
0.0
 10
13.7352633655
 20
-4.0178161327
 30
0.0
 10
13.6492190739
 20
-4.1225469389
 30
0.0
 10
13.5248792422
 20
-4.270984889
 30
0.0
 10
13.401510003
 20
-4.4201579479
 30
0.0
 10
13.3141068817
 20
-4.5238596018
 30
0.0
 10
13.2656618985
 20
-4.5841305639
 30
0.0
 10
13.2251276611
 20
-4.6265007307
 30
0.0
 10
13.2006455949
 20
-4.6796966795
 30
0.0
 10
13.1624019068
 20
-4.7468477121
 30
0.0
 10
13.0981026509
 20
-4.8661292222
 30
0.0
 10
13.0047312287
 20
-5.0355472966
 30
0.0
 10
12.9124169884
 20
-5.2055356017
 30
0.0
 10
12.8466376779
 20
-5.3240187888
 30
0.0
 10
12.8107197899
 20
-5.392424329
 30
0.0
 10
12.7791017462
 20
-5.4417712204
 30
0.0
 10
12.7653670686
 20
-5.4985967358
 30
0.0
 10
12.7408143779
 20
-5.5717549027
 30
0.0
 10
12.7007731532
 20
-5.7010029736
 30
0.0
 10
12.6418907432
 20
-5.8849594222
 30
0.0
 10
12.5841576721
 20
-6.0693242361
 30
0.0
 10
12.5425073729
 20
-6.1980005956
 30
0.0
 10
12.5204832279
 20
-6.2720571662
 30
0.0
 10
12.4989905127
 20
-6.3261262157
 30
0.0
 10
12.4965082101
 20
-6.385825168
 30
0.0
 10
12.4865674159
 20
-6.4634599941
 30
0.0
 10
12.4722606844
 20
-6.6002359372
 30
0.0
 10
12.4502061764
 20
-6.795151471
 30
0.0
 10
12.4244370277
 20
-7.0292563081
 30
0.0
 10
12.4071249741
 20
-7.185286924
 30
0.0
 10
12.3984855249
 20
-7.2633071414
 30
0.0
  0
SPLINE
  5
266
100
AcDbEntity
  8
_21_KURVEN
100
AcDbSpline
 62
7
  6
CONTINUOUS
 70
0
 71
3
 72
9
 73
5
 74
0
 42
0.0000001
 43
0.0000001
 44
0.0000000001
 40
0.0
 40
0.0
 40
0.0
 40
0.0
 40
0.5
 40
1.0
 40
1.0
 40
1.0
 40
1.0
 10
14.978854512
 20
-7.1826794104
 30
0.0
 10
15.0064203366
 20
-7.1711908149
 30
0.0
 10
15.0566234194
 20
-7.1484930908
 30
0.0
 10
15.0688125988
 20
-7.122828667
 30
0.0
 10
15.0716825392
 20
-7.1100773827
 30
0.0
  0
SPLINE
  5
267
100
AcDbEntity
  8
_21_KURVEN
100
AcDbSpline
 62
7
  6
CONTINUOUS
 70
0
 71
3
 72
10
 73
6
 74
0
 42
0.0000001
 43
0.0000001
 44
0.0000000001
 40
0.0
 40
0.0
 40
0.0
 40
0.0
 40
0.25
 40
0.5
 40
1.0
 40
1.0
 40
1.0
 40
1.0
 10
14.805699451
 20
-7.2300388709
 30
0.0
 10
14.8218339946
 20
-7.226531362
 30
0.0
 10
14.8561414021
 20
-7.2189297081
 30
0.0
 10
14.915012232
 20
-7.2043779341
 30
0.0
 10
14.9553188576
 20
-7.1910912903
 30
0.0
 10
14.9788545173
 20
-7.1826794084
 30
0.0
  0
ELLIPSE
  5
268
100
AcDbEntity
  8
_30_VOLUMEN
100
AcDbEllipse
 62
4
  6
CONTINUOUS
 10
24.5970256805
 20
-11.5991798415
 30
0.0
 11
0.3761875216
 21
-0.1575327095
 31
0.0
 40
0.9797377506
 41
-1.1668763109
 42
0.9019796373
  0
ELLIPSE
  5
269
100
AcDbEntity
  8
_30_VOLUMEN
100
AcDbEllipse
 62
4
  6
CONTINUOUS
 10
17.2296452866
 20
1.4084395011
 30
0.0
 11
0.0747997712
 21
0.4031876137
 31
0.0
 40
0.9691241017
 41
5.4266496414
 42
7.37475721
  0
ELLIPSE
  5
26A
100
AcDbEntity
  8
_30_VOLUMEN
100
AcDbEllipse
 62
4
  6
CONTINUOUS
 10
9.5780172013
 20
-11.5991798415
 30
0.0
 11
0.3421453754
 21
0.2288981638
 31
0.0
 40
0.9616747458
 41
8.4035712767
 42
10.387760119
  0
ELLIPSE
  5
26B
100
AcDbEntity
  8
_21_KURVEN
100
AcDbEllipse
 62
5
  6
CONTINUOUS
 10
17.2296452866
 20
1.4084395011
 30
0.0
 11
0.0747997712
 21
0.4031876137
 31
0.0
 40
0.9691241017
 41
5.4266496414
 42
7.4955055896
  0
ELLIPSE
  5
26C
100
AcDbEntity
  8
_21_KURVEN
100
AcDbEllipse
 62
5
  6
CONTINUOUS
 10
24.5970256805
 20
-11.5991798415
 30
0.0
 11
0.3761875216
 21
-0.1575327095
 31
0.0
 40
0.9797377506
 41
5.1163089963
 42
7.1851649445
  0
ELLIPSE
  5
26D
100
AcDbEntity
  8
_21_KURVEN
100
AcDbEllipse
 62
5
  6
CONTINUOUS
 10
9.5780172013
 20
-11.5991798415
 30
0.0
 11
0.3421453754
 21
0.2288981638
 31
0.0
 40
0.9616747458
 41
2.0357188636
 42
4.1045748118
  0
ENDSEC
  0
SECTION
  2
OBJECTS
  0
DICTIONARY
  5
C
100
AcDbDictionary
280
0
281
1
  3
ACAD_GROUP
350
D
  3
ACAD_MLINESTYLE
350
17
  3
ACAD_LAYOUT
350
1A
  3
ACAD_PLOTSETTINGS
350
19
  3
ACAD_PLOTSTYLENAME
350
E
  0
DICTIONARY
  5
D
102
{ACAD_REACTORS
330
C
102
}
100
AcDbDictionary
280
0
281
1
  0
ACDBDICTIONARYWDFLT
  5
E
102
{ACAD_REACTORS
330
C
102
}
100
AcDbDictionary
281
1
  3
Normal
350
F
100
AcDbDictionaryWithDefault
340
F
  0
DICTIONARY
  5
17
102
{ACAD_REACTORS
330
C
102
}
100
AcDbDictionary
280
0
281
1
  3
Standard
350
18
  0
DICTIONARY
  5
19
102
{ACAD_REACTORS
330
C
102
}
100
AcDbDictionary
281
1
  0
DICTIONARY
  5
1A
102
{ACAD_REACTORS
330
C
102
}
100
AcDbDictionary
281
1
  3
Model
350
26E
  3
Layout1
350
26F
  0
ACDBPLACEHOLDER
  5
F
102
{ACAD_REACTORS
330
E
102
}
  0
MLINESTYLE
  5
18
102
{ACAD_REACTORS
330
17
102
}
100
AcDbMlineStyle
  2
STANDARD
 70
0
  3

 62
256
 51
90.0
 52
90.0
 71
2
 49
0.5
 62
256
  6
BYLAYER
 49
-0.5
 62
256
  6
BYLAYER
  0
LAYOUT
  5
26E
102
{ACAD_REACTORS
330
1A
102
}
100
AcDbPlotSettings
  1

  2
none_device
  4
ISO_A3_(420.00_x_297.00_MM)
  6

 40
0.0
 41
0.0
 42
0.0
 43
0.0
 44
420.0
 45
297.0
 46
0.0
 47
0.0
 48
0.0
 49
0.0
140
0.0
141
0.0
142
1.0
143
1.0
 70
1024
 72
1
 73
0
 74
0
  7

 75
0
147
1.0
148
0.0
149
0.0
100
AcDbLayout
  1
Model
 70
0
 71
0
 10
0.0
 20
0.0
 11
420.0
 21
297.0
 12
0.0
 22
0.0
 32
0.0
 14
0.0
 24
0.0
 34
0.0
 15
0.0
 25
0.0
 35
0.0
146
0.0
 13
0.0
 23
0.0
 33
0.0
 16
1.0
 26
0.0
 36
0.0
 17
0.0
 27
1.0
 37
0.0
 76
0
330
20D
345
0
346
0
  0
LAYOUT
  5
26F
102
{ACAD_REACTORS
330
1A
102
}
100
AcDbPlotSettings
  1

  2
none_device
  4
ISO_A3_(420.00_x_297.00_MM)
  6

 40
0.0
 41
0.0
 42
0.0
 43
0.0
 44
420.0
 45
297.0
 46
0.0
 47
0.0
 48
0.0
 49
0.0
140
0.0
141
0.0
142
1.0
143
1.0
 70
0
 72
1
 73
0
 74
0
  7

 75
0
147
1.0
148
0.0
149
0.0
100
AcDbLayout
  1
Layout1
 70
0
 71
1
 10
0.0
 20
0.0
 11
420.0
 21
297.0
 12
0.0
 22
0.0
 32
0.0
 14
0.0
 24
0.0
 34
0.0
 15
0.0
 25
0.0
 35
0.0
146
0.0
 13
0.0
 23
0.0
 33
0.0
 16
1.0
 26
0.0
 36
0.0
 17
0.0
 27
1.0
 37
0.0
 76
0
330
20E
345
0
346
0
  0
ENDSEC
  0
EOF
