999
DXF file: 70536125.dxf
999
Pro/ENGINEER 2017380 by Parametric Technology Corporation
  0
SECTION
  2
HEADER
  9
$ACADVER
  1
AC1027
  9
$DWGCODEPAGE
  3
ANSI_1252
  9
$EXTMAX
 10
420.0
 20
297.0
 30
0.0
  9
$EXTMIN
 10
0.0
 20
0.0
 30
0.0
  9
$LIMMIN
 10
0.0
 20
0.0
  9
$LIMMAX
 10
420.0
 20
297.0
  9
$VIEWCTR
 10
210.0
 20
148.5
  9
$VIEWSIZE
 40
297.0
  9
$CLAYER
  8
0
  9
$LTSCALE
 40
23.1
  9
$CELTYPE
  6
BYLAYER
  9
$DIMSCALE
 40
1.0
  9
$DIMASZ
 40
3.5
  9
$DIMEXO
 40
0.0
  9
$DIMDLI
 40
15.96
  9
$DIMEXE
 40
1.5
  9
$DIMCEN
 40
3.78
  9
$DIMLFAC
 40
1.0
  9
$DIMBLK
  1
_FILLED
  9
$DIMALT
 70
0
  9
$DIMALTF
 40
25.4
  9
$DIMTXT
 40
3.5
  9
$DIMTOL
 70
1
  9
$DIMLIM
 70
0
  9
$DIMTFAC
 40
1.0
  9
$DIMTP
 40
0.05
  9
$DIMTM
 40
0.05
  9
$DIMGAP
 40
0.625
  9
$DIMDSEP
 70
46
  9
$AUNITS
 70
0
  9
$PDMODE
 70
3
  9
$PDSIZE
 40
0.3125
  9
$HANDSEED
  5
285
  9
$TILEMODE
 70
1
  9
$MEASUREMENT
 70
1
  9
$INSUNITS
 70
4
  0
ENDSEC
  0
SECTION
  2
CLASSES
  0
CLASS
  1
ACDBDICTIONARYWDFLT
  2
AcDbDictionaryWithDefault
  3
AutoCAD 2000
 90
0
 91
1
280
0
281
0
  0
CLASS
  1
ACDBPLACEHOLDER
  2
AcDbPlaceHolder
  3
AutoCAD 2000
 90
0
 91
1
280
0
281
0
  0
CLASS
  1
LAYOUT
  2
AcDbLayout
  3
AutoCAD 2000
 90
0
 91
0
280
0
281
0
  0
ENDSEC
  0
SECTION
  2
TABLES
  0
TABLE
  2
VPORT
  5
8
100
AcDbSymbolTable
 70
2
  0
VPORT
  5
1F4
100
AcDbSymbolTableRecord
100
AcDbViewportTableRecord
  2
*ACTIVE
 70
0
 10
0.0
 20
0.0
 11
1.0
 21
1.0
 12
210.0
 22
148.5
 13
0.0
 23
0.0
 14
1.0
 24
1.0
 15
0.0
 25
0.0
 16
0.0
 26
0.0
 36
1.0
 17
0.0
 27
0.0
 37
0.0
 40
297.0
 41
1.4141414141
 42
50.0
 43
0.0
 44
0.0
 50
0.0
 51
0.0
 71
0
 72
100
 73
1
 74
1
 75
0
 76
0
 77
0
 78
0
  0
ENDTAB
  0
TABLE
  2
LTYPE
  5
5
100
AcDbSymbolTable
 70
6
  0
LTYPE
  5
14
100
AcDbSymbolTableRecord
100
AcDbLinetypeTableRecord
  2
BYBLOCK
 70
0
  3

 72
65
 73
0
 40
0.0
  0
LTYPE
  5
15
100
AcDbSymbolTableRecord
100
AcDbLinetypeTableRecord
  2
BYLAYER
 70
0
  3

 72
65
 73
0
 40
0.0
  0
LTYPE
  5
16
100
AcDbSymbolTableRecord
100
AcDbLinetypeTableRecord
  2
CONTINUOUS
 70
64
  3
Solid line
 72
65
 73
0
 40
0.0
  0
LTYPE
  5
1F5
100
AcDbSymbolTableRecord
100
AcDbLinetypeTableRecord
  2
CENTER
 70
64
  3
____ _ ____ _ ____ _ ____ _ ____ _ ____ _ ____
 72
65
 73
4
 40
0.6
 49
0.375
 74
0
 49
-0.075
 74
0
 49
0.075
 74
0
 49
-0.075
 74
0
  0
LTYPE
  5
1F6
100
AcDbSymbolTableRecord
100
AcDbLinetypeTableRecord
  2
HIDDEN
 70
64
  3
- - - - - - - - - - - - - - - - - - - -
 72
65
 73
2
 40
0.2
 49
0.1
 74
0
 49
-0.1
 74
0
  0
LTYPE
  5
1F7
100
AcDbSymbolTableRecord
100
AcDbLinetypeTableRecord
  2
PHANTOM
 70
64
  3
_____ _ _ _____ _ _ _____ _ _ _____
 72
65
 73
6
 40
0.8
 49
0.45
 74
0
 49
-0.05
 74
0
 49
0.1
 74
0
 49
-0.05
 74
0
 49
0.1
 74
0
 49
-0.05
 74
0
  0
LTYPE
  5
1F8
100
AcDbSymbolTableRecord
100
AcDbLinetypeTableRecord
  2
DOT
 70
64
  3
. . . . . . . . . . . . . . . . . . . .
 72
65
 73
2
 40
0.2
 49
0.1
 74
0
 49
-0.1
 74
0
  0
LTYPE
  5
1F9
100
AcDbSymbolTableRecord
100
AcDbLinetypeTableRecord
  2
DASHED
 70
64
  3
- - - - - - - - - - - - - - - - - - - -
 72
65
 73
2
 40
0.2
 49
0.1
 74
0
 49
-0.1
 74
0
  0
ENDTAB
  0
TABLE
  2
LAYER
  5
2
100
AcDbSymbolTable
 70
36
  0
LAYER
  5
10
100
AcDbSymbolTableRecord
100
AcDbLayerTableRecord
  2
0
 70
0
 62
7
  6
CONTINUOUS
370
-3
390
F
  0
LAYER
  5
1FA
100
AcDbSymbolTableRecord
100
AcDbLayerTableRecord
  2
DEFAULT_1
 70
0
 62
7
  6
CENTER
370
-3
390
F
  0
LAYER
  5
1FB
100
AcDbSymbolTableRecord
100
AcDbLayerTableRecord
  2
DEFAULT_2
 70
0
 62
1
  6
HIDDEN
370
-3
390
F
  0
LAYER
  5
1FC
100
AcDbSymbolTableRecord
100
AcDbLayerTableRecord
  2
DEFAULT_3
 70
0
 62
7
  6
PHANTOM
370
-3
390
F
  0
LAYER
  5
1FD
100
AcDbSymbolTableRecord
100
AcDbLayerTableRecord
  2
BG_STARTBEZUEGE
 70
0
 62
7
  6
CONTINUOUS
370
-3
390
F
  0
LAYER
  5
1FE
100
AcDbSymbolTableRecord
100
AcDbLayerTableRecord
  2
HILFEN
 70
0
 62
7
  6
CONTINUOUS
370
-3
390
F
  0
LAYER
  5
1FF
100
AcDbSymbolTableRecord
100
AcDbLayerTableRecord
  2
PLATZIERUNG
 70
0
 62
7
  6
CONTINUOUS
370
-3
390
F
  0
LAYER
  5
200
100
AcDbSymbolTableRecord
100
AcDbLayerTableRecord
  2
T_STARTBEZUEGE
 70
0
 62
7
  6
CONTINUOUS
370
-3
390
F
  0
LAYER
  5
201
100
AcDbSymbolTableRecord
100
AcDbLayerTableRecord
  2
_03_2D_ZEICHNUNG_BEMASSUNGEN
 70
0
 62
7
  6
CONTINUOUS
370
-3
390
F
  0
LAYER
  5
202
100
AcDbSymbolTableRecord
100
AcDbLayerTableRecord
  2
_04_NOTIZEN
 70
0
 62
7
  6
CONTINUOUS
370
-3
390
F
  0
LAYER
  5
203
100
AcDbSymbolTableRecord
100
AcDbLayerTableRecord
  2
_05_2D_ELEMENTE
 70
0
 62
7
  6
CONTINUOUS
370
-3
390
F
  0
LAYER
  5
204
100
AcDbSymbolTableRecord
100
AcDbLayerTableRecord
  2
_07_EINRASTLINIEN
 70
0
 62
7
  6
CONTINUOUS
370
-3
390
F
  0
LAYER
  5
205
100
AcDbSymbolTableRecord
100
AcDbLayerTableRecord
  2
_21_KURVEN
 70
0
 62
7
  6
CONTINUOUS
370
-3
390
F
  0
LAYER
  5
206
100
AcDbSymbolTableRecord
100
AcDbLayerTableRecord
  2
_24_IMPORT
 70
0
 62
7
  6
CONTINUOUS
370
-3
390
F
  0
LAYER
  5
207
100
AcDbSymbolTableRecord
100
AcDbLayerTableRecord
  2
_26_BEZUGSACHSEN
 70
0
 62
7
  6
CONTINUOUS
370
-3
390
F
  0
LAYER
  5
208
100
AcDbSymbolTableRecord
100
AcDbLayerTableRecord
  2
_27_BEZUGSEBENEN
 70
0
 62
7
  6
CONTINUOUS
370
-3
390
F
  0
LAYER
  5
209
100
AcDbSymbolTableRecord
100
AcDbLayerTableRecord
  2
_28_BEZUGSPUNKTE
 70
0
 62
7
  6
CONTINUOUS
370
-3
390
F
  0
LAYER
  5
20A
100
AcDbSymbolTableRecord
100
AcDbLayerTableRecord
  2
_29_KOORDINATENSYSTEME
 70
0
 62
7
  6
CONTINUOUS
370
-3
390
F
  0
LAYER
  5
20B
100
AcDbSymbolTableRecord
100
AcDbLayerTableRecord
  2
_30_VOLUMEN
 70
0
 62
7
  6
CONTINUOUS
370
-3
390
F
  0
ENDTAB
  0
TABLE
  2
STYLE
  5
3
100
AcDbSymbolTable
 70
1
  0
STYLE
  5
11
100
AcDbSymbolTableRecord
100
AcDbTextStyleTableRecord
  2
STANDARD
 70
0
 40
0.0
 41
0.7
 50
0.0
 71
0
 42
0.2
  3
SIMPLEX.SHX
  4

  0
STYLE
  5
20C
100
AcDbSymbolTableRecord
100
AcDbTextStyleTableRecord
  2
TEXTSTYLE_1
 70
0
 40
0.0
 41
0.8
 50
0.0
 71
0
 42
0.2
  3
gdt
  4

  0
ENDTAB
  0
TABLE
  2
VIEW
  5
6
100
AcDbSymbolTable
 70
0
  0
ENDTAB
  0
TABLE
  2
UCS
  5
7
100
AcDbSymbolTable
 70
0
  0
ENDTAB
  0
TABLE
  2
APPID
  5
9
100
AcDbSymbolTable
 70
1
  0
APPID
  5
20D
100
AcDbSymbolTableRecord
100
AcDbRegAppTableRecord
  2
ACAD
 70
0
  0
ENDTAB
  0
TABLE
  2
BLOCK_RECORD
  5
1
100
AcDbSymbolTable
 70
0
  0
BLOCK_RECORD
  5
20E
100
AcDbSymbolTableRecord
100
AcDbBlockTableRecord
  2
*Model_Space
  0
BLOCK_RECORD
  5
20F
100
AcDbSymbolTableRecord
100
AcDbBlockTableRecord
  2
*Paper_Space
  0
BLOCK_RECORD
  5
210
100
AcDbSymbolTableRecord
100
AcDbBlockTableRecord
  2
_FILLED
  0
BLOCK_RECORD
  5
211
100
AcDbSymbolTableRecord
100
AcDbBlockTableRecord
  2
*D0
  0
BLOCK_RECORD
  5
212
100
AcDbSymbolTableRecord
100
AcDbBlockTableRecord
  2
*D1
  0
BLOCK_RECORD
  5
213
100
AcDbSymbolTableRecord
100
AcDbBlockTableRecord
  2
*D2
  0
ENDTAB
  0
TABLE
  2
DIMSTYLE
  5
A
100
AcDbSymbolTable
 70
1
100
AcDbDimStyleTable
 71
0
  0
DIMSTYLE
105
214
100
AcDbSymbolTableRecord
100
AcDbDimStyleTableRecord
  2
STANDARD
 70
0
  3

  4

 40
1.0
 41
3.5
 42
0.0
 43
0.38
 44
1.5
 45
0.0
 46
0.0
 47
0.05
 48
0.05
140
3.5
141
0.09
142
0.0
143
25.4
144
1.0
145
0.0
146
1.0
147
0.625
 71
1.0
 72
0.0
 73
0
 74
0
 75
0
 76
0
 77
1
 78
8
 79
2
170
0
171
1
172
0
173
0
174
0
175
0
176
0
177
0
178
2
270
2
179
2
271
2
272
2
273
2
274
2
275
0
280
0
281
0
282
0
283
1
284
8
285
0
286
0
287
3
288
0
340
11
278
46
341
210
342
210
343
210
344
210
  0
DIMSTYLE
105
215
100
AcDbSymbolTableRecord
100
AcDbDimStyleTableRecord
  2
DIMSTYLE_1
 70
0
  3

  4

 40
1.0
 41
3.5
 42
0.0
 43
0.38
 44
1.5
 45
0.0
 46
0.0
 47
0.2
 48
0.2
140
3.5
141
0.09
142
0.0
143
25.4
144
1.0
145
0.0
146
1.0
147
0.875
 71
0.0
 72
0.0
 73
0
 74
0
 75
0
 76
0
 77
1
 78
8
 79
2
170
0
171
1
172
0
173
0
174
0
175
0
176
0
177
0
178
2
270
2
179
2
271
2
272
2
273
2
274
2
275
0
280
0
281
0
282
0
283
1
284
8
285
0
286
0
287
3
288
0
340
11
278
46
341
210
342
210
343
210
344
210
  0
DIMSTYLE
105
216
100
AcDbSymbolTableRecord
100
AcDbDimStyleTableRecord
  2
DIMSTYLE_2
 70
0
  3

  4

 40
1.0
 41
3.5
 42
0.0
 43
0.38
 44
1.5
 45
0.0
 46
0.0
 47
0.5
 48
0.5
140
3.5
141
0.09
142
0.0
143
25.4
144
1.0
145
0.0
146
1.0
147
0.875
 71
0.0
 72
0.0
 73
0
 74
0
 75
0
 76
0
 77
1
 78
8
 79
2
170
0
171
1
172
0
173
0
174
0
175
0
176
0
177
0
178
2
270
2
179
2
271
2
272
2
273
2
274
2
275
0
280
0
281
0
282
0
283
1
284
8
285
0
286
0
287
3
288
0
340
11
278
46
341
210
342
210
343
210
344
210
  0
ENDTAB
  0
ENDSEC
  0
SECTION
  2
BLOCKS
  0
BLOCK
  5
20
100
AcDbEntity
  8
0
100
AcDbBlockBegin
  2
*Model_Space
 70
0
 10
0.0
 20
0.0
 30
0.0
  3
*Model_Space
  1

  0
ENDBLK
  5
21
100
AcDbEntity
  8
0
100
AcDbBlockEnd
  0
BLOCK
  5
1C
100
AcDbEntity
  8
0
100
AcDbBlockBegin
  2
*Paper_Space
 70
0
 10
0.0
 20
0.0
 30
0.0
  3
*Paper_Space
  1

  0
ENDBLK
  5
1D
100
AcDbEntity
  8
0
100
AcDbBlockEnd
  0
BLOCK
  5
217
100
AcDbEntity
  8
0
100
AcDbBlockBegin
  2
_FILLED
 70
64
 10
0.0
 20
0.0
  3
_FILLED
  1

  0
SOLID
  5
218
100
AcDbEntity
  8
0
  6
BYBLOCK
 62
0
100
AcDbTrace
 10
0.0
 20
0.0
 11
-1.0
 21
0.125
 12
-1.0
 22
-0.125
 13
-1.0
 23
-0.125
  0
ENDBLK
  5
219
100
AcDbEntity
  8
0
  6
BYBLOCK
 62
0
100
AcDbBlockEnd
  0
BLOCK
  5
21A
100
AcDbEntity
  8
_03_2D_ZEICHNUNG_BEMASSUNGEN
100
AcDbBlockBegin
 62
7
  6
CONTINUOUS
  2
*D0
 70
65
 10
0.0
 20
0.0
  3
*D0
  1

  0
TEXT
  5
21B
100
AcDbEntity
  8
_03_2D_ZEICHNUNG_BEMASSUNGEN
100
AcDbText
 62
2
  6
CONTINUOUS
 10
-9.875
 20
9.875
  7
STANDARD
 40
3.5
  1
25
 50
90.0
 41
0.75
 72
1
 11
-9.875
 21
12.5
100
AcDbText
  0
LINE
  5
21C
100
AcDbEntity
  8
_03_2D_ZEICHNUNG_BEMASSUNGEN
100
AcDbLine
 62
7
  6
CONTINUOUS
 10
0.0
 20
25.0
 11
-10.5
 21
25.0
  0
LINE
  5
21D
100
AcDbEntity
  8
_03_2D_ZEICHNUNG_BEMASSUNGEN
100
AcDbLine
 62
7
  6
CONTINUOUS
 10
-0.0
 20
-0.0
 11
-10.5
 21
0.0
  0
LINE
  5
21E
100
AcDbEntity
  8
_03_2D_ZEICHNUNG_BEMASSUNGEN
100
AcDbLine
 62
7
  6
CONTINUOUS
 10
-9.0
 20
25.0
 11
-9.0
 21
31.0
  0
LINE
  5
21F
100
AcDbEntity
  8
_03_2D_ZEICHNUNG_BEMASSUNGEN
100
AcDbLine
 62
7
  6
CONTINUOUS
 10
-9.0
 20
31.0
 11
-9.0
 21
12.5
  0
LINE
  5
220
100
AcDbEntity
  8
_03_2D_ZEICHNUNG_BEMASSUNGEN
100
AcDbLine
 62
7
  6
CONTINUOUS
 10
-9.0
 20
0.0
 11
-9.0
 21
-6.0
  0
LINE
  5
221
100
AcDbEntity
  8
_03_2D_ZEICHNUNG_BEMASSUNGEN
100
AcDbLine
 62
7
  6
CONTINUOUS
 10
-9.0
 20
-6.0
 11
-9.0
 21
12.5
  0
INSERT
  5
222
100
AcDbEntity
  8
_03_2D_ZEICHNUNG_BEMASSUNGEN
100
AcDbBlockReference
 62
7
  6
CONTINUOUS
  2
_FILLED
 10
-9.0
 20
25.0
 41
3.5
 42
3.5
 43
3.5
 50
270.0
  0
INSERT
  5
223
100
AcDbEntity
  8
_03_2D_ZEICHNUNG_BEMASSUNGEN
100
AcDbBlockReference
 62
7
  6
CONTINUOUS
  2
_FILLED
 10
-9.0
 20
0.0
 41
3.5
 42
3.5
 43
3.5
 50
90.0
  0
ENDBLK
  5
224
100
AcDbEntity
  8
0
  6
BYBLOCK
 62
0
100
AcDbBlockEnd
  0
BLOCK
  5
225
100
AcDbEntity
  8
_03_2D_ZEICHNUNG_BEMASSUNGEN
100
AcDbBlockBegin
 62
7
  6
CONTINUOUS
  2
*D1
 70
65
 10
0.0
 20
0.0
  3
*D1
  1

  0
TEXT
  5
226
100
AcDbEntity
  8
_03_2D_ZEICHNUNG_BEMASSUNGEN
100
AcDbText
 62
2
  6
CONTINUOUS
 10
71.375
 20
34.875
  7
STANDARD
 40
3.5
  1
150
 41
0.6904761905
 72
1
 11
75.0
 21
34.875
100
AcDbText
  0
LINE
  5
227
100
AcDbEntity
  8
_03_2D_ZEICHNUNG_BEMASSUNGEN
100
AcDbLine
 62
7
  6
CONTINUOUS
 10
150.0
 20
0.0
 11
150.0
 21
35.5
  0
LINE
  5
228
100
AcDbEntity
  8
_03_2D_ZEICHNUNG_BEMASSUNGEN
100
AcDbLine
 62
7
  6
CONTINUOUS
 10
0.0
 20
0.0
 11
0.0
 21
35.5
  0
LINE
  5
229
100
AcDbEntity
  8
_03_2D_ZEICHNUNG_BEMASSUNGEN
100
AcDbLine
 62
7
  6
CONTINUOUS
 10
150.0
 20
34.0
 11
75.0
 21
34.0
  0
LINE
  5
22A
100
AcDbEntity
  8
_03_2D_ZEICHNUNG_BEMASSUNGEN
100
AcDbLine
 62
7
  6
CONTINUOUS
 10
0.0
 20
34.0
 11
75.0
 21
34.0
  0
INSERT
  5
22B
100
AcDbEntity
  8
_03_2D_ZEICHNUNG_BEMASSUNGEN
100
AcDbBlockReference
 62
7
  6
CONTINUOUS
  2
_FILLED
 10
150.0
 20
34.0
 41
3.5
 42
3.5
 43
3.5
  0
INSERT
  5
22C
100
AcDbEntity
  8
_03_2D_ZEICHNUNG_BEMASSUNGEN
100
AcDbBlockReference
 62
7
  6
CONTINUOUS
  2
_FILLED
 10
0.0
 20
34.0
 41
3.5
 42
3.5
 43
3.5
 50
180.0
  0
ENDBLK
  5
22D
100
AcDbEntity
  8
0
  6
BYBLOCK
 62
0
100
AcDbBlockEnd
  0
BLOCK
  5
22E
100
AcDbEntity
  8
_03_2D_ZEICHNUNG_BEMASSUNGEN
100
AcDbBlockBegin
 62
7
  6
CONTINUOUS
  2
*D2
 70
65
 10
0.0
 20
0.0
  3
*D2
  1

  0
TEXT
  5
22F
100
AcDbEntity
  8
_03_2D_ZEICHNUNG_BEMASSUNGEN
100
AcDbText
 62
2
  6
CONTINUOUS
 10
159.0537472943
 20
1.625
  7
STANDARD
 40
3.5
  1
12.5
 50
90.0
 41
0.6607142857
 72
1
 11
159.0537472943
 21
6.25
100
AcDbText
  0
LINE
  5
230
100
AcDbEntity
  8
_03_2D_ZEICHNUNG_BEMASSUNGEN
100
AcDbLine
 62
7
  6
CONTINUOUS
 10
150.0
 20
12.5
 11
161.4287472943
 21
12.5
  0
LINE
  5
231
100
AcDbEntity
  8
_03_2D_ZEICHNUNG_BEMASSUNGEN
100
AcDbLine
 62
7
  6
CONTINUOUS
 10
0.0
 20
0.0
 11
161.4287472943
 21
0.0
  0
LINE
  5
232
100
AcDbEntity
  8
_03_2D_ZEICHNUNG_BEMASSUNGEN
100
AcDbLine
 62
7
  6
CONTINUOUS
 10
159.9287472943
 20
12.5
 11
159.9287472943
 21
6.25
  0
LINE
  5
233
100
AcDbEntity
  8
_03_2D_ZEICHNUNG_BEMASSUNGEN
100
AcDbLine
 62
7
  6
CONTINUOUS
 10
159.9287472943
 20
0.0
 11
159.9287472943
 21
6.25
  0
INSERT
  5
234
100
AcDbEntity
  8
_03_2D_ZEICHNUNG_BEMASSUNGEN
100
AcDbBlockReference
 62
7
  6
CONTINUOUS
  2
_FILLED
 10
159.9287472943
 20
12.5
 41
3.5
 42
3.5
 43
3.5
 50
90.0
  0
INSERT
  5
235
100
AcDbEntity
  8
_03_2D_ZEICHNUNG_BEMASSUNGEN
100
AcDbBlockReference
 62
7
  6
CONTINUOUS
  2
_FILLED
 10
159.9287472943
 20
0.0
 41
3.5
 42
3.5
 43
3.5
 50
270.0
  0
ENDBLK
  5
236
100
AcDbEntity
  8
0
  6
BYBLOCK
 62
0
100
AcDbBlockEnd
  0
ENDSEC
  0
SECTION
  2
ENTITIES
  0
DIMENSION
  5
237
100
AcDbEntity
  8
_03_2D_ZEICHNUNG_BEMASSUNGEN
100
AcDbDimension
 62
7
  6
CONTINUOUS
  2
*D0
 10
-9.0
 20
0.0
 11
-9.0
 21
11.9999997234
 70
160
 71
2
 42
25.0
  3
DIMSTYLE_1
100
AcDbAlignedDimension
 13
0.0
 23
25.0
 14
-0.0
 24
-0.0
 50
270.0
100
AcDbRotatedDimension
  0
DIMENSION
  5
238
100
AcDbEntity
  8
_03_2D_ZEICHNUNG_BEMASSUNGEN
100
AcDbDimension
 62
7
  6
CONTINUOUS
  2
*D1
 10
0.0
 20
34.0
 11
74.4999993896
 21
34.0
 70
160
 71
2
 42
150.0
  3
DIMSTYLE_2
100
AcDbAlignedDimension
 13
150.0
 23
0.0
 14
0.0
 24
0.0
 50
180.0
100
AcDbRotatedDimension
  0
DIMENSION
  5
239
100
AcDbEntity
  8
_03_2D_ZEICHNUNG_BEMASSUNGEN
100
AcDbDimension
 62
7
  6
CONTINUOUS
  2
*D2
 10
159.9287472943
 20
0.0
 11
159.9287472943
 21
5.7500005694
 70
160
 71
2
 42
12.5
  3
DIMSTYLE_1
100
AcDbAlignedDimension
 13
150.0
 23
12.5
 14
0.0
 24
0.0
 50
270.0
100
AcDbRotatedDimension
  0
LINE
  5
23A
100
AcDbEntity
  8
_30_VOLUMEN
100
AcDbLine
 62
4
  6
CONTINUOUS
 10
-0.0
 20
0.5
 11
0.0
 21
24.5
  0
LINE
  5
23B
100
AcDbEntity
  8
_30_VOLUMEN
100
AcDbLine
 62
4
  6
CONTINUOUS
 10
0.5
 20
-0.0
 11
0.5
 21
25.0
  0
LINE
  5
23C
100
AcDbEntity
  8
_30_VOLUMEN
100
AcDbLine
 62
4
  6
CONTINUOUS
 10
0.5
 20
25.0
 11
0.0
 21
24.5
  0
LINE
  5
23D
100
AcDbEntity
  8
_30_VOLUMEN
100
AcDbLine
 62
4
  6
CONTINUOUS
 10
0.5
 20
-0.0
 11
-0.0
 21
0.5
  0
LINE
  5
23E
100
AcDbEntity
  8
_30_VOLUMEN
100
AcDbLine
 62
4
  6
CONTINUOUS
 10
0.5
 20
-0.0
 11
120.0
 21
0.0
  0
LINE
  5
23F
100
AcDbEntity
  8
0
100
AcDbLine
 62
4
  6
CONTINUOUS
 10
120.0
 20
0.0
 11
120.9357233201
 21
0.0
  0
LINE
  5
240
100
AcDbEntity
  8
_30_VOLUMEN
100
AcDbLine
 62
4
  6
CONTINUOUS
 10
120.9357233201
 20
0.0
 11
125.1185637186
 21
0.0
  0
LINE
  5
241
100
AcDbEntity
  8
_30_VOLUMEN
100
AcDbLine
 62
4
  6
CONTINUOUS
 10
140.7489092439
 20
7.1343270008
 11
140.1878357893
 21
7.1274718543
  0
LINE
  5
242
100
AcDbEntity
  8
_30_VOLUMEN
100
AcDbLine
 62
7
  6
CONTINUOUS
 10
140.3805716991
 20
7.2204527447
 11
139.8194982446
 21
7.2135975983
  0
LINE
  5
243
100
AcDbEntity
  8
_30_VOLUMEN
100
AcDbLine
 62
7
  6
CONTINUOUS
 10
140.2604210216
 20
17.5734748062
 11
139.699347567
 21
17.5666196597
  0
LINE
  5
244
100
AcDbEntity
  8
_30_VOLUMEN
100
AcDbLine
 62
4
  6
CONTINUOUS
 10
140.6256808017
 20
17.6681078881
 11
140.0646073471
 21
17.6612527416
  0
LINE
  5
245
100
AcDbEntity
  8
_30_VOLUMEN
100
AcDbLine
 62
4
  6
CONTINUOUS
 10
123.6583014781
 20
25.0
 11
120.9263078285
 21
25.0
  0
LINE
  5
246
100
AcDbEntity
  8
_30_VOLUMEN
100
AcDbLine
 62
4
  6
CONTINUOUS
 10
0.5
 20
25.0
 11
120.0
 21
25.0
  0
LINE
  5
247
100
AcDbEntity
  8
0
100
AcDbLine
 62
4
  6
CONTINUOUS
 10
120.0
 20
25.0
 11
120.9263078285
 21
25.0
  0
LINE
  5
248
100
AcDbEntity
  8
_30_VOLUMEN
100
AcDbLine
 62
4
  6
CONTINUOUS
 10
139.699347567
 20
17.5666196597
 11
138.9937172505
 21
17.1862153854
  0
LINE
  5
249
100
AcDbEntity
  8
_30_VOLUMEN
100
AcDbLine
 62
4
  6
CONTINUOUS
 10
139.1194871565
 20
7.5702710626
 11
139.8194982446
 21
7.2135975983
  0
LINE
  5
24A
100
AcDbEntity
  8
_30_VOLUMEN
100
AcDbLine
 62
4
  6
CONTINUOUS
 10
140.3805716991
 20
7.2204527447
 11
131.8076277451
 21
11.5885858664
  0
LINE
  5
24B
100
AcDbEntity
  8
_21_KURVEN
100
AcDbLine
 62
7
  6
CONTINUOUS
 10
140.3805716991
 20
7.2204527447
 11
131.8076277451
 21
11.5885858664
  0
LINE
  5
24C
100
AcDbEntity
  8
_26_BEZUGSACHSEN
100
AcDbLine
 62
4
  6
CONTINUOUS
 10
139.3982243676
 20
7.7209837104
 11
130.4458427512
 21
12.2824499775
  0
LINE
  5
24D
100
AcDbEntity
  8
_26_BEZUGSACHSEN
100
AcDbLine
 62
4
  6
CONTINUOUS
 10
130.4458427512
 20
12.2824499775
 11
139.2756283426
 21
17.0425745095
  0
LINE
  5
24E
100
AcDbEntity
  8
_30_VOLUMEN
100
AcDbLine
 62
4
  6
CONTINUOUS
 10
131.7911583084
 20
13.007707632
 11
140.2604210216
 21
17.5734748062
  0
LINE
  5
24F
100
AcDbEntity
  8
_21_KURVEN
100
AcDbLine
 62
7
  6
CONTINUOUS
 10
131.7911583084
 20
13.007707632
 11
140.2604210216
 21
17.5734748062
  0
LINE
  5
250
100
AcDbEntity
  8
_26_BEZUGSACHSEN
100
AcDbLine
 62
4
  6
CONTINUOUS
 10
125.1185637186
 20
0.0
 11
139.3982243676
 21
7.7209837104
  0
LINE
  5
251
100
AcDbEntity
  8
_30_VOLUMEN
100
AcDbLine
 62
4
  6
CONTINUOUS
 10
149.5834317371
 20
11.7947272569
 11
141.114169024
 21
7.2289600827
  0
LINE
  5
252
100
AcDbEntity
  8
_21_KURVEN
100
AcDbLine
 62
7
  6
CONTINUOUS
 10
149.5834317371
 20
11.7947272569
 11
141.114169024
 21
7.2289600827
  0
LINE
  5
253
100
AcDbEntity
  8
_26_BEZUGSACHSEN
100
AcDbLine
 62
4
  6
CONTINUOUS
 10
139.2756283426
 20
17.0425745095
 11
123.6583014781
 21
25.0
  0
LINE
  5
254
100
AcDbEntity
  8
_30_VOLUMEN
100
AcDbLine
 62
4
  6
CONTINUOUS
 10
140.9940183464
 20
17.5819821442
 11
149.5669623004
 21
13.2138490225
  0
LINE
  5
255
100
AcDbEntity
  8
_21_KURVEN
100
AcDbLine
 62
7
  6
CONTINUOUS
 10
140.9940183464
 20
17.5819821442
 11
149.5669623004
 21
13.2138490225
  0
LINE
  5
256
100
AcDbEntity
  8
0
100
AcDbLine
 62
4
  6
CONTINUOUS
 10
120.9263078285
 20
25.0
 11
120.9357233201
 21
0.0
  0
LINE
  5
257
100
AcDbEntity
  8
0
100
AcDbLine
 62
4
  6
CONTINUOUS
 10
120.0
 20
25.0
 11
120.0
 21
0.0
  0
LINE
  5
258
100
AcDbEntity
  8
_28_BEZUGSPUNKTE
100
AcDbLine
 62
1
  6
CONTINUOUS
 10
150.15625
 20
12.65625
 11
149.84375
 21
12.34375
  0
LINE
  5
259
100
AcDbEntity
  8
_28_BEZUGSPUNKTE
100
AcDbLine
 62
1
  6
CONTINUOUS
 10
150.15625
 20
12.34375
 11
149.84375
 21
12.65625
  0
ARC
  5
25A
100
AcDbEntity
  8
_30_VOLUMEN
100
AcDbCircle
 62
4
  6
CONTINUOUS
 10
140.1246258719
 20
12.3829501312
 40
1.8935417243
100
AcDbArc
 50
276.9611141418
 51
281.2745388518
  0
ARC
  5
25B
100
AcDbEntity
  8
_30_VOLUMEN
100
AcDbCircle
 62
4
  6
CONTINUOUS
 10
140.1278009144
 20
12.4432169033
 40
1.8560637192
100
AcDbArc
 50
84.531148866
 51
85.635120881
  0
ARC
  5
25C
100
AcDbEntity
  8
_30_VOLUMEN
100
AcDbCircle
 62
4
  6
CONTINUOUS
 10
131.6190561928
 20
12.2957120143
 40
0.8082720667
100
AcDbArc
 50
165.7110559225
 51
195.5548222205
  0
SPLINE
  5
25D
100
AcDbEntity
  8
_30_VOLUMEN
100
AcDbSpline
 62
4
  6
CONTINUOUS
 70
0
 71
3
 72
11
 73
7
 74
0
 42
0.0000001
 43
0.0000001
 44
0.0000000001
 40
0.0
 40
0.0
 40
0.0
 40
0.0
 40
0.2496548458
 40
0.4999983681
 40
0.7503430032
 40
1.0
 40
1.0
 40
1.0
 40
1.0
 10
149.5834317371
 20
11.7947272569
 30
0.0
 10
149.7094316764
 20
11.8626536404
 30
0.0
 10
149.9283047221
 20
12.073280984
 30
0.0
 10
150.0423787983
 20
12.5097070142
 30
0.0
 10
149.9182062845
 20
12.9433687507
 30
0.0
 10
149.6945049324
 20
13.1488628056
 30
0.0
 10
149.5669623004
 20
13.2138490225
 30
0.0
  0
SPLINE
  5
25E
100
AcDbEntity
  8
_30_VOLUMEN
100
AcDbSpline
 62
4
  6
CONTINUOUS
 70
0
 71
3
 72
8
 73
4
 74
0
 42
0.0000001
 43
0.0000001
 44
0.0000000001
 40
0.0
 40
0.0
 40
0.0
 40
0.0
 40
1.0
 40
1.0
 40
1.0
 40
1.0
 10
140.9940183464
 20
17.5819821442
 30
0.0
 10
140.8816691974
 20
17.6392268948
 30
0.0
 10
140.7517635522
 20
17.6696673762
 30
0.0
 10
140.6256805652
 20
17.6681268697
 30
0.0
  0
SPLINE
  5
25F
100
AcDbEntity
  8
_30_VOLUMEN
100
AcDbSpline
 62
4
  6
CONTINUOUS
 70
0
 71
3
 72
8
 73
4
 74
0
 42
0.0000001
 43
0.0000001
 44
0.0000000001
 40
0.0
 40
0.0
 40
0.0
 40
0.0
 40
1.0
 40
1.0
 40
1.0
 40
1.0
 10
139.699347567
 20
17.5666196597
 30
0.0
 10
139.8100591308
 20
17.6263041023
 30
0.0
 10
139.9388417664
 20
17.6597350977
 30
0.0
 10
140.0646071107
 20
17.6612717232
 30
0.0
  0
SPLINE
  5
260
100
AcDbEntity
  8
_30_VOLUMEN
100
AcDbSpline
 62
4
  6
CONTINUOUS
 70
0
 71
3
 72
9
 73
5
 74
0
 42
0.0000001
 43
0.0000001
 44
0.0000000001
 40
0.0
 40
0.0
 40
0.0
 40
0.0
 40
0.5008234286
 40
1.0
 40
1.0
 40
1.0
 40
1.0
 10
141.8142906404
 20
11.5342481452
 30
0.0
 10
141.6865714397
 20
11.2799899423
 30
0.0
 10
141.3116346483
 20
10.8239216593
 30
0.0
 10
140.7729567505
 20
10.5814032184
 30
0.0
 10
140.4948328933
 20
10.5259506635
 30
0.0
  0
SPLINE
  5
261
100
AcDbEntity
  8
_30_VOLUMEN
100
AcDbSpline
 62
4
  6
CONTINUOUS
 70
0
 71
3
 72
8
 73
4
 74
0
 42
0.0000001
 43
0.0000001
 44
0.0000000001
 40
0.0
 40
0.0
 40
0.0
 40
0.0
 40
1.0
 40
1.0
 40
1.0
 40
1.0
 10
140.7489094803
 20
7.1343080193
 30
0.0
 10
140.8746748246
 20
7.1358446447
 30
0.0
 10
141.0034574602
 20
7.1692756402
 30
0.0
 10
141.114169024
 20
7.2289600827
 30
0.0
  0
SPLINE
  5
262
100
AcDbEntity
  8
_30_VOLUMEN
100
AcDbSpline
 62
4
  6
CONTINUOUS
 70
0
 71
3
 72
8
 73
4
 74
0
 42
0.0000001
 43
0.0000001
 44
0.0000000001
 40
0.0
 40
0.0
 40
0.0
 40
0.0
 40
1.0
 40
1.0
 40
1.0
 40
1.0
 10
140.1878360258
 20
7.1274528728
 30
0.0
 10
140.0617530388
 20
7.1259123663
 30
0.0
 10
139.9318473936
 20
7.1563528476
 30
0.0
 10
139.8194982446
 20
7.2135975983
 30
0.0
  0
SPLINE
  5
263
100
AcDbEntity
  8
_30_VOLUMEN
100
AcDbSpline
 62
4
  6
CONTINUOUS
 70
0
 71
3
 72
11
 73
7
 74
0
 42
0.0000001
 43
0.0000001
 44
0.0000000001
 40
0.0
 40
0.0
 40
0.0
 40
0.0
 40
0.2536926248
 40
0.5047470476
 40
0.753337831
 40
1.0
 40
1.0
 40
1.0
 40
1.0
 10
138.8117267753
 20
13.2661534698
 30
0.0
 10
138.8890799692
 20
13.4201450696
 30
0.0
 10
139.0859101488
 20
13.7069165725
 30
0.0
 10
139.4825343023
 20
14.040020425
 30
0.0
 10
139.9505706402
 20
14.2503940679
 30
0.0
 10
140.2880649863
 20
14.3014818681
 30
0.0
 10
140.4556048142
 20
14.3035288551
 30
0.0
  0
SPLINE
  5
264
100
AcDbEntity
  8
_30_VOLUMEN
100
AcDbSpline
 62
4
  6
CONTINUOUS
 70
0
 71
3
 72
15
 73
11
 74
0
 42
0.0000001
 43
0.0000001
 44
0.0000000001
 40
0.0
 40
0.0
 40
0.0
 40
0.0
 40
0.1244966535
 40
0.2491145385
 40
0.3739433937
 40
0.4989801286
 40
0.6241612159
 40
0.7494461475
 40
0.8749473224
 40
1.0
 40
1.0
 40
1.0
 40
1.0
 10
140.304692308
 20
14.2908321134
 30
0.0
 10
140.4569518485
 20
14.2762555892
 30
0.0
 10
140.7593152772
 20
14.2093254922
 30
0.0
 10
141.174396635
 20
14.0024626062
 30
0.0
 10
141.5282059509
 20
13.7011438811
 30
0.0
 10
141.7989995404
 20
13.3227544003
 30
0.0
 10
141.9720542878
 20
12.8902934002
 30
0.0
 10
142.0364932788
 20
12.4282243032
 30
0.0
 10
141.9880414798
 20
11.9647278033
 30
0.0
 10
141.8832547969
 20
11.6715391897
 30
0.0
 10
141.8142906404
 20
11.5342481452
 30
0.0
  0
SPLINE
  5
265
100
AcDbEntity
  8
_30_VOLUMEN
100
AcDbSpline
 62
4
  6
CONTINUOUS
 70
0
 71
3
 72
11
 73
7
 74
0
 42
0.0000001
 43
0.0000001
 44
0.0000000001
 40
0.0
 40
0.0
 40
0.0
 40
0.0
 40
0.2444871131
 40
0.4931812727
 40
0.7463694887
 40
1.0
 40
1.0
 40
1.0
 40
1.0
 10
140.5021515874
 20
10.4938131967
 30
0.0
 10
140.1886982302
 20
10.489983451
 30
0.0
 10
139.5426324079
 20
10.6511504215
 30
0.0
 10
138.8222574102
 20
11.3425700052
 30
0.0
 10
138.5225565559
 20
12.307172787
 30
0.0
 10
138.6657535043
 20
12.9755558045
 30
0.0
 10
138.8117267753
 20
13.2661534698
 30
0.0
  0
SPLINE
  5
266
100
AcDbEntity
  8
_30_VOLUMEN
100
AcDbSpline
 62
4
  6
CONTINUOUS
 70
0
 71
3
 72
15
 73
11
 74
0
 42
0.0000001
 43
0.0000001
 44
0.0000000001
 40
0.0
 40
0.0
 40
0.0
 40
0.0
 40
0.1250944673
 40
0.249859217
 40
0.3744318264
 40
0.4990631474
 40
0.6239693741
 40
0.7492049459
 40
0.8746316425
 40
1.0
 40
1.0
 40
1.0
 40
1.0
 10
142.7829818237
 20
11.3334116852
 30
0.0
 10
142.6452891473
 20
11.0592986916
 30
0.0
 10
142.2582451563
 20
10.560485418
 30
0.0
 10
141.4395499132
 20
10.0958946344
 30
0.0
 10
140.5050776297
 20
9.9814747504
 30
0.0
 10
139.5987205404
 20
10.236542388
 30
0.0
 10
138.858758891
 20
10.8210847956
 30
0.0
 10
138.3977378722
 20
11.6458874202
 30
0.0
 10
138.2841847613
 20
12.5838207551
 30
0.0
 10
138.4536140718
 20
13.1943100486
 30
0.0
 10
138.5916082218
 20
13.4690232037
 30
0.0
  0
SPLINE
  5
267
100
AcDbEntity
  8
_30_VOLUMEN
100
AcDbSpline
 62
7
  6
CONTINUOUS
 70
0
 71
3
 72
11
 73
7
 74
0
 42
0.0000001
 43
0.0000001
 44
0.0000000001
 40
0.0
 40
0.0
 40
0.0
 40
0.0
 40
0.2501995739
 40
0.5008643072
 40
0.7505793418
 40
1.0
 40
1.0
 40
1.0
 40
1.0
 10
142.166947273
 20
11.5385568731
 30
0.0
 10
142.0898169164
 20
11.3850088888
 30
0.0
 10
141.8919742296
 20
11.0975882133
 30
0.0
 10
141.4927103531
 20
10.7618600633
 30
0.0
 10
141.0174689597
 20
10.5475407628
 30
0.0
 10
140.6734325744
 20
10.4961422375
 30
0.0
 10
140.5021482154
 20
10.4940952666
 30
0.0
  0
SPLINE
  5
268
100
AcDbEntity
  8
_30_VOLUMEN
100
AcDbSpline
 62
4
  6
CONTINUOUS
 70
0
 71
3
 72
15
 73
11
 74
0
 42
0.0000001
 43
0.0000001
 44
0.0000000001
 40
0.0
 40
0.0
 40
0.0
 40
0.0
 40
0.1250593685
 40
0.2498887025
 40
0.3744364364
 40
0.4990630823
 40
0.623964768
 40
0.7491751366
 40
0.8746666452
 40
1.0
 40
1.0
 40
1.0
 40
1.0
 10
142.6952632932
 20
11.3584267543
 30
0.0
 10
142.560902003
 20
11.0909457493
 30
0.0
 10
142.1828796074
 20
10.6042389428
 30
0.0
 10
141.383975244
 20
10.1502540229
 30
0.0
 10
140.4716891516
 20
10.0392355713
 30
0.0
 10
139.5870115114
 20
10.2878050225
 30
0.0
 10
138.8650689644
 20
10.8585991869
 30
0.0
 10
138.4144438377
 20
11.6634151214
 30
0.0
 10
138.3041362449
 20
12.5790461745
 30
0.0
 10
138.4692326492
 20
13.1750194187
 30
0.0
 10
138.6038883047
 20
13.4430864343
 30
0.0
  0
SPLINE
  5
269
100
AcDbEntity
  8
_30_VOLUMEN
100
AcDbSpline
 62
7
  6
CONTINUOUS
 70
0
 71
3
 72
15
 73
11
 74
0
 42
0.0000001
 43
0.0000001
 44
0.0000000001
 40
0.0
 40
0.0
 40
0.0
 40
0.0
 40
0.1249949736
 40
0.2506097837
 40
0.3759448383
 40
0.5010902938
 40
0.6261191476
 40
0.7508986297
 40
0.8755006524
 40
1.0
 40
1.0
 40
1.0
 40
1.0
 10
142.166947273
 20
11.5385568731
 30
0.0
 10
142.2396259293
 20
11.6832425933
 30
0.0
 10
142.3479144586
 20
11.9936331272
 30
0.0
 10
142.3898511128
 20
12.4838322671
 30
0.0
 10
142.3054827856
 20
12.9692106162
 30
0.0
 10
142.1018545731
 20
13.4166916706
 30
0.0
 10
141.792667875
 20
13.7981874105
 30
0.0
 10
141.3968946156
 20
14.0877570981
 30
0.0
 10
140.9416533684
 20
14.2676457217
 30
0.0
 10
140.6168686588
 20
14.3051739634
 30
0.0
 10
140.4556081862
 20
14.3032467852
 30
0.0
  0
SPLINE
  5
26A
100
AcDbEntity
  8
_30_VOLUMEN
100
AcDbSpline
 62
4
  6
CONTINUOUS
 70
0
 71
3
 72
15
 73
11
 74
0
 42
0.0000001
 43
0.0000001
 44
0.0000000001
 40
0.0
 40
0.0
 40
0.0
 40
0.0
 40
0.1253333548
 40
0.2508248634
 40
0.376035232
 40
0.5009369177
 40
0.6255635636
 40
0.7501112975
 40
0.8749406315
 40
1.0
 40
1.0
 40
1.0
 40
1.0
 10
142.6952632932
 20
11.3584267543
 30
0.0
 10
142.8299189487
 20
11.6264937698
 30
0.0
 10
142.995015353
 20
12.222467014
 30
0.0
 10
142.8847077602
 20
13.1380980672
 30
0.0
 10
142.4340826335
 20
13.9429140017
 30
0.0
 10
141.7121400865
 20
14.5137081661
 30
0.0
 10
140.8274624463
 20
14.7622776172
 30
0.0
 10
139.9151763539
 20
14.6512591656
 30
0.0
 10
139.1162719905
 20
14.1972742457
 30
0.0
 10
138.7382495949
 20
13.7105674393
 30
0.0
 10
138.6038883047
 20
13.4430864343
 30
0.0
  0
SPLINE
  5
26B
100
AcDbEntity
  8
_30_VOLUMEN
100
AcDbSpline
 62
4
  6
CONTINUOUS
 70
0
 71
3
 72
15
 73
11
 74
0
 42
0.0000001
 43
0.0000001
 44
0.0000000001
 40
0.0
 40
0.0
 40
0.0
 40
0.0
 40
0.1250944673
 40
0.249859217
 40
0.3744318264
 40
0.4990631474
 40
0.6239693741
 40
0.7492049459
 40
0.8746316425
 40
1.0
 40
1.0
 40
1.0
 40
1.0
 10
138.5916082218
 20
13.4690232037
 30
0.0
 10
138.7293008983
 20
13.7431361973
 30
0.0
 10
139.1163448893
 20
14.2419494709
 30
0.0
 10
139.9350401323
 20
14.7065402545
 30
0.0
 10
140.8695124159
 20
14.8209601385
 30
0.0
 10
141.7758695052
 20
14.5658925009
 30
0.0
 10
142.5158311546
 20
13.9813500933
 30
0.0
 10
142.9768521734
 20
13.1565474687
 30
0.0
 10
143.0904052842
 20
12.2186141338
 30
0.0
 10
142.9209759738
 20
11.6081248403
 30
0.0
 10
142.7829818237
 20
11.3334116852
 30
0.0
  0
SPLINE
  5
26C
100
AcDbEntity
  8
_30_VOLUMEN
100
AcDbSpline
 62
4
  6
CONTINUOUS
 70
0
 71
3
 72
8
 73
4
 74
0
 42
0.0000001
 43
0.0000001
 44
0.0000000001
 40
0.0
 40
0.0
 40
0.0
 40
0.0
 40
1.0
 40
1.0
 40
1.0
 40
1.0
 10
140.6256805652
 20
17.6681268697
 30
0.0
 10
140.4999152209
 20
17.6665902442
 30
0.0
 10
140.3711325854
 20
17.6331592487
 30
0.0
 10
140.2604210216
 20
17.5734748062
 30
0.0
  0
SPLINE
  5
26D
100
AcDbEntity
  8
_30_VOLUMEN
100
AcDbSpline
 62
4
  6
CONTINUOUS
 70
0
 71
3
 72
11
 73
7
 74
0
 42
0.0000001
 43
0.0000001
 44
0.0000000001
 40
0.0
 40
0.0
 40
0.0
 40
0.0
 40
0.2496548458
 40
0.4999983681
 40
0.7503430032
 40
1.0
 40
1.0
 40
1.0
 40
1.0
 10
131.7911583084
 20
13.007707632
 30
0.0
 10
131.6651583691
 20
12.9397812485
 30
0.0
 10
131.4462853234
 20
12.7291539049
 30
0.0
 10
131.3322112473
 20
12.2927278747
 30
0.0
 10
131.4563837611
 20
11.8590661382
 30
0.0
 10
131.6800851132
 20
11.6535720833
 30
0.0
 10
131.8076277451
 20
11.5885858664
 30
0.0
  0
SPLINE
  5
26E
100
AcDbEntity
  8
_30_VOLUMEN
100
AcDbSpline
 62
4
  6
CONTINUOUS
 70
0
 71
3
 72
8
 73
4
 74
0
 42
0.0000001
 43
0.0000001
 44
0.0000000001
 40
0.0
 40
0.0
 40
0.0
 40
0.0
 40
1.0
 40
1.0
 40
1.0
 40
1.0
 10
140.3805716991
 20
7.2204527447
 30
0.0
 10
140.4929208481
 20
7.1632079941
 30
0.0
 10
140.6228264934
 20
7.1327675128
 30
0.0
 10
140.7489094803
 20
7.1343080193
 30
0.0
  0
SPLINE
  5
26F
100
AcDbEntity
  8
_21_KURVEN
100
AcDbSpline
 62
7
  6
CONTINUOUS
 70
0
 71
3
 72
36
 73
32
 74
0
 42
0.0000001
 43
0.0000001
 44
0.0000000001
 40
0.0
 40
0.0
 40
0.0
 40
0.0
 40
0.0625
 40
0.09375
 40
0.125
 40
0.1875
 40
0.21875
 40
0.25
 40
0.28125
 40
0.3125
 40
0.375
 40
0.40625
 40
0.4375
 40
0.453125
 40
0.46875
 40
0.5
 40
0.53125
 40
0.546875
 40
0.5625
 40
0.59375
 40
0.625
 40
0.6875
 40
0.71875
 40
0.75
 40
0.78125
 40
0.8125
 40
0.84375
 40
0.875
 40
0.90625
 40
0.9375
 40
1.0
 40
1.0
 40
1.0
 40
1.0
 10
131.7911583084
 20
13.007707632
 30
0.0
 10
131.76162214
 20
12.9878240501
 30
0.0
 10
131.7179378886
 20
12.9571233032
 30
0.0
 10
131.657212215
 20
12.9196904708
 30
0.0
 10
131.6091123646
 20
12.864156028
 30
0.0
 10
131.5531246694
 20
12.817280443
 30
0.0
 10
131.5158838169
 20
12.754260519
 30
0.0
 10
131.4851272513
 20
12.7093300013
 30
0.0
 10
131.4563009691
 20
12.6631339516
 30
0.0
 10
131.4321292575
 20
12.5941199575
 30
0.0
 10
131.4016780882
 20
12.5279278009
 30
0.0
 10
131.390642549
 20
12.4554844521
 30
0.0
 10
131.3827194759
 20
12.4109208367
 30
0.0
 10
131.3739891764
 20
12.3751203961
 30
0.0
 10
131.37564693
 20
12.3393473668
 30
0.0
 10
131.3752731163
 20
12.2946186059
 30
0.0
 10
131.3765298985
 20
12.2499058895
 30
0.0
 10
131.3755786986
 20
12.2141071889
 30
0.0
 10
131.3850140919
 20
12.1784854872
 30
0.0
 10
131.3938153023
 20
12.1340863643
 30
0.0
 10
131.4062794521
 20
12.0618745425
 30
0.0
 10
131.4380280232
 20
11.9962924577
 30
0.0
 10
131.4635655912
 20
11.9277720078
 30
0.0
 10
131.4932737818
 20
11.8821383458
 30
0.0
 10
131.5250033422
 20
11.837873405
 30
0.0
 10
131.5535183817
 20
11.7909742438
 30
0.0
 10
131.5928701351
 20
11.7532432434
 30
0.0
 10
131.6323904507
 20
11.7159692416
 30
0.0
 10
131.6693555586
 20
11.6753647335
 30
0.0
 10
131.7320453938
 20
11.6383787583
 30
0.0
 10
131.7771382146
 20
11.6081743585
 30
0.0
 10
131.8076277741
 20
11.5885858516
 30
0.0
  0
SPLINE
  5
270
100
AcDbEntity
  8
_21_KURVEN
100
AcDbSpline
 62
7
  6
CONTINUOUS
 70
0
 71
3
 72
9
 73
5
 74
0
 42
0.0000001
 43
0.0000001
 44
0.0000000001
 40
0.0
 40
0.0
 40
0.0
 40
0.0
 40
0.5
 40
1.0
 40
1.0
 40
1.0
 40
1.0
 10
140.9940183464
 20
17.5819821442
 30
0.0
 10
140.9665409217
 20
17.5953217871
 30
0.0
 10
140.9084358943
 20
17.6221495352
 30
0.0
 10
140.8468249338
 20
17.6392938051
 30
0.0
 10
140.8152470249
 20
17.6473785043
 30
0.0
  0
SPLINE
  5
271
100
AcDbEntity
  8
_21_KURVEN
100
AcDbSpline
 62
7
  6
CONTINUOUS
 70
0
 71
3
 72
9
 73
5
 74
0
 42
0.0000001
 43
0.0000001
 44
0.0000000001
 40
0.0
 40
0.0
 40
0.0
 40
0.0
 40
0.5
 40
1.0
 40
1.0
 40
1.0
 40
1.0
 10
140.8152470223
 20
17.6473785049
 30
0.0
 10
140.7854096154
 20
17.6537595648
 30
0.0
 10
140.7226399877
 20
17.6659118899
 30
0.0
 10
140.6587506253
 20
17.6678186917
 30
0.0
 10
140.6256807998
 20
17.6681078881
 30
0.0
  0
SPLINE
  5
272
100
AcDbEntity
  8
_21_KURVEN
100
AcDbSpline
 62
7
  6
CONTINUOUS
 70
0
 71
3
 72
9
 73
5
 74
0
 42
0.0000001
 43
0.0000001
 44
0.0000000001
 40
0.0
 40
0.0
 40
0.0
 40
0.0
 40
0.5
 40
1.0
 40
1.0
 40
1.0
 40
1.0
 10
140.6256808017
 20
17.6681078881
 30
0.0
 10
140.5951941558
 20
17.6671456941
 30
0.0
 10
140.5313596138
 20
17.6638864276
 30
0.0
 10
140.4688619732
 20
17.6504076511
 30
0.0
 10
140.4376265338
 20
17.6429993369
 30
0.0
  0
SPLINE
  5
273
100
AcDbEntity
  8
_21_KURVEN
100
AcDbSpline
 62
7
  6
CONTINUOUS
 70
0
 71
3
 72
9
 73
5
 74
0
 42
0.0000001
 43
0.0000001
 44
0.0000000001
 40
0.0
 40
0.0
 40
0.0
 40
0.0
 40
0.5
 40
1.0
 40
1.0
 40
1.0
 40
1.0
 10
140.4376265384
 20
17.6429993381
 30
0.0
 10
140.4082368823
 20
17.6347858238
 30
0.0
 10
140.3469922901
 20
17.616378796
 30
0.0
 10
140.2894524506
 20
17.5883624042
 30
0.0
 10
140.2604210238
 20
17.5734748074
 30
0.0
  0
SPLINE
  5
274
100
AcDbEntity
  8
_21_KURVEN
100
AcDbSpline
 62
7
  6
CONTINUOUS
 70
0
 71
3
 72
9
 73
5
 74
0
 42
0.0000001
 43
0.0000001
 44
0.0000000001
 40
0.0
 40
0.0
 40
0.0
 40
0.0
 40
0.5
 40
1.0
 40
1.0
 40
1.0
 40
1.0
 10
149.5834317371
 20
11.7947272569
 30
0.0
 10
149.6313705133
 20
11.8227815744
 30
0.0
 10
149.7315226843
 20
11.8867842146
 30
0.0
 10
149.8058561177
 20
11.9726610665
 30
0.0
 10
149.8435343881
 20
12.019385875
 30
0.0
  0
SPLINE
  5
275
100
AcDbEntity
  8
_21_KURVEN
100
AcDbSpline
 62
7
  6
CONTINUOUS
 70
0
 71
3
 72
9
 73
5
 74
0
 42
0.0000001
 43
0.0000001
 44
0.0000000001
 40
0.0
 40
0.0
 40
0.0
 40
0.0
 40
0.5
 40
1.0
 40
1.0
 40
1.0
 40
1.0
 10
149.8435343915
 20
12.0193858796
 30
0.0
 10
149.8752743089
 20
12.0651668177
 30
0.0
 10
149.9389414625
 20
12.1643613666
 30
0.0
 10
149.9715932458
 20
12.2778069919
 30
0.0
 10
149.9857587323
 20
12.3349869381
 30
0.0
  0
SPLINE
  5
276
100
AcDbEntity
  8
_21_KURVEN
100
AcDbSpline
 62
7
  6
CONTINUOUS
 70
0
 71
3
 72
9
 73
5
 74
0
 42
0.0000001
 43
0.0000001
 44
0.0000000001
 40
0.0
 40
0.0
 40
0.0
 40
0.0
 40
0.5
 40
1.0
 40
1.0
 40
1.0
 40
1.0
 10
149.9857587311
 20
12.3349869325
 30
0.0
 10
149.9952887356
 20
12.389993552
 30
0.0
 10
150.0113126266
 20
12.5070034477
 30
0.0
 10
149.9932486135
 20
12.6237174739
 30
0.0
 10
149.982097428
 20
12.6814376
 30
0.0
  0
SPLINE
  5
277
100
AcDbEntity
  8
_21_KURVEN
100
AcDbSpline
 62
7
  6
CONTINUOUS
 70
0
 71
3
 72
9
 73
5
 74
0
 42
0.0000001
 43
0.0000001
 44
0.0000000001
 40
0.0
 40
0.0
 40
0.0
 40
0.0
 40
0.5
 40
1.0
 40
1.0
 40
1.0
 40
1.0
 10
149.9820974283
 20
12.6814375986
 30
0.0
 10
149.9676376692
 20
12.7353472207
 30
0.0
 10
149.9330293387
 20
12.8482147476
 30
0.0
 10
149.8676566386
 20
12.9463002032
 30
0.0
 10
149.8337491258
 20
12.9933089549
 30
0.0
  0
SPLINE
  5
278
100
AcDbEntity
  8
_21_KURVEN
100
AcDbSpline
 62
7
  6
CONTINUOUS
 70
0
 71
3
 72
9
 73
5
 74
0
 42
0.0000001
 43
0.0000001
 44
0.0000000001
 40
0.0
 40
0.0
 40
0.0
 40
0.0
 40
0.5
 40
1.0
 40
1.0
 40
1.0
 40
1.0
 10
149.8337491275
 20
12.9933089527
 30
0.0
 10
149.7980490981
 20
13.0360417002
 30
0.0
 10
149.7193764386
 20
13.1236666737
 30
0.0
 10
149.6190100907
 20
13.1848152032
 30
0.0
 10
149.5669622964
 20
13.2138490246
 30
0.0
  0
SPLINE
  5
279
100
AcDbEntity
  8
_21_KURVEN
100
AcDbSpline
 62
1
  6
CENTER
 70
0
 71
3
 72
97
 73
93
 74
0
 42
0.0000001
 43
0.0000001
 44
0.0000000001
 40
0.0
 40
0.0
 40
0.0
 40
0.0
 40
0.03125
 40
0.0625
 40
0.078125
 40
0.09375
 40
0.1015625
 40
0.109375
 40
0.125
 40
0.140625
 40
0.15625
 40
0.171875
 40
0.17578125
 40
0.1796875
 40
0.181640625
 40
0.18359375
 40
0.1875
 40
0.1953125
 40
0.203125
 40
0.21875
 40
0.25
 40
0.2578125
 40
0.265625
 40
0.26953125
 40
0.2734375
 40
0.27734375
 40
0.28125
 40
0.296875
 40
0.3125
 40
0.328125
 40
0.34375
 40
0.3515625
 40
0.359375
 40
0.36328125
 40
0.3671875
 40
0.375
 40
0.390625
 40
0.40625
 40
0.421875
 40
0.4375
 40
0.4453125
 40
0.44921875
 40
0.453125
 40
0.4609375
 40
0.46875
 40
0.484375
 40
0.5
 40
0.515625
 40
0.53125
 40
0.5390625
 40
0.546875
 40
0.55078125
 40
0.5546875
 40
0.5625
 40
0.578125
 40
0.59375
 40
0.609375
 40
0.625
 40
0.6328125
 40
0.63671875
 40
0.640625
 40
0.6484375
 40
0.65625
 40
0.671875
 40
0.6875
 40
0.703125
 40
0.71875
 40
0.72265625
 40
0.7265625
 40
0.73046875
 40
0.734375
 40
0.7421875
 40
0.75
 40
0.78125
 40
0.796875
 40
0.8046875
 40
0.8125
 40
0.81640625
 40
0.818359375
 40
0.8203125
 40
0.82421875
 40
0.828125
 40
0.84375
 40
0.859375
 40
0.875
 40
0.890625
 40
0.8984375
 40
0.90625
 40
0.921875
 40
0.9375
 40
0.96875
 40
1.0
 40
1.0
 40
1.0
 40
1.0
 10
144.9074677033
 20
10.2509320625
 30
0.0
 10
144.9477531869
 20
10.3575512239
 30
0.0
 10
145.0281094804
 20
10.5708649636
 30
0.0
 10
145.1296282164
 20
10.8371300544
 30
0.0
 10
145.2085891298
 20
11.0509340031
 30
0.0
 10
145.2630382047
 20
11.1827703226
 30
0.0
 10
145.2762663336
 20
11.2988947851
 30
0.0
 10
145.2947907423
 20
11.4131582557
 30
0.0
 10
145.3161380683
 20
11.556625774
 30
0.0
 10
145.3424897268
 20
11.7285150202
 30
0.0
 10
145.3687950122
 20
11.9004702813
 30
0.0
 10
145.3881119452
 20
12.0294425141
 30
0.0
 10
145.4016911105
 20
12.115393728
 30
0.0
 10
145.4062948659
 20
12.1512555841
 30
0.0
 10
145.4124379014
 20
12.1798308557
 30
0.0
 10
145.4095841963
 20
12.2088238999
 30
0.0
 10
145.4072281377
 20
12.2594392357
 30
0.0
 10
145.4024860712
 20
12.3318107463
 30
0.0
 10
145.3956674914
 20
12.4475695871
 30
0.0
 10
145.383370451
 20
12.6501633351
 30
0.0
 10
145.3712426574
 20
12.8527558112
 30
0.0
 10
145.3607451097
 20
13.0263979616
 30
0.0
 10
145.3564610311
 20
13.0987637022
 30
0.0
 10
145.3528282387
 20
13.1566215219
 30
0.0
 10
145.3506662934
 20
13.2001102982
 30
0.0
 10
145.3364826997
 20
13.2415601916
 30
0.0
 10
145.3142990455
 20
13.3255086065
 30
0.0
 10
145.278432929
 20
13.4509934306
 30
0.0
 10
145.2320610952
 20
13.6185441973
 30
0.0
 10
145.1854173304
 20
13.7860782617
 30
0.0
 10
145.1462459173
 20
13.9255475998
 30
0.0
 10
145.1157686143
 20
14.0374731389
 30
0.0
 10
145.0947215356
 20
14.1066226204
 30
0.0
 10
145.0824659501
 20
14.1637842415
 30
0.0
 10
145.0534810666
 20
14.2142209031
 30
0.0
 10
145.0076631999
 20
14.3044569522
 30
0.0
 10
144.9396476752
 20
14.4323370352
 30
0.0
 10
144.8591109251
 20
14.5862230356
 30
0.0
 10
144.778344944
 20
14.7400351265
 30
0.0
 10
144.7109024969
 20
14.8680999833
 30
0.0
 10
144.6640817445
 20
14.9580126783
 30
0.0
 10
144.6367014781
 20
15.0089667064
 30
0.0
 10
144.6116752392
 20
15.0615175271
 30
0.0
 10
144.5635191732
 20
15.1157609264
 30
0.0
 10
144.490099271
 20
15.2050129639
 30
0.0
 10
144.3970726652
 20
15.3157254336
 30
0.0
 10
144.2860043277
 20
15.4489788699
 30
0.0
 10
144.1746843974
 20
15.582002539
 30
0.0
 10
144.0822867738
 20
15.6932894268
 30
0.0
 10
144.0076089073
 20
15.7813926281
 30
0.0
 10
143.9626501673
 20
15.8385559862
 30
0.0
 10
143.916481086
 20
15.8717981224
 30
0.0
 10
143.8720911768
 20
15.9072181536
 30
0.0
 10
143.7935811854
 20
15.9681902734
 30
0.0
 10
143.6818463055
 20
16.055808494
 30
0.0
 10
143.5476294181
 20
16.1607927148
 30
0.0
 10
143.4132770555
 20
16.2655832039
 30
0.0
 10
143.3018808638
 20
16.3536857538
 30
0.0
 10
143.2227781681
 20
16.4138102974
 30
0.0
 10
143.1793365857
 20
16.4505864505
 30
0.0
 10
143.1253916755
 20
16.4729246945
 30
0.0
 10
143.0615567095
 20
16.5057905417
 30
0.0
 10
142.957411921
 20
16.5556162454
 30
0.0
 10
142.8279125697
 20
16.6188235943
 30
0.0
 10
142.672254768
 20
16.6943708385
 30
0.0
 10
142.5165406718
 20
16.7696440297
 30
0.0
 10
142.4001179183
 20
16.8271472631
 30
0.0
 10
142.3219156436
 20
16.8638211602
 30
0.0
 10
142.283867778
 20
16.8851318458
 30
0.0
 10
142.2417242467
 20
16.8948799015
 30
0.0
 10
142.1857884374
 20
16.9085988675
 30
0.0
 10
142.1157812529
 20
16.9255004537
 30
0.0
 10
141.9478365726
 20
16.9662719506
 30
0.0
 10
141.7518704978
 20
17.013722112
 30
0.0
 10
141.5559327741
 20
17.0613402995
 30
0.0
 10
141.4439407514
 20
17.0883425916
 30
0.0
 10
141.3740080098
 20
17.1056992699
 30
0.0
 10
141.3249303578
 20
17.1168859507
 30
0.0
 10
141.2970811313
 20
17.1247851128
 30
0.0
 10
141.2680671971
 20
17.1236911898
 30
0.0
 10
141.2321978867
 20
17.1253975682
 30
0.0
 10
141.1457838346
 20
17.1269638226
 30
0.0
 10
141.0163010762
 20
17.1303636247
 30
0.0
 10
140.8435751071
 20
17.1343525595
 30
0.0
 10
140.6708832209
 20
17.1382771356
 30
0.0
 10
140.5269282823
 20
17.1422155904
 30
0.0
 10
140.4118553701
 20
17.1437953942
 30
0.0
 10
140.2964543298
 20
17.1511246583
 30
0.0
 10
140.1545501921
 20
17.1191289859
 30
0.0
 10
139.9269985227
 20
17.0767913711
 30
0.0
 10
139.6427333773
 20
17.020810723
 30
0.0
 10
139.4152680979
 20
16.9769583583
 30
0.0
 10
139.3015421035
 20
16.9549156567
 30
0.0
  0
LINE
  5
27A
100
AcDbEntity
  8
_21_KURVEN
100
AcDbLine
 62
1
  6
CENTER
 10
139.3015426031
 20
16.9549158108
 11
139.2596911281
 21
16.9417929748
  0
SPLINE
  5
27B
100
AcDbEntity
  8
_21_KURVEN
100
AcDbSpline
 62
1
  6
CENTER
 70
0
 71
3
 72
38
 73
34
 74
0
 42
0.0000001
 43
0.0000001
 44
0.0000000001
 40
0.0
 40
0.0
 40
0.0
 40
0.0
 40
0.0625
 40
0.125
 40
0.15625
 40
0.171875
 40
0.1875
 40
0.21875
 40
0.25
 40
0.28125
 40
0.3125
 40
0.328125
 40
0.34375
 40
0.375
 40
0.4375
 40
0.46875
 40
0.484375
 40
0.5
 40
0.515625
 40
0.53125
 40
0.5625
 40
0.625
 40
0.65625
 40
0.671875
 40
0.6875
 40
0.75
 40
0.78125
 40
0.8125
 40
0.828125
 40
0.84375
 40
0.875
 40
0.9375
 40
1.0
 40
1.0
 40
1.0
 40
1.0
 10
139.2596911276
 20
16.9417929747
 30
0.0
 10
139.1885901038
 20
16.9139332932
 30
0.0
 10
139.0463429998
 20
16.8584024841
 30
0.0
 10
138.8687594027
 20
16.7880462041
 30
0.0
 10
138.7440369272
 20
16.7405291454
 30
0.0
 10
138.6734089977
 20
16.7106896498
 30
0.0
 10
138.6052025071
 20
16.6707264878
 30
0.0
 10
138.5191009058
 20
16.6242663058
 30
0.0
 10
138.4161955686
 20
16.5669294885
 30
0.0
 10
138.312973475
 20
16.5103410341
 30
0.0
 10
138.2276637647
 20
16.4620099449
 30
0.0
 10
138.1578734921
 20
16.4257885973
 30
0.0
 10
138.0936862763
 20
16.3807323899
 30
0.0
 10
137.9839321945
 20
16.2978147977
 30
0.0
 10
137.8575890502
 20
16.2045687915
 30
0.0
 10
137.7468537613
 20
16.1230657551
 30
0.0
 10
137.6843486147
 20
16.0755845949
 30
0.0
 10
137.6352061386
 20
16.0426727947
 30
0.0
 10
137.5947320465
 20
15.9994187131
 30
0.0
 10
137.5377507554
 20
15.945347064
 30
0.0
 10
137.4393604176
 20
15.8491148369
 30
0.0
 10
137.3268629315
 20
15.739352109
 30
0.0
 10
137.2272355973
 20
15.6443470428
 30
0.0
 10
137.1723748716
 20
15.5881716893
 30
0.0
 10
137.1014209292
 20
15.4935435092
 30
0.0
 10
137.0149207125
 20
15.386532034
 30
0.0
 10
136.9174825775
 20
15.2629821209
 30
0.0
 10
136.8572877384
 20
15.1850190578
 30
0.0
 10
136.8070874647
 20
15.1247478602
 30
0.0
 10
136.7645016044
 20
15.0566751451
 30
0.0
 10
136.6935228175
 20
14.9339150669
 30
0.0
 10
136.5902579881
 20
14.7604555407
 30
0.0
 10
136.5082149817
 20
14.6211052107
 30
0.0
 10
136.4671223713
 20
14.5515028843
 30
0.0
  0
SPLINE
  5
27C
100
AcDbEntity
  8
_21_KURVEN
100
AcDbSpline
 62
1
  6
CENTER
 70
0
 71
3
 72
83
 73
79
 74
0
 42
0.0000001
 43
0.0000001
 44
0.0000000001
 40
0.0
 40
0.0
 40
0.0
 40
0.0
 40
0.03125
 40
0.0625
 40
0.078125
 40
0.09375
 40
0.109375
 40
0.1171875
 40
0.12109375
 40
0.125
 40
0.12890625
 40
0.1328125
 40
0.140625
 40
0.15625
 40
0.1875
 40
0.21875
 40
0.234375
 40
0.2421875
 40
0.24609375
 40
0.25
 40
0.25390625
 40
0.2578125
 40
0.265625
 40
0.28125
 40
0.3125
 40
0.34375
 40
0.359375
 40
0.3671875
 40
0.37109375
 40
0.375
 40
0.37890625
 40
0.3828125
 40
0.390625
 40
0.40625
 40
0.4375
 40
0.46875
 40
0.484375
 40
0.4921875
 40
0.49609375
 40
0.5
 40
0.50390625
 40
0.5078125
 40
0.515625
 40
0.53125
 40
0.5625
 40
0.59375
 40
0.609375
 40
0.6171875
 40
0.62109375
 40
0.625
 40
0.62890625
 40
0.6328125
 40
0.640625
 40
0.65625
 40
0.6875
 40
0.71875
 40
0.734375
 40
0.7421875
 40
0.74609375
 40
0.75
 40
0.75390625
 40
0.7578125
 40
0.765625
 40
0.78125
 40
0.8125
 40
0.84375
 40
0.859375
 40
0.8671875
 40
0.87109375
 40
0.875
 40
0.87890625
 40
0.8828125
 40
0.890625
 40
0.90625
 40
0.921875
 40
0.9375
 40
0.96875
 40
1.0
 40
1.0
 40
1.0
 40
1.0
 10
136.4671223423
 20
14.5515028264
 30
0.0
 10
136.4367883506
 20
14.4699386873
 30
0.0
 10
136.3761243496
 20
14.3068093913
 30
0.0
 10
136.3002744368
 20
14.1029028597
 30
0.0
 10
136.2396363208
 20
13.9397669487
 30
0.0
 10
136.1940442382
 20
13.8174440198
 30
0.0
 10
136.156411732
 20
13.7154160167
 30
0.0
 10
136.1293607504
 20
13.6441774061
 30
0.0
 10
136.1150088817
 20
13.603187026
 30
0.0
 10
136.1011298257
 20
13.573240337
 30
0.0
 10
136.09915847
 20
13.5402505651
 30
0.0
 10
136.0923767559
 20
13.4973255707
 30
0.0
 10
136.0824408239
 20
13.421713255
 30
0.0
 10
136.0611886582
 20
13.2708393459
 30
0.0
 10
136.031619192
 20
13.0551194312
 30
0.0
 10
136.0015157895
 20
12.8394745094
 30
0.0
 10
135.9810111345
 20
12.6884956102
 30
0.0
 10
135.9700473751
 20
12.6130276558
 30
0.0
 10
135.9649208635
 20
12.5698701836
 30
0.0
 10
135.9578637647
 20
12.5375947186
 30
0.0
 10
135.9630862796
 20
12.5049651602
 30
0.0
 10
135.9657666783
 20
12.4615825689
 30
0.0
 10
135.9724497498
 20
12.3856057527
 30
0.0
 10
135.9843929182
 20
12.2336911923
 30
0.0
 10
136.0022665196
 20
12.0166628117
 30
0.0
 10
136.0196028199
 20
11.7995903285
 30
0.0
 10
136.0322982099
 20
11.6477375117
 30
0.0
 10
136.0379469767
 20
11.5716757981
 30
0.0
 10
136.0422930089
 20
11.5284299247
 30
0.0
 10
136.0423977305
 20
11.4953802896
 30
0.0
 10
136.0545625796
 20
11.4646825929
 30
0.0
 10
136.0665759812
 20
11.4229319921
 30
0.0
 10
136.0895561591
 20
11.3502502104
 30
0.0
 10
136.1341193993
 20
11.2046121881
 30
0.0
 10
136.1985751611
 20
10.9967288337
 30
0.0
 10
136.2625161353
 20
10.7886844058
 30
0.0
 10
136.307800078
 20
10.6432718863
 30
0.0
 10
136.3297892899
 20
10.5702800383
 30
0.0
 10
136.3433985328
 20
10.529028765
 30
0.0
 10
136.3506600308
 20
10.4967968444
 30
0.0
 10
136.3691812763
 20
10.4695096091
 30
0.0
 10
136.3899490376
 20
10.4314019782
 30
0.0
 10
136.4281194476
 20
10.3655160562
 30
0.0
 10
136.5031563054
 20
10.2331694425
 30
0.0
 10
136.6110896206
 20
10.0444441228
 30
0.0
 10
136.7185554573
 20
9.8554485172
 30
0.0
 10
136.7942467849
 20
9.7234803037
 30
0.0
 10
136.831517299
 20
9.6570740814
 30
0.0
 10
136.8537342434
 20
9.6198043367
 30
0.0
 10
136.8678027568
 20
9.5899426285
 30
0.0
 10
136.8917882957
 20
9.5673801847
 30
0.0
 10
136.9203101067
 20
9.534751034
 30
0.0
 10
136.9718322148
 20
9.4788344644
 30
0.0
 10
137.0737284291
 20
9.3661539292
 30
0.0
 10
137.2199405303
 20
9.2056768778
 30
0.0
 10
137.3657549789
 20
9.0448333468
 30
0.0
 10
137.4682079067
 20
8.9326658831
 30
0.0
 10
137.5189645337
 20
8.8760438402
 30
0.0
 10
137.5487190676
 20
8.8445507764
 30
0.0
 10
137.5689169659
 20
8.818497614
 30
0.0
 10
137.5972114991
 20
8.801746715
 30
0.0
 10
137.6321135648
 20
8.7761676756
 30
0.0
 10
137.6945057326
 20
8.7329137625
 30
0.0
 10
137.8183533218
 20
8.6453267301
 30
0.0
 10
137.9958016875
 20
8.5208275615
 30
0.0
 10
138.1729413792
 20
8.3958833702
 30
0.0
 10
138.2972211119
 20
8.3089193696
 30
0.0
 10
138.3590190824
 20
8.2648087879
 30
0.0
 10
138.3948780372
 20
8.2406093187
 30
0.0
 10
138.4202324513
 20
8.2196195789
 30
0.0
 10
138.4514731591
 20
8.2094871023
 30
0.0
 10
138.491074231
 20
8.1921899984
 30
0.0
 10
138.5613327333
 20
8.1636845634
 30
0.0
 10
138.6612018858
 20
8.1220400119
 30
0.0
 10
138.7812589494
 20
8.0724614216
 30
0.0
 10
138.9412602289
 20
8.0062186565
 30
0.0
 10
139.1412876657
 20
7.923462857
 30
0.0
 10
139.3013017409
 20
7.8572436934
 30
0.0
 10
139.3813097628
 20
7.8241359271
 30
0.0
  0
LINE
  5
27D
100
AcDbEntity
  8
_21_KURVEN
100
AcDbLine
 62
1
  6
CENTER
 10
139.381309757
 20
7.8241359287
 11
139.4226104066
 21
7.8123830402
  0
SPLINE
  5
27E
100
AcDbEntity
  8
_21_KURVEN
100
AcDbSpline
 62
1
  6
CENTER
 70
0
 71
3
 72
61
 73
57
 74
0
 42
0.0000001
 43
0.0000001
 44
0.0000000001
 40
0.0
 40
0.0
 40
0.0
 40
0.0
 40
0.0625
 40
0.09375
 40
0.125
 40
0.140625
 40
0.15625
 40
0.1640625
 40
0.16796875
 40
0.171875
 40
0.1796875
 40
0.1875
 40
0.21875
 40
0.25
 40
0.28125
 40
0.3125
 40
0.3203125
 40
0.328125
 40
0.33203125
 40
0.3359375
 40
0.34375
 40
0.359375
 40
0.375
 40
0.4375
 40
0.46875
 40
0.484375
 40
0.4921875
 40
0.5
 40
0.5078125
 40
0.515625
 40
0.53125
 40
0.546875
 40
0.5625
 40
0.59375
 40
0.625
 40
0.640625
 40
0.65625
 40
0.6640625
 40
0.66796875
 40
0.671875
 40
0.6796875
 40
0.6875
 40
0.71875
 40
0.75
 40
0.78125
 40
0.8125
 40
0.8203125
 40
0.828125
 40
0.83203125
 40
0.8359375
 40
0.84375
 40
0.859375
 40
0.875
 40
0.90625
 40
0.9375
 40
1.0
 40
1.0
 40
1.0
 40
1.0
 10
139.4226104049
 20
7.8123830407
 30
0.0
 10
139.5548017108
 20
7.7912512939
 30
0.0
 10
139.753090311
 20
7.7595687726
 30
0.0
 10
140.0174685456
 20
7.7172650158
 30
0.0
 10
140.1827186209
 20
7.6909509909
 30
0.0
 10
140.3148874936
 20
7.6696128942
 30
0.0
 10
140.3975641686
 20
7.6569308641
 30
0.0
 10
140.4552952913
 20
7.6467422086
 30
0.0
 10
140.4885075365
 20
7.6429716661
 30
0.0
 10
140.5225598263
 20
7.6469282692
 30
0.0
 10
140.564838072
 20
7.6492327962
 30
0.0
 10
140.6665420474
 20
7.6569380025
 30
0.0
 10
140.8190006238
 20
7.6675754114
 30
0.0
 10
141.0223257495
 20
7.6823187433
 30
0.0
 10
141.2256705384
 20
7.6967851163
 30
0.0
 10
141.3780848723
 20
7.7080456827
 30
0.0
 10
141.4798453799
 20
7.7149546322
 30
0.0
 10
141.522020188
 20
7.7187160785
 30
0.0
 10
141.5562859074
 20
7.7196665232
 30
0.0
 10
141.5886284581
 20
7.7281456433
 30
0.0
 10
141.6443343367
 20
7.7464820741
 30
0.0
 10
141.7243806479
 20
7.7708520624
 30
0.0
 10
141.9160985036
 20
7.8308684742
 30
0.0
 10
142.1400038758
 20
7.9000883435
 30
0.0
 10
142.3635497559
 20
7.9703686612
 30
0.0
 10
142.4757212098
 20
8.004397714
 30
0.0
 10
142.5391873729
 20
8.0255961477
 30
0.0
 10
142.5885685656
 20
8.0365526498
 30
0.0
 10
142.6311393825
 20
8.0664018146
 30
0.0
 10
142.6902794437
 20
8.0996012254
 30
0.0
 10
142.7633881693
 20
8.1433648988
 30
0.0
 10
142.8514686661
 20
8.1949113528
 30
0.0
 10
142.9687840719
 20
8.2639823055
 30
0.0
 10
143.1154926881
 20
8.3501782769
 30
0.0
 10
143.2621004391
 20
8.4365171918
 30
0.0
 10
143.3795772293
 20
8.5053594348
 30
0.0
 10
143.4525741823
 20
8.5488865871
 30
0.0
 10
143.5045250438
 20
8.5783540873
 30
0.0
 10
143.5328767866
 20
8.5967593019
 30
0.0
 10
143.5562023063
 20
8.6210651928
 30
0.0
 10
143.5870772308
 20
8.6494306389
 30
0.0
 10
143.6597626797
 20
8.7191680883
 30
0.0
 10
143.7693901018
 20
8.8230715903
 30
0.0
 10
143.9151927446
 20
8.9620364198
 30
0.0
 10
144.0611860037
 20
9.1007929761
 30
0.0
 10
144.170384539
 20
9.2051650928
 30
0.0
 10
144.24361801
 20
9.2743037569
 30
0.0
 10
144.273490213
 20
9.3037648066
 30
0.0
 10
144.2988847145
 20
9.3258100657
 30
0.0
 10
144.3188056539
 20
9.3534270293
 30
0.0
 10
144.3511241572
 20
9.4043454545
 30
0.0
 10
144.3986203327
 20
9.475735386
 30
0.0
 10
144.473872673
 20
9.5907141126
 30
0.0
 10
144.5681921117
 20
9.7341789531
 30
0.0
 10
144.7189606096
 20
9.9638678588
 30
0.0
 10
144.8320690689
 20
10.1361018768
 30
0.0
 10
144.9074675783
 20
10.2509318136
 30
0.0
  0
SPLINE
  5
27F
100
AcDbEntity
  8
_21_KURVEN
100
AcDbSpline
 62
7
  6
CONTINUOUS
 70
0
 71
3
 72
9
 73
5
 74
0
 42
0.0000001
 43
0.0000001
 44
0.0000000001
 40
0.0
 40
0.0
 40
0.0
 40
0.0
 40
0.5
 40
1.0
 40
1.0
 40
1.0
 40
1.0
 10
140.3805716991
 20
7.2204527447
 30
0.0
 10
140.4080491239
 20
7.2071131018
 30
0.0
 10
140.4661541512
 20
7.1802853537
 30
0.0
 10
140.5277651118
 20
7.1631410838
 30
0.0
 10
140.5593430207
 20
7.1550563846
 30
0.0
  0
SPLINE
  5
280
100
AcDbEntity
  8
_21_KURVEN
100
AcDbSpline
 62
7
  6
CONTINUOUS
 70
0
 71
3
 72
9
 73
5
 74
0
 42
0.0000001
 43
0.0000001
 44
0.0000000001
 40
0.0
 40
0.0
 40
0.0
 40
0.0
 40
0.5
 40
1.0
 40
1.0
 40
1.0
 40
1.0
 10
140.5593430232
 20
7.155056384
 30
0.0
 10
140.5891804302
 20
7.1486753241
 30
0.0
 10
140.6519500579
 20
7.136522999
 30
0.0
 10
140.7158394202
 20
7.1346161973
 30
0.0
 10
140.7489092457
 20
7.1343270008
 30
0.0
  0
SPLINE
  5
281
100
AcDbEntity
  8
_21_KURVEN
100
AcDbSpline
 62
7
  6
CONTINUOUS
 70
0
 71
3
 72
9
 73
5
 74
0
 42
0.0000001
 43
0.0000001
 44
0.0000000001
 40
0.0
 40
0.0
 40
0.0
 40
0.0
 40
0.5
 40
1.0
 40
1.0
 40
1.0
 40
1.0
 10
140.7489092439
 20
7.1343270008
 30
0.0
 10
140.7793958897
 20
7.1352891949
 30
0.0
 10
140.8432304318
 20
7.1385484613
 30
0.0
 10
140.9057280723
 20
7.1520272378
 30
0.0
 10
140.9369635117
 20
7.159435552
 30
0.0
  0
SPLINE
  5
282
100
AcDbEntity
  8
_21_KURVEN
100
AcDbSpline
 62
7
  6
CONTINUOUS
 70
0
 71
3
 72
9
 73
5
 74
0
 42
0.0000001
 43
0.0000001
 44
0.0000000001
 40
0.0
 40
0.0
 40
0.0
 40
0.0
 40
0.5
 40
1.0
 40
1.0
 40
1.0
 40
1.0
 10
140.9369635071
 20
7.1594355508
 30
0.0
 10
140.9663531633
 20
7.1676490651
 30
0.0
 10
141.0275977554
 20
7.1860560929
 30
0.0
 10
141.0851375949
 20
7.2140724847
 30
0.0
 10
141.1141690217
 20
7.2289600815
 30
0.0
  0
ENDSEC
  0
SECTION
  2
OBJECTS
  0
DICTIONARY
  5
C
100
AcDbDictionary
280
0
281
1
  3
ACAD_GROUP
350
D
  3
ACAD_MLINESTYLE
350
17
  3
ACAD_LAYOUT
350
1A
  3
ACAD_PLOTSETTINGS
350
19
  3
ACAD_PLOTSTYLENAME
350
E
  0
DICTIONARY
  5
D
102
{ACAD_REACTORS
330
C
102
}
100
AcDbDictionary
280
0
281
1
  0
ACDBDICTIONARYWDFLT
  5
E
102
{ACAD_REACTORS
330
C
102
}
100
AcDbDictionary
281
1
  3
Normal
350
F
100
AcDbDictionaryWithDefault
340
F
  0
DICTIONARY
  5
17
102
{ACAD_REACTORS
330
C
102
}
100
AcDbDictionary
280
0
281
1
  3
Standard
350
18
  0
DICTIONARY
  5
19
102
{ACAD_REACTORS
330
C
102
}
100
AcDbDictionary
281
1
  0
DICTIONARY
  5
1A
102
{ACAD_REACTORS
330
C
102
}
100
AcDbDictionary
281
1
  3
Model
350
283
  3
Layout1
350
284
  0
ACDBPLACEHOLDER
  5
F
102
{ACAD_REACTORS
330
E
102
}
  0
MLINESTYLE
  5
18
102
{ACAD_REACTORS
330
17
102
}
100
AcDbMlineStyle
  2
STANDARD
 70
0
  3

 62
256
 51
90.0
 52
90.0
 71
2
 49
0.5
 62
256
  6
BYLAYER
 49
-0.5
 62
256
  6
BYLAYER
  0
LAYOUT
  5
283
102
{ACAD_REACTORS
330
1A
102
}
100
AcDbPlotSettings
  1

  2
none_device
  4
ISO_A3_(420.00_x_297.00_MM)
  6

 40
0.0
 41
0.0
 42
0.0
 43
0.0
 44
420.0
 45
297.0
 46
0.0
 47
0.0
 48
0.0
 49
0.0
140
0.0
141
0.0
142
1.0
143
1.0
 70
1024
 72
1
 73
0
 74
0
  7

 75
0
147
1.0
148
0.0
149
0.0
100
AcDbLayout
  1
Model
 70
0
 71
0
 10
0.0
 20
0.0
 11
420.0
 21
297.0
 12
0.0
 22
0.0
 32
0.0
 14
0.0
 24
0.0
 34
0.0
 15
0.0
 25
0.0
 35
0.0
146
0.0
 13
0.0
 23
0.0
 33
0.0
 16
1.0
 26
0.0
 36
0.0
 17
0.0
 27
1.0
 37
0.0
 76
0
330
20E
345
0
346
0
  0
LAYOUT
  5
284
102
{ACAD_REACTORS
330
1A
102
}
100
AcDbPlotSettings
  1

  2
none_device
  4
ISO_A3_(420.00_x_297.00_MM)
  6

 40
0.0
 41
0.0
 42
0.0
 43
0.0
 44
420.0
 45
297.0
 46
0.0
 47
0.0
 48
0.0
 49
0.0
140
0.0
141
0.0
142
1.0
143
1.0
 70
0
 72
1
 73
0
 74
0
  7

 75
0
147
1.0
148
0.0
149
0.0
100
AcDbLayout
  1
Layout1
 70
0
 71
1
 10
0.0
 20
0.0
 11
420.0
 21
297.0
 12
0.0
 22
0.0
 32
0.0
 14
0.0
 24
0.0
 34
0.0
 15
0.0
 25
0.0
 35
0.0
146
0.0
 13
0.0
 23
0.0
 33
0.0
 16
1.0
 26
0.0
 36
0.0
 17
0.0
 27
1.0
 37
0.0
 76
0
330
20F
345
0
346
0
  0
ENDSEC
  0
EOF
