999
DXF file: 70540020.dxf
999
Pro/ENGINEER 2017380 by Parametric Technology Corporation
  0
SECTION
  2
HEADER
  9
$ACADVER
  1
AC1027
  9
$DWGCODEPAGE
  3
ANSI_1252
  9
$EXTMAX
 10
420.0
 20
297.0
 30
0.0
  9
$EXTMIN
 10
0.0
 20
0.0
 30
0.0
  9
$LIMMIN
 10
0.0
 20
0.0
  9
$LIMMAX
 10
420.0
 20
297.0
  9
$VIEWCTR
 10
210.0
 20
148.5
  9
$VIEWSIZE
 40
297.0
  9
$CLAYER
  8
0
  9
$LTSCALE
 40
23.1
  9
$CELTYPE
  6
BYLAYER
  9
$DIMSCALE
 40
1.0
  9
$DIMASZ
 40
3.5
  9
$DIMEXO
 40
0.0
  9
$DIMDLI
 40
15.96
  9
$DIMEXE
 40
1.5
  9
$DIMCEN
 40
3.78
  9
$DIMLFAC
 40
1.0
  9
$DIMBLK
  1
_FILLED
  9
$DIMALT
 70
0
  9
$DIMALTF
 40
25.4
  9
$DIMTXT
 40
3.5
  9
$DIMTOL
 70
1
  9
$DIMLIM
 70
0
  9
$DIMTFAC
 40
1.0
  9
$DIMTP
 40
0.05
  9
$DIMTM
 40
0.05
  9
$DIMGAP
 40
0.625
  9
$DIMDSEP
 70
46
  9
$AUNITS
 70
0
  9
$PDMODE
 70
3
  9
$PDSIZE
 40
0.3125
  9
$HANDSEED
  5
284
  9
$TILEMODE
 70
1
  9
$MEASUREMENT
 70
1
  9
$INSUNITS
 70
4
  0
ENDSEC
  0
SECTION
  2
CLASSES
  0
CLASS
  1
ACDBDICTIONARYWDFLT
  2
AcDbDictionaryWithDefault
  3
AutoCAD 2000
 90
0
 91
1
280
0
281
0
  0
CLASS
  1
ACDBPLACEHOLDER
  2
AcDbPlaceHolder
  3
AutoCAD 2000
 90
0
 91
1
280
0
281
0
  0
CLASS
  1
LAYOUT
  2
AcDbLayout
  3
AutoCAD 2000
 90
0
 91
0
280
0
281
0
  0
ENDSEC
  0
SECTION
  2
TABLES
  0
TABLE
  2
VPORT
  5
8
100
AcDbSymbolTable
 70
2
  0
VPORT
  5
1F4
100
AcDbSymbolTableRecord
100
AcDbViewportTableRecord
  2
*ACTIVE
 70
0
 10
0.0
 20
0.0
 11
1.0
 21
1.0
 12
210.0
 22
148.5
 13
0.0
 23
0.0
 14
1.0
 24
1.0
 15
0.0
 25
0.0
 16
0.0
 26
0.0
 36
1.0
 17
0.0
 27
0.0
 37
0.0
 40
297.0
 41
1.4141414141
 42
50.0
 43
0.0
 44
0.0
 50
0.0
 51
0.0
 71
0
 72
100
 73
1
 74
1
 75
0
 76
0
 77
0
 78
0
  0
ENDTAB
  0
TABLE
  2
LTYPE
  5
5
100
AcDbSymbolTable
 70
6
  0
LTYPE
  5
14
100
AcDbSymbolTableRecord
100
AcDbLinetypeTableRecord
  2
BYBLOCK
 70
0
  3

 72
65
 73
0
 40
0.0
  0
LTYPE
  5
15
100
AcDbSymbolTableRecord
100
AcDbLinetypeTableRecord
  2
BYLAYER
 70
0
  3

 72
65
 73
0
 40
0.0
  0
LTYPE
  5
16
100
AcDbSymbolTableRecord
100
AcDbLinetypeTableRecord
  2
CONTINUOUS
 70
64
  3
Solid line
 72
65
 73
0
 40
0.0
  0
LTYPE
  5
1F5
100
AcDbSymbolTableRecord
100
AcDbLinetypeTableRecord
  2
CENTER
 70
64
  3
____ _ ____ _ ____ _ ____ _ ____ _ ____ _ ____
 72
65
 73
4
 40
0.6
 49
0.375
 74
0
 49
-0.075
 74
0
 49
0.075
 74
0
 49
-0.075
 74
0
  0
LTYPE
  5
1F6
100
AcDbSymbolTableRecord
100
AcDbLinetypeTableRecord
  2
HIDDEN
 70
64
  3
- - - - - - - - - - - - - - - - - - - -
 72
65
 73
2
 40
0.2
 49
0.1
 74
0
 49
-0.1
 74
0
  0
LTYPE
  5
1F7
100
AcDbSymbolTableRecord
100
AcDbLinetypeTableRecord
  2
PHANTOM
 70
64
  3
_____ _ _ _____ _ _ _____ _ _ _____
 72
65
 73
6
 40
0.8
 49
0.45
 74
0
 49
-0.05
 74
0
 49
0.1
 74
0
 49
-0.05
 74
0
 49
0.1
 74
0
 49
-0.05
 74
0
  0
LTYPE
  5
1F8
100
AcDbSymbolTableRecord
100
AcDbLinetypeTableRecord
  2
DOT
 70
64
  3
. . . . . . . . . . . . . . . . . . . .
 72
65
 73
2
 40
0.2
 49
0.1
 74
0
 49
-0.1
 74
0
  0
LTYPE
  5
1F9
100
AcDbSymbolTableRecord
100
AcDbLinetypeTableRecord
  2
DASHED
 70
64
  3
- - - - - - - - - - - - - - - - - - - -
 72
65
 73
2
 40
0.2
 49
0.1
 74
0
 49
-0.1
 74
0
  0
ENDTAB
  0
TABLE
  2
LAYER
  5
2
100
AcDbSymbolTable
 70
36
  0
LAYER
  5
10
100
AcDbSymbolTableRecord
100
AcDbLayerTableRecord
  2
0
 70
0
 62
7
  6
CONTINUOUS
370
-3
390
F
  0
LAYER
  5
1FA
100
AcDbSymbolTableRecord
100
AcDbLayerTableRecord
  2
DEFAULT_1
 70
0
 62
7
  6
CENTER
370
-3
390
F
  0
LAYER
  5
1FB
100
AcDbSymbolTableRecord
100
AcDbLayerTableRecord
  2
DEFAULT_2
 70
0
 62
1
  6
HIDDEN
370
-3
390
F
  0
LAYER
  5
1FC
100
AcDbSymbolTableRecord
100
AcDbLayerTableRecord
  2
DEFAULT_3
 70
0
 62
7
  6
PHANTOM
370
-3
390
F
  0
LAYER
  5
1FD
100
AcDbSymbolTableRecord
100
AcDbLayerTableRecord
  2
BG_STARTBEZUEGE
 70
0
 62
7
  6
CONTINUOUS
370
-3
390
F
  0
LAYER
  5
1FE
100
AcDbSymbolTableRecord
100
AcDbLayerTableRecord
  2
HILFEN
 70
0
 62
7
  6
CONTINUOUS
370
-3
390
F
  0
LAYER
  5
1FF
100
AcDbSymbolTableRecord
100
AcDbLayerTableRecord
  2
PLATZIERUNG
 70
0
 62
7
  6
CONTINUOUS
370
-3
390
F
  0
LAYER
  5
200
100
AcDbSymbolTableRecord
100
AcDbLayerTableRecord
  2
T_STARTBEZUEGE
 70
0
 62
7
  6
CONTINUOUS
370
-3
390
F
  0
LAYER
  5
201
100
AcDbSymbolTableRecord
100
AcDbLayerTableRecord
  2
_03_2D_ZEICHNUNG_BEMASSUNGEN
 70
0
 62
7
  6
CONTINUOUS
370
-3
390
F
  0
LAYER
  5
202
100
AcDbSymbolTableRecord
100
AcDbLayerTableRecord
  2
_04_NOTIZEN
 70
0
 62
7
  6
CONTINUOUS
370
-3
390
F
  0
LAYER
  5
203
100
AcDbSymbolTableRecord
100
AcDbLayerTableRecord
  2
_05_2D_ELEMENTE
 70
0
 62
7
  6
CONTINUOUS
370
-3
390
F
  0
LAYER
  5
204
100
AcDbSymbolTableRecord
100
AcDbLayerTableRecord
  2
_07_EINRASTLINIEN
 70
0
 62
7
  6
CONTINUOUS
370
-3
390
F
  0
LAYER
  5
205
100
AcDbSymbolTableRecord
100
AcDbLayerTableRecord
  2
_21_KURVEN
 70
0
 62
7
  6
CONTINUOUS
370
-3
390
F
  0
LAYER
  5
206
100
AcDbSymbolTableRecord
100
AcDbLayerTableRecord
  2
_24_IMPORT
 70
0
 62
7
  6
CONTINUOUS
370
-3
390
F
  0
LAYER
  5
207
100
AcDbSymbolTableRecord
100
AcDbLayerTableRecord
  2
_26_BEZUGSACHSEN
 70
0
 62
7
  6
CONTINUOUS
370
-3
390
F
  0
LAYER
  5
208
100
AcDbSymbolTableRecord
100
AcDbLayerTableRecord
  2
_27_BEZUGSEBENEN
 70
0
 62
7
  6
CONTINUOUS
370
-3
390
F
  0
LAYER
  5
209
100
AcDbSymbolTableRecord
100
AcDbLayerTableRecord
  2
_28_BEZUGSPUNKTE
 70
0
 62
7
  6
CONTINUOUS
370
-3
390
F
  0
LAYER
  5
20A
100
AcDbSymbolTableRecord
100
AcDbLayerTableRecord
  2
_29_KOORDINATENSYSTEME
 70
0
 62
7
  6
CONTINUOUS
370
-3
390
F
  0
LAYER
  5
20B
100
AcDbSymbolTableRecord
100
AcDbLayerTableRecord
  2
_30_VOLUMEN
 70
0
 62
7
  6
CONTINUOUS
370
-3
390
F
  0
ENDTAB
  0
TABLE
  2
STYLE
  5
3
100
AcDbSymbolTable
 70
1
  0
STYLE
  5
11
100
AcDbSymbolTableRecord
100
AcDbTextStyleTableRecord
  2
STANDARD
 70
0
 40
0.0
 41
0.7
 50
0.0
 71
0
 42
0.2
  3
SIMPLEX.SHX
  4

  0
STYLE
  5
20C
100
AcDbSymbolTableRecord
100
AcDbTextStyleTableRecord
  2
TEXTSTYLE_1
 70
0
 40
0.0
 41
0.8
 50
0.0
 71
0
 42
0.2
  3
gdt
  4

  0
ENDTAB
  0
TABLE
  2
VIEW
  5
6
100
AcDbSymbolTable
 70
0
  0
ENDTAB
  0
TABLE
  2
UCS
  5
7
100
AcDbSymbolTable
 70
0
  0
ENDTAB
  0
TABLE
  2
APPID
  5
9
100
AcDbSymbolTable
 70
1
  0
APPID
  5
20D
100
AcDbSymbolTableRecord
100
AcDbRegAppTableRecord
  2
ACAD
 70
0
  0
ENDTAB
  0
TABLE
  2
BLOCK_RECORD
  5
1
100
AcDbSymbolTable
 70
0
  0
BLOCK_RECORD
  5
20E
100
AcDbSymbolTableRecord
100
AcDbBlockTableRecord
  2
*Model_Space
  0
BLOCK_RECORD
  5
20F
100
AcDbSymbolTableRecord
100
AcDbBlockTableRecord
  2
*Paper_Space
  0
BLOCK_RECORD
  5
210
100
AcDbSymbolTableRecord
100
AcDbBlockTableRecord
  2
_FILLED
  0
BLOCK_RECORD
  5
211
100
AcDbSymbolTableRecord
100
AcDbBlockTableRecord
  2
*D0
  0
BLOCK_RECORD
  5
212
100
AcDbSymbolTableRecord
100
AcDbBlockTableRecord
  2
*D1
  0
BLOCK_RECORD
  5
213
100
AcDbSymbolTableRecord
100
AcDbBlockTableRecord
  2
*D2
  0
ENDTAB
  0
TABLE
  2
DIMSTYLE
  5
A
100
AcDbSymbolTable
 70
1
100
AcDbDimStyleTable
 71
0
  0
DIMSTYLE
105
214
100
AcDbSymbolTableRecord
100
AcDbDimStyleTableRecord
  2
STANDARD
 70
0
  3

  4

 40
1.0
 41
3.5
 42
0.0
 43
0.38
 44
1.5
 45
0.0
 46
0.0
 47
0.05
 48
0.05
140
3.5
141
0.09
142
0.0
143
25.4
144
1.0
145
0.0
146
1.0
147
0.625
 71
1.0
 72
0.0
 73
0
 74
0
 75
0
 76
0
 77
1
 78
8
 79
2
170
0
171
1
172
0
173
0
174
0
175
0
176
0
177
0
178
2
270
2
179
2
271
2
272
2
273
2
274
2
275
0
280
0
281
0
282
0
283
1
284
8
285
0
286
0
287
3
288
0
340
11
278
46
341
210
342
210
343
210
344
210
  0
DIMSTYLE
105
215
100
AcDbSymbolTableRecord
100
AcDbDimStyleTableRecord
  2
DIMSTYLE_1
 70
0
  3

  4

 40
1.0
 41
3.5
 42
0.0
 43
0.38
 44
1.5
 45
0.0
 46
0.0
 47
0.2
 48
0.2
140
3.5
141
0.09
142
0.0
143
25.4
144
1.0
145
0.0
146
1.0
147
0.875
 71
0.0
 72
0.0
 73
0
 74
0
 75
0
 76
0
 77
1
 78
8
 79
2
170
0
171
1
172
0
173
0
174
0
175
0
176
0
177
0
178
2
270
2
179
2
271
2
272
2
273
2
274
2
275
0
280
0
281
0
282
0
283
1
284
8
285
0
286
0
287
3
288
0
340
11
278
46
341
210
342
210
343
210
344
210
  0
DIMSTYLE
105
216
100
AcDbSymbolTableRecord
100
AcDbDimStyleTableRecord
  2
DIMSTYLE_2
 70
0
  3

  4

 40
1.0
 41
3.5
 42
0.0
 43
0.38
 44
1.5
 45
0.0
 46
0.0
 47
0.5
 48
0.5
140
3.5
141
0.09
142
0.0
143
25.4
144
1.0
145
0.0
146
1.0
147
0.875
 71
0.0
 72
0.0
 73
0
 74
0
 75
0
 76
0
 77
1
 78
8
 79
2
170
0
171
1
172
0
173
0
174
0
175
0
176
0
177
0
178
2
270
2
179
2
271
2
272
2
273
2
274
2
275
0
280
0
281
0
282
0
283
1
284
8
285
0
286
0
287
3
288
0
340
11
278
46
341
210
342
210
343
210
344
210
  0
ENDTAB
  0
ENDSEC
  0
SECTION
  2
BLOCKS
  0
BLOCK
  5
20
100
AcDbEntity
  8
0
100
AcDbBlockBegin
  2
*Model_Space
 70
0
 10
0.0
 20
0.0
 30
0.0
  3
*Model_Space
  1

  0
ENDBLK
  5
21
100
AcDbEntity
  8
0
100
AcDbBlockEnd
  0
BLOCK
  5
1C
100
AcDbEntity
  8
0
100
AcDbBlockBegin
  2
*Paper_Space
 70
0
 10
0.0
 20
0.0
 30
0.0
  3
*Paper_Space
  1

  0
ENDBLK
  5
1D
100
AcDbEntity
  8
0
100
AcDbBlockEnd
  0
BLOCK
  5
217
100
AcDbEntity
  8
0
100
AcDbBlockBegin
  2
_FILLED
 70
64
 10
0.0
 20
0.0
  3
_FILLED
  1

  0
SOLID
  5
218
100
AcDbEntity
  8
0
  6
BYBLOCK
 62
0
100
AcDbTrace
 10
0.0
 20
0.0
 11
-1.0
 21
0.125
 12
-1.0
 22
-0.125
 13
-1.0
 23
-0.125
  0
ENDBLK
  5
219
100
AcDbEntity
  8
0
  6
BYBLOCK
 62
0
100
AcDbBlockEnd
  0
BLOCK
  5
21A
100
AcDbEntity
  8
_03_2D_ZEICHNUNG_BEMASSUNGEN
100
AcDbBlockBegin
 62
7
  6
CONTINUOUS
  2
*D0
 70
65
 10
0.0
 20
0.0
  3
*D0
  1

  0
TEXT
  5
21B
100
AcDbEntity
  8
_03_2D_ZEICHNUNG_BEMASSUNGEN
100
AcDbText
 62
2
  6
CONTINUOUS
 10
-9.875
 20
7.25
  7
STANDARD
 40
3.5
  1
20
 50
90.0
 41
0.7857142857
 72
1
 11
-9.875
 21
10.0
100
AcDbText
  0
LINE
  5
21C
100
AcDbEntity
  8
_03_2D_ZEICHNUNG_BEMASSUNGEN
100
AcDbLine
 62
7
  6
CONTINUOUS
 10
0.0
 20
20.0
 11
-10.5
 21
20.0
  0
LINE
  5
21D
100
AcDbEntity
  8
_03_2D_ZEICHNUNG_BEMASSUNGEN
100
AcDbLine
 62
7
  6
CONTINUOUS
 10
-0.0
 20
-0.0
 11
-10.5
 21
0.0
  0
LINE
  5
21E
100
AcDbEntity
  8
_03_2D_ZEICHNUNG_BEMASSUNGEN
100
AcDbLine
 62
7
  6
CONTINUOUS
 10
-9.0
 20
20.0
 11
-9.0
 21
26.0
  0
LINE
  5
21F
100
AcDbEntity
  8
_03_2D_ZEICHNUNG_BEMASSUNGEN
100
AcDbLine
 62
7
  6
CONTINUOUS
 10
-9.0
 20
26.0
 11
-9.0
 21
10.0
  0
LINE
  5
220
100
AcDbEntity
  8
_03_2D_ZEICHNUNG_BEMASSUNGEN
100
AcDbLine
 62
7
  6
CONTINUOUS
 10
-9.0
 20
0.0
 11
-9.0
 21
-6.0
  0
LINE
  5
221
100
AcDbEntity
  8
_03_2D_ZEICHNUNG_BEMASSUNGEN
100
AcDbLine
 62
7
  6
CONTINUOUS
 10
-9.0
 20
-6.0
 11
-9.0
 21
10.0
  0
INSERT
  5
222
100
AcDbEntity
  8
_03_2D_ZEICHNUNG_BEMASSUNGEN
100
AcDbBlockReference
 62
7
  6
CONTINUOUS
  2
_FILLED
 10
-9.0
 20
20.0
 41
3.5
 42
3.5
 43
3.5
 50
270.0
  0
INSERT
  5
223
100
AcDbEntity
  8
_03_2D_ZEICHNUNG_BEMASSUNGEN
100
AcDbBlockReference
 62
7
  6
CONTINUOUS
  2
_FILLED
 10
-9.0
 20
0.0
 41
3.5
 42
3.5
 43
3.5
 50
90.0
  0
ENDBLK
  5
224
100
AcDbEntity
  8
0
  6
BYBLOCK
 62
0
100
AcDbBlockEnd
  0
BLOCK
  5
225
100
AcDbEntity
  8
_03_2D_ZEICHNUNG_BEMASSUNGEN
100
AcDbBlockBegin
 62
7
  6
CONTINUOUS
  2
*D1
 70
65
 10
0.0
 20
0.0
  3
*D1
  1

  0
TEXT
  5
226
100
AcDbEntity
  8
_03_2D_ZEICHNUNG_BEMASSUNGEN
100
AcDbText
 62
2
  6
CONTINUOUS
 10
58.875
 20
34.9428726149
  7
STANDARD
 40
3.5
  1
125
 41
0.6904761905
 72
1
 11
62.5
 21
34.9428726149
100
AcDbText
  0
LINE
  5
227
100
AcDbEntity
  8
_03_2D_ZEICHNUNG_BEMASSUNGEN
100
AcDbLine
 62
7
  6
CONTINUOUS
 10
125.0
 20
0.0
 11
125.0
 21
35.5678726149
  0
LINE
  5
228
100
AcDbEntity
  8
_03_2D_ZEICHNUNG_BEMASSUNGEN
100
AcDbLine
 62
7
  6
CONTINUOUS
 10
0.0
 20
0.0
 11
0.0
 21
35.5678726149
  0
LINE
  5
229
100
AcDbEntity
  8
_03_2D_ZEICHNUNG_BEMASSUNGEN
100
AcDbLine
 62
7
  6
CONTINUOUS
 10
125.0
 20
34.0678726149
 11
62.5
 21
34.0678726149
  0
LINE
  5
22A
100
AcDbEntity
  8
_03_2D_ZEICHNUNG_BEMASSUNGEN
100
AcDbLine
 62
7
  6
CONTINUOUS
 10
0.0
 20
34.0678726149
 11
62.5
 21
34.0678726149
  0
INSERT
  5
22B
100
AcDbEntity
  8
_03_2D_ZEICHNUNG_BEMASSUNGEN
100
AcDbBlockReference
 62
7
  6
CONTINUOUS
  2
_FILLED
 10
125.0
 20
34.0678726149
 41
3.5
 42
3.5
 43
3.5
  0
INSERT
  5
22C
100
AcDbEntity
  8
_03_2D_ZEICHNUNG_BEMASSUNGEN
100
AcDbBlockReference
 62
7
  6
CONTINUOUS
  2
_FILLED
 10
0.0
 20
34.0678726149
 41
3.5
 42
3.5
 43
3.5
 50
180.0
  0
ENDBLK
  5
22D
100
AcDbEntity
  8
0
  6
BYBLOCK
 62
0
100
AcDbBlockEnd
  0
BLOCK
  5
22E
100
AcDbEntity
  8
_03_2D_ZEICHNUNG_BEMASSUNGEN
100
AcDbBlockBegin
 62
7
  6
CONTINUOUS
  2
*D2
 70
65
 10
0.0
 20
0.0
  3
*D2
  1

  0
TEXT
  5
22F
100
AcDbEntity
  8
_03_2D_ZEICHNUNG_BEMASSUNGEN
100
AcDbText
 62
2
  6
CONTINUOUS
 10
133.8222143023
 20
9.875
  7
STANDARD
 40
3.5
  1
25
 50
90.0
 41
0.75
 72
1
 11
133.8222143023
 21
12.5
100
AcDbText
  0
LINE
  5
230
100
AcDbEntity
  8
_03_2D_ZEICHNUNG_BEMASSUNGEN
100
AcDbLine
 62
7
  6
CONTINUOUS
 10
125.0
 20
25.0
 11
136.1972143023
 21
25.0
  0
LINE
  5
231
100
AcDbEntity
  8
_03_2D_ZEICHNUNG_BEMASSUNGEN
100
AcDbLine
 62
7
  6
CONTINUOUS
 10
0.0
 20
0.0
 11
136.1972143023
 21
0.0
  0
LINE
  5
232
100
AcDbEntity
  8
_03_2D_ZEICHNUNG_BEMASSUNGEN
100
AcDbLine
 62
7
  6
CONTINUOUS
 10
134.6972143023
 20
25.0
 11
134.6972143023
 21
12.5
  0
LINE
  5
233
100
AcDbEntity
  8
_03_2D_ZEICHNUNG_BEMASSUNGEN
100
AcDbLine
 62
7
  6
CONTINUOUS
 10
134.6972143023
 20
0.0
 11
134.6972143023
 21
12.5
  0
INSERT
  5
234
100
AcDbEntity
  8
_03_2D_ZEICHNUNG_BEMASSUNGEN
100
AcDbBlockReference
 62
7
  6
CONTINUOUS
  2
_FILLED
 10
134.6972143023
 20
25.0
 41
3.5
 42
3.5
 43
3.5
 50
90.0
  0
INSERT
  5
235
100
AcDbEntity
  8
_03_2D_ZEICHNUNG_BEMASSUNGEN
100
AcDbBlockReference
 62
7
  6
CONTINUOUS
  2
_FILLED
 10
134.6972143023
 20
0.0
 41
3.5
 42
3.5
 43
3.5
 50
270.0
  0
ENDBLK
  5
236
100
AcDbEntity
  8
0
  6
BYBLOCK
 62
0
100
AcDbBlockEnd
  0
ENDSEC
  0
SECTION
  2
ENTITIES
  0
DIMENSION
  5
237
100
AcDbEntity
  8
_03_2D_ZEICHNUNG_BEMASSUNGEN
100
AcDbDimension
 62
7
  6
CONTINUOUS
  2
*D0
 10
-9.0
 20
0.0
 11
-9.0
 21
9.4999998474
 70
160
 71
2
 42
20.0
  3
DIMSTYLE_1
100
AcDbAlignedDimension
 13
0.0
 23
20.0
 14
-0.0
 24
-0.0
 50
270.0
100
AcDbRotatedDimension
  0
DIMENSION
  5
238
100
AcDbEntity
  8
_03_2D_ZEICHNUNG_BEMASSUNGEN
100
AcDbDimension
 62
7
  6
CONTINUOUS
  2
*D1
 10
0.0
 20
34.0678726149
 11
62.0000006104
 21
34.0678726149
 70
160
 71
2
 42
125.0
  3
DIMSTYLE_2
100
AcDbAlignedDimension
 13
125.0
 23
0.0
 14
0.0
 24
0.0
 50
180.0
100
AcDbRotatedDimension
  0
DIMENSION
  5
239
100
AcDbEntity
  8
_03_2D_ZEICHNUNG_BEMASSUNGEN
100
AcDbDimension
 62
7
  6
CONTINUOUS
  2
*D2
 10
134.6972143023
 20
0.0
 11
134.6972143023
 21
12.0000040205
 70
160
 71
2
 42
25.0
  3
DIMSTYLE_1
100
AcDbAlignedDimension
 13
125.0
 23
25.0
 14
0.0
 24
0.0
 50
270.0
100
AcDbRotatedDimension
  0
LINE
  5
23A
100
AcDbEntity
  8
_30_VOLUMEN
100
AcDbLine
 62
4
  6
CONTINUOUS
 10
-0.0
 20
0.5
 11
0.0
 21
19.5
  0
LINE
  5
23B
100
AcDbEntity
  8
_30_VOLUMEN
100
AcDbLine
 62
4
  6
CONTINUOUS
 10
0.5
 20
-0.0
 11
0.5
 21
20.0
  0
LINE
  5
23C
100
AcDbEntity
  8
_30_VOLUMEN
100
AcDbLine
 62
4
  6
CONTINUOUS
 10
0.5
 20
-0.0
 11
-0.0
 21
0.5
  0
LINE
  5
23D
100
AcDbEntity
  8
_30_VOLUMEN
100
AcDbLine
 62
4
  6
CONTINUOUS
 10
0.5
 20
20.0
 11
0.0
 21
19.5
  0
LINE
  5
23E
100
AcDbEntity
  8
_30_VOLUMEN
100
AcDbLine
 62
4
  6
CONTINUOUS
 10
0.5
 20
-0.0
 11
90.1
 21
0.0
  0
LINE
  5
23F
100
AcDbEntity
  8
0
100
AcDbLine
 62
4
  6
CONTINUOUS
 10
90.1
 20
0.0
 11
91.5583394353
 21
0.0
  0
LINE
  5
240
100
AcDbEntity
  8
_30_VOLUMEN
100
AcDbLine
 62
4
  6
CONTINUOUS
 10
91.5583394353
 20
0.0
 11
108.8320734231
 21
0.0
  0
LINE
  5
241
100
AcDbEntity
  8
_30_VOLUMEN
100
AcDbLine
 62
4
  6
CONTINUOUS
 10
90.5923482148
 20
21.8374685527
 11
91.086681901
 21
22.0076329513
  0
LINE
  5
242
100
AcDbEntity
  8
_30_VOLUMEN
100
AcDbLine
 62
4
  6
CONTINUOUS
 10
115.8600506724
 20
11.4686165314
 11
116.4732724659
 21
11.4957570499
  0
LINE
  5
243
100
AcDbEntity
  8
_30_VOLUMEN
100
AcDbLine
 62
4
  6
CONTINUOUS
 10
117.1089021918
 20
12.0130280756
 11
103.644839958
 21
11.4171235687
  0
LINE
  5
244
100
AcDbEntity
  8
_21_KURVEN
100
AcDbLine
 62
7
  6
CONTINUOUS
 10
117.1089021918
 20
12.0130280756
 11
103.644839958
 21
11.4171235687
  0
LINE
  5
245
100
AcDbEntity
  8
_26_BEZUGSACHSEN
100
AcDbLine
 62
4
  6
CONTINUOUS
 10
116.1681515652
 20
11.9713914931
 11
102.1178683494
 21
11.3495414937
  0
LINE
  5
246
100
AcDbEntity
  8
_26_BEZUGSACHSEN
100
AcDbLine
 62
4
  6
CONTINUOUS
 10
109.4029034731
 20
22.9675454488
 11
91.086681901
 21
22.0076329513
  0
LINE
  5
247
100
AcDbEntity
  8
_30_VOLUMEN
100
AcDbLine
 62
4
  6
CONTINUOUS
 10
0.5
 20
20.0
 11
90.1
 21
20.0
  0
LINE
  5
248
100
AcDbEntity
  8
_30_VOLUMEN
100
AcDbLine
 62
4
  6
CONTINUOUS
 10
110.7061804599
 20
24.4043860329
 11
124.1702426937
 21
25.0002905399
  0
LINE
  5
249
100
AcDbEntity
  8
_21_KURVEN
100
AcDbLine
 62
7
  6
CONTINUOUS
 10
110.7061804599
 20
24.4043860329
 11
124.1702426937
 21
25.0002905399
  0
LINE
  5
24A
100
AcDbEntity
  8
_30_VOLUMEN
100
AcDbLine
 62
4
  6
CONTINUOUS
 10
110.2428817175
 20
24.2283196185
 11
109.6072519916
 21
23.7110485927
  0
LINE
  5
24B
100
AcDbEntity
  8
_30_VOLUMEN
100
AcDbLine
 62
7
  6
CONTINUOUS
 10
110.0728079415
 20
24.0358934569
 11
109.4371782156
 21
23.5186224312
  0
LINE
  5
24C
100
AcDbEntity
  8
_30_VOLUMEN
100
AcDbLine
 62
4
  6
CONTINUOUS
 10
90.1
 20
20.0
 11
90.5923482148
 21
21.8374685527
  0
LINE
  5
24D
100
AcDbEntity
  8
_30_VOLUMEN
100
AcDbLine
 62
4
  6
CONTINUOUS
 10
91.086681901
 20
22.0076329513
 11
91.5583394353
 21
0.0
  0
LINE
  5
24E
100
AcDbEntity
  8
0
100
AcDbLine
 62
4
  6
CONTINUOUS
 10
90.1
 20
20.0
 11
90.1
 21
0.0
  0
LINE
  5
24F
100
AcDbEntity
  8
_30_VOLUMEN
100
AcDbLine
 62
4
  6
CONTINUOUS
 10
109.4371782156
 20
23.5186224312
 11
109.0810502312
 21
22.9506778351
  0
LINE
  5
250
100
AcDbEntity
  8
_26_BEZUGSACHSEN
100
AcDbLine
 62
4
  6
CONTINUOUS
 10
102.1178683494
 20
11.3495414937
 11
109.4029034731
 21
22.9675454488
  0
LINE
  5
251
100
AcDbEntity
  8
_30_VOLUMEN
100
AcDbLine
 62
4
  6
CONTINUOUS
 10
102.9281504843
 20
12.6417605272
 11
110.0728079415
 21
24.0358934569
  0
LINE
  5
252
100
AcDbEntity
  8
_21_KURVEN
100
AcDbLine
 62
7
  6
CONTINUOUS
 10
102.9281504843
 20
12.6417605272
 11
110.0728079415
 21
24.0358934569
  0
LINE
  5
253
100
AcDbEntity
  8
_30_VOLUMEN
100
AcDbLine
 62
7
  6
CONTINUOUS
 10
117.1089021918
 20
12.0130280756
 11
116.4732724659
 21
11.4957570499
  0
LINE
  5
254
100
AcDbEntity
  8
_28_BEZUGSPUNKTE
100
AcDbLine
 62
1
  6
CONTINUOUS
 10
125.15625
 20
25.15625
 11
124.84375
 21
24.84375
  0
LINE
  5
255
100
AcDbEntity
  8
_30_VOLUMEN
100
AcDbLine
 62
4
  6
CONTINUOUS
 10
117.5722009342
 20
12.1890944901
 11
116.9365712083
 21
11.6718234644
  0
LINE
  5
256
100
AcDbEntity
  8
_26_BEZUGSACHSEN
100
AcDbLine
 62
4
  6
CONTINUOUS
 10
116.1681515652
 20
11.9713914931
 11
108.8320734231
 21
0.0
  0
LINE
  5
257
100
AcDbEntity
  8
_30_VOLUMEN
100
AcDbLine
 62
4
  6
CONTINUOUS
 10
124.8869321675
 20
23.7756535813
 11
117.7422747102
 21
12.3815206516
  0
LINE
  5
258
100
AcDbEntity
  8
_21_KURVEN
100
AcDbLine
 62
7
  6
CONTINUOUS
 10
124.8869321675
 20
23.7756535813
 11
117.7422747102
 21
12.3815206516
  0
LINE
  5
259
100
AcDbEntity
  8
_28_BEZUGSPUNKTE
100
AcDbLine
 62
1
  6
CONTINUOUS
 10
125.15625
 20
24.84375
 11
124.84375
 21
25.15625
  0
ARC
  5
25A
100
AcDbEntity
  8
_30_VOLUMEN
100
AcDbCircle
 62
4
  6
CONTINUOUS
 10
113.281743248
 20
17.6688426776
 40
2.5573137998
100
AcDbArc
 50
322.9232853272
 51
3.0496421354
  0
ARC
  5
25B
100
AcDbEntity
  8
_30_VOLUMEN
100
AcDbCircle
 62
4
  6
CONTINUOUS
 10
113.2961133305
 20
17.6621738797
 40
2.5418350135
100
AcDbArc
 50
315.6249913533
 51
322.3511182648
  0
ARC
  5
25C
100
AcDbEntity
  8
_30_VOLUMEN
100
AcDbCircle
 62
4
  6
CONTINUOUS
 10
113.2435510814
 20
17.7259297296
 40
2.5353876489
100
AcDbArc
 50
115.9585634288
 51
122.0110724815
  0
ARC
  5
25D
100
AcDbEntity
  8
_30_VOLUMEN
100
AcDbCircle
 62
4
  6
CONTINUOUS
 10
113.3126857691
 20
17.6488704701
 40
2.5205875065
100
AcDbArc
 50
322.360447873
 51
322.8614489829
  0
ARC
  5
25E
100
AcDbEntity
  8
_30_VOLUMEN
100
AcDbCircle
 62
4
  6
CONTINUOUS
 10
102.9756134479
 20
11.7045669749
 40
0.8043679444
100
AcDbArc
 50
197.9801288595
 51
205.8674353791
  0
ARC
  5
25F
100
AcDbEntity
  8
_30_VOLUMEN
100
AcDbCircle
 62
4
  6
CONTINUOUS
 10
102.9665127214
 20
11.701292769
 40
0.7947010176
100
AcDbArc
 50
195.6820590016
 51
197.9581371446
  0
ARC
  5
260
100
AcDbEntity
  8
_30_VOLUMEN
100
AcDbCircle
 62
4
  6
CONTINUOUS
 10
110.1091203032
 20
23.0961140945
 40
0.7937376542
100
AcDbArc
 50
129.2190177697
 51
147.8388592558
  0
ARC
  5
261
100
AcDbEntity
  8
_30_VOLUMEN
100
AcDbCircle
 62
4
  6
CONTINUOUS
 10
117.0703326226
 20
12.8040289883
 40
0.7937376542
100
AcDbArc
 50
309.2190177697
 51
327.8388592558
  0
ARC
  5
262
100
AcDbEntity
  8
_30_VOLUMEN
100
AcDbCircle
 62
4
  6
CONTINUOUS
 10
110.7447500291
 20
23.6133851203
 40
0.7937376542
100
AcDbArc
 50
129.2190177697
 51
147.8388592558
  0
ARC
  5
263
100
AcDbEntity
  8
_30_VOLUMEN
100
AcDbCircle
 62
4
  6
CONTINUOUS
 10
110.740602793
 20
23.6162062998
 40
0.7889310418
100
AcDbArc
 50
92.5007010863
 51
129.1152216672
  0
ARC
  5
264
100
AcDbEntity
  8
_30_VOLUMEN
100
AcDbCircle
 62
4
  6
CONTINUOUS
 10
116.4388501328
 20
12.283936783
 40
0.7889310418
100
AcDbArc
 50
272.5007010863
 51
309.1152216672
  0
ARC
  5
265
100
AcDbEntity
  8
_30_VOLUMEN
100
AcDbCircle
 62
4
  6
CONTINUOUS
 10
117.0744798587
 20
12.8012078088
 40
0.7889310418
100
AcDbArc
 50
272.5007010863
 51
309.1152216672
  0
SPLINE
  5
266
100
AcDbEntity
  8
_30_VOLUMEN
100
AcDbSpline
 62
4
  6
CONTINUOUS
 70
0
 71
3
 72
11
 73
7
 74
0
 42
0.0000001
 43
0.0000001
 44
0.0000000001
 40
0.0
 40
0.0
 40
0.0
 40
0.0
 40
0.2492795979
 40
0.4995161074
 40
0.7500824752
 40
1.0
 40
1.0
 40
1.0
 40
1.0
 10
124.8869321675
 20
23.7756535813
 30
0.0
 10
124.9628241757
 20
23.8966843845
 30
0.0
 10
125.0488339578
 20
24.1876491043
 30
0.0
 10
124.9317644969
 20
24.6229112096
 30
0.0
 10
124.6093299082
 20
24.9382107465
 30
0.0
 10
124.3133249604
 20
25.0066232028
 30
0.0
 10
124.1702426937
 20
25.0002905399
 30
0.0
  0
SPLINE
  5
267
100
AcDbEntity
  8
_30_VOLUMEN
100
AcDbSpline
 62
4
  6
CONTINUOUS
 70
0
 71
3
 72
9
 73
5
 74
0
 42
0.0000001
 43
0.0000001
 44
0.0000000001
 40
0.0
 40
0.0
 40
0.0
 40
0.0
 40
0.5033019545
 40
1.0
 40
1.0
 40
1.0
 40
1.0
 10
111.1810866958
 20
17.9743146384
 30
0.0
 10
111.1604961257
 20
18.368033362
 30
0.0
 10
111.3035537391
 20
19.1717958794
 30
0.0
 10
111.8002813623
 20
19.820192181
 30
0.0
 10
112.1020635799
 20
20.0657804392
 30
0.0
  0
SPLINE
  5
268
100
AcDbEntity
  8
_30_VOLUMEN
100
AcDbSpline
 62
4
  6
CONTINUOUS
 70
0
 71
3
 72
15
 73
11
 74
0
 42
0.0000001
 43
0.0000001
 44
0.0000000001
 40
0.0
 40
0.0
 40
0.0
 40
0.0
 40
0.124414172
 40
0.2490406635
 40
0.3739131002
 40
0.4990298446
 40
0.6243189649
 40
0.7496169471
 40
0.8749972825
 40
1.0
 40
1.0
 40
1.0
 40
1.0
 10
112.1337586131
 20
20.0055242565
 30
0.0
 10
112.3230209868
 20
20.0976823091
 30
0.0
 10
112.7266107465
 20
20.2356630721
 30
0.0
 10
113.3634828858
 20
20.2866118611
 30
0.0
 10
113.994919734
 20
20.1800472364
 30
0.0
 10
114.5822433153
 20
19.9222751335
 30
0.0
 10
115.0897488984
 20
19.5289723939
 30
0.0
 10
115.4871380637
 20
19.0239478378
 30
0.0
 10
115.7492807002
 20
18.4381687015
 30
0.0
 10
115.8243893913
 20
18.0161092968
 30
0.0
 10
115.8354354185
 20
17.8048947582
 30
0.0
  0
SPLINE
  5
269
100
AcDbEntity
  8
_30_VOLUMEN
100
AcDbSpline
 62
4
  6
CONTINUOUS
 70
0
 71
3
 72
15
 73
11
 74
0
 42
0.0000001
 43
0.0000001
 44
0.0000000001
 40
0.0
 40
0.0
 40
0.0
 40
0.0
 40
0.12226968
 40
0.2452832413
 40
0.3693362043
 40
0.4946458093
 40
0.6209429166
 40
0.7476840193
 40
0.8742720827
 40
1.0
 40
1.0
 40
1.0
 40
1.0
 10
115.3590376496
 20
16.0635660635
 30
0.0
 10
115.1805891024
 20
15.9183458837
 30
0.0
 10
114.7796584913
 20
15.6758383322
 30
0.0
 10
114.1008704009
 20
15.4907983076
 30
0.0
 10
113.3911710446
 20
15.4987064193
 30
0.0
 10
112.7044708444
 20
15.7007079408
 30
0.0
 10
112.0939299741
 20
16.0839546415
 30
0.0
 10
111.607607533
 20
16.6194386233
 30
0.0
 10
111.2845281631
 20
17.2649162598
 30
0.0
 10
111.1934423152
 20
17.7380589795
 30
0.0
 10
111.1810866958
 20
17.9743146384
 30
0.0
  0
SPLINE
  5
26A
100
AcDbEntity
  8
_30_VOLUMEN
100
AcDbSpline
 62
4
  6
CONTINUOUS
 70
0
 71
3
 72
15
 73
11
 74
0
 42
0.0000001
 43
0.0000001
 44
0.0000000001
 40
0.0
 40
0.0
 40
0.0
 40
0.0
 40
0.1249680163
 40
0.2495470846
 40
0.374027587
 40
0.498690176
 40
0.6237367789
 40
0.749143961
 40
0.8746487487
 40
1.0
 40
1.0
 40
1.0
 40
1.0
 10
116.9281275307
 20
18.3423948598
 30
0.0
 10
116.9486850138
 20
17.9493088031
 30
0.0
 10
116.8338043847
 20
17.1473863232
 30
0.0
 10
116.214219644
 20
16.1103794862
 30
0.0
 10
115.2428177726
 20
15.3913113743
 30
0.0
 10
114.0680133414
 20
15.103043144
 30
0.0
 10
112.8699136742
 20
15.2875186052
 30
0.0
 10
111.830674974
 20
15.9165534714
 30
0.0
 10
111.1068845273
 20
16.8914389427
 30
0.0
 10
110.907575647
 20
17.6807277289
 30
0.0
 10
110.886955121
 20
18.0750192488
 30
0.0
  0
SPLINE
  5
26B
100
AcDbEntity
  8
_30_VOLUMEN
100
AcDbSpline
 62
7
  6
CONTINUOUS
 70
0
 71
3
 72
11
 73
7
 74
0
 42
0.0000001
 43
0.0000001
 44
0.0000000001
 40
0.0
 40
0.0
 40
0.0
 40
0.0
 40
0.2502685371
 40
0.5008203504
 40
0.7505468128
 40
1.0
 40
1.0
 40
1.0
 40
1.0
 10
116.2940744333
 20
18.178131981
 30
0.0
 10
116.304504298
 20
17.9786992793
 30
0.0
 10
116.2780345047
 20
17.5756754983
 30
0.0
 10
116.101043102
 20
16.9979605424
 30
0.0
 10
115.7937474855
 20
16.4783166862
 30
0.0
 10
115.5133350115
 20
16.1893242097
 30
0.0
 10
115.3589051607
 20
16.063728968
 30
0.0
  0
SPLINE
  5
26C
100
AcDbEntity
  8
_30_VOLUMEN
100
AcDbSpline
 62
4
  6
CONTINUOUS
 70
0
 71
3
 72
15
 73
11
 74
0
 42
0.0000001
 43
0.0000001
 44
0.0000000001
 40
0.0
 40
0.0
 40
0.0
 40
0.0
 40
0.1249525305
 40
0.2495489029
 40
0.3740256971
 40
0.4986901693
 40
0.6237387223
 40
0.7491421492
 40
0.8746642715
 40
1.0
 40
1.0
 40
1.0
 40
1.0
 10
116.840031497
 20
18.3138463146
 30
0.0
 10
116.860205305
 20
17.9280966273
 30
0.0
 10
116.7473808236
 20
17.1410778147
 30
0.0
 10
116.1395189628
 20
16.1231505251
 30
0.0
 10
115.1860038352
 20
15.4174819525
 30
0.0
 10
114.0330113462
 20
15.1344548736
 30
0.0
 10
112.8571457064
 20
15.3156158103
 30
0.0
 10
111.8370589415
 20
15.9329093202
 30
0.0
 10
111.126906148
 20
16.8898880984
 30
0.0
 10
110.9312233624
 20
17.6645007066
 30
0.0
 10
110.9109876863
 20
18.0514333914
 30
0.0
  0
SPLINE
  5
26D
100
AcDbEntity
  8
_30_VOLUMEN
100
AcDbSpline
 62
7
  6
CONTINUOUS
 70
0
 71
3
 72
15
 73
11
 74
0
 42
0.0000001
 43
0.0000001
 44
0.0000000001
 40
0.0
 40
0.0
 40
0.0
 40
0.0
 40
0.1250622974
 40
0.2505637322
 40
0.3759233788
 40
0.5012305726
 40
0.6262973581
 40
0.7510766908
 40
0.8756132398
 40
1.0
 40
1.0
 40
1.0
 40
1.0
 10
116.2940744333
 20
18.178131981
 30
0.0
 10
116.2817649721
 20
18.4135050356
 30
0.0
 10
116.1910013374
 20
18.8840326487
 30
0.0
 10
115.8708198596
 20
19.5255144302
 30
0.0
 10
115.388151818
 20
20.0570088786
 30
0.0
 10
114.7808288197
 20
20.4380815616
 30
0.0
 10
114.0939352125
 20
20.6400593827
 30
0.0
 10
113.3793338607
 20
20.6476872621
 30
0.0
 10
112.6913019942
 20
20.4605121532
 30
0.0
 10
112.2840641876
 20
20.2135278655
 30
0.0
 10
112.1021960688
 20
20.0656175347
 30
0.0
  0
SPLINE
  5
26E
100
AcDbEntity
  8
_30_VOLUMEN
100
AcDbSpline
 62
4
  6
CONTINUOUS
 70
0
 71
3
 72
15
 73
11
 74
0
 42
0.0000001
 43
0.0000001
 44
0.0000000001
 40
0.0
 40
0.0
 40
0.0
 40
0.0
 40
0.1253357285
 40
0.2508578508
 40
0.3762612777
 40
0.5013098307
 40
0.6259743029
 40
0.7504510971
 40
0.8750474695
 40
1.0
 40
1.0
 40
1.0
 40
1.0
 10
116.840031497
 20
18.3138463146
 30
0.0
 10
116.8197958209
 20
18.7007789994
 30
0.0
 10
116.6241130352
 20
19.4753916076
 30
0.0
 10
115.9139602417
 20
20.4323703858
 30
0.0
 10
114.8938734769
 20
21.0496638956
 30
0.0
 10
113.7180078371
 20
21.2308248324
 30
0.0
 10
112.565015348
 20
20.9477977534
 30
0.0
 10
111.6115002205
 20
20.2421291808
 30
0.0
 10
111.0036383597
 20
19.2242018912
 30
0.0
 10
110.8908138782
 20
18.4371830787
 30
0.0
 10
110.9109876863
 20
18.0514333914
 30
0.0
  0
SPLINE
  5
26F
100
AcDbEntity
  8
_30_VOLUMEN
100
AcDbSpline
 62
4
  6
CONTINUOUS
 70
0
 71
3
 72
15
 73
11
 74
0
 42
0.0000001
 43
0.0000001
 44
0.0000000001
 40
0.0
 40
0.0
 40
0.0
 40
0.0
 40
0.1249680163
 40
0.2495470846
 40
0.374027587
 40
0.498690176
 40
0.6237367789
 40
0.749143961
 40
0.8746487487
 40
1.0
 40
1.0
 40
1.0
 40
1.0
 10
110.886955121
 20
18.0750192488
 30
0.0
 10
110.8663976379
 20
18.4681053055
 30
0.0
 10
110.981278267
 20
19.2700277854
 30
0.0
 10
111.6008630077
 20
20.3070346223
 30
0.0
 10
112.5722648791
 20
21.0261027343
 30
0.0
 10
113.7470693103
 20
21.3143709646
 30
0.0
 10
114.9451689775
 20
21.1298955033
 30
0.0
 10
115.9844076777
 20
20.5008606372
 30
0.0
 10
116.7081981244
 20
19.5259751658
 30
0.0
 10
116.9075070047
 20
18.7366863796
 30
0.0
 10
116.9281275307
 20
18.3423948598
 30
0.0
  0
SPLINE
  5
270
100
AcDbEntity
  8
_30_VOLUMEN
100
AcDbSpline
 62
4
  6
CONTINUOUS
 70
0
 71
3
 72
11
 73
7
 74
0
 42
0.0000001
 43
0.0000001
 44
0.0000000001
 40
0.0
 40
0.0
 40
0.0
 40
0.0
 40
0.2492795979
 40
0.4995161074
 40
0.7500824752
 40
1.0
 40
1.0
 40
1.0
 40
1.0
 10
102.9281504843
 20
12.6417605272
 30
0.0
 10
102.852258476
 20
12.5207297241
 30
0.0
 10
102.7662486939
 20
12.2297650043
 30
0.0
 10
102.8833181548
 20
11.7945028989
 30
0.0
 10
103.2057527435
 20
11.479203362
 30
0.0
 10
103.5017576913
 20
11.4107909058
 30
0.0
 10
103.644839958
 20
11.4171235687
 30
0.0
  0
SPLINE
  5
271
100
AcDbEntity
  8
_21_KURVEN
100
AcDbSpline
 62
7
  6
CONTINUOUS
 70
0
 71
3
 72
36
 73
32
 74
0
 42
0.0000001
 43
0.0000001
 44
0.0000000001
 40
0.0
 40
0.0
 40
0.0
 40
0.0
 40
0.0625
 40
0.09375
 40
0.125
 40
0.1875
 40
0.21875
 40
0.25
 40
0.28125
 40
0.3125
 40
0.375
 40
0.40625
 40
0.4375
 40
0.453125
 40
0.46875
 40
0.5
 40
0.53125
 40
0.546875
 40
0.5625
 40
0.59375
 40
0.625
 40
0.6875
 40
0.71875
 40
0.75
 40
0.78125
 40
0.8125
 40
0.84375
 40
0.875
 40
0.90625
 40
0.9375
 40
1.0
 40
1.0
 40
1.0
 40
1.0
 10
102.9281504843
 20
12.6417605272
 30
0.0
 10
102.9123211658
 20
12.609949576
 30
0.0
 10
102.8895492978
 20
12.5617779272
 30
0.0
 10
102.8552983687
 20
12.4993699498
 30
0.0
 10
102.8409799311
 20
12.4274525829
 30
0.0
 10
102.8155204331
 20
12.3591742013
 30
0.0
 10
102.8143445931
 20
12.2860996289
 30
0.0
 10
102.8098512549
 20
12.2319305164
 30
0.0
 10
102.8076619204
 20
12.177612232
 30
0.0
 10
102.8208114003
 20
12.1057639038
 30
0.0
 10
102.8271066552
 20
12.0332758407
 30
0.0
 10
102.8533703412
 20
11.9649146346
 30
0.0
 10
102.8685404236
 20
11.92230369
 30
0.0
 10
102.8786717129
 20
11.8869076779
 30
0.0
 10
102.897817886
 20
11.8566488441
 30
0.0
 10
102.9196309071
 20
11.8176104554
 30
0.0
 10
102.9428531685
 20
11.779388641
 30
0.0
 10
102.9597445571
 20
11.7478232883
 30
0.0
 10
102.9855755242
 20
11.7215243369
 30
0.0
 10
103.01519958
 20
11.6872885649
 30
0.0
 10
103.0617726926
 20
11.6306958563
 30
0.0
 10
103.1218249546
 20
11.5893546532
 30
0.0
 10
103.177933423
 20
11.5424037149
 30
0.0
 10
103.2263391439
 20
11.5173866946
 30
0.0
 10
103.2758242443
 20
11.4945536266
 30
0.0
 10
103.3238193174
 20
11.4678499981
 30
0.0
 10
103.3766951204
 20
11.4544446592
 30
0.0
 10
103.4294912385
 20
11.441519272
 30
0.0
 10
103.4817149681
 20
11.4244430214
 30
0.0
 10
103.5545055928
 20
11.4231726899
 30
0.0
 10
103.608645873
 20
11.4191314144
 30
0.0
 10
103.6448399905
 20
11.4171235701
 30
0.0
  0
SPLINE
  5
272
100
AcDbEntity
  8
_21_KURVEN
100
AcDbSpline
 62
7
  6
CONTINUOUS
 70
0
 71
3
 72
9
 73
5
 74
0
 42
0.0000001
 43
0.0000001
 44
0.0000000001
 40
0.0
 40
0.0
 40
0.0
 40
0.0
 40
0.5
 40
1.0
 40
1.0
 40
1.0
 40
1.0
 10
110.7061804599
 20
24.4043860329
 30
0.0
 10
110.6618733974
 20
24.4011801442
 30
0.0
 10
110.5703216239
 20
24.3919366429
 30
0.0
 10
110.4834446648
 20
24.3620439233
 30
0.0
 10
110.4386010453
 20
24.3450530788
 30
0.0
  0
SPLINE
  5
273
100
AcDbEntity
  8
_21_KURVEN
100
AcDbSpline
 62
7
  6
CONTINUOUS
 70
0
 71
3
 72
10
 73
6
 74
0
 42
0.0000001
 43
0.0000001
 44
0.0000000001
 40
0.0
 40
0.0
 40
0.0
 40
0.0
 40
0.5
 40
0.75
 40
1.0
 40
1.0
 40
1.0
 40
1.0
 10
110.4386010431
 20
24.3450530779
 30
0.0
 10
110.4056475791
 20
24.3305167602
 30
0.0
 10
110.350937694
 20
24.3043043628
 30
0.0
 10
110.2913392582
 20
24.2652458311
 30
0.0
 10
110.2590779663
 20
24.2408334345
 30
0.0
 10
110.2433508058
 20
24.2287010597
 30
0.0
  0
SPLINE
  5
274
100
AcDbEntity
  8
_21_KURVEN
100
AcDbSpline
 62
7
  6
CONTINUOUS
 70
0
 71
3
 72
9
 73
5
 74
0
 42
0.0000001
 43
0.0000001
 44
0.0000000001
 40
0.0
 40
0.0
 40
0.0
 40
0.0
 40
0.5
 40
1.0
 40
1.0
 40
1.0
 40
1.0
 10
110.2433508034
 20
24.2287010578
 30
0.0
 10
110.2138765859
 20
24.2035221609
 30
0.0
 10
110.1568369097
 20
24.1526542216
 30
0.0
 10
110.107730992
 20
24.0870124897
 30
0.0
 10
110.084293923
 20
24.0536761737
 30
0.0
  0
LINE
  5
275
100
AcDbEntity
  8
_21_KURVEN
100
AcDbLine
 62
7
  6
CONTINUOUS
 10
110.0842939285
 20
24.0536761819
 11
110.0728079415
 21
24.0358934569
  0
SPLINE
  5
276
100
AcDbEntity
  8
_21_KURVEN
100
AcDbSpline
 62
7
  6
CONTINUOUS
 70
0
 71
3
 72
9
 73
5
 74
0
 42
0.0000001
 43
0.0000001
 44
0.0000000001
 40
0.0
 40
0.0
 40
0.0
 40
0.0
 40
0.5
 40
1.0
 40
1.0
 40
1.0
 40
1.0
 10
124.8869321675
 20
23.7756535813
 30
0.0
 10
124.9147115377
 20
23.8236205923
 30
0.0
 10
124.9700783952
 20
23.9285159924
 30
0.0
 10
124.9921793542
 20
24.0397038961
 30
0.0
 10
125.0018004146
 20
24.098838757
 30
0.0
  0
SPLINE
  5
277
100
AcDbEntity
  8
_21_KURVEN
100
AcDbSpline
 62
7
  6
CONTINUOUS
 70
0
 71
3
 72
9
 73
5
 74
0
 42
0.0000001
 43
0.0000001
 44
0.0000000001
 40
0.0
 40
0.0
 40
0.0
 40
0.0
 40
0.5
 40
1.0
 40
1.0
 40
1.0
 40
1.0
 10
125.0018004153
 20
24.0988387627
 30
0.0
 10
125.0067274984
 20
24.1542306477
 30
0.0
 10
125.0129667765
 20
24.271736871
 30
0.0
 10
124.9851966359
 20
24.386355668
 30
0.0
 10
124.969207665
 20
24.4429987354
 30
0.0
  0
SPLINE
  5
278
100
AcDbEntity
  8
_21_KURVEN
100
AcDbSpline
 62
7
  6
CONTINUOUS
 70
0
 71
3
 72
9
 73
5
 74
0
 42
0.0000001
 43
0.0000001
 44
0.0000000001
 40
0.0
 40
0.0
 40
0.0
 40
0.0
 40
0.5
 40
1.0
 40
1.0
 40
1.0
 40
1.0
 10
124.9692076667
 20
24.44299873
 30
0.0
 10
124.9502655714
 20
24.4954721528
 30
0.0
 10
124.906279731
 20
24.6050022764
 30
0.0
 10
124.8328138942
 20
24.6974961167
 30
0.0
 10
124.7945543767
 20
24.7421466595
 30
0.0
  0
SPLINE
  5
279
100
AcDbEntity
  8
_21_KURVEN
100
AcDbSpline
 62
7
  6
CONTINUOUS
 70
0
 71
3
 72
9
 73
5
 74
0
 42
0.0000001
 43
0.0000001
 44
0.0000000001
 40
0.0
 40
0.0
 40
0.0
 40
0.0
 40
0.5
 40
1.0
 40
1.0
 40
1.0
 40
1.0
 10
124.7945543777
 20
24.7421466584
 30
0.0
 10
124.7553052758
 20
24.7818585465
 30
0.0
 10
124.6693642385
 20
24.8628673631
 30
0.0
 10
124.5640015048
 20
24.9158921767
 30
0.0
 10
124.5112654923
 20
24.9400366368
 30
0.0
  0
SPLINE
  5
27A
100
AcDbEntity
  8
_21_KURVEN
100
AcDbSpline
 62
7
  6
CONTINUOUS
 70
0
 71
3
 72
9
 73
5
 74
0
 42
0.0000001
 43
0.0000001
 44
0.0000000001
 40
0.0
 40
0.0
 40
0.0
 40
0.0
 40
0.5
 40
1.0
 40
1.0
 40
1.0
 40
1.0
 10
124.5112654949
 20
24.9400366357
 30
0.0
 10
124.4590879246
 20
24.9595843333
 30
0.0
 10
124.3473432257
 20
24.9969757644
 30
0.0
 10
124.2298483042
 20
25.0006895905
 30
0.0
 10
124.1702426892
 20
25.0002905397
 30
0.0
  0
SPLINE
  5
27B
100
AcDbEntity
  8
_21_KURVEN
100
AcDbSpline
 62
1
  6
CENTER
 70
0
 71
3
 72
102
 73
98
 74
0
 42
0.0000001
 43
0.0000001
 44
0.0000000001
 40
0.0
 40
0.0
 40
0.0
 40
0.0
 40
0.03125
 40
0.046875
 40
0.0625
 40
0.078125
 40
0.09375
 40
0.1015625
 40
0.109375
 40
0.125
 40
0.140625
 40
0.15625
 40
0.171875
 40
0.17578125
 40
0.1796875
 40
0.181640625
 40
0.18359375
 40
0.1875
 40
0.1953125
 40
0.203125
 40
0.21875
 40
0.234375
 40
0.25
 40
0.2578125
 40
0.265625
 40
0.26953125
 40
0.2734375
 40
0.27734375
 40
0.28125
 40
0.2890625
 40
0.296875
 40
0.3125
 40
0.328125
 40
0.34375
 40
0.3515625
 40
0.359375
 40
0.36328125
 40
0.3671875
 40
0.375
 40
0.390625
 40
0.40625
 40
0.421875
 40
0.4375
 40
0.4453125
 40
0.44921875
 40
0.453125
 40
0.4609375
 40
0.46875
 40
0.484375
 40
0.5
 40
0.515625
 40
0.53125
 40
0.5390625
 40
0.546875
 40
0.55078125
 40
0.5546875
 40
0.5625
 40
0.578125
 40
0.59375
 40
0.609375
 40
0.625
 40
0.6328125
 40
0.63671875
 40
0.640625
 40
0.6484375
 40
0.65625
 40
0.671875
 40
0.6875
 40
0.703125
 40
0.7109375
 40
0.71875
 40
0.72265625
 40
0.7265625
 40
0.73046875
 40
0.734375
 40
0.7421875
 40
0.75
 40
0.78125
 40
0.796875
 40
0.8046875
 40
0.8125
 40
0.81640625
 40
0.818359375
 40
0.8203125
 40
0.82421875
 40
0.828125
 40
0.84375
 40
0.859375
 40
0.875
 40
0.890625
 40
0.8984375
 40
0.90625
 40
0.921875
 40
0.9375
 40
0.953125
 40
0.96875
 40
1.0
 40
1.0
 40
1.0
 40
1.0
 10
120.216989484
 20
18.4879562533
 30
0.0
 10
120.1939634325
 20
18.6354333264
 30
0.0
 10
120.1594816253
 20
18.8566636208
 30
0.0
 10
120.1132768019
 20
19.1515786075
 30
0.0
 10
120.0791958857
 20
19.3729116956
 30
0.0
 10
120.0429387042
 20
19.5936867611
 30
0.0
 10
120.0195013527
 20
19.7794036842
 30
0.0
 10
119.9613708064
 20
19.9178794114
 30
0.0
 10
119.910116876
 20
20.0581181929
 30
0.0
 10
119.8437006748
 20
20.2328160264
 30
0.0
 10
119.7649604929
 20
20.4426919337
 30
0.0
 10
119.6861413341
 20
20.652574842
 30
0.0
 10
119.6265444509
 20
20.8097871398
 30
0.0
 10
119.587642066
 20
20.9149262896
 30
0.0
 10
119.5701853196
 20
20.9582382063
 30
0.0
 10
119.5591308418
 20
20.9940451942
 30
0.0
 10
119.5374306227
 20
21.0256192141
 30
0.0
 10
119.5025766751
 20
21.0821148953
 30
0.0
 10
119.4511567237
 20
21.1621754622
 30
0.0
 10
119.36979488
 20
21.2906341419
 30
0.0
 10
119.2677813768
 20
21.4510843936
 30
0.0
 10
119.1454938086
 20
21.6436729067
 30
0.0
 10
119.0435736477
 20
21.804166761
 30
0.0
 10
118.9620064509
 20
21.9325295148
 30
0.0
 10
118.9111115502
 20
22.0128353468
 30
0.0
 10
118.870200363
 20
22.0768982286
 30
0.0
 10
118.8400520143
 20
22.1254432749
 30
0.0
 10
118.7985430939
 20
22.1634169384
 30
0.0
 10
118.7471659634
 20
22.2177409412
 30
0.0
 10
118.6815852538
 20
22.284381015
 30
0.0
 10
118.5774194232
 20
22.3917157807
 30
0.0
 10
118.4469245349
 20
22.5256140988
 30
0.0
 10
118.2905661916
 20
22.6865227768
 30
0.0
 10
118.1598659636
 20
22.8202045394
 30
0.0
 10
118.0561518805
 20
22.9280157272
 30
0.0
 10
117.9894161347
 20
22.9934376764
 30
0.0
 10
117.9404106785
 20
23.0502628951
 30
0.0
 10
117.8754042154
 20
23.0907055107
 30
0.0
 10
117.7663352062
 20
23.1662839149
 30
0.0
 10
117.608070991
 20
23.271746439
 30
0.0
 10
117.4191951285
 20
23.3993530908
 30
0.0
 10
117.2300766346
 20
23.5267638508
 30
0.0
 10
117.0724189978
 20
23.6327161042
 30
0.0
 10
116.9622884763
 20
23.7074374821
 30
0.0
 10
116.8989804329
 20
23.7492513397
 30
0.0
 10
116.8370901047
 20
23.7943901353
 30
0.0
 10
116.7495647261
 20
23.8269816855
 30
0.0
 10
116.6117102231
 20
23.8842554029
 30
0.0
 10
116.4386385869
 20
23.9540763277
 30
0.0
 10
116.2312903049
 20
24.0386724473
 30
0.0
 10
116.0237969091
 20
24.1228584826
 30
0.0
 10
115.8510880573
 20
24.1937046182
 30
0.0
 10
115.7125079855
 20
24.248927914
 30
0.0
 10
115.6268267609
 20
24.2867309526
 30
0.0
 10
115.5527416407
 20
24.2974079571
 30
0.0
 10
115.4796227101
 20
24.3114970011
 30
0.0
 10
115.351214836
 20
24.3345659088
 30
0.0
 10
115.1680067668
 20
24.368328509
 30
0.0
 10
114.948072669
 20
24.4085971883
 30
0.0
 10
114.7281054288
 20
24.4485604029
 30
0.0
 10
114.5449802157
 20
24.483086665
 30
0.0
 10
114.4164273435
 20
24.5048191644
 30
0.0
 10
114.34354041
 20
24.5210464617
 30
0.0
 10
114.2672404397
 20
24.5145438548
 30
0.0
 10
114.1730340615
 20
24.5141985604
 30
0.0
 10
114.021650988
 20
24.5092949265
 30
0.0
 10
113.8326443205
 20
24.5046672485
 30
0.0
 10
113.6057491854
 20
24.4984318303
 30
0.0
 10
113.4166641206
 20
24.4935071779
 30
0.0
 10
113.265453521
 20
24.4892568877
 30
0.0
 10
113.1708061583
 20
24.4872411125
 30
0.0
 10
113.0954116763
 20
24.4841685595
 30
0.0
 10
113.037980033
 20
24.4858595495
 30
0.0
 10
112.9839298129
 20
24.472298887
 30
0.0
 10
112.9116505049
 20
24.4551757758
 30
0.0
 10
112.8213741148
 20
24.433443908
 30
0.0
 10
112.6046494715
 20
24.3815627048
 30
0.0
 10
112.3518403513
 20
24.3208841753
 30
0.0
 10
112.0989759837
 20
24.2604161535
 30
0.0
 10
111.9545518798
 20
24.2256052997
 30
0.0
 10
111.8641254179
 20
24.2044426414
 30
0.0
 10
111.8011505549
 20
24.188437489
 30
0.0
 10
111.7646584918
 20
24.1811556642
 30
0.0
 10
111.731189013
 20
24.1627488117
 30
0.0
 10
111.6883190984
 20
24.1435427299
 30
0.0
 10
111.5862809858
 20
24.0943193712
 30
0.0
 10
111.432875374
 20
24.0217859642
 30
0.0
 10
111.2284935551
 20
23.9243902476
 30
0.0
 10
111.0242190937
 20
23.8269557473
 30
0.0
 10
110.8535000202
 20
23.7464600321
 30
0.0
 10
110.7180479364
 20
23.6804035676
 30
0.0
 10
110.5784954371
 20
23.620426911
 30
0.0
 10
110.43340396
 20
23.5019323964
 30
0.0
 10
110.2544455125
 20
23.3669292926
 30
0.0
 10
110.0767845978
 20
23.2300020204
 30
0.0
 10
109.8394481035
 20
23.0481074709
 30
0.0
 10
109.6615481696
 20
22.9115346508
 30
0.0
 10
109.5429254499
 20
22.8205198614
 30
0.0
  0
SPLINE
  5
27C
100
AcDbEntity
  8
_21_KURVEN
100
AcDbSpline
 62
1
  6
CENTER
 70
0
 71
3
 72
47
 73
43
 74
0
 42
0.0000001
 43
0.0000001
 44
0.0000000001
 40
0.0
 40
0.0
 40
0.0
 40
0.0
 40
0.0625
 40
0.125
 40
0.140625
 40
0.15625
 40
0.1640625
 40
0.171875
 40
0.1875
 40
0.21875
 40
0.25
 40
0.28125
 40
0.3125
 40
0.328125
 40
0.3359375
 40
0.34375
 40
0.359375
 40
0.375
 40
0.4375
 40
0.46875
 40
0.484375
 40
0.5
 40
0.515625
 40
0.53125
 40
0.5625
 40
0.625
 40
0.640625
 40
0.65625
 40
0.6640625
 40
0.671875
 40
0.6875
 40
0.71875
 40
0.75
 40
0.78125
 40
0.8125
 40
0.828125
 40
0.8359375
 40
0.84375
 40
0.859375
 40
0.875
 40
0.9375
 40
1.0
 40
1.0
 40
1.0
 40
1.0
 10
109.5429249934
 20
22.8205194282
 30
0.0
 10
109.4670578716
 20
22.7373511723
 30
0.0
 10
109.3152466328
 20
22.5710757804
 30
0.0
 10
109.1448054682
 20
22.3837409245
 30
0.0
 10
109.0306727431
 20
22.2592521207
 30
0.0
 10
108.9838633336
 20
22.2067896855
 30
0.0
 10
108.9446761917
 20
22.166200668
 30
0.0
 10
108.911850793
 20
22.120561608
 30
0.0
 10
108.8573641349
 20
22.0383456351
 30
0.0
 10
108.7779682932
 20
21.9221283185
 30
0.0
 10
108.683409863
 20
21.7821099708
 30
0.0
 10
108.5884775275
 20
21.6423473768
 30
0.0
 10
108.5100164491
 20
21.5254906761
 30
0.0
 10
108.4538939552
 20
21.4443936254
 30
0.0
 10
108.4236858938
 20
21.39696429
 30
0.0
 10
108.4004856076
 20
21.3454398355
 30
0.0
 10
108.3690937875
 20
21.282432486
 30
0.0
 10
108.2956881329
 20
21.1300773068
 30
0.0
 10
108.2097968576
 20
20.9525508613
 30
0.0
 10
108.1229667426
 20
20.7753559731
 30
0.0
 10
108.0751313243
 20
20.6733816437
 30
0.0
 10
108.0341776298
 20
20.5989664887
 30
0.0
 10
108.0126415632
 20
20.5166490191
 30
0.0
 10
107.9771578742
 20
20.4096479556
 30
0.0
 10
107.9181735235
 20
20.2211207875
 30
0.0
 10
107.8582849929
 20
20.033012109
 30
0.0
 10
107.8066665627
 20
19.8717902691
 30
0.0
 10
107.7860651186
 20
19.8043916046
 30
0.0
 10
107.7674375394
 20
19.751006211
 30
0.0
 10
107.756670668
 20
19.6956649837
 30
0.0
 10
107.7414837536
 20
19.5979084161
 30
0.0
 10
107.7178640606
 20
19.4587341657
 30
0.0
 10
107.6904015752
 20
19.2915093916
 30
0.0
 10
107.6624930667
 20
19.1243825297
 30
0.0
 10
107.6399884314
 20
18.9849634987
 30
0.0
 10
107.622850166
 20
18.8876352971
 30
0.0
 10
107.6152054562
 20
18.8316086841
 30
0.0
 10
107.6156484563
 20
18.7740370855
 30
0.0
 10
107.613437733
 20
18.7026006813
 30
0.0
 10
107.6104078126
 20
18.5307185648
 30
0.0
 10
107.604899381
 20
18.2730794561
 30
0.0
 10
107.6003945355
 20
18.04399212
 30
0.0
 10
107.5980931705
 20
17.9294578013
 30
0.0
  0
SPLINE
  5
27D
100
AcDbEntity
  8
_21_KURVEN
100
AcDbSpline
 62
1
  6
CENTER
 70
0
 71
3
 72
163
 73
159
 74
0
 42
0.0000001
 43
0.0000001
 44
0.0000000001
 40
0.0
 40
0.0
 40
0.0
 40
0.0
 40
0.015625
 40
0.03125
 40
0.0390625
 40
0.046875
 40
0.0546875
 40
0.05859375
 40
0.060546875
 40
0.0625
 40
0.064453125
 40
0.06640625
 40
0.0703125
 40
0.078125
 40
0.09375
 40
0.109375
 40
0.1171875
 40
0.12109375
 40
0.123046875
 40
0.125
 40
0.126953125
 40
0.12890625
 40
0.1328125
 40
0.140625
 40
0.15625
 40
0.171875
 40
0.1796875
 40
0.18359375
 40
0.185546875
 40
0.1875
 40
0.189453125
 40
0.19140625
 40
0.1953125
 40
0.203125
 40
0.21875
 40
0.234375
 40
0.2421875
 40
0.24609375
 40
0.248046875
 40
0.25
 40
0.251953125
 40
0.25390625
 40
0.2578125
 40
0.265625
 40
0.28125
 40
0.296875
 40
0.3046875
 40
0.30859375
 40
0.310546875
 40
0.3125
 40
0.314453125
 40
0.31640625
 40
0.3203125
 40
0.328125
 40
0.34375
 40
0.359375
 40
0.3671875
 40
0.37109375
 40
0.373046875
 40
0.375
 40
0.376953125
 40
0.37890625
 40
0.3828125
 40
0.390625
 40
0.40625
 40
0.421875
 40
0.4296875
 40
0.43359375
 40
0.435546875
 40
0.4375
 40
0.439453125
 40
0.44140625
 40
0.4453125
 40
0.453125
 40
0.46875
 40
0.484375
 40
0.4921875
 40
0.49609375
 40
0.498046875
 40
0.5
 40
0.501953125
 40
0.50390625
 40
0.5078125
 40
0.515625
 40
0.53125
 40
0.546875
 40
0.5546875
 40
0.55859375
 40
0.560546875
 40
0.5625
 40
0.564453125
 40
0.56640625
 40
0.5703125
 40
0.578125
 40
0.59375
 40
0.609375
 40
0.6171875
 40
0.62109375
 40
0.623046875
 40
0.625
 40
0.626953125
 40
0.62890625
 40
0.6328125
 40
0.640625
 40
0.65625
 40
0.671875
 40
0.6796875
 40
0.68359375
 40
0.685546875
 40
0.6875
 40
0.689453125
 40
0.69140625
 40
0.6953125
 40
0.703125
 40
0.71875
 40
0.734375
 40
0.7421875
 40
0.74609375
 40
0.748046875
 40
0.75
 40
0.751953125
 40
0.75390625
 40
0.7578125
 40
0.765625
 40
0.78125
 40
0.796875
 40
0.8046875
 40
0.80859375
 40
0.810546875
 40
0.8125
 40
0.814453125
 40
0.81640625
 40
0.8203125
 40
0.828125
 40
0.84375
 40
0.859375
 40
0.8671875
 40
0.87109375
 40
0.873046875
 40
0.875
 40
0.876953125
 40
0.87890625
 40
0.8828125
 40
0.890625
 40
0.90625
 40
0.921875
 40
0.9296875
 40
0.93359375
 40
0.935546875
 40
0.9375
 40
0.939453125
 40
0.94140625
 40
0.9453125
 40
0.953125
 40
0.9609375
 40
0.96875
 40
0.984375
 40
1.0
 40
1.0
 40
1.0
 40
1.0
 10
107.5980931677
 20
17.9294578553
 30
0.0
 10
107.613458901
 20
17.8275600508
 30
0.0
 10
107.6441945754
 20
17.6237654737
 30
0.0
 10
107.6825931298
 20
17.3690170932
 30
0.0
 10
107.7133561542
 20
17.165229223
 30
0.0
 10
107.736308503
 20
17.012358913
 30
0.0
 10
107.7558167834
 20
16.8850604984
 30
0.0
 10
107.7687242659
 20
16.7957681021
 30
0.0
 10
107.7772683969
 20
16.7450304044
 30
0.0
 10
107.7803850192
 20
16.7061699752
 30
0.0
 10
107.7960833316
 20
16.670394905
 30
0.0
 10
107.8126261042
 20
16.6216186674
 30
0.0
 10
107.8436173022
 20
16.5367610075
 30
0.0
 10
107.9041421784
 20
16.3666863738
 30
0.0
 10
107.9914344797
 20
16.123940981
 30
0.0
 10
108.0781902396
 20
15.8810065174
 30
0.0
 10
108.1394662738
 20
15.7111965828
 30
0.0
 10
108.1694246295
 20
15.6259749616
 30
0.0
 10
108.1876306805
 20
15.5777848433
 30
0.0
 10
108.198218436
 20
15.5402088744
 30
0.0
 10
108.2205298272
 20
15.5081124505
 30
0.0
 10
108.2461893129
 20
15.4634060225
 30
0.0
 10
108.2929955654
 20
15.3860589259
 30
0.0
 10
108.3852496775
 20
15.230728684
 30
0.0
 10
108.5178151908
 20
15.0091993125
 30
0.0
 10
108.6498724213
 20
14.7873975657
 30
0.0
 10
108.7428381292
 20
14.6324486494
 30
0.0
 10
108.7886659375
 20
14.5545772301
 30
0.0
 10
108.8159010995
 20
14.5107151658
 30
0.0
 10
108.8333710981
 20
14.4760243662
 30
0.0
 10
108.8621426669
 20
14.4481926275
 30
0.0
 10
108.8965629507
 20
14.4086912769
 30
0.0
 10
108.9586319355
 20
14.3406770405
 30
0.0
 10
109.0814625379
 20
14.2038509623
 30
0.0
 10
109.2576637564
 20
14.0088610266
 30
0.0
 10
109.433439481
 20
13.8134867779
 30
0.0
 10
109.5568657748
 20
13.6771987379
 30
0.0
 10
109.618115684
 20
13.6084446989
 30
0.0
 10
109.6538549986
 20
13.5701347187
 30
0.0
 10
109.6785737388
 20
13.5386423985
 30
0.0
 10
109.7112657786
 20
13.5177003972
 30
0.0
 10
109.7520741988
 20
13.4860979234
 30
0.0
 10
109.8247825312
 20
13.4325054362
 30
0.0
 10
109.9692761026
 20
13.3240973352
 30
0.0
 10
110.1762157357
 20
13.1699306081
 30
0.0
 10
110.3828326607
 20
13.0152856918
 30
0.0
 10
110.5277780235
 20
12.9075470556
 30
0.0
 10
110.5998651429
 20
12.8530340543
 30
0.0
 10
110.641673958
 20
12.8229139668
 30
0.0
 10
110.6712922035
 20
12.797417214
 30
0.0
 10
110.7075558248
 20
12.7830321102
 30
0.0
 10
110.7535895205
 20
12.759976379
 30
0.0
 10
110.8352265665
 20
12.7214318023
 30
0.0
 10
110.9977321636
 20
12.6430540767
 30
0.0
 10
111.2303096669
 20
12.531828214
 30
0.0
 10
111.4626443685
 20
12.4200875074
 30
0.0
 10
111.6254898881
 20
12.3424305633
 30
0.0
 10
111.7066595406
 20
12.3028949119
 30
0.0
 10
111.753445922
 20
12.2814351971
 30
0.0
 10
111.7873968558
 20
12.2621462043
 30
0.0
 10
111.825701337
 20
12.2550679952
 30
0.0
 10
111.8752555305
 20
12.2413714301
 30
0.0
 10
111.9626816591
 20
12.2193837043
 30
0.0
 10
112.1370302885
 20
12.1739925984
 30
0.0
 10
112.3863806264
 20
12.1099608371
 30
0.0
 10
112.6355667862
 20
12.0453748576
 30
0.0
 10
112.8101452649
 20
12.0007596573
 30
0.0
 10
112.8972553507
 20
11.9777050613
 30
0.0
 10
112.9473184963
 20
11.9657265729
 30
0.0
 10
112.984059181
 20
11.9533694346
 30
0.0
 10
113.0238835868
 20
11.9539076011
 30
0.0
 10
113.0759072659
 20
11.9501274546
 30
0.0
 10
113.1674487311
 20
11.9456045002
 30
0.0
 10
113.3501778645
 20
11.9350639033
 30
0.0
 10
113.6113947333
 20
11.9208615087
 30
0.0
 10
113.8725845028
 20
11.9060837355
 30
0.0
 10
114.0553515752
 20
11.8963486685
 30
0.0
 10
114.1468408743
 20
11.8907181105
 30
0.0
 10
114.1989485612
 20
11.8887216373
 30
0.0
 10
114.2385148459
 20
11.883779324
 30
0.0
 10
114.276225009
 20
11.89200635
 30
0.0
 10
114.3271526234
 20
11.8983824418
 30
0.0
 10
114.415974706
 20
11.9116773155
 30
0.0
 10
114.5938349489
 20
11.9367412073
 30
0.0
 10
114.8477903027
 20
11.9734157393
 30
0.0
 10
115.1018569095
 20
12.0095207736
 30
0.0
 10
115.2795613981
 20
12.0353819622
 30
0.0
 10
115.3685976428
 20
12.0475805528
 30
0.0
 10
115.4191803728
 20
12.0557220873
 30
0.0
 10
115.4579502211
 20
12.0585246482
 30
0.0
 10
115.4935364281
 20
12.0739561134
 30
0.0
 10
115.5420951276
 20
12.090126622
 30
0.0
 10
115.6265561502
 20
12.1204740196
 30
0.0
 10
115.7958488912
 20
12.1797058101
 30
0.0
 10
116.0374708507
 20
12.2651540798
 30
0.0
 10
116.2792859764
 20
12.3500633205
 30
0.0
 10
116.4483082847
 20
12.4100497516
 30
0.0
 10
116.5331411522
 20
12.4393595184
 30
0.0
 10
116.5811010363
 20
12.457201017
 30
0.0
 10
116.6185271519
 20
12.4674982306
 30
0.0
 10
116.6503864776
 20
12.4895845552
 30
0.0
 10
116.6948072044
 20
12.5149211151
 30
0.0
 10
116.7716401687
 20
12.5611728717
 30
0.0
 10
116.9259522528
 20
12.6523103961
 30
0.0
 10
117.1460213692
 20
12.7832851823
 30
0.0
 10
117.3663665854
 20
12.9137485608
 30
0.0
 10
117.5202921299
 20
13.0056020559
 30
0.0
 10
117.5976565862
 20
13.0508693528
 30
0.0
 10
117.6412214037
 20
13.0777912763
 30
0.0
 10
117.6757105798
 20
13.0950064434
 30
0.0
 10
117.7032592257
 20
13.1235992644
 30
0.0
 10
117.7424115345
 20
13.1577546806
 30
0.0
 10
117.8098017313
 20
13.2193724936
 30
0.0
 10
117.9453891476
 20
13.3412919167
 30
0.0
 10
118.1386043677
 20
13.5161966332
 30
0.0
 10
118.3322067574
 20
13.6906719547
 30
0.0
 10
118.4672521363
 20
13.8131925309
 30
0.0
 10
118.5353876345
 20
13.8739837585
 30
0.0
 10
118.5733397176
 20
13.9094702992
 30
0.0
 10
118.6045761538
 20
13.9339731329
 30
0.0
 10
118.625214338
 20
13.9665499059
 30
0.0
 10
118.6564284409
 20
14.0071695353
 30
0.0
 10
118.7093335023
 20
14.079563813
 30
0.0
 10
118.8163722985
 20
14.2234176098
 30
0.0
 10
118.968579771
 20
14.4294499575
 30
0.0
 10
119.1212672871
 20
14.635155103
 30
0.0
 10
119.2276340222
 20
14.7794669828
 30
0.0
 10
119.2814631676
 20
14.8512313963
 30
0.0
 10
119.3111891352
 20
14.8928653524
 30
0.0
 10
119.3363997351
 20
14.9223255248
 30
0.0
 10
119.3504626104
 20
14.958534016
 30
0.0
 10
119.3731012861
 20
15.0044582997
 30
0.0
 10
119.4109101637
 20
15.0859205778
 30
0.0
 10
119.487820657
 20
15.2480647048
 30
0.0
 10
119.5969482056
 20
15.4801326694
 30
0.0
 10
119.7065917345
 20
15.7119531758
 30
0.0
 10
119.7827798556
 20
15.8744437443
 30
0.0
 10
119.821581995
 20
15.9554296653
 30
0.0
 10
119.8426211321
 20
16.0021210694
 30
0.0
 10
119.8615987186
 20
16.0359725214
 30
0.0
 10
119.8683501278
 20
16.0742855103
 30
0.0
 10
119.8816163286
 20
16.123813382
 30
0.0
 10
119.9028484201
 20
16.2112109693
 30
0.0
 10
119.946730033
 20
16.3854899982
 30
0.0
 10
120.0086044238
 20
16.6347480787
 30
0.0
 10
120.0710334584
 20
16.8838371367
 30
0.0
 10
120.11413857
 20
17.058352797
 30
0.0
 10
120.1364383507
 20
17.145425016
 30
0.0
 10
120.147985156
 20
17.1954768574
 30
0.0
 10
120.1600195469
 20
17.2321799072
 30
0.0
 10
120.1591547531
 20
17.2720781383
 30
0.0
 10
120.162501075
 20
17.3241612648
 30
0.0
 10
120.1662607931
 20
17.4158260094
 30
0.0
 10
120.172727815
 20
17.5465041618
 30
0.0
 10
120.1800191065
 20
17.7034341513
 30
0.0
 10
120.189904756
 20
17.9126335318
 30
0.0
 10
120.2022051981
 20
18.1741467824
 30
0.0
 10
120.2120628074
 20
18.3833531086
 30
0.0
 10
120.2169894551
 20
18.487956806
 30
0.0
  0
SPLINE
  5
27E
100
AcDbEntity
  8
_21_KURVEN
100
AcDbSpline
 62
7
  6
CONTINUOUS
 70
0
 71
3
 72
9
 73
5
 74
0
 42
0.0000001
 43
0.0000001
 44
0.0000000001
 40
0.0
 40
0.0
 40
0.0
 40
0.0
 40
0.5
 40
1.0
 40
1.0
 40
1.0
 40
1.0
 10
117.1089021918
 20
12.0130280756
 30
0.0
 10
117.1532092543
 20
12.0162339644
 30
0.0
 10
117.2447610278
 20
12.0254774656
 30
0.0
 10
117.331637987
 20
12.0553701852
 30
0.0
 10
117.3764816064
 20
12.0723610298
 30
0.0
  0
SPLINE
  5
27F
100
AcDbEntity
  8
_21_KURVEN
100
AcDbSpline
 62
7
  6
CONTINUOUS
 70
0
 71
3
 72
9
 73
5
 74
0
 42
0.0000001
 43
0.0000001
 44
0.0000000001
 40
0.0
 40
0.0
 40
0.0
 40
0.0
 40
0.5
 40
1.0
 40
1.0
 40
1.0
 40
1.0
 10
117.3764816086
 20
12.0723610307
 30
0.0
 10
117.4094350727
 20
12.0868973483
 30
0.0
 10
117.4810081549
 20
12.1207607115
 30
0.0
 10
117.540277525
 20
12.1644482993
 30
0.0
 10
117.5722009412
 20
12.1890944957
 30
0.0
  0
SPLINE
  5
280
100
AcDbEntity
  8
_21_KURVEN
100
AcDbSpline
 62
7
  6
CONTINUOUS
 70
0
 71
3
 72
9
 73
5
 74
0
 42
0.0000001
 43
0.0000001
 44
0.0000000001
 40
0.0
 40
0.0
 40
0.0
 40
0.0
 40
0.5
 40
1.0
 40
1.0
 40
1.0
 40
1.0
 10
117.5722009342
 20
12.1890944901
 30
0.0
 10
117.6016558012
 20
12.2142960394
 30
0.0
 10
117.6586564007
 20
12.2652078295
 30
0.0
 10
117.7077120532
 20
12.3308874434
 30
0.0
 10
117.7307887221
 20
12.3637379249
 30
0.0
  0
LINE
  5
281
100
AcDbEntity
  8
_21_KURVEN
100
AcDbLine
 62
7
  6
CONTINUOUS
 10
117.7307887232
 20
12.3637379267
 11
117.7422747102
 21
12.3815206517
  0
ENDSEC
  0
SECTION
  2
OBJECTS
  0
DICTIONARY
  5
C
100
AcDbDictionary
280
0
281
1
  3
ACAD_GROUP
350
D
  3
ACAD_MLINESTYLE
350
17
  3
ACAD_LAYOUT
350
1A
  3
ACAD_PLOTSETTINGS
350
19
  3
ACAD_PLOTSTYLENAME
350
E
  0
DICTIONARY
  5
D
102
{ACAD_REACTORS
330
C
102
}
100
AcDbDictionary
280
0
281
1
  0
ACDBDICTIONARYWDFLT
  5
E
102
{ACAD_REACTORS
330
C
102
}
100
AcDbDictionary
281
1
  3
Normal
350
F
100
AcDbDictionaryWithDefault
340
F
  0
DICTIONARY
  5
17
102
{ACAD_REACTORS
330
C
102
}
100
AcDbDictionary
280
0
281
1
  3
Standard
350
18
  0
DICTIONARY
  5
19
102
{ACAD_REACTORS
330
C
102
}
100
AcDbDictionary
281
1
  0
DICTIONARY
  5
1A
102
{ACAD_REACTORS
330
C
102
}
100
AcDbDictionary
281
1
  3
Model
350
282
  3
Layout1
350
283
  0
ACDBPLACEHOLDER
  5
F
102
{ACAD_REACTORS
330
E
102
}
  0
MLINESTYLE
  5
18
102
{ACAD_REACTORS
330
17
102
}
100
AcDbMlineStyle
  2
STANDARD
 70
0
  3

 62
256
 51
90.0
 52
90.0
 71
2
 49
0.5
 62
256
  6
BYLAYER
 49
-0.5
 62
256
  6
BYLAYER
  0
LAYOUT
  5
282
102
{ACAD_REACTORS
330
1A
102
}
100
AcDbPlotSettings
  1

  2
none_device
  4
ISO_A3_(420.00_x_297.00_MM)
  6

 40
0.0
 41
0.0
 42
0.0
 43
0.0
 44
420.0
 45
297.0
 46
0.0
 47
0.0
 48
0.0
 49
0.0
140
0.0
141
0.0
142
1.0
143
1.0
 70
1024
 72
1
 73
0
 74
0
  7

 75
0
147
1.0
148
0.0
149
0.0
100
AcDbLayout
  1
Model
 70
0
 71
0
 10
0.0
 20
0.0
 11
420.0
 21
297.0
 12
0.0
 22
0.0
 32
0.0
 14
0.0
 24
0.0
 34
0.0
 15
0.0
 25
0.0
 35
0.0
146
0.0
 13
0.0
 23
0.0
 33
0.0
 16
1.0
 26
0.0
 36
0.0
 17
0.0
 27
1.0
 37
0.0
 76
0
330
20E
345
0
346
0
  0
LAYOUT
  5
283
102
{ACAD_REACTORS
330
1A
102
}
100
AcDbPlotSettings
  1

  2
none_device
  4
ISO_A3_(420.00_x_297.00_MM)
  6

 40
0.0
 41
0.0
 42
0.0
 43
0.0
 44
420.0
 45
297.0
 46
0.0
 47
0.0
 48
0.0
 49
0.0
140
0.0
141
0.0
142
1.0
143
1.0
 70
0
 72
1
 73
0
 74
0
  7

 75
0
147
1.0
148
0.0
149
0.0
100
AcDbLayout
  1
Layout1
 70
0
 71
1
 10
0.0
 20
0.0
 11
420.0
 21
297.0
 12
0.0
 22
0.0
 32
0.0
 14
0.0
 24
0.0
 34
0.0
 15
0.0
 25
0.0
 35
0.0
146
0.0
 13
0.0
 23
0.0
 33
0.0
 16
1.0
 26
0.0
 36
0.0
 17
0.0
 27
1.0
 37
0.0
 76
0
330
20F
345
0
346
0
  0
ENDSEC
  0
EOF
