999
DXF file: 70540720.dxf
999
Pro/ENGINEER 2017380 by Parametric Technology Corporation
  0
SECTION
  2
HEADER
  9
$ACADVER
  1
AC1027
  9
$DWGCODEPAGE
  3
ANSI_1252
  9
$EXTMAX
 10
420.0
 20
297.0
 30
0.0
  9
$EXTMIN
 10
0.0
 20
0.0
 30
0.0
  9
$LIMMIN
 10
0.0
 20
0.0
  9
$LIMMAX
 10
420.0
 20
297.0
  9
$VIEWCTR
 10
210.0
 20
148.5
  9
$VIEWSIZE
 40
297.0
  9
$CLAYER
  8
0
  9
$LTSCALE
 40
23.1
  9
$CELTYPE
  6
BYLAYER
  9
$DIMSCALE
 40
1.0
  9
$DIMASZ
 40
3.5
  9
$DIMEXO
 40
0.0
  9
$DIMDLI
 40
15.96
  9
$DIMEXE
 40
1.5
  9
$DIMCEN
 40
3.78
  9
$DIMLFAC
 40
1.0
  9
$DIMBLK
  1
_FILLED
  9
$DIMALT
 70
0
  9
$DIMALTF
 40
25.4
  9
$DIMTXT
 40
3.5
  9
$DIMTOL
 70
1
  9
$DIMLIM
 70
0
  9
$DIMTFAC
 40
1.0
  9
$DIMTP
 40
0.05
  9
$DIMTM
 40
0.05
  9
$DIMGAP
 40
0.625
  9
$DIMDSEP
 70
46
  9
$AUNITS
 70
0
  9
$PDMODE
 70
3
  9
$PDSIZE
 40
0.3125
  9
$HANDSEED
  5
28F
  9
$TILEMODE
 70
1
  9
$MEASUREMENT
 70
1
  9
$INSUNITS
 70
4
  0
ENDSEC
  0
SECTION
  2
CLASSES
  0
CLASS
  1
ACDBDICTIONARYWDFLT
  2
AcDbDictionaryWithDefault
  3
AutoCAD 2000
 90
0
 91
1
280
0
281
0
  0
CLASS
  1
ACDBPLACEHOLDER
  2
AcDbPlaceHolder
  3
AutoCAD 2000
 90
0
 91
1
280
0
281
0
  0
CLASS
  1
LAYOUT
  2
AcDbLayout
  3
AutoCAD 2000
 90
0
 91
0
280
0
281
0
  0
ENDSEC
  0
SECTION
  2
TABLES
  0
TABLE
  2
VPORT
  5
8
100
AcDbSymbolTable
 70
2
  0
VPORT
  5
1F4
100
AcDbSymbolTableRecord
100
AcDbViewportTableRecord
  2
*ACTIVE
 70
0
 10
0.0
 20
0.0
 11
1.0
 21
1.0
 12
210.0
 22
148.5
 13
0.0
 23
0.0
 14
1.0
 24
1.0
 15
0.0
 25
0.0
 16
0.0
 26
0.0
 36
1.0
 17
0.0
 27
0.0
 37
0.0
 40
297.0
 41
1.4141414141
 42
50.0
 43
0.0
 44
0.0
 50
0.0
 51
0.0
 71
0
 72
100
 73
1
 74
1
 75
0
 76
0
 77
0
 78
0
  0
ENDTAB
  0
TABLE
  2
LTYPE
  5
5
100
AcDbSymbolTable
 70
6
  0
LTYPE
  5
14
100
AcDbSymbolTableRecord
100
AcDbLinetypeTableRecord
  2
BYBLOCK
 70
0
  3

 72
65
 73
0
 40
0.0
  0
LTYPE
  5
15
100
AcDbSymbolTableRecord
100
AcDbLinetypeTableRecord
  2
BYLAYER
 70
0
  3

 72
65
 73
0
 40
0.0
  0
LTYPE
  5
16
100
AcDbSymbolTableRecord
100
AcDbLinetypeTableRecord
  2
CONTINUOUS
 70
64
  3
Solid line
 72
65
 73
0
 40
0.0
  0
LTYPE
  5
1F5
100
AcDbSymbolTableRecord
100
AcDbLinetypeTableRecord
  2
CENTER
 70
64
  3
____ _ ____ _ ____ _ ____ _ ____ _ ____ _ ____
 72
65
 73
4
 40
0.6
 49
0.375
 74
0
 49
-0.075
 74
0
 49
0.075
 74
0
 49
-0.075
 74
0
  0
LTYPE
  5
1F6
100
AcDbSymbolTableRecord
100
AcDbLinetypeTableRecord
  2
HIDDEN
 70
64
  3
- - - - - - - - - - - - - - - - - - - -
 72
65
 73
2
 40
0.2
 49
0.1
 74
0
 49
-0.1
 74
0
  0
LTYPE
  5
1F7
100
AcDbSymbolTableRecord
100
AcDbLinetypeTableRecord
  2
PHANTOM
 70
64
  3
_____ _ _ _____ _ _ _____ _ _ _____
 72
65
 73
6
 40
0.8
 49
0.45
 74
0
 49
-0.05
 74
0
 49
0.1
 74
0
 49
-0.05
 74
0
 49
0.1
 74
0
 49
-0.05
 74
0
  0
LTYPE
  5
1F8
100
AcDbSymbolTableRecord
100
AcDbLinetypeTableRecord
  2
DOT
 70
64
  3
. . . . . . . . . . . . . . . . . . . .
 72
65
 73
2
 40
0.2
 49
0.1
 74
0
 49
-0.1
 74
0
  0
LTYPE
  5
1F9
100
AcDbSymbolTableRecord
100
AcDbLinetypeTableRecord
  2
DASHED
 70
64
  3
- - - - - - - - - - - - - - - - - - - -
 72
65
 73
2
 40
0.2
 49
0.1
 74
0
 49
-0.1
 74
0
  0
ENDTAB
  0
TABLE
  2
LAYER
  5
2
100
AcDbSymbolTable
 70
36
  0
LAYER
  5
10
100
AcDbSymbolTableRecord
100
AcDbLayerTableRecord
  2
0
 70
0
 62
7
  6
CONTINUOUS
370
-3
390
F
  0
LAYER
  5
1FA
100
AcDbSymbolTableRecord
100
AcDbLayerTableRecord
  2
DEFAULT_1
 70
0
 62
7
  6
CENTER
370
-3
390
F
  0
LAYER
  5
1FB
100
AcDbSymbolTableRecord
100
AcDbLayerTableRecord
  2
DEFAULT_2
 70
0
 62
1
  6
HIDDEN
370
-3
390
F
  0
LAYER
  5
1FC
100
AcDbSymbolTableRecord
100
AcDbLayerTableRecord
  2
DEFAULT_3
 70
0
 62
7
  6
PHANTOM
370
-3
390
F
  0
LAYER
  5
1FD
100
AcDbSymbolTableRecord
100
AcDbLayerTableRecord
  2
BG_STARTBEZUEGE
 70
0
 62
7
  6
CONTINUOUS
370
-3
390
F
  0
LAYER
  5
1FE
100
AcDbSymbolTableRecord
100
AcDbLayerTableRecord
  2
HILFEN
 70
0
 62
7
  6
CONTINUOUS
370
-3
390
F
  0
LAYER
  5
1FF
100
AcDbSymbolTableRecord
100
AcDbLayerTableRecord
  2
PLATZIERUNG
 70
0
 62
7
  6
CONTINUOUS
370
-3
390
F
  0
LAYER
  5
200
100
AcDbSymbolTableRecord
100
AcDbLayerTableRecord
  2
T_STARTBEZUEGE
 70
0
 62
7
  6
CONTINUOUS
370
-3
390
F
  0
LAYER
  5
201
100
AcDbSymbolTableRecord
100
AcDbLayerTableRecord
  2
_03_2D_ZEICHNUNG_BEMASSUNGEN
 70
0
 62
7
  6
CONTINUOUS
370
-3
390
F
  0
LAYER
  5
202
100
AcDbSymbolTableRecord
100
AcDbLayerTableRecord
  2
_04_NOTIZEN
 70
0
 62
7
  6
CONTINUOUS
370
-3
390
F
  0
LAYER
  5
203
100
AcDbSymbolTableRecord
100
AcDbLayerTableRecord
  2
_05_2D_ELEMENTE
 70
0
 62
7
  6
CONTINUOUS
370
-3
390
F
  0
LAYER
  5
204
100
AcDbSymbolTableRecord
100
AcDbLayerTableRecord
  2
_07_EINRASTLINIEN
 70
0
 62
7
  6
CONTINUOUS
370
-3
390
F
  0
LAYER
  5
205
100
AcDbSymbolTableRecord
100
AcDbLayerTableRecord
  2
_21_KURVEN
 70
0
 62
7
  6
CONTINUOUS
370
-3
390
F
  0
LAYER
  5
206
100
AcDbSymbolTableRecord
100
AcDbLayerTableRecord
  2
_24_IMPORT
 70
0
 62
7
  6
CONTINUOUS
370
-3
390
F
  0
LAYER
  5
207
100
AcDbSymbolTableRecord
100
AcDbLayerTableRecord
  2
_26_BEZUGSACHSEN
 70
0
 62
7
  6
CONTINUOUS
370
-3
390
F
  0
LAYER
  5
208
100
AcDbSymbolTableRecord
100
AcDbLayerTableRecord
  2
_27_BEZUGSEBENEN
 70
0
 62
7
  6
CONTINUOUS
370
-3
390
F
  0
LAYER
  5
209
100
AcDbSymbolTableRecord
100
AcDbLayerTableRecord
  2
_28_BEZUGSPUNKTE
 70
0
 62
7
  6
CONTINUOUS
370
-3
390
F
  0
LAYER
  5
20A
100
AcDbSymbolTableRecord
100
AcDbLayerTableRecord
  2
_29_KOORDINATENSYSTEME
 70
0
 62
7
  6
CONTINUOUS
370
-3
390
F
  0
LAYER
  5
20B
100
AcDbSymbolTableRecord
100
AcDbLayerTableRecord
  2
_30_VOLUMEN
 70
0
 62
7
  6
CONTINUOUS
370
-3
390
F
  0
ENDTAB
  0
TABLE
  2
STYLE
  5
3
100
AcDbSymbolTable
 70
1
  0
STYLE
  5
11
100
AcDbSymbolTableRecord
100
AcDbTextStyleTableRecord
  2
STANDARD
 70
0
 40
0.0
 41
0.7
 50
0.0
 71
0
 42
0.2
  3
SIMPLEX.SHX
  4

  0
STYLE
  5
20C
100
AcDbSymbolTableRecord
100
AcDbTextStyleTableRecord
  2
TEXTSTYLE_1
 70
0
 40
0.0
 41
0.8
 50
0.0
 71
0
 42
0.2
  3
gdt
  4

  0
ENDTAB
  0
TABLE
  2
VIEW
  5
6
100
AcDbSymbolTable
 70
0
  0
ENDTAB
  0
TABLE
  2
UCS
  5
7
100
AcDbSymbolTable
 70
0
  0
ENDTAB
  0
TABLE
  2
APPID
  5
9
100
AcDbSymbolTable
 70
1
  0
APPID
  5
20D
100
AcDbSymbolTableRecord
100
AcDbRegAppTableRecord
  2
ACAD
 70
0
  0
ENDTAB
  0
TABLE
  2
BLOCK_RECORD
  5
1
100
AcDbSymbolTable
 70
0
  0
BLOCK_RECORD
  5
20E
100
AcDbSymbolTableRecord
100
AcDbBlockTableRecord
  2
*Model_Space
  0
BLOCK_RECORD
  5
20F
100
AcDbSymbolTableRecord
100
AcDbBlockTableRecord
  2
*Paper_Space
  0
BLOCK_RECORD
  5
210
100
AcDbSymbolTableRecord
100
AcDbBlockTableRecord
  2
_FILLED
  0
BLOCK_RECORD
  5
211
100
AcDbSymbolTableRecord
100
AcDbBlockTableRecord
  2
*D0
  0
BLOCK_RECORD
  5
212
100
AcDbSymbolTableRecord
100
AcDbBlockTableRecord
  2
*D1
  0
BLOCK_RECORD
  5
213
100
AcDbSymbolTableRecord
100
AcDbBlockTableRecord
  2
*D2
  0
ENDTAB
  0
TABLE
  2
DIMSTYLE
  5
A
100
AcDbSymbolTable
 70
1
100
AcDbDimStyleTable
 71
0
  0
DIMSTYLE
105
214
100
AcDbSymbolTableRecord
100
AcDbDimStyleTableRecord
  2
STANDARD
 70
0
  3

  4

 40
1.0
 41
3.5
 42
0.0
 43
0.38
 44
1.5
 45
0.0
 46
0.0
 47
0.05
 48
0.05
140
3.5
141
0.09
142
0.0
143
25.4
144
1.0
145
0.0
146
1.0
147
0.625
 71
1.0
 72
0.0
 73
0
 74
0
 75
0
 76
0
 77
1
 78
8
 79
2
170
0
171
1
172
0
173
0
174
0
175
0
176
0
177
0
178
2
270
2
179
2
271
2
272
2
273
2
274
2
275
0
280
0
281
0
282
0
283
1
284
8
285
0
286
0
287
3
288
0
340
11
278
46
341
210
342
210
343
210
344
210
  0
DIMSTYLE
105
215
100
AcDbSymbolTableRecord
100
AcDbDimStyleTableRecord
  2
DIMSTYLE_1
 70
0
  3

  4

 40
1.0
 41
3.5
 42
0.0
 43
0.38
 44
1.5
 45
0.0
 46
0.0
 47
0.2
 48
0.2
140
3.5
141
0.09
142
0.0
143
25.4
144
1.0
145
0.0
146
1.0
147
0.875
 71
0.0
 72
0.0
 73
0
 74
0
 75
0
 76
0
 77
1
 78
8
 79
2
170
0
171
1
172
0
173
0
174
0
175
0
176
0
177
0
178
2
270
2
179
2
271
2
272
2
273
2
274
2
275
0
280
0
281
0
282
0
283
1
284
8
285
0
286
0
287
3
288
0
340
11
278
46
341
210
342
210
343
210
344
210
  0
DIMSTYLE
105
216
100
AcDbSymbolTableRecord
100
AcDbDimStyleTableRecord
  2
DIMSTYLE_2
 70
0
  3

  4

 40
1.0
 41
3.5
 42
0.0
 43
0.38
 44
1.5
 45
0.0
 46
0.0
 47
0.5
 48
0.5
140
3.5
141
0.09
142
0.0
143
25.4
144
1.0
145
0.0
146
1.0
147
0.875
 71
0.0
 72
0.0
 73
0
 74
0
 75
0
 76
0
 77
1
 78
8
 79
2
170
0
171
1
172
0
173
0
174
0
175
0
176
0
177
0
178
2
270
2
179
2
271
2
272
2
273
2
274
2
275
0
280
0
281
0
282
0
283
1
284
8
285
0
286
0
287
3
288
0
340
11
278
46
341
210
342
210
343
210
344
210
  0
ENDTAB
  0
ENDSEC
  0
SECTION
  2
BLOCKS
  0
BLOCK
  5
20
100
AcDbEntity
  8
0
100
AcDbBlockBegin
  2
*Model_Space
 70
0
 10
0.0
 20
0.0
 30
0.0
  3
*Model_Space
  1

  0
ENDBLK
  5
21
100
AcDbEntity
  8
0
100
AcDbBlockEnd
  0
BLOCK
  5
1C
100
AcDbEntity
  8
0
100
AcDbBlockBegin
  2
*Paper_Space
 70
0
 10
0.0
 20
0.0
 30
0.0
  3
*Paper_Space
  1

  0
ENDBLK
  5
1D
100
AcDbEntity
  8
0
100
AcDbBlockEnd
  0
BLOCK
  5
217
100
AcDbEntity
  8
0
100
AcDbBlockBegin
  2
_FILLED
 70
64
 10
0.0
 20
0.0
  3
_FILLED
  1

  0
SOLID
  5
218
100
AcDbEntity
  8
0
  6
BYBLOCK
 62
0
100
AcDbTrace
 10
0.0
 20
0.0
 11
-1.0
 21
0.125
 12
-1.0
 22
-0.125
 13
-1.0
 23
-0.125
  0
ENDBLK
  5
219
100
AcDbEntity
  8
0
  6
BYBLOCK
 62
0
100
AcDbBlockEnd
  0
BLOCK
  5
21A
100
AcDbEntity
  8
_03_2D_ZEICHNUNG_BEMASSUNGEN
100
AcDbBlockBegin
 62
7
  6
CONTINUOUS
  2
*D0
 70
65
 10
0.0
 20
0.0
  3
*D0
  1

  0
TEXT
  5
21B
100
AcDbEntity
  8
_03_2D_ZEICHNUNG_BEMASSUNGEN
100
AcDbText
 62
2
  6
CONTINUOUS
 10
-9.875
 20
7.25
  7
STANDARD
 40
3.5
  1
20
 50
90.0
 41
0.7857142857
 72
1
 11
-9.875
 21
10.0
100
AcDbText
  0
LINE
  5
21C
100
AcDbEntity
  8
_03_2D_ZEICHNUNG_BEMASSUNGEN
100
AcDbLine
 62
7
  6
CONTINUOUS
 10
0.0
 20
20.0
 11
-10.5
 21
20.0
  0
LINE
  5
21D
100
AcDbEntity
  8
_03_2D_ZEICHNUNG_BEMASSUNGEN
100
AcDbLine
 62
7
  6
CONTINUOUS
 10
-0.0
 20
-0.0
 11
-10.5
 21
0.0
  0
LINE
  5
21E
100
AcDbEntity
  8
_03_2D_ZEICHNUNG_BEMASSUNGEN
100
AcDbLine
 62
7
  6
CONTINUOUS
 10
-9.0
 20
20.0
 11
-9.0
 21
26.0
  0
LINE
  5
21F
100
AcDbEntity
  8
_03_2D_ZEICHNUNG_BEMASSUNGEN
100
AcDbLine
 62
7
  6
CONTINUOUS
 10
-9.0
 20
26.0
 11
-9.0
 21
10.0
  0
LINE
  5
220
100
AcDbEntity
  8
_03_2D_ZEICHNUNG_BEMASSUNGEN
100
AcDbLine
 62
7
  6
CONTINUOUS
 10
-9.0
 20
0.0
 11
-9.0
 21
-6.0
  0
LINE
  5
221
100
AcDbEntity
  8
_03_2D_ZEICHNUNG_BEMASSUNGEN
100
AcDbLine
 62
7
  6
CONTINUOUS
 10
-9.0
 20
-6.0
 11
-9.0
 21
10.0
  0
INSERT
  5
222
100
AcDbEntity
  8
_03_2D_ZEICHNUNG_BEMASSUNGEN
100
AcDbBlockReference
 62
7
  6
CONTINUOUS
  2
_FILLED
 10
-9.0
 20
20.0
 41
3.5
 42
3.5
 43
3.5
 50
270.0
  0
INSERT
  5
223
100
AcDbEntity
  8
_03_2D_ZEICHNUNG_BEMASSUNGEN
100
AcDbBlockReference
 62
7
  6
CONTINUOUS
  2
_FILLED
 10
-9.0
 20
0.0
 41
3.5
 42
3.5
 43
3.5
 50
90.0
  0
ENDBLK
  5
224
100
AcDbEntity
  8
0
  6
BYBLOCK
 62
0
100
AcDbBlockEnd
  0
BLOCK
  5
225
100
AcDbEntity
  8
_03_2D_ZEICHNUNG_BEMASSUNGEN
100
AcDbBlockBegin
 62
7
  6
CONTINUOUS
  2
*D1
 70
65
 10
0.0
 20
0.0
  3
*D1
  1

  0
TEXT
  5
226
100
AcDbEntity
  8
_03_2D_ZEICHNUNG_BEMASSUNGEN
100
AcDbText
 62
2
  6
CONTINUOUS
 10
58.875
 20
34.9429318437
  7
STANDARD
 40
3.5
  1
125
 41
0.6904761905
 72
1
 11
62.5
 21
34.9429318437
100
AcDbText
  0
LINE
  5
227
100
AcDbEntity
  8
_03_2D_ZEICHNUNG_BEMASSUNGEN
100
AcDbLine
 62
7
  6
CONTINUOUS
 10
125.0
 20
0.0
 11
125.0
 21
35.5679318437
  0
LINE
  5
228
100
AcDbEntity
  8
_03_2D_ZEICHNUNG_BEMASSUNGEN
100
AcDbLine
 62
7
  6
CONTINUOUS
 10
0.0
 20
0.0
 11
0.0
 21
35.5679318437
  0
LINE
  5
229
100
AcDbEntity
  8
_03_2D_ZEICHNUNG_BEMASSUNGEN
100
AcDbLine
 62
7
  6
CONTINUOUS
 10
125.0
 20
34.0679318437
 11
62.5
 21
34.0679318437
  0
LINE
  5
22A
100
AcDbEntity
  8
_03_2D_ZEICHNUNG_BEMASSUNGEN
100
AcDbLine
 62
7
  6
CONTINUOUS
 10
0.0
 20
34.0679318437
 11
62.5
 21
34.0679318437
  0
INSERT
  5
22B
100
AcDbEntity
  8
_03_2D_ZEICHNUNG_BEMASSUNGEN
100
AcDbBlockReference
 62
7
  6
CONTINUOUS
  2
_FILLED
 10
125.0
 20
34.0679318437
 41
3.5
 42
3.5
 43
3.5
  0
INSERT
  5
22C
100
AcDbEntity
  8
_03_2D_ZEICHNUNG_BEMASSUNGEN
100
AcDbBlockReference
 62
7
  6
CONTINUOUS
  2
_FILLED
 10
0.0
 20
34.0679318437
 41
3.5
 42
3.5
 43
3.5
 50
180.0
  0
ENDBLK
  5
22D
100
AcDbEntity
  8
0
  6
BYBLOCK
 62
0
100
AcDbBlockEnd
  0
BLOCK
  5
22E
100
AcDbEntity
  8
_03_2D_ZEICHNUNG_BEMASSUNGEN
100
AcDbBlockBegin
 62
7
  6
CONTINUOUS
  2
*D2
 70
65
 10
0.0
 20
0.0
  3
*D2
  1

  0
TEXT
  5
22F
100
AcDbEntity
  8
_03_2D_ZEICHNUNG_BEMASSUNGEN
100
AcDbText
 62
2
  6
CONTINUOUS
 10
133.8221757654
 20
9.875
  7
STANDARD
 40
3.5
  1
25
 50
90.0
 41
0.75
 72
1
 11
133.8221757654
 21
12.5
100
AcDbText
  0
LINE
  5
230
100
AcDbEntity
  8
_03_2D_ZEICHNUNG_BEMASSUNGEN
100
AcDbLine
 62
7
  6
CONTINUOUS
 10
125.0
 20
25.0
 11
136.1971757654
 21
25.0
  0
LINE
  5
231
100
AcDbEntity
  8
_03_2D_ZEICHNUNG_BEMASSUNGEN
100
AcDbLine
 62
7
  6
CONTINUOUS
 10
0.0
 20
0.0
 11
136.1971757654
 21
0.0
  0
LINE
  5
232
100
AcDbEntity
  8
_03_2D_ZEICHNUNG_BEMASSUNGEN
100
AcDbLine
 62
7
  6
CONTINUOUS
 10
134.6971757654
 20
25.0
 11
134.6971757654
 21
12.5
  0
LINE
  5
233
100
AcDbEntity
  8
_03_2D_ZEICHNUNG_BEMASSUNGEN
100
AcDbLine
 62
7
  6
CONTINUOUS
 10
134.6971757654
 20
0.0
 11
134.6971757654
 21
12.5
  0
INSERT
  5
234
100
AcDbEntity
  8
_03_2D_ZEICHNUNG_BEMASSUNGEN
100
AcDbBlockReference
 62
7
  6
CONTINUOUS
  2
_FILLED
 10
134.6971757654
 20
25.0
 41
3.5
 42
3.5
 43
3.5
 50
90.0
  0
INSERT
  5
235
100
AcDbEntity
  8
_03_2D_ZEICHNUNG_BEMASSUNGEN
100
AcDbBlockReference
 62
7
  6
CONTINUOUS
  2
_FILLED
 10
134.6971757654
 20
0.0
 41
3.5
 42
3.5
 43
3.5
 50
270.0
  0
ENDBLK
  5
236
100
AcDbEntity
  8
0
  6
BYBLOCK
 62
0
100
AcDbBlockEnd
  0
ENDSEC
  0
SECTION
  2
ENTITIES
  0
DIMENSION
  5
237
100
AcDbEntity
  8
_03_2D_ZEICHNUNG_BEMASSUNGEN
100
AcDbDimension
 62
7
  6
CONTINUOUS
  2
*D0
 10
-9.0
 20
0.0
 11
-9.0
 21
9.4999998474
 70
160
 71
2
 42
20.0
  3
DIMSTYLE_1
100
AcDbAlignedDimension
 13
0.0
 23
20.0
 14
-0.0
 24
-0.0
 50
270.0
100
AcDbRotatedDimension
  0
DIMENSION
  5
238
100
AcDbEntity
  8
_03_2D_ZEICHNUNG_BEMASSUNGEN
100
AcDbDimension
 62
7
  6
CONTINUOUS
  2
*D1
 10
0.0
 20
34.0679318437
 11
62.0000006104
 21
34.0679318437
 70
160
 71
2
 42
125.0
  3
DIMSTYLE_2
100
AcDbAlignedDimension
 13
125.0
 23
0.0
 14
0.0
 24
0.0
 50
180.0
100
AcDbRotatedDimension
  0
DIMENSION
  5
239
100
AcDbEntity
  8
_03_2D_ZEICHNUNG_BEMASSUNGEN
100
AcDbDimension
 62
7
  6
CONTINUOUS
  2
*D2
 10
134.6971757654
 20
0.0
 11
134.6971757654
 21
12.0000041052
 70
160
 71
2
 42
25.0
  3
DIMSTYLE_1
100
AcDbAlignedDimension
 13
125.0
 23
25.0
 14
0.0
 24
0.0
 50
270.0
100
AcDbRotatedDimension
  0
LINE
  5
23A
100
AcDbEntity
  8
_30_VOLUMEN
100
AcDbLine
 62
4
  6
CONTINUOUS
 10
-0.0
 20
0.5
 11
0.0
 21
19.5
  0
LINE
  5
23B
100
AcDbEntity
  8
_30_VOLUMEN
100
AcDbLine
 62
4
  6
CONTINUOUS
 10
0.5
 20
-0.0
 11
0.5
 21
20.0
  0
LINE
  5
23C
100
AcDbEntity
  8
_30_VOLUMEN
100
AcDbLine
 62
4
  6
CONTINUOUS
 10
0.5
 20
-0.0
 11
-0.0
 21
0.5
  0
LINE
  5
23D
100
AcDbEntity
  8
_30_VOLUMEN
100
AcDbLine
 62
4
  6
CONTINUOUS
 10
0.5
 20
20.0
 11
0.0
 21
19.5
  0
LINE
  5
23E
100
AcDbEntity
  8
_30_VOLUMEN
100
AcDbLine
 62
4
  6
CONTINUOUS
 10
0.5
 20
-0.0
 11
85.0
 21
0.0
  0
LINE
  5
23F
100
AcDbEntity
  8
0
100
AcDbLine
 62
4
  6
CONTINUOUS
 10
85.0
 20
0.0
 11
102.6192274113
 21
0.0
  0
LINE
  5
240
100
AcDbEntity
  8
_30_VOLUMEN
100
AcDbLine
 62
4
  6
CONTINUOUS
 10
114.9189036306
 20
16.8101226695
 11
108.4814260333
 21
15.2303172851
  0
LINE
  5
241
100
AcDbEntity
  8
_30_VOLUMEN
100
AcDbLine
 62
4
  6
CONTINUOUS
 10
101.5684890341
 20
9.5769957031
 11
93.2911333472
 21
7.7699533081
  0
LINE
  5
242
100
AcDbEntity
  8
_30_VOLUMEN
100
AcDbLine
 62
4
  6
CONTINUOUS
 10
101.6438758908
 20
11.9241471776
 11
95.5579118539
 21
10.5955109024
  0
LINE
  5
243
100
AcDbEntity
  8
_21_KURVEN
100
AcDbLine
 62
7
  6
CONTINUOUS
 10
117.1088870862
 20
12.0122343087
 11
105.5453312834
 21
11.4999237537
  0
LINE
  5
244
100
AcDbEntity
  8
_30_VOLUMEN
100
AcDbLine
 62
4
  6
CONTINUOUS
 10
117.2971660492
 20
12.0205758
 11
105.5453312834
 21
11.4999237537
  0
LINE
  5
245
100
AcDbEntity
  8
_30_VOLUMEN
100
AcDbLine
 62
4
  6
CONTINUOUS
 10
87.808655639
 20
22.808655639
 11
88.8325535987
 21
22.9478681654
  0
LINE
  5
246
100
AcDbEntity
  8
_26_BEZUGSACHSEN
100
AcDbLine
 62
4
  6
CONTINUOUS
 10
110.0895280381
 20
24.06189899
 11
88.8325535987
 21
22.9478681654
  0
LINE
  5
247
100
AcDbEntity
  8
_30_VOLUMEN
100
AcDbLine
 62
4
  6
CONTINUOUS
 10
94.0022019503
 20
21.6966770337
 11
100.2317229431
 21
22.0009259134
  0
LINE
  5
248
100
AcDbEntity
  8
_30_VOLUMEN
100
AcDbLine
 62
4
  6
CONTINUOUS
 10
91.1711006722
 20
22.8979889884
 11
99.6437043063
 21
23.311789691
  0
LINE
  5
249
100
AcDbEntity
  8
_30_VOLUMEN
100
AcDbLine
 62
4
  6
CONTINUOUS
 10
0.5
 20
20.0
 11
85.0
 21
20.0
  0
LINE
  5
24A
100
AcDbEntity
  8
_30_VOLUMEN
100
AcDbLine
 62
4
  6
CONTINUOUS
 10
85.0
 20
20.0
 11
87.808655639
 21
22.808655639
  0
LINE
  5
24B
100
AcDbEntity
  8
_30_VOLUMEN
100
AcDbLine
 62
4
  6
CONTINUOUS
 10
110.7061828227
 20
24.4037724757
 11
124.1702083228
 21
25.0002812394
  0
LINE
  5
24C
100
AcDbEntity
  8
_21_KURVEN
100
AcDbLine
 62
7
  6
CONTINUOUS
 10
110.7061828227
 20
24.4037724757
 11
124.1702083228
 21
25.0002812394
  0
LINE
  5
24D
100
AcDbEntity
  8
_30_VOLUMEN
100
AcDbLine
 62
4
  6
CONTINUOUS
 10
114.4534386231
 20
20.1315673453
 11
107.7295591861
 21
20.5954555805
  0
LINE
  5
24E
100
AcDbEntity
  8
_30_VOLUMEN
100
AcDbLine
 62
4
  6
CONTINUOUS
 10
108.4814260333
 20
15.2303172851
 11
101.6438758908
 21
11.9241471776
  0
LINE
  5
24F
100
AcDbEntity
  8
_30_VOLUMEN
100
AcDbLine
 62
4
  6
CONTINUOUS
 10
100.2317229431
 20
22.0009259134
 11
107.7295591861
 21
20.5954555805
  0
LINE
  5
250
100
AcDbEntity
  8
_30_VOLUMEN
100
AcDbLine
 62
4
  6
CONTINUOUS
 10
99.6437043063
 20
23.311789691
 11
114.3281742283
 21
20.5591839843
  0
LINE
  5
251
100
AcDbEntity
  8
_30_VOLUMEN
100
AcDbLine
 62
4
  6
CONTINUOUS
 10
110.2446374273
 20
24.2291013234
 11
110.0344186398
 21
24.0590108288
  0
LINE
  5
252
100
AcDbEntity
  8
_30_VOLUMEN
100
AcDbLine
 62
4
  6
CONTINUOUS
 10
114.9597923587
 20
16.0521111801
 11
101.5684890341
 21
9.5769957031
  0
LINE
  5
253
100
AcDbEntity
  8
_30_VOLUMEN
100
AcDbLine
 62
4
  6
CONTINUOUS
 10
91.1711006722
 20
22.8979889884
 11
94.0022019503
 21
21.6966770337
  0
LINE
  5
254
100
AcDbEntity
  8
0
100
AcDbLine
 62
4
  6
CONTINUOUS
 10
85.0
 20
20.0
 11
85.0
 21
0.0
  0
LINE
  5
255
100
AcDbEntity
  8
_30_VOLUMEN
100
AcDbLine
 62
4
  6
CONTINUOUS
 10
88.8325535987
 20
22.9478681654
 11
90.5353250905
 21
0.0
  0
LINE
  5
256
100
AcDbEntity
  8
_30_VOLUMEN
100
AcDbLine
 62
4
  6
CONTINUOUS
 10
93.2911333472
 20
7.7699533081
 11
95.5579118539
 21
10.5955109024
  0
LINE
  5
257
100
AcDbEntity
  8
_30_VOLUMEN
100
AcDbLine
 62
4
  6
CONTINUOUS
 10
93.2911333472
 20
7.7699533081
 11
91.1711006722
 21
22.8979889884
  0
LINE
  5
258
100
AcDbEntity
  8
_21_KURVEN
100
AcDbLine
 62
7
  6
CONTINUOUS
 10
108.5700701499
 20
21.6385413074
 11
110.0728120323
 21
24.0352389151
  0
LINE
  5
259
100
AcDbEntity
  8
_30_VOLUMEN
100
AcDbLine
 62
4
  6
CONTINUOUS
 10
108.5700701499
 20
21.6385413074
 11
110.0895280381
 21
24.06189899
  0
LINE
  5
25A
100
AcDbEntity
  8
_30_VOLUMEN
100
AcDbLine
 62
4
  6
CONTINUOUS
 10
117.5704324816
 20
12.1869054609
 11
117.2279397482
 21
11.9097905603
  0
LINE
  5
25B
100
AcDbEntity
  8
_30_VOLUMEN
100
AcDbLine
 62
4
  6
CONTINUOUS
 10
113.9602292453
 20
6.6803606115
 11
102.6192274113
 21
0.0
  0
LINE
  5
25C
100
AcDbEntity
  8
_30_VOLUMEN
100
AcDbLine
 62
4
  6
CONTINUOUS
 10
95.5579118539
 20
10.5955109024
 11
94.0022019503
 21
21.6966770337
  0
LINE
  5
25D
100
AcDbEntity
  8
_30_VOLUMEN
100
AcDbLine
 62
4
  6
CONTINUOUS
 10
101.5684890341
 20
9.5769957031
 11
101.6438758908
 21
11.9241471776
  0
LINE
  5
25E
100
AcDbEntity
  8
_28_BEZUGSPUNKTE
100
AcDbLine
 62
1
  6
CONTINUOUS
 10
125.15625
 20
25.15625
 11
124.84375
 21
24.84375
  0
LINE
  5
25F
100
AcDbEntity
  8
_30_VOLUMEN
100
AcDbLine
 62
4
  6
CONTINUOUS
 10
99.6437043063
 20
23.311789691
 11
100.2317229431
 21
22.0009259134
  0
LINE
  5
260
100
AcDbEntity
  8
_26_BEZUGSACHSEN
100
AcDbLine
 62
4
  6
CONTINUOUS
 10
117.2971660492
 20
12.0205758
 11
113.9602292453
 21
6.6803606115
  0
LINE
  5
261
100
AcDbEntity
  8
_30_VOLUMEN
100
AcDbLine
 62
4
  6
CONTINUOUS
 10
124.8868958413
 20
23.7756300995
 11
117.7422578766
 21
12.3807678692
  0
LINE
  5
262
100
AcDbEntity
  8
_21_KURVEN
100
AcDbLine
 62
7
  6
CONTINUOUS
 10
124.8868958413
 20
23.7756300995
 11
117.7422578766
 21
12.3807678692
  0
LINE
  5
263
100
AcDbEntity
  8
_30_VOLUMEN
100
AcDbLine
 62
4
  6
CONTINUOUS
 10
107.7295591861
 20
20.5954555805
 11
108.4814260333
 21
15.2303172851
  0
LINE
  5
264
100
AcDbEntity
  8
_30_VOLUMEN
100
AcDbLine
 62
7
  6
CONTINUOUS
 10
114.3281742283
 20
20.5591839843
 11
114.4534386231
 21
20.1315673453
  0
LINE
  5
265
100
AcDbEntity
  8
_30_VOLUMEN
100
AcDbLine
 62
7
  6
CONTINUOUS
 10
114.9597923587
 20
16.0521111801
 11
114.9189036306
 21
16.8101226695
  0
LINE
  5
266
100
AcDbEntity
  8
_28_BEZUGSPUNKTE
100
AcDbLine
 62
1
  6
CONTINUOUS
 10
125.15625
 20
24.84375
 11
124.84375
 21
25.15625
  0
ARC
  5
267
100
AcDbEntity
  8
_30_VOLUMEN
100
AcDbCircle
 62
7
  6
CONTINUOUS
 10
113.7065713128
 20
18.0490866414
 40
2.5872346428
100
AcDbArc
 50
76.0950448207
 51
82.0064464631
  0
ARC
  5
268
100
AcDbEntity
  8
_30_VOLUMEN
100
AcDbCircle
 62
4
  6
CONTINUOUS
 10
113.2888696204
 20
17.6708591584
 40
2.5514551726
100
AcDbArc
 50
315.4806344456
 51
316.0624801059
  0
ARC
  5
269
100
AcDbEntity
  8
_30_VOLUMEN
100
AcDbCircle
 62
4
  6
CONTINUOUS
 10
113.2962092159
 20
17.6639870605
 40
2.5414015901
100
AcDbArc
 50
316.0592296942
 51
322.1588510803
  0
ARC
  5
26A
100
AcDbEntity
  8
_30_VOLUMEN
100
AcDbCircle
 62
4
  6
CONTINUOUS
 10
113.2958786086
 20
17.6628099679
 40
2.5409490424
100
AcDbArc
 50
322.8760963137
 51
330.5988795399
  0
ARC
  5
26B
100
AcDbEntity
  8
_30_VOLUMEN
100
AcDbCircle
 62
4
  6
CONTINUOUS
 10
113.3117224714
 20
17.651518253
 40
2.521501273
100
AcDbArc
 50
322.1663454294
 51
322.863390407
  0
ARC
  5
26C
100
AcDbEntity
  8
_30_VOLUMEN
100
AcDbCircle
 62
4
  6
CONTINUOUS
 10
113.7779915018
 20
18.0107652545
 40
2.508241353
100
AcDbArc
 50
271.1732921656
 51
301.3841849752
  0
ARC
  5
26D
100
AcDbEntity
  8
_30_VOLUMEN
100
AcDbCircle
 62
4
  6
CONTINUOUS
 10
113.7893735731
 20
17.9934247955
 40
2.487510505
100
AcDbArc
 50
301.3683759639
 51
308.9559712224
  0
ARC
  5
26E
100
AcDbEntity
  8
_30_VOLUMEN
100
AcDbCircle
 62
4
  6
CONTINUOUS
 10
117.0727111122
 20
12.8086941952
 40
0.797281037
100
AcDbArc
 50
272.6006419596
 51
290.8745560849
  0
ARC
  5
26F
100
AcDbEntity
  8
_30_VOLUMEN
100
AcDbCircle
 62
4
  6
CONTINUOUS
 10
110.7448886864
 20
23.6125239852
 40
0.7939923423
100
AcDbArc
 50
129.0536562277
 51
145.5692929344
  0
ARC
  5
270
100
AcDbEntity
  8
_30_VOLUMEN
100
AcDbCircle
 62
4
  6
CONTINUOUS
 10
117.0702320721
 20
12.8033116157
 40
0.7938273739
100
AcDbArc
 50
309.0585906678
 51
327.8399120472
  0
ARC
  5
271
100
AcDbEntity
  8
_30_VOLUMEN
100
AcDbCircle
 62
4
  6
CONTINUOUS
 10
117.0740028028
 20
12.8011582259
 40
0.789780832
100
AcDbArc
 50
290.9818038768
 51
308.9446130962
  0
ARC
  5
272
100
AcDbEntity
  8
_30_VOLUMEN
100
AcDbCircle
 62
4
  6
CONTINUOUS
 10
110.7406559417
 20
23.6155459973
 40
0.7889799599
100
AcDbArc
 50
92.5042375327
 51
128.9532260947
  0
ARC
  5
273
100
AcDbEntity
  8
_30_VOLUMEN
100
AcDbCircle
 62
4
  6
CONTINUOUS
 10
110.7324994919
 20
23.6215772725
 40
0.7786549293
100
AcDbArc
 50
145.6033091545
 51
147.9099435254
  0
SPLINE
  5
274
100
AcDbEntity
  8
_30_VOLUMEN
100
AcDbSpline
 62
4
  6
CONTINUOUS
 70
0
 71
3
 72
11
 73
7
 74
0
 42
0.0000001
 43
0.0000001
 44
0.0000000001
 40
0.0
 40
0.0
 40
0.0
 40
0.0
 40
0.2492875866
 40
0.4995266455
 40
0.7500883808
 40
1.0
 40
1.0
 40
1.0
 40
1.0
 10
124.8868958413
 20
23.7756300995
 30
0.0
 10
124.9627876628
 20
23.8966686818
 30
0.0
 10
125.0487964569
 20
24.1876424052
 30
0.0
 10
124.9317318675
 20
24.6229150258
 30
0.0
 10
124.6092959189
 20
24.9382183015
 30
0.0
 10
124.3132888401
 20
25.0066202635
 30
0.0
 10
124.1702083228
 20
25.0002812394
 30
0.0
  0
SPLINE
  5
275
100
AcDbEntity
  8
_30_VOLUMEN
100
AcDbSpline
 62
4
  6
CONTINUOUS
 70
0
 71
3
 72
15
 73
11
 74
0
 42
0.0000001
 43
0.0000001
 44
0.0000000001
 40
0.0
 40
0.0
 40
0.0
 40
0.0
 40
0.1252122387
 40
0.2504427817
 40
0.3753069265
 40
0.5000769315
 40
0.6248427084
 40
0.7497034404
 40
0.8747394171
 40
1.0
 40
1.0
 40
1.0
 40
1.0
 10
116.9281129183
 20
18.3418267593
 30
0.0
 10
116.9400867469
 20
18.1128628893
 30
0.0
 10
116.9114106352
 20
17.6505014466
 30
0.0
 10
116.7141766352
 20
16.9862234327
 30
0.0
 10
116.3709947577
 20
16.3846480292
 30
0.0
 10
115.9004448737
 20
15.8778198733
 30
0.0
 10
115.3270802884
 20
15.4911150153
 30
0.0
 10
114.680113502
 20
15.2450075444
 30
0.0
 10
113.9936520489
 20
15.1524699163
 30
0.0
 10
113.5326611669
 20
15.1957687368
 30
0.0
 10
113.3082378616
 20
15.2431249071
 30
0.0
  0
SPLINE
  5
276
100
AcDbEntity
  8
_30_VOLUMEN
100
AcDbSpline
 62
7
  6
CONTINUOUS
 70
0
 71
3
 72
11
 73
7
 74
0
 42
0.0000001
 43
0.0000001
 44
0.0000000001
 40
0.0
 40
0.0
 40
0.0
 40
0.0
 40
0.25027109
 40
0.5008212162
 40
0.7505456431
 40
1.0
 40
1.0
 40
1.0
 40
1.0
 10
116.294013365
 20
18.1783333068
 30
0.0
 10
116.3044748728
 20
17.9782880749
 30
0.0
 10
116.2777841121
 20
17.5740127288
 30
0.0
 10
116.0996231914
 20
16.9946898363
 30
0.0
 10
115.7904616112
 20
16.4739671188
 30
0.0
 10
115.5084509121
 20
16.1847744211
 30
0.0
 10
115.3531952775
 20
16.0592286154
 30
0.0
  0
SPLINE
  5
277
100
AcDbEntity
  8
_30_VOLUMEN
100
AcDbSpline
 62
4
  6
CONTINUOUS
 70
0
 71
3
 72
15
 73
11
 74
0
 42
0.0000001
 43
0.0000001
 44
0.0000000001
 40
0.0
 40
0.0
 40
0.0
 40
0.0
 40
0.1251358221
 40
0.2504481527
 40
0.3753515388
 40
0.5000898224
 40
0.6248699367
 40
0.7497199067
 40
0.8747462338
 40
1.0
 40
1.0
 40
1.0
 40
1.0
 10
116.8400084043
 20
18.3134186609
 30
0.0
 10
116.8516345138
 20
18.091103883
 30
0.0
 10
116.8239748034
 20
17.6419906004
 30
0.0
 10
116.6351167356
 20
16.9958452296
 30
0.0
 10
116.304866524
 20
16.4094815402
 30
0.0
 10
115.8517328546
 20
15.9135342587
 30
0.0
 10
115.2988491403
 20
15.5319306094
 30
0.0
 10
114.6733705722
 20
15.285362121
 30
0.0
 10
114.0080974667
 20
15.1847210405
 30
0.0
 10
113.5597170378
 20
15.2196985522
 30
0.0
 10
113.3408592447
 20
15.2615764575
 30
0.0
  0
SPLINE
  5
278
100
AcDbEntity
  8
_30_VOLUMEN
100
AcDbSpline
 62
4
  6
CONTINUOUS
 70
0
 71
3
 72
15
 73
11
 74
0
 42
0.0000001
 43
0.0000001
 44
0.0000000001
 40
0.0
 40
0.0
 40
0.0
 40
0.0
 40
0.124926561
 40
0.2503759709
 40
0.3756831412
 40
0.5009394937
 40
0.6260610921
 40
0.7509516989
 40
0.8755745351
 40
1.0
 40
1.0
 40
1.0
 40
1.0
 10
116.8400084043
 20
18.3134186609
 30
0.0
 10
116.8273640424
 20
18.5552044869
 30
0.0
 10
116.7416164491
 20
19.0385506458
 30
0.0
 10
116.4442526934
 20
19.7106294861
 30
0.0
 10
115.9924916135
 20
20.2918259936
 30
0.0
 10
115.4147181806
 20
20.7464942515
 30
0.0
 10
114.7455732892
 20
21.0493667908
 30
0.0
 10
114.0239243574
 20
21.1805495117
 30
0.0
 10
113.2938074627
 20
21.1331585773
 30
0.0
 10
112.8287127751
 20
20.9838517869
 30
0.0
 10
112.609963266
 20
20.8823648696
 30
0.0
  0
SPLINE
  5
279
100
AcDbEntity
  8
_30_VOLUMEN
100
AcDbSpline
 62
4
  6
CONTINUOUS
 70
0
 71
3
 72
15
 73
11
 74
0
 42
0.0000001
 43
0.0000001
 44
0.0000000001
 40
0.0
 40
0.0
 40
0.0
 40
0.0
 40
0.1244114092
 40
0.2490276832
 40
0.3738906536
 40
0.4990028761
 40
0.6242936176
 40
0.7495972974
 40
0.8749838105
 40
1.0
 40
1.0
 40
1.0
 40
1.0
 10
112.5144176884
 20
20.9087526954
 30
0.0
 10
112.7373986904
 20
21.0227435342
 30
0.0
 10
113.2145482811
 20
21.1956742513
 30
0.0
 10
113.971274352
 20
21.2681898536
 30
0.0
 10
114.7241995848
 20
21.1514175505
 30
0.0
 10
115.4263248387
 20
20.8522869488
 30
0.0
 10
116.034085074
 20
20.3893314653
 30
0.0
 10
116.5105472607
 20
19.7912257503
 30
0.0
 10
116.8250008568
 20
19.0952906608
 30
0.0
 10
116.9149708765
 20
18.5931292339
 30
0.0
 10
116.9281129183
 20
18.3418267593
 30
0.0
  0
SPLINE
  5
27A
100
AcDbEntity
  8
_21_KURVEN
100
AcDbSpline
 62
7
  6
CONTINUOUS
 70
0
 71
3
 72
9
 73
5
 74
0
 42
0.0000001
 43
0.0000001
 44
0.0000000001
 40
0.0
 40
0.0
 40
0.0
 40
0.0
 40
0.5
 40
1.0
 40
1.0
 40
1.0
 40
1.0
 10
110.7061828227
 20
24.4037724757
 30
0.0
 10
110.6618758811
 20
24.4005645525
 30
0.0
 10
110.5703243574
 20
24.391316751
 30
0.0
 10
110.4834476352
 20
24.3614191715
 30
0.0
 10
110.4386041381
 20
24.3444257609
 30
0.0
  0
SPLINE
  5
27B
100
AcDbEntity
  8
_21_KURVEN
100
AcDbSpline
 62
7
  6
CONTINUOUS
 70
0
 71
3
 72
9
 73
5
 74
0
 42
0.0000001
 43
0.0000001
 44
0.0000000001
 40
0.0
 40
0.0
 40
0.0
 40
0.0
 40
0.5
 40
1.0
 40
1.0
 40
1.0
 40
1.0
 10
110.4386041359
 20
24.34442576
 30
0.0
 10
110.4056507618
 20
24.329887481
 30
0.0
 10
110.3377243268
 20
24.2980285619
 30
0.0
 10
110.2770461762
 20
24.2539597914
 30
0.0
 10
110.2452517617
 20
24.2295978785
 30
0.0
  0
SPLINE
  5
27C
100
AcDbEntity
  8
_21_KURVEN
100
AcDbSpline
 62
7
  6
CONTINUOUS
 70
0
 71
3
 72
9
 73
5
 74
0
 42
0.0000001
 43
0.0000001
 44
0.0000000001
 40
0.0
 40
0.0
 40
0.0
 40
0.0
 40
0.5
 40
1.0
 40
1.0
 40
1.0
 40
1.0
 10
110.2452517569
 20
24.2295978746
 30
0.0
 10
110.2156996492
 20
24.2045084026
 30
0.0
 10
110.155586703
 20
24.15084124
 30
0.0
 10
110.1075396804
 20
24.0860981402
 30
0.0
 10
110.0842979938
 20
24.0530228017
 30
0.0
  0
LINE
  5
27D
100
AcDbEntity
  8
_21_KURVEN
100
AcDbLine
 62
7
  6
CONTINUOUS
 10
110.084297988
 20
24.0530227928
 11
110.0728120323
 21
24.0352389151
  0
SPLINE
  5
27E
100
AcDbEntity
  8
_21_KURVEN
100
AcDbSpline
 62
7
  6
CONTINUOUS
 70
0
 71
3
 72
9
 73
5
 74
0
 42
0.0000001
 43
0.0000001
 44
0.0000000001
 40
0.0
 40
0.0
 40
0.0
 40
0.0
 40
0.5
 40
1.0
 40
1.0
 40
1.0
 40
1.0
 10
124.8868958413
 20
23.7756300995
 30
0.0
 10
124.9146751357
 20
23.8236000813
 30
0.0
 10
124.9700418421
 20
23.9285017453
 30
0.0
 10
124.9921427409
 20
24.0396947064
 30
0.0
 10
125.001763775
 20
24.0988321648
 30
0.0
  0
SPLINE
  5
27F
100
AcDbEntity
  8
_21_KURVEN
100
AcDbSpline
 62
7
  6
CONTINUOUS
 70
0
 71
3
 72
9
 73
5
 74
0
 42
0.0000001
 43
0.0000001
 44
0.0000000001
 40
0.0
 40
0.0
 40
0.0
 40
0.0
 40
0.5
 40
1.0
 40
1.0
 40
1.0
 40
1.0
 10
125.0017637757
 20
24.0988321705
 30
0.0
 10
125.0066908454
 20
24.154226312
 30
0.0
 10
125.0129301064
 20
24.2717371398
 30
0.0
 10
124.9851600416
 20
24.386358964
 30
0.0
 10
124.9691711143
 20
24.4430034295
 30
0.0
  0
SPLINE
  5
280
100
AcDbEntity
  8
_21_KURVEN
100
AcDbSpline
 62
7
  6
CONTINUOUS
 70
0
 71
3
 72
9
 73
5
 74
0
 42
0.0000001
 43
0.0000001
 44
0.0000000001
 40
0.0
 40
0.0
 40
0.0
 40
0.0
 40
0.5
 40
1.0
 40
1.0
 40
1.0
 40
1.0
 10
124.9691711161
 20
24.443003424
 30
0.0
 10
124.9502290724
 20
24.4954779634
 30
0.0
 10
124.906243352
 20
24.6050102252
 30
0.0
 10
124.8327777156
 20
24.6975043003
 30
0.0
 10
124.7945183025
 20
24.7421548356
 30
0.0
  0
SPLINE
  5
281
100
AcDbEntity
  8
_21_KURVEN
100
AcDbSpline
 62
7
  6
CONTINUOUS
 70
0
 71
3
 72
9
 73
5
 74
0
 42
0.0000001
 43
0.0000001
 44
0.0000000001
 40
0.0
 40
0.0
 40
0.0
 40
0.0
 40
0.5
 40
1.0
 40
1.0
 40
1.0
 40
1.0
 10
124.7945183035
 20
24.7421548346
 30
0.0
 10
124.7552693087
 20
24.7818664902
 30
0.0
 10
124.6693285059
 20
24.8628745785
 30
0.0
 10
124.5639660597
 20
24.9158967916
 30
0.0
 10
124.511230191
 20
24.9400398616
 30
0.0
  0
SPLINE
  5
282
100
AcDbEntity
  8
_21_KURVEN
100
AcDbSpline
 62
7
  6
CONTINUOUS
 70
0
 71
3
 72
9
 73
5
 74
0
 42
0.0000001
 43
0.0000001
 44
0.0000000001
 40
0.0
 40
0.0
 40
0.0
 40
0.0
 40
0.5
 40
1.0
 40
1.0
 40
1.0
 40
1.0
 10
124.5112301936
 20
24.9400398606
 30
0.0
 10
124.4590527656
 20
24.9595860228
 30
0.0
 10
124.3473083716
 20
24.9969740007
 30
0.0
 10
124.2298137708
 20
25.0006828825
 30
0.0
 10
124.1702083183
 20
25.0002812392
 30
0.0
  0
SPLINE
  5
283
100
AcDbEntity
  8
_21_KURVEN
100
AcDbSpline
 62
1
  6
CENTER
 70
0
 71
3
 72
133
 73
129
 74
0
 42
0.0000001
 43
0.0000001
 44
0.0000000001
 40
0.0
 40
0.0
 40
0.0
 40
0.0
 40
0.03125
 40
0.046875
 40
0.0625
 40
0.0703125
 40
0.078125
 40
0.08203125
 40
0.083984375
 40
0.0859375
 40
0.08984375
 40
0.09375
 40
0.109375
 40
0.125
 40
0.140625
 40
0.15625
 40
0.16015625
 40
0.1640625
 40
0.166015625
 40
0.16796875
 40
0.171875
 40
0.1796875
 40
0.1875
 40
0.203125
 40
0.21875
 40
0.2265625
 40
0.234375
 40
0.2421875
 40
0.24609375
 40
0.248046875
 40
0.25
 40
0.251953125
 40
0.25390625
 40
0.2578125
 40
0.265625
 40
0.2734375
 40
0.28125
 40
0.296875
 40
0.3125
 40
0.3203125
 40
0.328125
 40
0.33203125
 40
0.333984375
 40
0.3359375
 40
0.33984375
 40
0.34375
 40
0.359375
 40
0.375
 40
0.390625
 40
0.40625
 40
0.41015625
 40
0.4140625
 40
0.416015625
 40
0.41796875
 40
0.421875
 40
0.4296875
 40
0.4375
 40
0.453125
 40
0.46875
 40
0.4765625
 40
0.484375
 40
0.4921875
 40
0.49609375
 40
0.498046875
 40
0.5
 40
0.501953125
 40
0.50390625
 40
0.5078125
 40
0.515625
 40
0.5234375
 40
0.53125
 40
0.546875
 40
0.5625
 40
0.5703125
 40
0.578125
 40
0.58203125
 40
0.583984375
 40
0.5859375
 40
0.58984375
 40
0.59375
 40
0.609375
 40
0.625
 40
0.640625
 40
0.65625
 40
0.66015625
 40
0.6640625
 40
0.666015625
 40
0.66796875
 40
0.671875
 40
0.6796875
 40
0.6875
 40
0.703125
 40
0.71875
 40
0.7265625
 40
0.734375
 40
0.7421875
 40
0.74609375
 40
0.748046875
 40
0.75
 40
0.751953125
 40
0.75390625
 40
0.7578125
 40
0.765625
 40
0.7734375
 40
0.78125
 40
0.796875
 40
0.8125
 40
0.8203125
 40
0.828125
 40
0.83203125
 40
0.833984375
 40
0.8359375
 40
0.83984375
 40
0.84375
 40
0.859375
 40
0.875
 40
0.890625
 40
0.90625
 40
0.91015625
 40
0.9140625
 40
0.916015625
 40
0.91796875
 40
0.921875
 40
0.9296875
 40
0.9375
 40
0.953125
 40
0.96875
 40
1.0
 40
1.0
 40
1.0
 40
1.0
 10
120.2169658987
 20
18.4875357544
 30
0.0
 10
120.1911377784
 20
18.6510991472
 30
0.0
 10
120.1523792897
 20
18.8964399928
 30
0.0
 10
120.1007665377
 20
19.2235780949
 30
0.0
 10
120.0683726657
 20
19.428004045
 30
0.0
 10
120.0427674247
 20
19.5916254343
 30
0.0
 10
120.0260574585
 20
19.6937049114
 30
0.0
 10
120.0157767513
 20
19.7655290791
 30
0.0
 10
120.0076861786
 20
19.805994856
 30
0.0
 10
119.9912494874
 20
19.8442888486
 30
0.0
 10
119.9735564191
 20
19.892898693
 30
0.0
 10
119.9287445715
 20
20.0089510771
 30
0.0
 10
119.8625205061
 20
20.1832900469
 30
0.0
 10
119.7736189546
 20
20.4155757254
 30
0.0
 10
119.6850086873
 20
20.6479710223
 30
0.0
 10
119.6181292327
 20
20.8220633507
 30
0.0
 10
119.5741548268
 20
20.9384308876
 30
0.0
 10
119.5549294831
 20
20.9864640937
 30
0.0
 10
119.5416544374
 20
21.0259479025
 30
0.0
 10
119.5206806142
 20
21.0615653497
 30
0.0
 10
119.4803994058
 20
21.1220994888
 30
0.0
 10
119.4247210846
 20
21.2095140503
 30
0.0
 10
119.3345930799
 20
21.3488538638
 30
0.0
 10
119.2222882062
 20
21.5232058884
 30
0.0
 10
119.1098661674
 20
21.6975032382
 30
0.0
 10
119.0199256267
 20
21.8369305312
 30
0.0
 10
118.9525492494
 20
21.9415655663
 30
0.0
 10
118.896140053
 20
22.0285506225
 30
0.0
 10
118.857169693
 20
22.0898546078
 30
0.0
 10
118.8340948762
 20
22.1242382197
 30
0.0
 10
118.8190594318
 20
22.1518492259
 30
0.0
 10
118.7953443342
 20
22.1724906618
 30
0.0
 10
118.7667517625
 20
22.2024436382
 30
0.0
 10
118.7153041845
 20
22.2537286927
 30
0.0
 10
118.6425449638
 20
22.32758504
 30
0.0
 10
118.5549189439
 20
22.4159600586
 30
0.0
 10
118.4381910633
 20
22.5338777086
 30
0.0
 10
118.2922675052
 20
22.6812740771
 30
0.0
 10
118.1462652611
 20
22.8285678565
 30
0.0
 10
118.029663278
 20
22.9466496492
 30
0.0
 10
117.9563268511
 20
23.0198851413
 30
0.0
 10
117.905914037
 20
23.0722838245
 30
0.0
 10
117.8756630257
 20
23.1004518942
 30
0.0
 10
117.8399743483
 20
23.1219380511
 30
0.0
 10
117.797222148
 20
23.1510797101
 30
0.0
 10
117.6930868598
 20
23.2191393855
 30
0.0
 10
117.5375302812
 20
23.322025939
 30
0.0
 10
117.3297343049
 20
23.4587177403
 30
0.0
 10
117.1221082601
 20
23.595670269
 30
0.0
 10
116.9661693358
 20
23.6979701857
 30
0.0
 10
116.8625226005
 20
23.7667794525
 30
0.0
 10
116.81887649
 20
23.7945495764
 30
0.0
 10
116.7850322768
 20
23.8188657129
 30
0.0
 10
116.7472653394
 20
23.8355020228
 30
0.0
 10
116.6793506161
 20
23.8610473534
 30
0.0
 10
116.5832805062
 20
23.8994023305
 30
0.0
 10
116.4290369592
 20
23.9597302991
 30
0.0
 10
116.2364141147
 20
24.0354936297
 30
0.0
 10
116.0437291272
 20
24.1111434741
 30
0.0
 10
115.8895850092
 20
24.1716530205
 30
0.0
 10
115.7740025904
 20
24.2171342595
 30
0.0
 10
115.677596729
 20
24.2547093319
 30
0.0
 10
115.6102844717
 20
24.2816530517
 30
0.0
 10
115.5715518857
 20
24.2960481039
 30
0.0
 10
115.5432586644
 20
24.3096652794
 30
0.0
 10
115.5120747897
 20
24.3124995889
 30
0.0
 10
115.4715045823
 20
24.3200398499
 30
0.0
 10
115.4000369388
 20
24.3314829313
 30
0.0
 10
115.2981858999
 20
24.3487461187
 30
0.0
 10
115.175859583
 20
24.3690709172
 30
0.0
 10
115.0127942661
 20
24.3963021422
 30
0.0
 10
114.8089520035
 20
24.4303325373
 30
0.0
 10
114.6051066582
 20
24.46423311
 30
0.0
 10
114.4420462735
 20
24.4916720508
 30
0.0
 10
114.3400953454
 20
24.5080900934
 30
0.0
 10
114.2688064136
 20
24.5210487754
 30
0.0
 10
114.2279498212
 20
24.5261598929
 30
0.0
 10
114.1866410195
 20
24.5226312323
 30
0.0
 10
114.1351595745
 20
24.5211735828
 30
0.0
 10
114.0114769864
 20
24.5152440666
 30
0.0
 10
113.8260052205
 20
24.5073790375
 30
0.0
 10
113.5786858196
 20
24.4962653394
 30
0.0
 10
113.3313500895
 20
24.4854638888
 30
0.0
 10
113.1459150643
 20
24.4768963026
 30
0.0
 10
113.0221855298
 20
24.4718644982
 30
0.0
 10
112.9707899832
 20
24.4687642964
 30
0.0
 10
112.9293039416
 20
24.468624823
 30
0.0
 10
112.8891695765
 20
24.4599254907
 30
0.0
 10
112.8195624542
 20
24.4407245648
 30
0.0
 10
112.7197960722
 20
24.4153696598
 30
0.0
 10
112.5603527754
 20
24.3736425499
 30
0.0
 10
112.3609873398
 20
24.3218781694
 30
0.0
 10
112.1616385195
 20
24.2699848391
 30
0.0
 10
112.0021686382
 20
24.2284640488
 30
0.0
 10
111.8825287334
 20
24.1974192043
 30
0.0
 10
111.7829499692
 20
24.1712318922
 30
0.0
 10
111.7130068091
 20
24.1535237615
 30
0.0
 10
111.6734109853
 20
24.1424318332
 30
0.0
 10
111.642667036
 20
24.1368538798
 30
0.0
 10
111.6159255645
 20
24.1207984531
 30
0.0
 10
111.5788741617
 20
24.1030458751
 30
0.0
 10
111.5146846634
 20
24.0702761154
 30
0.0
 10
111.4226454413
 20
24.024352192
 30
0.0
 10
111.3123433228
 20
23.9688633883
 30
0.0
 10
111.1652259782
 20
23.8950067859
 30
0.0
 10
110.9813258271
 20
23.8026727532
 30
0.0
 10
110.797499374
 20
23.7102312527
 30
0.0
 10
110.6502641126
 20
23.6365465988
 30
0.0
 10
110.5586404726
 20
23.5898760577
 30
0.0
 10
110.493705372
 20
23.5584449625
 30
0.0
 10
110.4578490281
 20
23.5385468545
 30
0.0
 10
110.4266986604
 20
23.5113512049
 30
0.0
 10
110.3861521329
 20
23.4798510194
 30
0.0
 10
110.2901647897
 20
23.4021971854
 30
0.0
 10
110.1456217471
 20
23.2865847474
 30
0.0
 10
109.9532465266
 20
23.1319106048
 30
0.0
 10
109.7606749536
 20
22.9774809621
 30
0.0
 10
109.6165737042
 20
22.8613183993
 30
0.0
 10
109.5200218475
 20
22.7843675025
 30
0.0
 10
109.480508216
 20
22.7515811457
 30
0.0
 10
109.4472266055
 20
22.7270393386
 30
0.0
 10
109.4200547693
 20
22.6963272044
 30
0.0
 10
109.3753427958
 20
22.6397140979
 30
0.0
 10
109.3099874339
 20
22.5603340234
 30
0.0
 10
109.2062465875
 20
22.4324899687
 30
0.0
 10
109.0762869912
 20
22.2729712485
 30
0.0
 10
108.8685108165
 20
22.0175805392
 30
0.0
 10
108.7126428701
 20
21.8260736776
 30
0.0
 10
108.6087388648
 20
21.6983943986
 30
0.0
  0
LINE
  5
284
100
AcDbEntity
  8
_21_KURVEN
100
AcDbLine
 62
1
  6
CENTER
 10
108.6087391055
 20
21.6983947679
 11
108.5704309134
 21
21.638885404
  0
SPLINE
  5
285
100
AcDbEntity
  8
_21_KURVEN
100
AcDbSpline
 62
1
  6
CENTER
 70
0
 71
3
 72
109
 73
105
 74
0
 42
0.0000001
 43
0.0000001
 44
0.0000000001
 40
0.0
 40
0.0
 40
0.0
 40
0.0
 40
0.03125
 40
0.046875
 40
0.0625
 40
0.078125
 40
0.0859375
 40
0.08984375
 40
0.09375
 40
0.09765625
 40
0.1015625
 40
0.109375
 40
0.125
 40
0.140625
 40
0.15625
 40
0.171875
 40
0.17578125
 40
0.1796875
 40
0.181640625
 40
0.18359375
 40
0.1875
 40
0.1953125
 40
0.203125
 40
0.21875
 40
0.234375
 40
0.25
 40
0.2578125
 40
0.265625
 40
0.26953125
 40
0.2734375
 40
0.27734375
 40
0.28125
 40
0.2890625
 40
0.296875
 40
0.3125
 40
0.328125
 40
0.34375
 40
0.3515625
 40
0.359375
 40
0.36328125
 40
0.3671875
 40
0.375
 40
0.390625
 40
0.40625
 40
0.421875
 40
0.4375
 40
0.4453125
 40
0.44921875
 40
0.453125
 40
0.4609375
 40
0.46875
 40
0.484375
 40
0.5
 40
0.515625
 40
0.53125
 40
0.5390625
 40
0.546875
 40
0.55078125
 40
0.5546875
 40
0.5625
 40
0.578125
 40
0.59375
 40
0.609375
 40
0.625
 40
0.6328125
 40
0.63671875
 40
0.640625
 40
0.6484375
 40
0.65625
 40
0.671875
 40
0.6875
 40
0.703125
 40
0.7109375
 40
0.71875
 40
0.72265625
 40
0.7265625
 40
0.73046875
 40
0.734375
 40
0.7421875
 40
0.75
 40
0.765625
 40
0.78125
 40
0.796875
 40
0.8046875
 40
0.8125
 40
0.81640625
 40
0.818359375
 40
0.8203125
 40
0.82421875
 40
0.828125
 40
0.84375
 40
0.859375
 40
0.875
 40
0.890625
 40
0.8984375
 40
0.90234375
 40
0.90625
 40
0.91015625
 40
0.9140625
 40
0.921875
 40
0.9375
 40
0.953125
 40
0.96875
 40
1.0
 40
1.0
 40
1.0
 40
1.0
 10
109.7090341789
 20
13.5129959242
 30
0.0
 10
109.8342223205
 20
13.4223707953
 30
0.0
 10
110.0220288953
 20
13.2864761323
 30
0.0
 10
110.2723402121
 20
13.1051111271
 30
0.0
 10
110.4603173236
 20
12.9695176763
 30
0.0
 10
110.616193441
 20
12.8551605073
 30
0.0
 10
110.7268202363
 20
12.7777837474
 30
0.0
 10
110.7876723966
 20
12.7293945154
 30
0.0
 10
110.8399685385
 20
12.7048606251
 30
0.0
 10
110.8931225806
 20
12.6818420246
 30
0.0
 10
110.9636953458
 20
12.6506218606
 30
0.0
 10
111.0873375882
 20
12.5962343749
 30
0.0
 10
111.263892534
 20
12.5183965677
 30
0.0
 10
111.4758074695
 20
12.4251035113
 30
0.0
 10
111.6876493291
 20
12.3315874447
 30
0.0
 10
111.8467132012
 20
12.2620351912
 30
0.0
 10
111.9524744898
 20
12.2147620521
 30
0.0
 10
111.9969598266
 20
12.1964107508
 30
0.0
 10
112.0315727055
 20
12.1785901908
 30
0.0
 10
112.0697526401
 20
12.1722510346
 30
0.0
 10
112.135521628
 20
12.1577910489
 30
0.0
 10
112.230023024
 20
12.1388903563
 30
0.0
 10
112.3809202815
 20
12.1076677919
 30
0.0
 10
112.5696463777
 20
12.068974789
 30
0.0
 10
112.7960734405
 20
12.0224063974
 30
0.0
 10
112.9847708027
 20
11.9836084279
 30
0.0
 10
113.1357312751
 20
11.9526167901
 30
0.0
 10
113.2300710422
 20
11.9331256601
 30
0.0
 10
113.3055674777
 20
11.9178123269
 30
0.0
 10
113.362122256
 20
11.9055614286
 30
0.0
 10
113.4201113979
 20
11.909572735
 30
0.0
 10
113.4969292672
 20
11.9092409627
 30
0.0
 10
113.5931230949
 20
11.9107720922
 30
0.0
 10
113.7469376496
 20
11.9121288538
 30
0.0
 10
113.9392366507
 20
11.9142392683
 30
0.0
 10
114.1699909295
 20
11.916421914
 30
0.0
 10
114.3622601599
 20
11.918854341
 30
0.0
 10
114.5161402102
 20
11.9195026752
 30
0.0
 10
114.6121665775
 20
11.9228451249
 30
0.0
 10
114.6893282989
 20
11.9187941084
 30
0.0
 10
114.7652464413
 20
11.9392932041
 30
0.0
 10
114.8984675777
 20
11.9679675705
 30
0.0
 10
115.088595433
 20
12.0126896709
 30
0.0
 10
115.3168186326
 20
12.0647693099
 30
0.0
 10
115.5450636258
 20
12.1171825232
 30
0.0
 10
115.7351369971
 20
12.1610706878
 30
0.0
 10
115.8684534806
 20
12.1912044418
 30
0.0
 10
115.9442190676
 20
12.2093685173
 30
0.0
 10
116.021544698
 20
12.2239774283
 30
0.0
 10
116.1070204863
 20
12.2677213161
 30
0.0
 10
116.2461875094
 20
12.3322293602
 30
0.0
 10
116.4193138448
 20
12.4147568627
 30
0.0
 10
116.6274525333
 20
12.5129293829
 30
0.0
 10
116.8353747873
 20
12.6115159184
 30
0.0
 10
117.0090422089
 20
12.6930083827
 30
0.0
 10
117.1471270595
 20
12.7595865031
 30
0.0
 10
117.2353533695
 20
12.7980689468
 30
0.0
 10
117.2944907556
 20
12.8474700037
 30
0.0
 10
117.355623774
 20
12.893624698
 30
0.0
 10
117.4616788241
 20
12.9759057918
 30
0.0
 10
117.6136544074
 20
13.0926779664
 30
0.0
 10
117.7958974676
 20
13.2330590585
 30
0.0
 10
117.9779016968
 20
13.3736578125
 30
0.0
 10
118.1304743574
 20
13.4898858323
 30
0.0
 10
118.2354845223
 20
13.573119197
 30
0.0
 10
118.2982893571
 20
13.617750258
 30
0.0
 10
118.3443903793
 20
13.6798726892
 30
0.0
 10
118.4077362539
 20
13.7515365282
 30
0.0
 10
118.5058918589
 20
13.8695468098
 30
0.0
 10
118.6296914358
 20
14.0159054181
 30
0.0
 10
118.7777432808
 20
14.1920539088
 30
0.0
 10
118.9013385481
 20
14.338656107
 30
0.0
 10
118.9999436341
 20
14.4561304908
 30
0.0
 10
119.0621402675
 20
14.5291645231
 30
0.0
 10
119.110601065
 20
14.5884734907
 30
0.0
 10
119.1504951181
 20
14.6305424656
 30
0.0
 10
119.1768436061
 20
14.6818215731
 30
0.0
 10
119.2128255227
 20
14.749615355
 30
0.0
 10
119.2575118607
 20
14.8345555211
 30
0.0
 10
119.329171573
 20
14.9703497026
 30
0.0
 10
119.4186986577
 20
15.1401263063
 30
0.0
 10
119.5261170695
 20
15.3438607482
 30
0.0
 10
119.6157427863
 20
15.5135858892
 30
0.0
 10
119.687185508
 20
15.6494932887
 30
0.0
 10
119.7324266517
 20
15.7341439769
 30
0.0
 10
119.7629140278
 20
15.7939836314
 30
0.0
 10
119.7821838519
 20
15.8272637116
 30
0.0
 10
119.7904212573
 20
15.8659989762
 30
0.0
 10
119.8044889488
 20
15.912553451
 30
0.0
 10
119.8351476915
 20
16.0258188552
 30
0.0
 10
119.8824403437
 20
16.1950722641
 30
0.0
 10
119.9447471099
 20
16.4211125326
 30
0.0
 10
120.007271275
 20
16.6470519288
 30
0.0
 10
120.059275169
 20
16.8353634528
 30
0.0
 10
120.0957918944
 20
16.9671653941
 30
0.0
 10
120.1164930398
 20
17.0424998248
 30
0.0
 10
120.1324829918
 20
17.098948148
 30
0.0
 10
120.1466993498
 20
17.1555969526
 30
0.0
 10
120.1473045984
 20
17.233202781
 30
0.0
 10
120.1569133573
 20
17.3680466223
 30
0.0
 10
120.1661702019
 20
17.5611859202
 30
0.0
 10
120.179192311
 20
17.79273675
 30
0.0
 10
120.1958835809
 20
18.1015470943
 30
0.0
 10
120.2085531304
 20
18.3331377739
 30
0.0
 10
120.2169659196
 20
18.4875353556
 30
0.0
  0
SPLINE
  5
286
100
AcDbEntity
  8
_21_KURVEN
100
AcDbSpline
 62
7
  6
CONTINUOUS
 70
0
 71
3
 72
9
 73
5
 74
0
 42
0.0000001
 43
0.0000001
 44
0.0000000001
 40
0.0
 40
0.0
 40
0.0
 40
0.0
 40
0.5
 40
1.0
 40
1.0
 40
1.0
 40
1.0
 10
117.1088870862
 20
12.0122343087
 30
0.0
 10
117.1531940278
 20
12.0154422319
 30
0.0
 10
117.2447455515
 20
12.0246900334
 30
0.0
 10
117.3316222737
 20
12.0545876128
 30
0.0
 10
117.3764657708
 20
12.0715810235
 30
0.0
  0
LINE
  5
287
100
AcDbEntity
  8
_21_KURVEN
100
AcDbLine
 62
7
  6
CONTINUOUS
 10
117.376465773
 20
12.0715810244
 11
117.3959109239
 21
12.0799417549
  0
SPLINE
  5
288
100
AcDbEntity
  8
_21_KURVEN
100
AcDbSpline
 62
7
  6
CONTINUOUS
 70
0
 71
3
 72
10
 73
6
 74
0
 42
0.0000001
 43
0.0000001
 44
0.0000000001
 40
0.0
 40
0.0
 40
0.0
 40
0.0
 40
0.25
 40
0.5
 40
1.0
 40
1.0
 40
1.0
 40
1.0
 10
117.3959109238
 20
12.0799417549
 30
0.0
 10
117.410945637
 20
12.0870307454
 30
0.0
 10
117.4400615101
 20
12.1008621961
 30
0.0
 10
117.5034041923
 20
12.1363126949
 30
0.0
 10
117.5416877468
 20
12.164725417
 30
0.0
 10
117.5704324762
 20
12.1869054566
 30
0.0
  0
SPLINE
  5
289
100
AcDbEntity
  8
_21_KURVEN
100
AcDbSpline
 62
7
  6
CONTINUOUS
 70
0
 71
3
 72
10
 73
6
 74
0
 42
0.0000001
 43
0.0000001
 44
0.0000000001
 40
0.0
 40
0.0
 40
0.0
 40
0.0
 40
0.25
 40
0.5
 40
1.0
 40
1.0
 40
1.0
 40
1.0
 10
117.5704324816
 20
12.1869054609
 30
0.0
 10
117.5851959385
 20
12.1994650314
 30
0.0
 10
117.613857702
 20
12.2240396776
 30
0.0
 10
117.6730143744
 20
12.2832449244
 30
0.0
 10
117.7063484605
 20
12.3283195306
 30
0.0
 10
117.7307719236
 20
12.3629839956
 30
0.0
  0
LINE
  5
28A
100
AcDbEntity
  8
_21_KURVEN
100
AcDbLine
 62
7
  6
CONTINUOUS
 10
117.730771921
 20
12.3629839916
 11
117.7422578766
 21
12.3807678693
  0
SPLINE
  5
28B
100
AcDbEntity
  8
_30_VOLUMEN
100
AcDbSpline
 62
4
  6
CONTINUOUS
 70
0
 71
3
 72
17
 73
13
 74
0
 42
0.0000001
 43
0.0000001
 44
0.0000000001
 40
0.0
 40
0.0
 40
0.0
 40
0.0
 40
0.1250919287
 40
0.1879114819
 40
0.2507700063
 40
0.3761345961
 40
0.501353394
 40
0.5640528756
 40
0.6266704563
 40
0.751288111
 40
0.8756601814
 40
1.0
 40
1.0
 40
1.0
 40
1.0
 10
114.3281742283
 20
20.5591839843
 30
0.0
 10
114.5731489033
 20
20.5132634511
 30
0.0
 10
114.9334053609
 20
20.3849817716
 30
0.0
 10
115.3536032931
 20
20.1119538931
 30
0.0
 10
115.7273983554
 20
19.7768262224
 30
0.0
 10
116.089865753
 20
19.255136493
 30
0.0
 10
116.2744366665
 20
18.6474971079
 30
0.0
 10
116.3048333136
 20
18.1474448918
 30
0.0
 10
116.2575369911
 20
17.6499563232
 30
0.0
 10
116.0524267711
 20
17.0520067767
 30
0.0
 10
115.5976757248
 20
16.4486322419
 30
0.0
 10
115.182830081
 20
16.1599569194
 30
0.0
 10
114.9597923587
 20
16.0521111801
 30
0.0
  0
ELLIPSE
  5
28C
100
AcDbEntity
  8
_30_VOLUMEN
100
AcDbEllipse
 62
4
  6
CONTINUOUS
 10
114.4555069172
 20
18.4512875904
 30
0.0
 11
-0.781258567
 21
1.5225609383
 31
0.0
 40
0.9207068408
 41
-3.3571115138
 42
-0.5071512409
  0
ENDSEC
  0
SECTION
  2
OBJECTS
  0
DICTIONARY
  5
C
100
AcDbDictionary
280
0
281
1
  3
ACAD_GROUP
350
D
  3
ACAD_MLINESTYLE
350
17
  3
ACAD_LAYOUT
350
1A
  3
ACAD_PLOTSETTINGS
350
19
  3
ACAD_PLOTSTYLENAME
350
E
  0
DICTIONARY
  5
D
102
{ACAD_REACTORS
330
C
102
}
100
AcDbDictionary
280
0
281
1
  0
ACDBDICTIONARYWDFLT
  5
E
102
{ACAD_REACTORS
330
C
102
}
100
AcDbDictionary
281
1
  3
Normal
350
F
100
AcDbDictionaryWithDefault
340
F
  0
DICTIONARY
  5
17
102
{ACAD_REACTORS
330
C
102
}
100
AcDbDictionary
280
0
281
1
  3
Standard
350
18
  0
DICTIONARY
  5
19
102
{ACAD_REACTORS
330
C
102
}
100
AcDbDictionary
281
1
  0
DICTIONARY
  5
1A
102
{ACAD_REACTORS
330
C
102
}
100
AcDbDictionary
281
1
  3
Model
350
28D
  3
Layout1
350
28E
  0
ACDBPLACEHOLDER
  5
F
102
{ACAD_REACTORS
330
E
102
}
  0
MLINESTYLE
  5
18
102
{ACAD_REACTORS
330
17
102
}
100
AcDbMlineStyle
  2
STANDARD
 70
0
  3

 62
256
 51
90.0
 52
90.0
 71
2
 49
0.5
 62
256
  6
BYLAYER
 49
-0.5
 62
256
  6
BYLAYER
  0
LAYOUT
  5
28D
102
{ACAD_REACTORS
330
1A
102
}
100
AcDbPlotSettings
  1

  2
none_device
  4
ISO_A3_(420.00_x_297.00_MM)
  6

 40
0.0
 41
0.0
 42
0.0
 43
0.0
 44
420.0
 45
297.0
 46
0.0
 47
0.0
 48
0.0
 49
0.0
140
0.0
141
0.0
142
1.0
143
1.0
 70
1024
 72
1
 73
0
 74
0
  7

 75
0
147
1.0
148
0.0
149
0.0
100
AcDbLayout
  1
Model
 70
0
 71
0
 10
0.0
 20
0.0
 11
420.0
 21
297.0
 12
0.0
 22
0.0
 32
0.0
 14
0.0
 24
0.0
 34
0.0
 15
0.0
 25
0.0
 35
0.0
146
0.0
 13
0.0
 23
0.0
 33
0.0
 16
1.0
 26
0.0
 36
0.0
 17
0.0
 27
1.0
 37
0.0
 76
0
330
20E
345
0
346
0
  0
LAYOUT
  5
28E
102
{ACAD_REACTORS
330
1A
102
}
100
AcDbPlotSettings
  1

  2
none_device
  4
ISO_A3_(420.00_x_297.00_MM)
  6

 40
0.0
 41
0.0
 42
0.0
 43
0.0
 44
420.0
 45
297.0
 46
0.0
 47
0.0
 48
0.0
 49
0.0
140
0.0
141
0.0
142
1.0
143
1.0
 70
0
 72
1
 73
0
 74
0
  7

 75
0
147
1.0
148
0.0
149
0.0
100
AcDbLayout
  1
Layout1
 70
0
 71
1
 10
0.0
 20
0.0
 11
420.0
 21
297.0
 12
0.0
 22
0.0
 32
0.0
 14
0.0
 24
0.0
 34
0.0
 15
0.0
 25
0.0
 35
0.0
146
0.0
 13
0.0
 23
0.0
 33
0.0
 16
1.0
 26
0.0
 36
0.0
 17
0.0
 27
1.0
 37
0.0
 76
0
330
20F
345
0
346
0
  0
ENDSEC
  0
EOF
