999
DXF file: 70540825.dxf
999
Pro/ENGINEER 2017380 by Parametric Technology Corporation
  0
SECTION
  2
HEADER
  9
$ACADVER
  1
AC1027
  9
$DWGCODEPAGE
  3
ANSI_1252
  9
$EXTMAX
 10
420.0
 20
297.0
 30
0.0
  9
$EXTMIN
 10
0.0
 20
0.0
 30
0.0
  9
$LIMMIN
 10
0.0
 20
0.0
  9
$LIMMAX
 10
420.0
 20
297.0
  9
$VIEWCTR
 10
210.0
 20
148.5
  9
$VIEWSIZE
 40
297.0
  9
$CLAYER
  8
0
  9
$LTSCALE
 40
23.1
  9
$CELTYPE
  6
BYLAYER
  9
$DIMSCALE
 40
1.0
  9
$DIMASZ
 40
3.5
  9
$DIMEXO
 40
0.0
  9
$DIMDLI
 40
15.96
  9
$DIMEXE
 40
1.5
  9
$DIMCEN
 40
3.78
  9
$DIMLFAC
 40
1.0
  9
$DIMBLK
  1
_FILLED
  9
$DIMALT
 70
0
  9
$DIMALTF
 40
25.4
  9
$DIMTXT
 40
3.5
  9
$DIMTOL
 70
1
  9
$DIMLIM
 70
0
  9
$DIMTFAC
 40
1.0
  9
$DIMTP
 40
0.05
  9
$DIMTM
 40
0.05
  9
$DIMGAP
 40
0.625
  9
$DIMDSEP
 70
46
  9
$AUNITS
 70
0
  9
$PDMODE
 70
3
  9
$PDSIZE
 40
0.3125
  9
$HANDSEED
  5
28F
  9
$TILEMODE
 70
1
  9
$MEASUREMENT
 70
1
  9
$INSUNITS
 70
4
  0
ENDSEC
  0
SECTION
  2
CLASSES
  0
CLASS
  1
ACDBDICTIONARYWDFLT
  2
AcDbDictionaryWithDefault
  3
AutoCAD 2000
 90
0
 91
1
280
0
281
0
  0
CLASS
  1
ACDBPLACEHOLDER
  2
AcDbPlaceHolder
  3
AutoCAD 2000
 90
0
 91
1
280
0
281
0
  0
CLASS
  1
LAYOUT
  2
AcDbLayout
  3
AutoCAD 2000
 90
0
 91
0
280
0
281
0
  0
ENDSEC
  0
SECTION
  2
TABLES
  0
TABLE
  2
VPORT
  5
8
100
AcDbSymbolTable
 70
2
  0
VPORT
  5
1F4
100
AcDbSymbolTableRecord
100
AcDbViewportTableRecord
  2
*ACTIVE
 70
0
 10
0.0
 20
0.0
 11
1.0
 21
1.0
 12
210.0
 22
148.5
 13
0.0
 23
0.0
 14
1.0
 24
1.0
 15
0.0
 25
0.0
 16
0.0
 26
0.0
 36
1.0
 17
0.0
 27
0.0
 37
0.0
 40
297.0
 41
1.4141414141
 42
50.0
 43
0.0
 44
0.0
 50
0.0
 51
0.0
 71
0
 72
100
 73
1
 74
1
 75
0
 76
0
 77
0
 78
0
  0
ENDTAB
  0
TABLE
  2
LTYPE
  5
5
100
AcDbSymbolTable
 70
6
  0
LTYPE
  5
14
100
AcDbSymbolTableRecord
100
AcDbLinetypeTableRecord
  2
BYBLOCK
 70
0
  3

 72
65
 73
0
 40
0.0
  0
LTYPE
  5
15
100
AcDbSymbolTableRecord
100
AcDbLinetypeTableRecord
  2
BYLAYER
 70
0
  3

 72
65
 73
0
 40
0.0
  0
LTYPE
  5
16
100
AcDbSymbolTableRecord
100
AcDbLinetypeTableRecord
  2
CONTINUOUS
 70
64
  3
Solid line
 72
65
 73
0
 40
0.0
  0
LTYPE
  5
1F5
100
AcDbSymbolTableRecord
100
AcDbLinetypeTableRecord
  2
CENTER
 70
64
  3
____ _ ____ _ ____ _ ____ _ ____ _ ____ _ ____
 72
65
 73
4
 40
0.6
 49
0.375
 74
0
 49
-0.075
 74
0
 49
0.075
 74
0
 49
-0.075
 74
0
  0
LTYPE
  5
1F6
100
AcDbSymbolTableRecord
100
AcDbLinetypeTableRecord
  2
HIDDEN
 70
64
  3
- - - - - - - - - - - - - - - - - - - -
 72
65
 73
2
 40
0.2
 49
0.1
 74
0
 49
-0.1
 74
0
  0
LTYPE
  5
1F7
100
AcDbSymbolTableRecord
100
AcDbLinetypeTableRecord
  2
PHANTOM
 70
64
  3
_____ _ _ _____ _ _ _____ _ _ _____
 72
65
 73
6
 40
0.8
 49
0.45
 74
0
 49
-0.05
 74
0
 49
0.1
 74
0
 49
-0.05
 74
0
 49
0.1
 74
0
 49
-0.05
 74
0
  0
LTYPE
  5
1F8
100
AcDbSymbolTableRecord
100
AcDbLinetypeTableRecord
  2
DOT
 70
64
  3
. . . . . . . . . . . . . . . . . . . .
 72
65
 73
2
 40
0.2
 49
0.1
 74
0
 49
-0.1
 74
0
  0
LTYPE
  5
1F9
100
AcDbSymbolTableRecord
100
AcDbLinetypeTableRecord
  2
DASHED
 70
64
  3
- - - - - - - - - - - - - - - - - - - -
 72
65
 73
2
 40
0.2
 49
0.1
 74
0
 49
-0.1
 74
0
  0
ENDTAB
  0
TABLE
  2
LAYER
  5
2
100
AcDbSymbolTable
 70
36
  0
LAYER
  5
10
100
AcDbSymbolTableRecord
100
AcDbLayerTableRecord
  2
0
 70
0
 62
7
  6
CONTINUOUS
370
-3
390
F
  0
LAYER
  5
1FA
100
AcDbSymbolTableRecord
100
AcDbLayerTableRecord
  2
DEFAULT_1
 70
0
 62
7
  6
CENTER
370
-3
390
F
  0
LAYER
  5
1FB
100
AcDbSymbolTableRecord
100
AcDbLayerTableRecord
  2
DEFAULT_2
 70
0
 62
1
  6
HIDDEN
370
-3
390
F
  0
LAYER
  5
1FC
100
AcDbSymbolTableRecord
100
AcDbLayerTableRecord
  2
DEFAULT_3
 70
0
 62
7
  6
PHANTOM
370
-3
390
F
  0
LAYER
  5
1FD
100
AcDbSymbolTableRecord
100
AcDbLayerTableRecord
  2
BG_STARTBEZUEGE
 70
0
 62
7
  6
CONTINUOUS
370
-3
390
F
  0
LAYER
  5
1FE
100
AcDbSymbolTableRecord
100
AcDbLayerTableRecord
  2
HILFEN
 70
0
 62
7
  6
CONTINUOUS
370
-3
390
F
  0
LAYER
  5
1FF
100
AcDbSymbolTableRecord
100
AcDbLayerTableRecord
  2
PLATZIERUNG
 70
0
 62
7
  6
CONTINUOUS
370
-3
390
F
  0
LAYER
  5
200
100
AcDbSymbolTableRecord
100
AcDbLayerTableRecord
  2
T_STARTBEZUEGE
 70
0
 62
7
  6
CONTINUOUS
370
-3
390
F
  0
LAYER
  5
201
100
AcDbSymbolTableRecord
100
AcDbLayerTableRecord
  2
_03_2D_ZEICHNUNG_BEMASSUNGEN
 70
0
 62
7
  6
CONTINUOUS
370
-3
390
F
  0
LAYER
  5
202
100
AcDbSymbolTableRecord
100
AcDbLayerTableRecord
  2
_04_NOTIZEN
 70
0
 62
7
  6
CONTINUOUS
370
-3
390
F
  0
LAYER
  5
203
100
AcDbSymbolTableRecord
100
AcDbLayerTableRecord
  2
_05_2D_ELEMENTE
 70
0
 62
7
  6
CONTINUOUS
370
-3
390
F
  0
LAYER
  5
204
100
AcDbSymbolTableRecord
100
AcDbLayerTableRecord
  2
_07_EINRASTLINIEN
 70
0
 62
7
  6
CONTINUOUS
370
-3
390
F
  0
LAYER
  5
205
100
AcDbSymbolTableRecord
100
AcDbLayerTableRecord
  2
_21_KURVEN
 70
0
 62
7
  6
CONTINUOUS
370
-3
390
F
  0
LAYER
  5
206
100
AcDbSymbolTableRecord
100
AcDbLayerTableRecord
  2
_24_IMPORT
 70
0
 62
7
  6
CONTINUOUS
370
-3
390
F
  0
LAYER
  5
207
100
AcDbSymbolTableRecord
100
AcDbLayerTableRecord
  2
_26_BEZUGSACHSEN
 70
0
 62
7
  6
CONTINUOUS
370
-3
390
F
  0
LAYER
  5
208
100
AcDbSymbolTableRecord
100
AcDbLayerTableRecord
  2
_27_BEZUGSEBENEN
 70
0
 62
7
  6
CONTINUOUS
370
-3
390
F
  0
LAYER
  5
209
100
AcDbSymbolTableRecord
100
AcDbLayerTableRecord
  2
_28_BEZUGSPUNKTE
 70
0
 62
7
  6
CONTINUOUS
370
-3
390
F
  0
LAYER
  5
20A
100
AcDbSymbolTableRecord
100
AcDbLayerTableRecord
  2
_29_KOORDINATENSYSTEME
 70
0
 62
7
  6
CONTINUOUS
370
-3
390
F
  0
LAYER
  5
20B
100
AcDbSymbolTableRecord
100
AcDbLayerTableRecord
  2
_30_VOLUMEN
 70
0
 62
7
  6
CONTINUOUS
370
-3
390
F
  0
ENDTAB
  0
TABLE
  2
STYLE
  5
3
100
AcDbSymbolTable
 70
1
  0
STYLE
  5
11
100
AcDbSymbolTableRecord
100
AcDbTextStyleTableRecord
  2
STANDARD
 70
0
 40
0.0
 41
0.7
 50
0.0
 71
0
 42
0.2
  3
SIMPLEX.SHX
  4

  0
STYLE
  5
20C
100
AcDbSymbolTableRecord
100
AcDbTextStyleTableRecord
  2
TEXTSTYLE_1
 70
0
 40
0.0
 41
0.8
 50
0.0
 71
0
 42
0.2
  3
gdt
  4

  0
ENDTAB
  0
TABLE
  2
VIEW
  5
6
100
AcDbSymbolTable
 70
0
  0
ENDTAB
  0
TABLE
  2
UCS
  5
7
100
AcDbSymbolTable
 70
0
  0
ENDTAB
  0
TABLE
  2
APPID
  5
9
100
AcDbSymbolTable
 70
1
  0
APPID
  5
20D
100
AcDbSymbolTableRecord
100
AcDbRegAppTableRecord
  2
ACAD
 70
0
  0
ENDTAB
  0
TABLE
  2
BLOCK_RECORD
  5
1
100
AcDbSymbolTable
 70
0
  0
BLOCK_RECORD
  5
20E
100
AcDbSymbolTableRecord
100
AcDbBlockTableRecord
  2
*Model_Space
  0
BLOCK_RECORD
  5
20F
100
AcDbSymbolTableRecord
100
AcDbBlockTableRecord
  2
*Paper_Space
  0
BLOCK_RECORD
  5
210
100
AcDbSymbolTableRecord
100
AcDbBlockTableRecord
  2
_FILLED
  0
BLOCK_RECORD
  5
211
100
AcDbSymbolTableRecord
100
AcDbBlockTableRecord
  2
*D0
  0
BLOCK_RECORD
  5
212
100
AcDbSymbolTableRecord
100
AcDbBlockTableRecord
  2
*D1
  0
BLOCK_RECORD
  5
213
100
AcDbSymbolTableRecord
100
AcDbBlockTableRecord
  2
*D2
  0
ENDTAB
  0
TABLE
  2
DIMSTYLE
  5
A
100
AcDbSymbolTable
 70
1
100
AcDbDimStyleTable
 71
0
  0
DIMSTYLE
105
214
100
AcDbSymbolTableRecord
100
AcDbDimStyleTableRecord
  2
STANDARD
 70
0
  3

  4

 40
1.0
 41
3.5
 42
0.0
 43
0.38
 44
1.5
 45
0.0
 46
0.0
 47
0.05
 48
0.05
140
3.5
141
0.09
142
0.0
143
25.4
144
1.0
145
0.0
146
1.0
147
0.625
 71
1.0
 72
0.0
 73
0
 74
0
 75
0
 76
0
 77
1
 78
8
 79
2
170
0
171
1
172
0
173
0
174
0
175
0
176
0
177
0
178
2
270
2
179
2
271
2
272
2
273
2
274
2
275
0
280
0
281
0
282
0
283
1
284
8
285
0
286
0
287
3
288
0
340
11
278
46
341
210
342
210
343
210
344
210
  0
DIMSTYLE
105
215
100
AcDbSymbolTableRecord
100
AcDbDimStyleTableRecord
  2
DIMSTYLE_1
 70
0
  3

  4

 40
1.0
 41
3.5
 42
0.0
 43
0.38
 44
1.5
 45
0.0
 46
0.0
 47
0.2
 48
0.2
140
3.5
141
0.09
142
0.0
143
25.4
144
1.0
145
0.0
146
1.0
147
0.875
 71
0.0
 72
0.0
 73
0
 74
0
 75
0
 76
0
 77
1
 78
8
 79
2
170
0
171
1
172
0
173
0
174
0
175
0
176
0
177
0
178
2
270
2
179
2
271
2
272
2
273
2
274
2
275
0
280
0
281
0
282
0
283
1
284
8
285
0
286
0
287
3
288
0
340
11
278
46
341
210
342
210
343
210
344
210
  0
DIMSTYLE
105
216
100
AcDbSymbolTableRecord
100
AcDbDimStyleTableRecord
  2
DIMSTYLE_2
 70
0
  3

  4

 40
1.0
 41
3.5
 42
0.0
 43
0.38
 44
1.5
 45
0.0
 46
0.0
 47
0.5
 48
0.5
140
3.5
141
0.09
142
0.0
143
25.4
144
1.0
145
0.0
146
1.0
147
0.875
 71
0.0
 72
0.0
 73
0
 74
0
 75
0
 76
0
 77
1
 78
8
 79
2
170
0
171
1
172
0
173
0
174
0
175
0
176
0
177
0
178
2
270
2
179
2
271
2
272
2
273
2
274
2
275
0
280
0
281
0
282
0
283
1
284
8
285
0
286
0
287
3
288
0
340
11
278
46
341
210
342
210
343
210
344
210
  0
DIMSTYLE
105
217
100
AcDbSymbolTableRecord
100
AcDbDimStyleTableRecord
  2
DIMSTYLE_3
 70
0
  3

  4

 40
1.0
 41
3.5
 42
0.0
 43
0.38
 44
1.5
 45
0.0
 46
0.0
 47
0.3
 48
0.3
140
3.5
141
0.09
142
0.0
143
25.4
144
1.0
145
0.0
146
1.0
147
0.875
 71
0.0
 72
0.0
 73
0
 74
0
 75
0
 76
0
 77
1
 78
8
 79
2
170
0
171
1
172
0
173
0
174
0
175
0
176
0
177
0
178
2
270
2
179
2
271
2
272
2
273
2
274
2
275
0
280
0
281
0
282
0
283
1
284
8
285
0
286
0
287
3
288
0
340
11
278
46
341
210
342
210
343
210
344
210
  0
ENDTAB
  0
ENDSEC
  0
SECTION
  2
BLOCKS
  0
BLOCK
  5
20
100
AcDbEntity
  8
0
100
AcDbBlockBegin
  2
*Model_Space
 70
0
 10
0.0
 20
0.0
 30
0.0
  3
*Model_Space
  1

  0
ENDBLK
  5
21
100
AcDbEntity
  8
0
100
AcDbBlockEnd
  0
BLOCK
  5
1C
100
AcDbEntity
  8
0
100
AcDbBlockBegin
  2
*Paper_Space
 70
0
 10
0.0
 20
0.0
 30
0.0
  3
*Paper_Space
  1

  0
ENDBLK
  5
1D
100
AcDbEntity
  8
0
100
AcDbBlockEnd
  0
BLOCK
  5
218
100
AcDbEntity
  8
0
100
AcDbBlockBegin
  2
_FILLED
 70
64
 10
0.0
 20
0.0
  3
_FILLED
  1

  0
SOLID
  5
219
100
AcDbEntity
  8
0
  6
BYBLOCK
 62
0
100
AcDbTrace
 10
0.0
 20
0.0
 11
-1.0
 21
0.125
 12
-1.0
 22
-0.125
 13
-1.0
 23
-0.125
  0
ENDBLK
  5
21A
100
AcDbEntity
  8
0
  6
BYBLOCK
 62
0
100
AcDbBlockEnd
  0
BLOCK
  5
21B
100
AcDbEntity
  8
_03_2D_ZEICHNUNG_BEMASSUNGEN
100
AcDbBlockBegin
 62
7
  6
CONTINUOUS
  2
*D0
 70
65
 10
0.0
 20
0.0
  3
*D0
  1

  0
TEXT
  5
21C
100
AcDbEntity
  8
_03_2D_ZEICHNUNG_BEMASSUNGEN
100
AcDbText
 62
2
  6
CONTINUOUS
 10
-9.875
 20
9.875
  7
STANDARD
 40
3.5
  1
25
 50
90.0
 41
0.75
 72
1
 11
-9.875
 21
12.5
100
AcDbText
  0
LINE
  5
21D
100
AcDbEntity
  8
_03_2D_ZEICHNUNG_BEMASSUNGEN
100
AcDbLine
 62
7
  6
CONTINUOUS
 10
0.0
 20
25.0
 11
-10.5
 21
25.0
  0
LINE
  5
21E
100
AcDbEntity
  8
_03_2D_ZEICHNUNG_BEMASSUNGEN
100
AcDbLine
 62
7
  6
CONTINUOUS
 10
-0.0
 20
-0.0
 11
-10.5
 21
0.0
  0
LINE
  5
21F
100
AcDbEntity
  8
_03_2D_ZEICHNUNG_BEMASSUNGEN
100
AcDbLine
 62
7
  6
CONTINUOUS
 10
-9.0
 20
25.0
 11
-9.0
 21
31.0
  0
LINE
  5
220
100
AcDbEntity
  8
_03_2D_ZEICHNUNG_BEMASSUNGEN
100
AcDbLine
 62
7
  6
CONTINUOUS
 10
-9.0
 20
31.0
 11
-9.0
 21
12.5
  0
LINE
  5
221
100
AcDbEntity
  8
_03_2D_ZEICHNUNG_BEMASSUNGEN
100
AcDbLine
 62
7
  6
CONTINUOUS
 10
-9.0
 20
0.0
 11
-9.0
 21
-6.0
  0
LINE
  5
222
100
AcDbEntity
  8
_03_2D_ZEICHNUNG_BEMASSUNGEN
100
AcDbLine
 62
7
  6
CONTINUOUS
 10
-9.0
 20
-6.0
 11
-9.0
 21
12.5
  0
INSERT
  5
223
100
AcDbEntity
  8
_03_2D_ZEICHNUNG_BEMASSUNGEN
100
AcDbBlockReference
 62
7
  6
CONTINUOUS
  2
_FILLED
 10
-9.0
 20
25.0
 41
3.5
 42
3.5
 43
3.5
 50
270.0
  0
INSERT
  5
224
100
AcDbEntity
  8
_03_2D_ZEICHNUNG_BEMASSUNGEN
100
AcDbBlockReference
 62
7
  6
CONTINUOUS
  2
_FILLED
 10
-9.0
 20
0.0
 41
3.5
 42
3.5
 43
3.5
 50
90.0
  0
ENDBLK
  5
225
100
AcDbEntity
  8
0
  6
BYBLOCK
 62
0
100
AcDbBlockEnd
  0
BLOCK
  5
226
100
AcDbEntity
  8
_03_2D_ZEICHNUNG_BEMASSUNGEN
100
AcDbBlockBegin
 62
7
  6
CONTINUOUS
  2
*D1
 70
65
 10
0.0
 20
0.0
  3
*D1
  1

  0
TEXT
  5
227
100
AcDbEntity
  8
_03_2D_ZEICHNUNG_BEMASSUNGEN
100
AcDbText
 62
2
  6
CONTINUOUS
 10
71.375
 20
41.9465953018
  7
STANDARD
 40
3.5
  1
150
 41
0.6904761905
 72
1
 11
75.0
 21
41.9465953018
100
AcDbText
  0
LINE
  5
228
100
AcDbEntity
  8
_03_2D_ZEICHNUNG_BEMASSUNGEN
100
AcDbLine
 62
7
  6
CONTINUOUS
 10
150.0
 20
0.0
 11
150.0
 21
42.5715953018
  0
LINE
  5
229
100
AcDbEntity
  8
_03_2D_ZEICHNUNG_BEMASSUNGEN
100
AcDbLine
 62
7
  6
CONTINUOUS
 10
0.0
 20
0.0
 11
0.0
 21
42.5715953018
  0
LINE
  5
22A
100
AcDbEntity
  8
_03_2D_ZEICHNUNG_BEMASSUNGEN
100
AcDbLine
 62
7
  6
CONTINUOUS
 10
150.0
 20
41.0715953018
 11
75.0
 21
41.0715953018
  0
LINE
  5
22B
100
AcDbEntity
  8
_03_2D_ZEICHNUNG_BEMASSUNGEN
100
AcDbLine
 62
7
  6
CONTINUOUS
 10
0.0
 20
41.0715953018
 11
75.0
 21
41.0715953018
  0
INSERT
  5
22C
100
AcDbEntity
  8
_03_2D_ZEICHNUNG_BEMASSUNGEN
100
AcDbBlockReference
 62
7
  6
CONTINUOUS
  2
_FILLED
 10
150.0
 20
41.0715953018
 41
3.5
 42
3.5
 43
3.5
  0
INSERT
  5
22D
100
AcDbEntity
  8
_03_2D_ZEICHNUNG_BEMASSUNGEN
100
AcDbBlockReference
 62
7
  6
CONTINUOUS
  2
_FILLED
 10
0.0
 20
41.0715953018
 41
3.5
 42
3.5
 43
3.5
 50
180.0
  0
ENDBLK
  5
22E
100
AcDbEntity
  8
0
  6
BYBLOCK
 62
0
100
AcDbBlockEnd
  0
BLOCK
  5
22F
100
AcDbEntity
  8
_03_2D_ZEICHNUNG_BEMASSUNGEN
100
AcDbBlockBegin
 62
7
  6
CONTINUOUS
  2
*D2
 70
65
 10
0.0
 20
0.0
  3
*D2
  1

  0
TEXT
  5
230
100
AcDbEntity
  8
_03_2D_ZEICHNUNG_BEMASSUNGEN
100
AcDbText
 62
2
  6
CONTINUOUS
 10
158.8200584512
 20
13.375
  7
STANDARD
 40
3.5
  1
32
 50
90.0
 41
0.75
 72
1
 11
158.8200584512
 21
16.0
100
AcDbText
  0
LINE
  5
231
100
AcDbEntity
  8
_03_2D_ZEICHNUNG_BEMASSUNGEN
100
AcDbLine
 62
7
  6
CONTINUOUS
 10
150.0
 20
32.0
 11
161.1950584512
 21
32.0
  0
LINE
  5
232
100
AcDbEntity
  8
_03_2D_ZEICHNUNG_BEMASSUNGEN
100
AcDbLine
 62
7
  6
CONTINUOUS
 10
0.0
 20
0.0
 11
161.1950584512
 21
0.0
  0
LINE
  5
233
100
AcDbEntity
  8
_03_2D_ZEICHNUNG_BEMASSUNGEN
100
AcDbLine
 62
7
  6
CONTINUOUS
 10
159.6950584512
 20
32.0
 11
159.6950584512
 21
16.0
  0
LINE
  5
234
100
AcDbEntity
  8
_03_2D_ZEICHNUNG_BEMASSUNGEN
100
AcDbLine
 62
7
  6
CONTINUOUS
 10
159.6950584512
 20
0.0
 11
159.6950584512
 21
16.0
  0
INSERT
  5
235
100
AcDbEntity
  8
_03_2D_ZEICHNUNG_BEMASSUNGEN
100
AcDbBlockReference
 62
7
  6
CONTINUOUS
  2
_FILLED
 10
159.6950584512
 20
32.0
 41
3.5
 42
3.5
 43
3.5
 50
90.0
  0
INSERT
  5
236
100
AcDbEntity
  8
_03_2D_ZEICHNUNG_BEMASSUNGEN
100
AcDbBlockReference
 62
7
  6
CONTINUOUS
  2
_FILLED
 10
159.6950584512
 20
0.0
 41
3.5
 42
3.5
 43
3.5
 50
270.0
  0
ENDBLK
  5
237
100
AcDbEntity
  8
0
  6
BYBLOCK
 62
0
100
AcDbBlockEnd
  0
ENDSEC
  0
SECTION
  2
ENTITIES
  0
DIMENSION
  5
238
100
AcDbEntity
  8
_03_2D_ZEICHNUNG_BEMASSUNGEN
100
AcDbDimension
 62
7
  6
CONTINUOUS
  2
*D0
 10
-9.0
 20
0.0
 11
-9.0
 21
11.9999997234
 70
160
 71
2
 42
25.0
  3
DIMSTYLE_1
100
AcDbAlignedDimension
 13
0.0
 23
25.0
 14
-0.0
 24
-0.0
 50
270.0
100
AcDbRotatedDimension
  0
DIMENSION
  5
239
100
AcDbEntity
  8
_03_2D_ZEICHNUNG_BEMASSUNGEN
100
AcDbDimension
 62
7
  6
CONTINUOUS
  2
*D1
 10
0.0
 20
41.0715953018
 11
74.4999993896
 21
41.0715953018
 70
160
 71
2
 42
150.0
  3
DIMSTYLE_2
100
AcDbAlignedDimension
 13
150.0
 23
0.0
 14
0.0
 24
0.0
 50
180.0
100
AcDbRotatedDimension
  0
DIMENSION
  5
23A
100
AcDbEntity
  8
_03_2D_ZEICHNUNG_BEMASSUNGEN
100
AcDbDimension
 62
7
  6
CONTINUOUS
  2
*D2
 10
159.6950584512
 20
0.0
 11
159.6950584512
 21
15.5000041099
 70
160
 71
2
 42
32.0
  3
DIMSTYLE_3
100
AcDbAlignedDimension
 13
150.0
 23
32.0
 14
0.0
 24
0.0
 50
270.0
100
AcDbRotatedDimension
  0
LINE
  5
23B
100
AcDbEntity
  8
_30_VOLUMEN
100
AcDbLine
 62
4
  6
CONTINUOUS
 10
-0.0
 20
0.5
 11
0.0
 21
24.5
  0
LINE
  5
23C
100
AcDbEntity
  8
_30_VOLUMEN
100
AcDbLine
 62
4
  6
CONTINUOUS
 10
0.5
 20
-0.0
 11
0.5
 21
25.0
  0
LINE
  5
23D
100
AcDbEntity
  8
_30_VOLUMEN
100
AcDbLine
 62
4
  6
CONTINUOUS
 10
0.5
 20
-0.0
 11
-0.0
 21
0.5
  0
LINE
  5
23E
100
AcDbEntity
  8
_30_VOLUMEN
100
AcDbLine
 62
4
  6
CONTINUOUS
 10
0.5
 20
25.0
 11
0.0
 21
24.5
  0
LINE
  5
23F
100
AcDbEntity
  8
_30_VOLUMEN
100
AcDbLine
 62
4
  6
CONTINUOUS
 10
0.5
 20
-0.0
 11
117.0
 21
0.0
  0
LINE
  5
240
100
AcDbEntity
  8
0
100
AcDbLine
 62
4
  6
CONTINUOUS
 10
117.0
 20
0.0
 11
121.9740900606
 21
0.0
  0
LINE
  5
241
100
AcDbEntity
  8
_30_VOLUMEN
100
AcDbLine
 62
4
  6
CONTINUOUS
 10
128.7949673094
 20
24.1732552214
 11
135.5879368004
 21
25.7747880068
  0
LINE
  5
242
100
AcDbEntity
  8
_30_VOLUMEN
100
AcDbLine
 62
4
  6
CONTINUOUS
 10
127.6096639948
 20
25.3606049756
 11
141.4590345168
 21
28.6257780312
  0
LINE
  5
243
100
AcDbEntity
  8
_30_VOLUMEN
100
AcDbLine
 62
4
  6
CONTINUOUS
 10
144.1643928332
 20
22.2387031819
 11
139.7065497089
 21
22.0297506156
  0
LINE
  5
244
100
AcDbEntity
  8
_21_KURVEN
100
AcDbLine
 62
7
  6
CONTINUOUS
 10
144.1643928332
 20
22.2387031819
 11
139.7065497089
 21
22.0297506156
  0
LINE
  5
245
100
AcDbEntity
  8
_30_VOLUMEN
100
AcDbLine
 62
4
  6
CONTINUOUS
 10
139.3206729318
 20
31.4939805789
 11
138.7523389256
 21
31.2640901809
  0
LINE
  5
246
100
AcDbEntity
  8
_30_VOLUMEN
100
AcDbLine
 62
7
  6
CONTINUOUS
 10
138.9470741877
 20
31.1797292043
 11
138.7592371191
 21
31.1037493439
  0
LINE
  5
247
100
AcDbEntity
  8
_30_VOLUMEN
100
AcDbLine
 62
4
  6
CONTINUOUS
 10
0.5
 20
25.0
 11
117.0
 21
25.0
  0
LINE
  5
248
100
AcDbEntity
  8
0
100
AcDbLine
 62
4
  6
CONTINUOUS
 10
117.0
 20
25.0
 11
125.0
 21
25.0
  0
LINE
  5
249
100
AcDbEntity
  8
_30_VOLUMEN
100
AcDbLine
 62
4
  6
CONTINUOUS
 10
121.7030563164
 20
22.7026054453
 11
127.6096639948
 21
25.3606049756
  0
LINE
  5
24A
100
AcDbEntity
  8
_30_VOLUMEN
100
AcDbLine
 62
4
  6
CONTINUOUS
 10
124.5581908447
 20
22.2666871088
 11
128.7949673094
 21
24.1732552214
  0
LINE
  5
24B
100
AcDbEntity
  8
_30_VOLUMEN
100
AcDbLine
 62
4
  6
CONTINUOUS
 10
141.7499483609
 20
28.2855435001
 11
135.5879368004
 21
25.7747880068
  0
LINE
  5
24C
100
AcDbEntity
  8
_26_BEZUGSACHSEN
100
AcDbLine
 62
4
  6
CONTINUOUS
 10
138.9044526945
 20
31.1113597697
 11
130.6803529664
 21
30.6803529664
  0
LINE
  5
24D
100
AcDbEntity
  8
_30_VOLUMEN
100
AcDbLine
 62
4
  6
CONTINUOUS
 10
139.5790901882
 20
31.550556308
 11
149.1713572155
 21
32.0001748245
  0
LINE
  5
24E
100
AcDbEntity
  8
_21_KURVEN
100
AcDbLine
 62
7
  6
CONTINUOUS
 10
139.5790901882
 20
31.550556308
 11
149.1713572155
 21
32.0001748245
  0
LINE
  5
24F
100
AcDbEntity
  8
_30_VOLUMEN
100
AcDbLine
 62
4
  6
CONTINUOUS
 10
121.7030563164
 20
22.7026054453
 11
124.5581908447
 21
22.2666871088
  0
LINE
  5
250
100
AcDbEntity
  8
_30_VOLUMEN
100
AcDbLine
 62
4
  6
CONTINUOUS
 10
144.4228100897
 20
22.295278911
 11
144.0811746204
 21
22.157087789
  0
LINE
  5
251
100
AcDbEntity
  8
_30_VOLUMEN
100
AcDbLine
 62
4
  6
CONTINUOUS
 10
125.0
 20
25.0
 11
130.6803529664
 21
30.6803529664
  0
LINE
  5
252
100
AcDbEntity
  8
_30_VOLUMEN
100
AcDbLine
 62
4
  6
CONTINUOUS
 10
143.0356796751
 20
26.0376801949
 11
137.8349303028
 21
21.846335627
  0
LINE
  5
253
100
AcDbEntity
  8
_30_VOLUMEN
100
AcDbLine
 62
4
  6
CONTINUOUS
 10
133.0255586174
 20
16.7768491017
 11
129.2445665999
 21
14.0734262166
  0
LINE
  5
254
100
AcDbEntity
  8
_30_VOLUMEN
100
AcDbLine
 62
4
  6
CONTINUOUS
 10
133.348316674
 20
15.3276325837
 11
128.0771307456
 21
11.5587156951
  0
LINE
  5
255
100
AcDbEntity
  8
0
100
AcDbLine
 62
4
  6
CONTINUOUS
 10
117.0
 20
25.0
 11
117.0
 21
0.0
  0
LINE
  5
256
100
AcDbEntity
  8
_30_VOLUMEN
100
AcDbLine
 62
4
  6
CONTINUOUS
 10
137.8349303028
 20
21.846335627
 11
133.0255586174
 21
16.7768491017
  0
LINE
  5
257
100
AcDbEntity
  8
_28_BEZUGSPUNKTE
100
AcDbLine
 62
1
  6
CONTINUOUS
 10
150.15625
 20
32.15625
 11
149.84375
 21
31.84375
  0
LINE
  5
258
100
AcDbEntity
  8
0
100
AcDbLine
 62
4
  6
CONTINUOUS
 10
120.8699156581
 20
25.0
 11
121.9566236227
 21
0.0
  0
LINE
  5
259
100
AcDbEntity
  8
_30_VOLUMEN
100
AcDbLine
 62
4
  6
CONTINUOUS
 10
136.6478132674
 20
27.4914687163
 11
138.9470741877
 21
31.1797292043
  0
LINE
  5
25A
100
AcDbEntity
  8
_21_KURVEN
100
AcDbLine
 62
7
  6
CONTINUOUS
 10
136.6478132674
 20
27.4914687163
 11
138.9470741877
 21
31.1797292043
  0
LINE
  5
25B
100
AcDbEntity
  8
_30_VOLUMEN
100
AcDbLine
 62
4
  6
CONTINUOUS
 10
143.1535676085
 20
25.6632004584
 11
133.348316674
 21
15.3276325837
  0
LINE
  5
25C
100
AcDbEntity
  8
_30_VOLUMEN
100
AcDbLine
 62
4
  6
CONTINUOUS
 10
139.3427669376
 20
14.5740503615
 11
121.9740900606
 21
0.0
  0
LINE
  5
25D
100
AcDbEntity
  8
_30_VOLUMEN
100
AcDbLine
 62
4
  6
CONTINUOUS
 10
127.6096639948
 20
25.3606049756
 11
128.7949673094
 21
24.1732552214
  0
LINE
  5
25E
100
AcDbEntity
  8
_30_VOLUMEN
100
AcDbLine
 62
4
  6
CONTINUOUS
 10
128.0771307456
 20
11.5587156951
 11
121.7030563164
 21
22.7026054453
  0
LINE
  5
25F
100
AcDbEntity
  8
_30_VOLUMEN
100
AcDbLine
 62
4
  6
CONTINUOUS
 10
129.2445665999
 20
14.0734262166
 11
124.5581908447
 21
22.2666871088
  0
LINE
  5
260
100
AcDbEntity
  8
_30_VOLUMEN
100
AcDbLine
 62
4
  6
CONTINUOUS
 10
128.0771307456
 20
11.5587156951
 11
129.2445665999
 21
14.0734262166
  0
LINE
  5
261
100
AcDbEntity
  8
_30_VOLUMEN
100
AcDbLine
 62
4
  6
CONTINUOUS
 10
149.8865117283
 20
30.774599861
 11
144.7964088337
 21
22.6095302856
  0
LINE
  5
262
100
AcDbEntity
  8
_21_KURVEN
100
AcDbLine
 62
7
  6
CONTINUOUS
 10
149.8865117283
 20
30.774599861
 11
144.7964088337
 21
22.6095302856
  0
LINE
  5
263
100
AcDbEntity
  8
_26_BEZUGSACHSEN
100
AcDbLine
 62
4
  6
CONTINUOUS
 10
144.1312014177
 20
22.2371474001
 11
139.3427669376
 21
14.5740503615
  0
LINE
  5
264
100
AcDbEntity
  8
_30_VOLUMEN
100
AcDbLine
 62
4
  6
CONTINUOUS
 10
135.5879368004
 20
25.7747880068
 11
137.8349303028
 21
21.846335627
  0
LINE
  5
265
100
AcDbEntity
  8
_21_KURVEN
100
AcDbLine
 62
7
  6
CONTINUOUS
 10
135.5879368004
 20
25.7747880068
 11
137.8349303028
 21
21.846335627
  0
LINE
  5
266
100
AcDbEntity
  8
_30_VOLUMEN
100
AcDbLine
 62
4
  6
CONTINUOUS
 10
133.348316674
 20
15.3276325837
 11
133.0255586174
 21
16.7768491017
  0
LINE
  5
267
100
AcDbEntity
  8
_30_VOLUMEN
100
AcDbLine
 62
7
  6
CONTINUOUS
 10
141.4590345168
 20
28.6257780312
 11
141.7499483609
 21
28.2855435001
  0
LINE
  5
268
100
AcDbEntity
  8
_28_BEZUGSPUNKTE
100
AcDbLine
 62
1
  6
CONTINUOUS
 10
150.15625
 20
31.84375
 11
149.84375
 21
32.15625
  0
LINE
  5
269
100
AcDbEntity
  8
_30_VOLUMEN
100
AcDbLine
 62
7
  6
CONTINUOUS
 10
143.1535676085
 20
25.6632004584
 11
143.0356796751
 21
26.0376801949
  0
ARC
  5
26A
100
AcDbEntity
  8
_30_VOLUMEN
100
AcDbCircle
 62
7
  6
CONTINUOUS
 10
141.6570562408
 20
26.7944541595
 40
1.8947373685
100
AcDbArc
 50
322.8769712336
 51
327.0342221912
  0
ARC
  5
26B
100
AcDbEntity
  8
_30_VOLUMEN
100
AcDbCircle
 62
7
  6
CONTINUOUS
 10
141.6502133634
 20
26.8200427911
 40
1.8918132848
100
AcDbArc
 50
92.6832356385
 51
96.1552182931
  0
ARC
  5
26C
100
AcDbEntity
  8
_30_VOLUMEN
100
AcDbCircle
 62
7
  6
CONTINUOUS
 10
141.649758714
 20
26.8254677081
 40
1.8863730422
100
AcDbArc
 50
77.1762892089
 51
92.677155231
  0
ARC
  5
26D
100
AcDbEntity
  8
_30_VOLUMEN
100
AcDbCircle
 62
4
  6
CONTINUOUS
 10
141.2946425704
 20
26.6816425014
 40
1.8860583761
100
AcDbArc
 50
100.4738389935
 51
105.0316535922
  0
ARC
  5
26E
100
AcDbEntity
  8
_30_VOLUMEN
100
AcDbCircle
 62
7
  6
CONTINUOUS
 10
141.6674529986
 20
26.7867993809
 40
1.8818277335
100
AcDbArc
 50
307.9510397393
 51
322.8717566676
  0
ARC
  5
26F
100
AcDbEntity
  8
_30_VOLUMEN
100
AcDbCircle
 62
4
  6
CONTINUOUS
 10
141.2926763281
 20
26.6931490317
 40
1.8743863148
100
AcDbArc
 50
92.8037522939
 51
100.4784633711
  0
ARC
  5
270
100
AcDbEntity
  8
_30_VOLUMEN
100
AcDbCircle
 62
7
  6
CONTINUOUS
 10
141.6490887996
 20
26.8378992342
 40
1.8739393738
100
AcDbArc
 50
96.1795721818
 51
112.0248530755
  0
ARC
  5
271
100
AcDbEntity
  8
_30_VOLUMEN
100
AcDbCircle
 62
4
  6
CONTINUOUS
 10
141.6279530978
 20
26.8931285612
 40
1.8149754762
100
AcDbArc
 50
112.0601585538
 51
120.5063025256
  0
ARC
  5
272
100
AcDbEntity
  8
_30_VOLUMEN
100
AcDbCircle
 62
4
  6
CONTINUOUS
 10
139.6172886798
 20
30.7575370561
 40
0.7939386996
100
AcDbArc
 50
92.7577161949
 51
111.9379890815
  0
ARC
  5
273
100
AcDbEntity
  8
_30_VOLUMEN
100
AcDbCircle
 62
4
  6
CONTINUOUS
 10
144.1261943416
 20
23.0317224339
 40
0.7939386996
100
AcDbArc
 50
272.7577161949
 51
291.9379890815
  0
ARC
  5
274
100
AcDbEntity
  8
_30_VOLUMEN
100
AcDbCircle
 62
4
  6
CONTINUOUS
 10
144.1266426636
 20
23.0265674619
 40
0.7889909563
100
AcDbArc
 50
292.0476478485
 51
328.0910943086
  0
ARC
  5
275
100
AcDbEntity
  8
_30_VOLUMEN
100
AcDbCircle
 62
4
  6
CONTINUOUS
 10
139.6168403579
 20
30.7626920281
 40
0.7889909563
100
AcDbArc
 50
112.0476478485
 51
148.0910943086
  0
SPLINE
  5
276
100
AcDbEntity
  8
_30_VOLUMEN
100
AcDbSpline
 62
4
  6
CONTINUOUS
 70
0
 71
3
 72
11
 73
7
 74
0
 42
0.0000001
 43
0.0000001
 44
0.0000000001
 40
0.0
 40
0.0
 40
0.0
 40
0.0
 40
0.2498956923
 40
0.5004521575
 40
0.750700399
 40
1.0
 40
1.0
 40
1.0
 40
1.0
 10
149.8865117283
 20
30.774599861
 30
0.0
 10
149.9622744194
 20
30.8961313226
 30
0.0
 10
150.0479936179
 20
31.1875884039
 30
0.0
 10
149.9315621394
 20
31.623274561
 30
0.0
 10
149.6098008132
 20
31.9389377459
 30
0.0
 10
149.3140716243
 20
32.0068642798
 30
0.0
 10
149.1713572155
 20
32.0001748245
 30
0.0
  0
SPLINE
  5
277
100
AcDbEntity
  8
_30_VOLUMEN
100
AcDbSpline
 62
4
  6
CONTINUOUS
 70
0
 71
3
 72
8
 73
4
 74
0
 42
0.0000001
 43
0.0000001
 44
0.0000000001
 40
0.0
 40
0.0
 40
0.0
 40
0.0
 40
1.0
 40
1.0
 40
1.0
 40
1.0
 10
138.4915752915
 20
31.0915892367
 30
0.0
 10
138.5653406229
 20
31.165212164
 30
0.0
 10
138.6557065737
 20
31.2250537069
 30
0.0
 10
138.7523368826
 20
31.2640952609
 30
0.0
  0
SPLINE
  5
278
100
AcDbEntity
  8
_30_VOLUMEN
100
AcDbSpline
 62
4
  6
CONTINUOUS
 70
0
 71
3
 72
11
 73
7
 74
0
 42
0.0000001
 43
0.0000001
 44
0.0000000001
 40
0.0
 40
0.0
 40
0.0
 40
0.0
 40
0.2509198526
 40
0.5010968347
 40
0.7506165769
 40
1.0
 40
1.0
 40
1.0
 40
1.0
 10
144.2166054814
 20
27.0045405989
 30
0.0
 10
144.2321226129
 20
26.7065850528
 30
0.0
 10
144.14882114
 20
26.0994191144
 30
0.0
 10
143.6955164541
 20
25.3059399283
 30
0.0
 10
142.9803091567
 20
24.7396511534
 30
0.0
 10
142.3939329692
 20
24.5694108369
 30
0.0
 10
142.0986534042
 20
24.5421811944
 30
0.0
  0
SPLINE
  5
279
100
AcDbEntity
  8
_30_VOLUMEN
100
AcDbSpline
 62
4
  6
CONTINUOUS
 70
0
 71
3
 72
11
 73
7
 74
0
 42
0.0000001
 43
0.0000001
 44
0.0000000001
 40
0.0
 40
0.0
 40
0.0
 40
0.0
 40
0.2508123368
 40
0.5011813708
 40
0.7506434852
 40
1.0
 40
1.0
 40
1.0
 40
1.0
 10
144.1224539287
 20
26.9864635075
 30
0.0
 10
144.1371666576
 20
26.7039538713
 30
0.0
 10
144.0609422723
 20
26.1285507488
 30
0.0
 10
143.6444676932
 20
25.369510486
 30
0.0
 10
142.9813073523
 20
24.8153992484
 30
0.0
 10
142.432960288
 20
24.632112511
 30
0.0
 10
142.1542654334
 20
24.5942839768
 30
0.0
  0
SPLINE
  5
27A
100
AcDbEntity
  8
_30_VOLUMEN
100
AcDbSpline
 62
4
  6
CONTINUOUS
 70
0
 71
3
 72
15
 73
11
 74
0
 42
0.0000001
 43
0.0000001
 44
0.0000000001
 40
0.0
 40
0.0
 40
0.0
 40
0.0
 40
0.1253656395
 40
0.2511036709
 40
0.3764336109
 40
0.5015307377
 40
0.6263050717
 40
0.7508731555
 40
0.8754072183
 40
1.0
 40
1.0
 40
1.0
 40
1.0
 10
144.1224539287
 20
26.9864635075
 30
0.0
 10
144.1103309802
 20
27.2192449167
 30
0.0
 10
144.0138004458
 20
27.6845787204
 30
0.0
 10
143.6709355988
 20
28.3064394056
 30
0.0
 10
143.1575525025
 20
28.7974712887
 30
0.0
 10
142.5226077809
 20
29.1116382681
 30
0.0
 10
141.8240043515
 20
29.2208000896
 30
0.0
 10
141.1257505133
 20
29.114291377
 30
0.0
 10
140.4935217721
 20
28.8015344956
 30
0.0
 10
140.1534044953
 20
28.4745897689
 30
0.0
 10
140.0128248266
 20
28.2904603294
 30
0.0
  0
SPLINE
  5
27B
100
AcDbEntity
  8
_30_VOLUMEN
100
AcDbSpline
 62
4
  6
CONTINUOUS
 70
0
 71
3
 72
16
 73
12
 74
0
 42
0.0000001
 43
0.0000001
 44
0.0000000001
 40
0.0
 40
0.0
 40
0.0
 40
0.0
 40
0.1245980901
 40
0.2490726594
 40
0.3735845204
 40
0.4360985328
 40
0.498683919
 40
0.6237210949
 40
0.7490016033
 40
0.8745899659
 40
1.0
 40
1.0
 40
1.0
 40
1.0
 10
139.9636660627
 20
28.2824892752
 30
0.0
 10
140.1035679334
 20
28.4779691102
 30
0.0
 10
140.4466911818
 20
28.8273813402
 30
0.0
 10
141.0942048826
 20
29.168049361
 30
0.0
 10
141.6967851859
 20
29.2733299132
 30
0.0
 10
142.1790978447
 20
29.2438849559
 30
0.0
 10
142.6523660709
 20
29.1412506159
 30
0.0
 10
143.2061610424
 20
28.8758631998
 30
0.0
 10
143.7433102091
 20
28.371906634
 30
0.0
 10
144.1034141776
 20
27.7289513061
 30
0.0
 10
144.2040220263
 20
27.2461645234
 30
0.0
 10
144.2166054814
 20
27.0045405989
 30
0.0
  0
SPLINE
  5
27C
100
AcDbEntity
  8
_21_KURVEN
100
AcDbSpline
 62
7
  6
CONTINUOUS
 70
0
 71
3
 72
8
 73
4
 74
0
 42
0.0000001
 43
0.0000001
 44
0.0000000001
 40
0.0
 40
0.0
 40
0.0
 40
0.0
 40
1.0
 40
1.0
 40
1.0
 40
1.0
 10
139.5790901882
 20
31.550556308
 30
0.0
 10
139.5624825459
 20
31.5496901123
 30
0.0
 10
139.5373875126
 20
31.5476420153
 30
0.0
 10
139.5158402341
 20
31.545032846
 30
0.0
  0
SPLINE
  5
27D
100
AcDbEntity
  8
_21_KURVEN
100
AcDbSpline
 62
7
  6
CONTINUOUS
 70
0
 71
3
 72
9
 73
5
 74
0
 42
0.0000001
 43
0.0000001
 44
0.0000000001
 40
0.0
 40
0.0
 40
0.0
 40
0.0
 40
0.5
 40
1.0
 40
1.0
 40
1.0
 40
1.0
 10
139.5158402313
 20
31.5450328456
 30
0.0
 10
139.4829621998
 20
31.5401146378
 30
0.0
 10
139.4172772983
 20
31.5288570656
 30
0.0
 10
139.3544355847
 20
31.5067443595
 30
0.0
 10
139.3213510616
 20
31.4942545149
 30
0.0
  0
SPLINE
  5
27E
100
AcDbEntity
  8
_21_KURVEN
100
AcDbSpline
 62
7
  6
CONTINUOUS
 70
0
 71
3
 72
10
 73
6
 74
0
 42
0.0000001
 43
0.0000001
 44
0.0000000001
 40
0.0
 40
0.0
 40
0.0
 40
0.0
 40
0.25
 40
0.5
 40
1.0
 40
1.0
 40
1.0
 40
1.0
 10
139.321351054
 20
31.4942545118
 30
0.0
 10
139.3048177786
 20
31.4871406836
 30
0.0
 10
139.2727261788
 20
31.4732037631
 30
0.0
 10
139.2034806256
 20
31.4370113382
 30
0.0
 10
139.1612557495
 20
31.4068772352
 30
0.0
 10
139.1301377978
 20
31.3836927091
 30
0.0
  0
SPLINE
  5
27F
100
AcDbEntity
  8
_21_KURVEN
100
AcDbSpline
 62
7
  6
CONTINUOUS
 70
0
 71
3
 72
9
 73
5
 74
0
 42
0.0000001
 43
0.0000001
 44
0.0000000001
 40
0.0
 40
0.0
 40
0.0
 40
0.0
 40
0.5
 40
1.0
 40
1.0
 40
1.0
 40
1.0
 10
139.1301377956
 20
31.3836927074
 30
0.0
 10
139.0960302848
 20
31.3553660081
 30
0.0
 10
139.0270556121
 20
31.2946791882
 30
0.0
 10
138.9737131481
 20
31.2197105863
 30
0.0
 10
138.947074189
 20
31.1797292064
 30
0.0
  0
SPLINE
  5
280
100
AcDbEntity
  8
_21_KURVEN
100
AcDbSpline
 62
7
  6
CONTINUOUS
 70
0
 71
3
 72
9
 73
5
 74
0
 42
0.0000001
 43
0.0000001
 44
0.0000000001
 40
0.0
 40
0.0
 40
0.0
 40
0.0
 40
0.5
 40
1.0
 40
1.0
 40
1.0
 40
1.0
 10
149.8865117283
 20
30.774599861
 30
0.0
 10
149.9142316024
 20
30.8227386165
 30
0.0
 10
149.9694798786
 20
30.9279965823
 30
0.0
 10
149.9915335032
 20
31.0394803619
 30
0.0
 10
150.0011339577
 20
31.0987674267
 30
0.0
  0
SPLINE
  5
281
100
AcDbEntity
  8
_21_KURVEN
100
AcDbSpline
 62
7
  6
CONTINUOUS
 70
0
 71
3
 72
9
 73
5
 74
0
 42
0.0000001
 43
0.0000001
 44
0.0000000001
 40
0.0
 40
0.0
 40
0.0
 40
0.0
 40
0.5
 40
1.0
 40
1.0
 40
1.0
 40
1.0
 10
150.0011339584
 20
31.0987674324
 30
0.0
 10
150.0060504891
 20
31.1542920131
 30
0.0
 10
150.0122764042
 20
31.2720695486
 30
0.0
 10
149.98456574
 20
31.386871153
 30
0.0
 10
149.9686110132
 20
31.4435990856
 30
0.0
  0
SPLINE
  5
282
100
AcDbEntity
  8
_21_KURVEN
100
AcDbSpline
 62
7
  6
CONTINUOUS
 70
0
 71
3
 72
9
 73
5
 74
0
 42
0.0000001
 43
0.0000001
 44
0.0000000001
 40
0.0
 40
0.0
 40
0.0
 40
0.0
 40
0.5
 40
1.0
 40
1.0
 40
1.0
 40
1.0
 10
149.968611015
 20
31.4435990801
 30
0.0
 10
149.9497094887
 20
31.4961411376
 30
0.0
 10
149.9058178544
 20
31.6058037754
 30
0.0
 10
149.8325093622
 20
31.6983217214
 30
0.0
 10
149.7943317865
 20
31.7429771459
 30
0.0
  0
SPLINE
  5
283
100
AcDbEntity
  8
_21_KURVEN
100
AcDbSpline
 62
7
  6
CONTINUOUS
 70
0
 71
3
 72
9
 73
5
 74
0
 42
0.0000001
 43
0.0000001
 44
0.0000000001
 40
0.0
 40
0.0
 40
0.0
 40
0.0
 40
0.5
 40
1.0
 40
1.0
 40
1.0
 40
1.0
 10
149.7943317875
 20
31.7429771448
 30
0.0
 10
149.7551667469
 20
31.7826807535
 30
0.0
 10
149.6694097728
 20
31.8636584765
 30
0.0
 10
149.5642726985
 20
31.9165442288
 30
0.0
 10
149.5116496327
 20
31.9406138627
 30
0.0
  0
SPLINE
  5
284
100
AcDbEntity
  8
_21_KURVEN
100
AcDbSpline
 62
7
  6
CONTINUOUS
 70
0
 71
3
 72
9
 73
5
 74
0
 42
0.0000001
 43
0.0000001
 44
0.0000000001
 40
0.0
 40
0.0
 40
0.0
 40
0.0
 40
0.5
 40
1.0
 40
1.0
 40
1.0
 40
1.0
 10
149.5116496353
 20
31.9406138616
 30
0.0
 10
149.4595838156
 20
31.9600780594
 30
0.0
 10
149.3480784446
 20
31.997280913
 30
0.0
 10
149.2308351665
 20
32.0007188256
 30
0.0
 10
149.171357211
 20
32.0001748243
 30
0.0
  0
SPLINE
  5
285
100
AcDbEntity
  8
_21_KURVEN
100
AcDbSpline
 62
1
  6
CENTER
 70
0
 71
3
 72
121
 73
117
 74
0
 42
0.0000001
 43
0.0000001
 44
0.0000000001
 40
0.0
 40
0.0
 40
0.0
 40
0.0
 40
0.03125
 40
0.046875
 40
0.0546875
 40
0.0625
 40
0.06640625
 40
0.0703125
 40
0.078125
 40
0.0859375
 40
0.09375
 40
0.109375
 40
0.125
 40
0.1328125
 40
0.13671875
 40
0.140625
 40
0.142578125
 40
0.14453125
 40
0.1484375
 40
0.15625
 40
0.171875
 40
0.1875
 40
0.203125
 40
0.2109375
 40
0.21484375
 40
0.21875
 40
0.2265625
 40
0.234375
 40
0.25
 40
0.265625
 40
0.2734375
 40
0.28125
 40
0.28515625
 40
0.2890625
 40
0.296875
 40
0.3125
 40
0.328125
 40
0.34375
 40
0.3515625
 40
0.35546875
 40
0.357421875
 40
0.359375
 40
0.36328125
 40
0.3671875
 40
0.375
 40
0.390625
 40
0.40625
 40
0.4140625
 40
0.421875
 40
0.4296875
 40
0.43359375
 40
0.4375
 40
0.4453125
 40
0.453125
 40
0.46875
 40
0.484375
 40
0.4921875
 40
0.49609375
 40
0.5
 40
0.50390625
 40
0.5078125
 40
0.515625
 40
0.53125
 40
0.546875
 40
0.5546875
 40
0.5625
 40
0.56640625
 40
0.5703125
 40
0.578125
 40
0.5859375
 40
0.59375
 40
0.609375
 40
0.625
 40
0.6328125
 40
0.63671875
 40
0.640625
 40
0.642578125
 40
0.64453125
 40
0.6484375
 40
0.65625
 40
0.671875
 40
0.6875
 40
0.703125
 40
0.7109375
 40
0.71484375
 40
0.71875
 40
0.7265625
 40
0.734375
 40
0.75
 40
0.765625
 40
0.7734375
 40
0.78125
 40
0.78515625
 40
0.7890625
 40
0.796875
 40
0.8125
 40
0.828125
 40
0.84375
 40
0.8515625
 40
0.85546875
 40
0.857421875
 40
0.859375
 40
0.86328125
 40
0.8671875
 40
0.875
 40
0.890625
 40
0.90625
 40
0.9140625
 40
0.921875
 40
0.9296875
 40
0.93359375
 40
0.9375
 40
0.9453125
 40
0.953125
 40
0.96875
 40
1.0
 40
1.0
 40
1.0
 40
1.0
 10
146.5936927413
 20
27.1159618557
 30
0.0
 10
146.5711414769
 20
27.2593329631
 30
0.0
 10
146.5372777132
 20
27.4743799022
 30
0.0
 10
146.4978990239
 20
27.7253020253
 30
0.0
 10
146.4752125799
 20
27.8686374848
 30
0.0
 10
146.4614636694
 20
27.9583355722
 30
0.0
 10
146.4494783443
 20
28.0298339743
 30
0.0
 10
146.4410937123
 20
28.1022819078
 30
0.0
 10
146.4048404693
 20
28.1860454241
 30
0.0
 10
146.3673606979
 20
28.2881499737
 30
0.0
 10
146.3152885691
 20
28.4237372463
 30
0.0
 10
146.2508813593
 20
28.5933914637
 30
0.0
 10
146.1863662202
 20
28.7630553332
 30
0.0
 10
146.1409542086
 20
28.8816806837
 30
0.0
 10
146.1154678623
 20
28.9497026022
 30
0.0
 10
146.0984403198
 20
28.9916594721
 30
0.0
 10
146.0873390247
 20
29.0265023571
 30
0.0
 10
146.0670336348
 20
29.056681149
 30
0.0
 10
146.0331038894
 20
29.1103073197
 30
0.0
 10
145.9641006487
 20
29.2169786455
 30
0.0
 10
145.8661585211
 20
29.3696990464
 30
0.0
 10
145.7481993871
 20
29.552694158
 30
0.0
 10
145.6504834708
 20
29.7056442589
 30
0.0
 10
145.5810447733
 20
29.8118734122
 30
0.0
 10
145.5429691766
 20
29.8738725343
 30
0.0
 10
145.488836628
 20
29.9228846836
 30
0.0
 10
145.4266707831
 20
29.988598975
 30
0.0
 10
145.324120353
 20
30.0912415163
 30
0.0
 10
145.1970710398
 20
30.2205007104
 30
0.0
 10
145.0693231764
 20
30.349061241
 30
0.0
 10
144.9678904267
 20
30.452821644
 30
0.0
 10
144.9029303808
 20
30.5157412814
 30
0.0
 10
144.8545259443
 20
30.5704824713
 30
0.0
 10
144.793118769
 20
30.6091462326
 30
0.0
 10
144.6879284422
 20
30.6796177559
 30
0.0
 10
144.5364595533
 20
30.7788075877
 30
0.0
 10
144.3552487869
 20
30.8985347738
 30
0.0
 10
144.2039961385
 20
30.9979544995
 30
0.0
 10
144.0983895487
 20
31.067983477
 30
0.0
 10
144.0452448228
 20
31.1024378554
 30
0.0
 10
144.0154231091
 20
31.1230240937
 30
0.0
 10
143.9801143529
 20
31.1345964166
 30
0.0
 10
143.9378568947
 20
31.152147629
 30
0.0
 10
143.8691967298
 20
31.1785082232
 30
0.0
 10
143.7495283471
 20
31.2254328627
 30
0.0
 10
143.5783309048
 20
31.2921208262
 30
0.0
 10
143.4071764624
 20
31.3586861148
 30
0.0
 10
143.2703437965
 20
31.4125105538
 30
0.0
 10
143.1674208332
 20
31.4512358638
 30
0.0
 10
143.0826087069
 20
31.4887452664
 30
0.0
 10
143.0108268938
 20
31.4972387517
 30
0.0
 10
142.9397317589
 20
31.5094889344
 30
0.0
 10
142.8506278945
 20
31.5235189779
 30
0.0
 10
142.7081920079
 20
31.5466628362
 30
0.0
 10
142.5301097091
 20
31.5755049838
 30
0.0
 10
142.3520143019
 20
31.6038280967
 30
0.0
 10
142.2274012528
 20
31.6248056213
 30
0.0
 10
142.1561056099
 20
31.6349747533
 30
0.0
 10
142.1028830837
 20
31.6477267212
 30
0.0
 10
142.0487078266
 20
31.6408872258
 30
0.0
 10
141.9768065201
 20
31.6386013943
 30
0.0
 10
141.8508239101
 20
31.6314196053
 30
0.0
 10
141.6709337131
 20
31.6228050173
 30
0.0
 10
141.4909995304
 20
31.6136701467
 30
0.0
 10
141.3470897817
 20
31.6062948399
 30
0.0
 10
141.2570741878
 20
31.6021139403
 30
0.0
 10
141.1852251158
 20
31.597757272
 30
0.0
 10
141.1127800321
 20
31.5971054644
 30
0.0
 10
141.0264895113
 20
31.5697691854
 30
0.0
 10
140.9219440526
 20
31.5431647959
 30
0.0
 10
140.7828961428
 20
31.5055323306
 30
0.0
 10
140.6089830765
 20
31.45919348
 30
0.0
 10
140.4350501826
 20
31.4127476379
 30
0.0
 10
140.3134110202
 20
31.3799690188
 30
0.0
 10
140.2437136814
 20
31.3617273846
 30
0.0
 10
140.2005988493
 20
31.3491673096
 30
0.0
 10
140.1650838839
 20
31.3417787271
 30
0.0
 10
140.1333045135
 20
31.3246794773
 30
0.0
 10
140.0770392402
 20
31.2964488381
 30
0.0
 10
139.9649739713
 20
31.2387803621
 30
0.0
 10
139.8046147796
 20
31.1570696741
 30
0.0
 10
139.6123968191
 20
31.0585464813
 30
0.0
 10
139.4518595541
 20
30.9771145791
 30
0.0
 10
139.3401370763
 20
30.9189094405
 30
0.0
 10
139.2752818794
 20
30.8875100888
 30
0.0
 10
139.2205795003
 20
30.8374786686
 30
0.0
 10
139.1487228486
 20
30.7813210779
 30
0.0
 10
139.0357101084
 20
30.6878902884
 30
0.0
 10
138.8936746253
 20
30.572414897
 30
0.0
 10
138.7522699953
 20
30.4561604291
 30
0.0
 10
138.6382478903
 20
30.3639761618
 30
0.0
 10
138.5689146504
 20
30.3047022656
 30
0.0
 10
138.509039277
 20
30.2610592719
 30
0.0
 10
138.465254569
 20
30.2036387682
 30
0.0
 10
138.3858191573
 20
30.1055604848
 30
0.0
 10
138.2738244463
 20
29.9641806058
 30
0.0
 10
138.138733263
 20
29.795108288
 30
0.0
 10
138.0265031123
 20
29.6539602943
 30
0.0
 10
137.947520922
 20
29.5554356318
 30
0.0
 10
137.9085706723
 20
29.5058216798
 30
0.0
 10
137.8854463781
 20
29.4780337809
 30
0.0
 10
137.8710246169
 20
29.4445959953
 30
0.0
 10
137.850018198
 20
29.4047329667
 30
0.0
 10
137.8180698527
 20
29.3398729931
 30
0.0
 10
137.7613936532
 20
29.2268673421
 30
0.0
 10
137.6807662519
 20
29.0651976887
 30
0.0
 10
137.6002446401
 20
28.9035090188
 30
0.0
 10
137.5353025775
 20
28.7743901299
 30
0.0
 10
137.4881068766
 20
28.6768662322
 30
0.0
 10
137.4439596277
 20
28.5977820678
 30
0.0
 10
137.4284276323
 20
28.5255369814
 30
0.0
 10
137.4094402709
 20
28.4548597581
 30
0.0
 10
137.3868890602
 20
28.3659764499
 30
0.0
 10
137.3501467119
 20
28.2240628165
 30
0.0
 10
137.2861571701
 20
27.9755734926
 30
0.0
 10
137.2312028539
 20
27.7626308032
 30
0.0
 10
137.1945902293
 20
27.6206583081
 30
0.0
  0
SPLINE
  5
286
100
AcDbEntity
  8
_21_KURVEN
100
AcDbSpline
 62
1
  6
CENTER
 70
0
 71
3
 72
75
 73
71
 74
0
 42
0.0000001
 43
0.0000001
 44
0.0000000001
 40
0.0
 40
0.0
 40
0.0
 40
0.0
 40
0.03125
 40
0.0625
 40
0.078125
 40
0.0859375
 40
0.09375
 40
0.1015625
 40
0.109375
 40
0.125
 40
0.15625
 40
0.171875
 40
0.1875
 40
0.203125
 40
0.2109375
 40
0.21875
 40
0.25
 40
0.28125
 40
0.2890625
 40
0.296875
 40
0.3125
 40
0.328125
 40
0.34375
 40
0.375
 40
0.390625
 40
0.3984375
 40
0.40625
 40
0.4140625
 40
0.421875
 40
0.4375
 40
0.453125
 40
0.46875
 40
0.484375
 40
0.4921875
 40
0.49609375
 40
0.5
 40
0.50390625
 40
0.5078125
 40
0.515625
 40
0.53125
 40
0.546875
 40
0.5625
 40
0.578125
 40
0.5859375
 40
0.59375
 40
0.6015625
 40
0.609375
 40
0.625
 40
0.65625
 40
0.671875
 40
0.6875
 40
0.703125
 40
0.7109375
 40
0.71875
 40
0.75
 40
0.78125
 40
0.7890625
 40
0.796875
 40
0.8125
 40
0.828125
 40
0.84375
 40
0.875
 40
0.890625
 40
0.8984375
 40
0.90625
 40
0.9140625
 40
0.921875
 40
0.9375
 40
0.96875
 40
1.0
 40
1.0
 40
1.0
 40
1.0
 10
140.1346534772
 20
22.4805553072
 30
0.0
 10
140.2287708618
 20
22.4531164341
 30
0.0
 10
140.4170058999
 20
22.3982402006
 30
0.0
 10
140.6522983525
 20
22.329637345
 30
0.0
 10
140.8170055408
 20
22.2816292444
 30
0.0
 10
140.9111201009
 20
22.2541744875
 30
0.0
 10
140.9817168145
 20
22.2336441187
 30
0.0
 10
141.0522722705
 20
22.2128817326
 30
0.0
 10
141.1506631565
 20
22.2094253789
 30
0.0
 10
141.3208322935
 20
22.1920456364
 30
0.0
 10
141.5161770225
 20
22.1772017238
 30
0.0
 10
141.7112273639
 20
22.1602517159
 30
0.0
 10
141.8575325677
 20
22.1488388457
 30
0.0
 10
141.979518073
 20
22.135873541
 30
0.0
 10
142.0765624675
 20
22.1507369011
 30
0.0
 10
142.2222718697
 20
22.1665192603
 30
0.0
 10
142.4407338527
 20
22.1932494992
 30
0.0
 10
142.6593901015
 20
22.2175219588
 30
0.0
 10
142.8049052379
 20
22.2357620973
 30
0.0
 10
142.9025108449
 20
22.2435252061
 30
0.0
 10
143.0201793311
 20
22.2851772187
 30
0.0
 10
143.1619736593
 20
22.3309673575
 30
0.0
 10
143.350683677
 20
22.3937447646
 30
0.0
 10
143.5403039245
 20
22.4545633925
 30
0.0
 10
143.704061376
 20
22.5117901853
 30
0.0
 10
143.8008852591
 20
22.5385954678
 30
0.0
 10
143.8643758003
 20
22.5752408004
 30
0.0
 10
143.9279828695
 20
22.6116746748
 30
0.0
 10
144.0127510211
 20
22.660327841
 30
0.0
 10
144.1187294451
 20
22.7211129419
 30
0.0
 10
144.2458779395
 20
22.7940935758
 30
0.0
 10
144.3730997164
 20
22.8669703291
 30
0.0
 10
144.4788949341
 20
22.9280151315
 30
0.0
 10
144.5533876778
 20
22.9701321741
 30
0.0
 10
144.5952742538
 20
22.9951579216
 30
0.0
 10
144.6286067067
 20
23.011226154
 30
0.0
 10
144.654609429
 20
23.0376192662
 30
0.0
 10
144.6918364205
 20
23.0692086454
 30
0.0
 10
144.7557924142
 20
23.1261680694
 30
0.0
 10
144.8477811534
 20
23.206661118
 30
0.0
 10
144.9578999154
 20
23.3036295984
 30
0.0
 10
145.068092723
 20
23.4004948814
 30
0.0
 10
145.1598963484
 20
23.4812459237
 30
0.0
 10
145.2333591403
 20
23.5458264208
 30
0.0
 10
145.2884107878
 20
23.5943048198
 30
0.0
 10
145.3436342754
 20
23.6426212824
 30
0.0
 10
145.3993404839
 20
23.7239363926
 30
0.0
 10
145.5052117047
 20
23.8583385359
 30
0.0
 10
145.622483127
 20
24.01542813
 30
0.0
 10
145.7413440614
 20
24.1710840614
 30
0.0
 10
145.8294454845
 20
24.2886398536
 30
0.0
 10
145.9056819662
 20
24.3844875609
 30
0.0
 10
145.9460540242
 20
24.4765903817
 30
0.0
 10
146.0119360698
 20
24.6107711462
 30
0.0
 10
146.1082139889
 20
24.8138018394
 30
0.0
 10
146.2066865671
 20
25.0157545465
 30
0.0
 10
146.2703739535
 20
25.151013297
 30
0.0
 10
146.3170861378
 20
25.240001936
 30
0.0
 10
146.3445524178
 20
25.3598048879
 30
0.0
 10
146.3815770208
 20
25.5024448173
 30
0.0
 10
146.4292375595
 20
25.6930883754
 30
0.0
 10
146.4790015558
 20
25.8832372454
 30
0.0
 10
146.5181427755
 20
26.0506161662
 30
0.0
 10
146.5470042187
 20
26.14479662
 30
0.0
 10
146.5504229985
 20
26.2195405604
 30
0.0
 10
146.554074516
 20
26.2942320178
 30
0.0
 10
146.5588620228
 20
26.3938389348
 30
0.0
 10
146.567278001
 20
26.5681425062
 30
0.0
 10
146.5792809105
 20
26.8171520994
 30
0.0
 10
146.5888893079
 20
27.0163584052
 30
0.0
 10
146.5936927479
 20
27.1159617292
 30
0.0
  0
SPLINE
  5
287
100
AcDbEntity
  8
_21_KURVEN
100
AcDbSpline
 62
7
  6
CONTINUOUS
 70
0
 71
3
 72
8
 73
4
 74
0
 42
0.0000001
 43
0.0000001
 44
0.0000000001
 40
0.0
 40
0.0
 40
0.0
 40
0.0
 40
1.0
 40
1.0
 40
1.0
 40
1.0
 10
144.1643928332
 20
22.2387031819
 30
0.0
 10
144.1810004755
 20
22.2395693777
 30
0.0
 10
144.2060955088
 20
22.2416174747
 30
0.0
 10
144.2276427873
 20
22.244226644
 30
0.0
  0
SPLINE
  5
288
100
AcDbEntity
  8
_21_KURVEN
100
AcDbSpline
 62
7
  6
CONTINUOUS
 70
0
 71
3
 72
9
 73
5
 74
0
 42
0.0000001
 43
0.0000001
 44
0.0000000001
 40
0.0
 40
0.0
 40
0.0
 40
0.0
 40
0.5
 40
1.0
 40
1.0
 40
1.0
 40
1.0
 10
144.2276427901
 20
22.2442266443
 30
0.0
 10
144.2605208217
 20
22.2491448521
 30
0.0
 10
144.3262057231
 20
22.2604024244
 30
0.0
 10
144.3890474367
 20
22.2825151304
 30
0.0
 10
144.4228100789
 20
22.2952789067
 30
0.0
  0
SPLINE
  5
289
100
AcDbEntity
  8
_21_KURVEN
100
AcDbSpline
 62
7
  6
CONTINUOUS
 70
0
 71
3
 72
9
 73
5
 74
0
 42
0.0000001
 43
0.0000001
 44
0.0000000001
 40
0.0
 40
0.0
 40
0.0
 40
0.0
 40
0.5
 40
1.0
 40
1.0
 40
1.0
 40
1.0
 10
144.4228100897
 20
22.295278911
 30
0.0
 10
144.4558634113
 20
22.3095373054
 30
0.0
 10
144.5203488286
 20
22.3388573884
 30
0.0
 10
144.582824398
 20
22.3828050999
 30
0.0
 10
144.6133452263
 20
22.405566783
 30
0.0
  0
SPLINE
  5
28A
100
AcDbEntity
  8
_21_KURVEN
100
AcDbSpline
 62
7
  6
CONTINUOUS
 70
0
 71
3
 72
9
 73
5
 74
0
 42
0.0000001
 43
0.0000001
 44
0.0000000001
 40
0.0
 40
0.0
 40
0.0
 40
0.0
 40
0.5
 40
1.0
 40
1.0
 40
1.0
 40
1.0
 10
144.6133452258
 20
22.4055667826
 30
0.0
 10
144.6474527366
 20
22.4338934819
 30
0.0
 10
144.7164274093
 20
22.4945803018
 30
0.0
 10
144.7697698733
 20
22.5695489037
 30
0.0
 10
144.7964088324
 20
22.6095302836
 30
0.0
  0
SPLINE
  5
28B
100
AcDbEntity
  8
_30_VOLUMEN
100
AcDbSpline
 62
4
  6
CONTINUOUS
 70
0
 71
3
 72
15
 73
11
 74
0
 42
0.0000001
 43
0.0000001
 44
0.0000000001
 40
0.0
 40
0.0
 40
0.0
 40
0.0
 40
0.1244782875
 40
0.2492002668
 40
0.3742664071
 40
0.4995900422
 40
0.6250020099
 40
0.7502983734
 40
0.8753014473
 40
1.0
 40
1.0
 40
1.0
 40
1.0
 10
141.4590345168
 20
28.6257780312
 30
0.0
 10
141.6420853562
 20
28.6689346979
 30
0.0
 10
142.0254256948
 20
28.6959074519
 30
0.0
 10
142.5819602565
 20
28.5518783929
 30
0.0
 10
143.0663893333
 20
28.2392182355
 30
0.0
 10
143.4287680653
 20
27.7896347729
 30
0.0
 10
143.6326262062
 20
27.249023993
 30
0.0
 10
143.6570365521
 20
26.672130496
 30
0.0
 10
143.5000298807
 20
26.1180469912
 30
0.0
 10
143.2832353935
 20
25.7998813249
 30
0.0
 10
143.1535676085
 20
25.6632004584
 30
0.0
  0
ELLIPSE
  5
28C
100
AcDbEntity
  8
_30_VOLUMEN
100
AcDbEllipse
 62
4
  6
CONTINUOUS
 10
142.251386912
 20
27.078193863
 30
0.0
 11
-0.5518507454
 21
1.1853601081
 31
0.0
 40
0.9284285505
 41
-2.9157305539
 42
-0.0453084154
  0
ENDSEC
  0
SECTION
  2
OBJECTS
  0
DICTIONARY
  5
C
100
AcDbDictionary
280
0
281
1
  3
ACAD_GROUP
350
D
  3
ACAD_MLINESTYLE
350
17
  3
ACAD_LAYOUT
350
1A
  3
ACAD_PLOTSETTINGS
350
19
  3
ACAD_PLOTSTYLENAME
350
E
  0
DICTIONARY
  5
D
102
{ACAD_REACTORS
330
C
102
}
100
AcDbDictionary
280
0
281
1
  0
ACDBDICTIONARYWDFLT
  5
E
102
{ACAD_REACTORS
330
C
102
}
100
AcDbDictionary
281
1
  3
Normal
350
F
100
AcDbDictionaryWithDefault
340
F
  0
DICTIONARY
  5
17
102
{ACAD_REACTORS
330
C
102
}
100
AcDbDictionary
280
0
281
1
  3
Standard
350
18
  0
DICTIONARY
  5
19
102
{ACAD_REACTORS
330
C
102
}
100
AcDbDictionary
281
1
  0
DICTIONARY
  5
1A
102
{ACAD_REACTORS
330
C
102
}
100
AcDbDictionary
281
1
  3
Model
350
28D
  3
Layout1
350
28E
  0
ACDBPLACEHOLDER
  5
F
102
{ACAD_REACTORS
330
E
102
}
  0
MLINESTYLE
  5
18
102
{ACAD_REACTORS
330
17
102
}
100
AcDbMlineStyle
  2
STANDARD
 70
0
  3

 62
256
 51
90.0
 52
90.0
 71
2
 49
0.5
 62
256
  6
BYLAYER
 49
-0.5
 62
256
  6
BYLAYER
  0
LAYOUT
  5
28D
102
{ACAD_REACTORS
330
1A
102
}
100
AcDbPlotSettings
  1

  2
none_device
  4
ISO_A3_(420.00_x_297.00_MM)
  6

 40
0.0
 41
0.0
 42
0.0
 43
0.0
 44
420.0
 45
297.0
 46
0.0
 47
0.0
 48
0.0
 49
0.0
140
0.0
141
0.0
142
1.0
143
1.0
 70
1024
 72
1
 73
0
 74
0
  7

 75
0
147
1.0
148
0.0
149
0.0
100
AcDbLayout
  1
Model
 70
0
 71
0
 10
0.0
 20
0.0
 11
420.0
 21
297.0
 12
0.0
 22
0.0
 32
0.0
 14
0.0
 24
0.0
 34
0.0
 15
0.0
 25
0.0
 35
0.0
146
0.0
 13
0.0
 23
0.0
 33
0.0
 16
1.0
 26
0.0
 36
0.0
 17
0.0
 27
1.0
 37
0.0
 76
0
330
20E
345
0
346
0
  0
LAYOUT
  5
28E
102
{ACAD_REACTORS
330
1A
102
}
100
AcDbPlotSettings
  1

  2
none_device
  4
ISO_A3_(420.00_x_297.00_MM)
  6

 40
0.0
 41
0.0
 42
0.0
 43
0.0
 44
420.0
 45
297.0
 46
0.0
 47
0.0
 48
0.0
 49
0.0
140
0.0
141
0.0
142
1.0
143
1.0
 70
0
 72
1
 73
0
 74
0
  7

 75
0
147
1.0
148
0.0
149
0.0
100
AcDbLayout
  1
Layout1
 70
0
 71
1
 10
0.0
 20
0.0
 11
420.0
 21
297.0
 12
0.0
 22
0.0
 32
0.0
 14
0.0
 24
0.0
 34
0.0
 15
0.0
 25
0.0
 35
0.0
146
0.0
 13
0.0
 23
0.0
 33
0.0
 16
1.0
 26
0.0
 36
0.0
 17
0.0
 27
1.0
 37
0.0
 76
0
330
20F
345
0
346
0
  0
ENDSEC
  0
EOF
