999
DXF file: 70541032.dxf
999
Pro/ENGINEER 2017380 by Parametric Technology Corporation
  0
SECTION
  2
HEADER
  9
$ACADVER
  1
AC1027
  9
$DWGCODEPAGE
  3
ANSI_1252
  9
$EXTMAX
 10
420.0
 20
297.0
 30
0.0
  9
$EXTMIN
 10
0.0
 20
0.0
 30
0.0
  9
$LIMMIN
 10
0.0
 20
0.0
  9
$LIMMAX
 10
420.0
 20
297.0
  9
$VIEWCTR
 10
210.0
 20
148.5
  9
$VIEWSIZE
 40
297.0
  9
$CLAYER
  8
0
  9
$LTSCALE
 40
23.1
  9
$CELTYPE
  6
BYLAYER
  9
$DIMSCALE
 40
1.0
  9
$DIMASZ
 40
3.5
  9
$DIMEXO
 40
0.0
  9
$DIMDLI
 40
15.96
  9
$DIMEXE
 40
1.5
  9
$DIMCEN
 40
3.78
  9
$DIMLFAC
 40
1.0
  9
$DIMBLK
  1
_FILLED
  9
$DIMALT
 70
0
  9
$DIMALTF
 40
25.4
  9
$DIMTXT
 40
3.5
  9
$DIMTOL
 70
1
  9
$DIMLIM
 70
0
  9
$DIMTFAC
 40
1.0
  9
$DIMTP
 40
0.05
  9
$DIMTM
 40
0.05
  9
$DIMGAP
 40
0.625
  9
$DIMDSEP
 70
46
  9
$AUNITS
 70
0
  9
$PDMODE
 70
3
  9
$PDSIZE
 40
0.3125
  9
$HANDSEED
  5
286
  9
$TILEMODE
 70
1
  9
$MEASUREMENT
 70
1
  9
$INSUNITS
 70
4
  0
ENDSEC
  0
SECTION
  2
CLASSES
  0
CLASS
  1
ACDBDICTIONARYWDFLT
  2
AcDbDictionaryWithDefault
  3
AutoCAD 2000
 90
0
 91
1
280
0
281
0
  0
CLASS
  1
ACDBPLACEHOLDER
  2
AcDbPlaceHolder
  3
AutoCAD 2000
 90
0
 91
1
280
0
281
0
  0
CLASS
  1
LAYOUT
  2
AcDbLayout
  3
AutoCAD 2000
 90
0
 91
0
280
0
281
0
  0
ENDSEC
  0
SECTION
  2
TABLES
  0
TABLE
  2
VPORT
  5
8
100
AcDbSymbolTable
 70
2
  0
VPORT
  5
1F4
100
AcDbSymbolTableRecord
100
AcDbViewportTableRecord
  2
*ACTIVE
 70
0
 10
0.0
 20
0.0
 11
1.0
 21
1.0
 12
210.0
 22
148.5
 13
0.0
 23
0.0
 14
1.0
 24
1.0
 15
0.0
 25
0.0
 16
0.0
 26
0.0
 36
1.0
 17
0.0
 27
0.0
 37
0.0
 40
297.0
 41
1.4141414141
 42
50.0
 43
0.0
 44
0.0
 50
0.0
 51
0.0
 71
0
 72
100
 73
1
 74
1
 75
0
 76
0
 77
0
 78
0
  0
ENDTAB
  0
TABLE
  2
LTYPE
  5
5
100
AcDbSymbolTable
 70
6
  0
LTYPE
  5
14
100
AcDbSymbolTableRecord
100
AcDbLinetypeTableRecord
  2
BYBLOCK
 70
0
  3

 72
65
 73
0
 40
0.0
  0
LTYPE
  5
15
100
AcDbSymbolTableRecord
100
AcDbLinetypeTableRecord
  2
BYLAYER
 70
0
  3

 72
65
 73
0
 40
0.0
  0
LTYPE
  5
16
100
AcDbSymbolTableRecord
100
AcDbLinetypeTableRecord
  2
CONTINUOUS
 70
64
  3
Solid line
 72
65
 73
0
 40
0.0
  0
LTYPE
  5
1F5
100
AcDbSymbolTableRecord
100
AcDbLinetypeTableRecord
  2
CENTER
 70
64
  3
____ _ ____ _ ____ _ ____ _ ____ _ ____ _ ____
 72
65
 73
4
 40
0.6
 49
0.375
 74
0
 49
-0.075
 74
0
 49
0.075
 74
0
 49
-0.075
 74
0
  0
LTYPE
  5
1F6
100
AcDbSymbolTableRecord
100
AcDbLinetypeTableRecord
  2
HIDDEN
 70
64
  3
- - - - - - - - - - - - - - - - - - - -
 72
65
 73
2
 40
0.2
 49
0.1
 74
0
 49
-0.1
 74
0
  0
LTYPE
  5
1F7
100
AcDbSymbolTableRecord
100
AcDbLinetypeTableRecord
  2
PHANTOM
 70
64
  3
_____ _ _ _____ _ _ _____ _ _ _____
 72
65
 73
6
 40
0.8
 49
0.45
 74
0
 49
-0.05
 74
0
 49
0.1
 74
0
 49
-0.05
 74
0
 49
0.1
 74
0
 49
-0.05
 74
0
  0
LTYPE
  5
1F8
100
AcDbSymbolTableRecord
100
AcDbLinetypeTableRecord
  2
DOT
 70
64
  3
. . . . . . . . . . . . . . . . . . . .
 72
65
 73
2
 40
0.2
 49
0.1
 74
0
 49
-0.1
 74
0
  0
LTYPE
  5
1F9
100
AcDbSymbolTableRecord
100
AcDbLinetypeTableRecord
  2
DASHED
 70
64
  3
- - - - - - - - - - - - - - - - - - - -
 72
65
 73
2
 40
0.2
 49
0.1
 74
0
 49
-0.1
 74
0
  0
ENDTAB
  0
TABLE
  2
LAYER
  5
2
100
AcDbSymbolTable
 70
36
  0
LAYER
  5
10
100
AcDbSymbolTableRecord
100
AcDbLayerTableRecord
  2
0
 70
0
 62
7
  6
CONTINUOUS
370
-3
390
F
  0
LAYER
  5
1FA
100
AcDbSymbolTableRecord
100
AcDbLayerTableRecord
  2
DEFAULT_1
 70
0
 62
7
  6
CENTER
370
-3
390
F
  0
LAYER
  5
1FB
100
AcDbSymbolTableRecord
100
AcDbLayerTableRecord
  2
DEFAULT_2
 70
0
 62
1
  6
HIDDEN
370
-3
390
F
  0
LAYER
  5
1FC
100
AcDbSymbolTableRecord
100
AcDbLayerTableRecord
  2
DEFAULT_3
 70
0
 62
7
  6
PHANTOM
370
-3
390
F
  0
LAYER
  5
1FD
100
AcDbSymbolTableRecord
100
AcDbLayerTableRecord
  2
BG_STARTBEZUEGE
 70
0
 62
7
  6
CONTINUOUS
370
-3
390
F
  0
LAYER
  5
1FE
100
AcDbSymbolTableRecord
100
AcDbLayerTableRecord
  2
HILFEN
 70
0
 62
7
  6
CONTINUOUS
370
-3
390
F
  0
LAYER
  5
1FF
100
AcDbSymbolTableRecord
100
AcDbLayerTableRecord
  2
PLATZIERUNG
 70
0
 62
7
  6
CONTINUOUS
370
-3
390
F
  0
LAYER
  5
200
100
AcDbSymbolTableRecord
100
AcDbLayerTableRecord
  2
T_STARTBEZUEGE
 70
0
 62
7
  6
CONTINUOUS
370
-3
390
F
  0
LAYER
  5
201
100
AcDbSymbolTableRecord
100
AcDbLayerTableRecord
  2
_03_2D_ZEICHNUNG_BEMASSUNGEN
 70
0
 62
7
  6
CONTINUOUS
370
-3
390
F
  0
LAYER
  5
202
100
AcDbSymbolTableRecord
100
AcDbLayerTableRecord
  2
_04_NOTIZEN
 70
0
 62
7
  6
CONTINUOUS
370
-3
390
F
  0
LAYER
  5
203
100
AcDbSymbolTableRecord
100
AcDbLayerTableRecord
  2
_05_2D_ELEMENTE
 70
0
 62
7
  6
CONTINUOUS
370
-3
390
F
  0
LAYER
  5
204
100
AcDbSymbolTableRecord
100
AcDbLayerTableRecord
  2
_07_EINRASTLINIEN
 70
0
 62
7
  6
CONTINUOUS
370
-3
390
F
  0
LAYER
  5
205
100
AcDbSymbolTableRecord
100
AcDbLayerTableRecord
  2
_21_KURVEN
 70
0
 62
7
  6
CONTINUOUS
370
-3
390
F
  0
LAYER
  5
206
100
AcDbSymbolTableRecord
100
AcDbLayerTableRecord
  2
_24_IMPORT
 70
0
 62
7
  6
CONTINUOUS
370
-3
390
F
  0
LAYER
  5
207
100
AcDbSymbolTableRecord
100
AcDbLayerTableRecord
  2
_26_BEZUGSACHSEN
 70
0
 62
7
  6
CONTINUOUS
370
-3
390
F
  0
LAYER
  5
208
100
AcDbSymbolTableRecord
100
AcDbLayerTableRecord
  2
_27_BEZUGSEBENEN
 70
0
 62
7
  6
CONTINUOUS
370
-3
390
F
  0
LAYER
  5
209
100
AcDbSymbolTableRecord
100
AcDbLayerTableRecord
  2
_28_BEZUGSPUNKTE
 70
0
 62
7
  6
CONTINUOUS
370
-3
390
F
  0
LAYER
  5
20A
100
AcDbSymbolTableRecord
100
AcDbLayerTableRecord
  2
_29_KOORDINATENSYSTEME
 70
0
 62
7
  6
CONTINUOUS
370
-3
390
F
  0
LAYER
  5
20B
100
AcDbSymbolTableRecord
100
AcDbLayerTableRecord
  2
_30_VOLUMEN
 70
0
 62
7
  6
CONTINUOUS
370
-3
390
F
  0
ENDTAB
  0
TABLE
  2
STYLE
  5
3
100
AcDbSymbolTable
 70
1
  0
STYLE
  5
11
100
AcDbSymbolTableRecord
100
AcDbTextStyleTableRecord
  2
STANDARD
 70
0
 40
0.0
 41
0.7
 50
0.0
 71
0
 42
0.2
  3
SIMPLEX.SHX
  4

  0
STYLE
  5
20C
100
AcDbSymbolTableRecord
100
AcDbTextStyleTableRecord
  2
TEXTSTYLE_1
 70
0
 40
0.0
 41
0.8
 50
0.0
 71
0
 42
0.2
  3
gdt
  4

  0
ENDTAB
  0
TABLE
  2
VIEW
  5
6
100
AcDbSymbolTable
 70
0
  0
ENDTAB
  0
TABLE
  2
UCS
  5
7
100
AcDbSymbolTable
 70
0
  0
ENDTAB
  0
TABLE
  2
APPID
  5
9
100
AcDbSymbolTable
 70
1
  0
APPID
  5
20D
100
AcDbSymbolTableRecord
100
AcDbRegAppTableRecord
  2
ACAD
 70
0
  0
ENDTAB
  0
TABLE
  2
BLOCK_RECORD
  5
1
100
AcDbSymbolTable
 70
0
  0
BLOCK_RECORD
  5
20E
100
AcDbSymbolTableRecord
100
AcDbBlockTableRecord
  2
*Model_Space
  0
BLOCK_RECORD
  5
20F
100
AcDbSymbolTableRecord
100
AcDbBlockTableRecord
  2
*Paper_Space
  0
BLOCK_RECORD
  5
210
100
AcDbSymbolTableRecord
100
AcDbBlockTableRecord
  2
_FILLED
  0
BLOCK_RECORD
  5
211
100
AcDbSymbolTableRecord
100
AcDbBlockTableRecord
  2
*D0
  0
BLOCK_RECORD
  5
212
100
AcDbSymbolTableRecord
100
AcDbBlockTableRecord
  2
*D1
  0
BLOCK_RECORD
  5
213
100
AcDbSymbolTableRecord
100
AcDbBlockTableRecord
  2
*D2
  0
ENDTAB
  0
TABLE
  2
DIMSTYLE
  5
A
100
AcDbSymbolTable
 70
1
100
AcDbDimStyleTable
 71
0
  0
DIMSTYLE
105
214
100
AcDbSymbolTableRecord
100
AcDbDimStyleTableRecord
  2
STANDARD
 70
0
  3

  4

 40
1.0
 41
3.5
 42
0.0
 43
0.38
 44
1.5
 45
0.0
 46
0.0
 47
0.05
 48
0.05
140
3.5
141
0.09
142
0.0
143
25.4
144
1.0
145
0.0
146
1.0
147
0.625
 71
1.0
 72
0.0
 73
0
 74
0
 75
0
 76
0
 77
1
 78
8
 79
2
170
0
171
1
172
0
173
0
174
0
175
0
176
0
177
0
178
2
270
2
179
2
271
2
272
2
273
2
274
2
275
0
280
0
281
0
282
0
283
1
284
8
285
0
286
0
287
3
288
0
340
11
278
46
341
210
342
210
343
210
344
210
  0
DIMSTYLE
105
215
100
AcDbSymbolTableRecord
100
AcDbDimStyleTableRecord
  2
DIMSTYLE_1
 70
0
  3

  4

 40
1.0
 41
3.5
 42
0.0
 43
0.38
 44
1.5
 45
0.0
 46
0.0
 47
0.2
 48
0.2
140
3.5
141
0.09
142
0.0
143
25.4
144
1.0
145
0.0
146
1.0
147
0.875
 71
0.0
 72
0.0
 73
0
 74
0
 75
0
 76
0
 77
1
 78
8
 79
2
170
0
171
1
172
0
173
0
174
0
175
0
176
0
177
0
178
2
270
2
179
2
271
2
272
2
273
2
274
2
275
0
280
0
281
0
282
0
283
1
284
8
285
0
286
0
287
3
288
0
340
11
278
46
341
210
342
210
343
210
344
210
  0
DIMSTYLE
105
216
100
AcDbSymbolTableRecord
100
AcDbDimStyleTableRecord
  2
DIMSTYLE_2
 70
0
  3

  4

 40
1.0
 41
3.5
 42
0.0
 43
0.38
 44
1.5
 45
0.0
 46
0.0
 47
0.5
 48
0.5
140
3.5
141
0.09
142
0.0
143
25.4
144
1.0
145
0.0
146
1.0
147
0.875
 71
0.0
 72
0.0
 73
0
 74
0
 75
0
 76
0
 77
1
 78
8
 79
2
170
0
171
1
172
0
173
0
174
0
175
0
176
0
177
0
178
2
270
2
179
2
271
2
272
2
273
2
274
2
275
0
280
0
281
0
282
0
283
1
284
8
285
0
286
0
287
3
288
0
340
11
278
46
341
210
342
210
343
210
344
210
  0
DIMSTYLE
105
217
100
AcDbSymbolTableRecord
100
AcDbDimStyleTableRecord
  2
DIMSTYLE_3
 70
0
  3

  4

 40
1.0
 41
3.5
 42
0.0
 43
0.38
 44
1.5
 45
0.0
 46
0.0
 47
0.3
 48
0.3
140
3.5
141
0.09
142
0.0
143
25.4
144
1.0
145
0.0
146
1.0
147
0.875
 71
0.0
 72
0.0
 73
0
 74
0
 75
0
 76
0
 77
1
 78
8
 79
2
170
0
171
1
172
0
173
0
174
0
175
0
176
0
177
0
178
2
270
2
179
2
271
2
272
2
273
2
274
2
275
0
280
0
281
0
282
0
283
1
284
8
285
0
286
0
287
3
288
0
340
11
278
46
341
210
342
210
343
210
344
210
  0
ENDTAB
  0
ENDSEC
  0
SECTION
  2
BLOCKS
  0
BLOCK
  5
20
100
AcDbEntity
  8
0
100
AcDbBlockBegin
  2
*Model_Space
 70
0
 10
0.0
 20
0.0
 30
0.0
  3
*Model_Space
  1

  0
ENDBLK
  5
21
100
AcDbEntity
  8
0
100
AcDbBlockEnd
  0
BLOCK
  5
1C
100
AcDbEntity
  8
0
100
AcDbBlockBegin
  2
*Paper_Space
 70
0
 10
0.0
 20
0.0
 30
0.0
  3
*Paper_Space
  1

  0
ENDBLK
  5
1D
100
AcDbEntity
  8
0
100
AcDbBlockEnd
  0
BLOCK
  5
218
100
AcDbEntity
  8
0
100
AcDbBlockBegin
  2
_FILLED
 70
64
 10
0.0
 20
0.0
  3
_FILLED
  1

  0
SOLID
  5
219
100
AcDbEntity
  8
0
  6
BYBLOCK
 62
0
100
AcDbTrace
 10
0.0
 20
0.0
 11
-1.0
 21
0.125
 12
-1.0
 22
-0.125
 13
-1.0
 23
-0.125
  0
ENDBLK
  5
21A
100
AcDbEntity
  8
0
  6
BYBLOCK
 62
0
100
AcDbBlockEnd
  0
BLOCK
  5
21B
100
AcDbEntity
  8
_03_2D_ZEICHNUNG_BEMASSUNGEN
100
AcDbBlockBegin
 62
7
  6
CONTINUOUS
  2
*D0
 70
65
 10
0.0
 20
0.0
  3
*D0
  1

  0
TEXT
  5
21C
100
AcDbEntity
  8
_03_2D_ZEICHNUNG_BEMASSUNGEN
100
AcDbText
 62
2
  6
CONTINUOUS
 10
-9.875
 20
-15.125
  7
STANDARD
 40
3.5
  1
25
 50
90.0
 41
0.75
 72
1
 11
-9.875
 21
-12.5
100
AcDbText
  0
LINE
  5
21D
100
AcDbEntity
  8
_03_2D_ZEICHNUNG_BEMASSUNGEN
100
AcDbLine
 62
7
  6
CONTINUOUS
 10
-0.0
 20
-0.0
 11
-10.5
 21
0.0
  0
LINE
  5
21E
100
AcDbEntity
  8
_03_2D_ZEICHNUNG_BEMASSUNGEN
100
AcDbLine
 62
7
  6
CONTINUOUS
 10
-0.0
 20
-25.0
 11
-10.5
 21
-25.0
  0
LINE
  5
21F
100
AcDbEntity
  8
_03_2D_ZEICHNUNG_BEMASSUNGEN
100
AcDbLine
 62
7
  6
CONTINUOUS
 10
-9.0
 20
0.0
 11
-9.0
 21
6.0
  0
LINE
  5
220
100
AcDbEntity
  8
_03_2D_ZEICHNUNG_BEMASSUNGEN
100
AcDbLine
 62
7
  6
CONTINUOUS
 10
-9.0
 20
6.0
 11
-9.0
 21
-12.5
  0
LINE
  5
221
100
AcDbEntity
  8
_03_2D_ZEICHNUNG_BEMASSUNGEN
100
AcDbLine
 62
7
  6
CONTINUOUS
 10
-9.0
 20
-25.0
 11
-9.0
 21
-31.0
  0
LINE
  5
222
100
AcDbEntity
  8
_03_2D_ZEICHNUNG_BEMASSUNGEN
100
AcDbLine
 62
7
  6
CONTINUOUS
 10
-9.0
 20
-31.0
 11
-9.0
 21
-12.5
  0
INSERT
  5
223
100
AcDbEntity
  8
_03_2D_ZEICHNUNG_BEMASSUNGEN
100
AcDbBlockReference
 62
7
  6
CONTINUOUS
  2
_FILLED
 10
-9.0
 20
0.0
 41
3.5
 42
3.5
 43
3.5
 50
270.0
  0
INSERT
  5
224
100
AcDbEntity
  8
_03_2D_ZEICHNUNG_BEMASSUNGEN
100
AcDbBlockReference
 62
7
  6
CONTINUOUS
  2
_FILLED
 10
-9.0
 20
-25.0
 41
3.5
 42
3.5
 43
3.5
 50
90.0
  0
ENDBLK
  5
225
100
AcDbEntity
  8
0
  6
BYBLOCK
 62
0
100
AcDbBlockEnd
  0
BLOCK
  5
226
100
AcDbEntity
  8
_03_2D_ZEICHNUNG_BEMASSUNGEN
100
AcDbBlockBegin
 62
7
  6
CONTINUOUS
  2
*D1
 70
65
 10
0.0
 20
0.0
  3
*D1
  1

  0
TEXT
  5
227
100
AcDbEntity
  8
_03_2D_ZEICHNUNG_BEMASSUNGEN
100
AcDbText
 62
2
  6
CONTINUOUS
 10
81.25
 20
9.875
  7
STANDARD
 40
3.5
  1
170
 41
0.7142857143
 72
1
 11
85.0
 21
9.875
100
AcDbText
  0
LINE
  5
228
100
AcDbEntity
  8
_03_2D_ZEICHNUNG_BEMASSUNGEN
100
AcDbLine
 62
7
  6
CONTINUOUS
 10
170.0
 20
0.0
 11
170.0
 21
10.5
  0
LINE
  5
229
100
AcDbEntity
  8
_03_2D_ZEICHNUNG_BEMASSUNGEN
100
AcDbLine
 62
7
  6
CONTINUOUS
 10
0.0
 20
0.0
 11
0.0
 21
10.5
  0
LINE
  5
22A
100
AcDbEntity
  8
_03_2D_ZEICHNUNG_BEMASSUNGEN
100
AcDbLine
 62
7
  6
CONTINUOUS
 10
170.0
 20
9.0
 11
85.0
 21
9.0
  0
LINE
  5
22B
100
AcDbEntity
  8
_03_2D_ZEICHNUNG_BEMASSUNGEN
100
AcDbLine
 62
7
  6
CONTINUOUS
 10
0.0
 20
9.0
 11
85.0
 21
9.0
  0
INSERT
  5
22C
100
AcDbEntity
  8
_03_2D_ZEICHNUNG_BEMASSUNGEN
100
AcDbBlockReference
 62
7
  6
CONTINUOUS
  2
_FILLED
 10
170.0
 20
9.0
 41
3.5
 42
3.5
 43
3.5
  0
INSERT
  5
22D
100
AcDbEntity
  8
_03_2D_ZEICHNUNG_BEMASSUNGEN
100
AcDbBlockReference
 62
7
  6
CONTINUOUS
  2
_FILLED
 10
0.0
 20
9.0
 41
3.5
 42
3.5
 43
3.5
 50
180.0
  0
ENDBLK
  5
22E
100
AcDbEntity
  8
0
  6
BYBLOCK
 62
0
100
AcDbBlockEnd
  0
BLOCK
  5
22F
100
AcDbEntity
  8
_03_2D_ZEICHNUNG_BEMASSUNGEN
100
AcDbBlockBegin
 62
7
  6
CONTINUOUS
  2
*D2
 70
65
 10
0.0
 20
0.0
  3
*D2
  1

  0
TEXT
  5
230
100
AcDbEntity
  8
_03_2D_ZEICHNUNG_BEMASSUNGEN
100
AcDbText
 62
2
  6
CONTINUOUS
 10
178.8131922255
 20
-18.625
  7
STANDARD
 40
3.5
  1
32
 50
90.0
 41
0.75
 72
1
 11
178.8131922255
 21
-16.0
100
AcDbText
  0
LINE
  5
231
100
AcDbEntity
  8
_03_2D_ZEICHNUNG_BEMASSUNGEN
100
AcDbLine
 62
7
  6
CONTINUOUS
 10
170.0
 20
-32.0
 11
181.1881922255
 21
-32.0
  0
LINE
  5
232
100
AcDbEntity
  8
_03_2D_ZEICHNUNG_BEMASSUNGEN
100
AcDbLine
 62
7
  6
CONTINUOUS
 10
0.0
 20
0.0
 11
181.1881922255
 21
0.0
  0
LINE
  5
233
100
AcDbEntity
  8
_03_2D_ZEICHNUNG_BEMASSUNGEN
100
AcDbLine
 62
7
  6
CONTINUOUS
 10
179.6881922255
 20
-32.0
 11
179.6881922255
 21
-16.0
  0
LINE
  5
234
100
AcDbEntity
  8
_03_2D_ZEICHNUNG_BEMASSUNGEN
100
AcDbLine
 62
7
  6
CONTINUOUS
 10
179.6881922255
 20
0.0
 11
179.6881922255
 21
-16.0
  0
INSERT
  5
235
100
AcDbEntity
  8
_03_2D_ZEICHNUNG_BEMASSUNGEN
100
AcDbBlockReference
 62
7
  6
CONTINUOUS
  2
_FILLED
 10
179.6881922255
 20
-32.0
 41
3.5
 42
3.5
 43
3.5
 50
270.0
  0
INSERT
  5
236
100
AcDbEntity
  8
_03_2D_ZEICHNUNG_BEMASSUNGEN
100
AcDbBlockReference
 62
7
  6
CONTINUOUS
  2
_FILLED
 10
179.6881922255
 20
0.0
 41
3.5
 42
3.5
 43
3.5
 50
90.0
  0
ENDBLK
  5
237
100
AcDbEntity
  8
0
  6
BYBLOCK
 62
0
100
AcDbBlockEnd
  0
ENDSEC
  0
SECTION
  2
ENTITIES
  0
DIMENSION
  5
238
100
AcDbEntity
  8
_03_2D_ZEICHNUNG_BEMASSUNGEN
100
AcDbDimension
 62
7
  6
CONTINUOUS
  2
*D0
 10
-9.0
 20
-25.0
 11
-9.0
 21
-13.0000002766
 70
160
 71
2
 42
25.0
  3
DIMSTYLE_1
100
AcDbAlignedDimension
 13
-0.0
 23
-0.0
 14
-0.0
 24
-25.0
 50
270.0
100
AcDbRotatedDimension
  0
DIMENSION
  5
239
100
AcDbEntity
  8
_03_2D_ZEICHNUNG_BEMASSUNGEN
100
AcDbDimension
 62
7
  6
CONTINUOUS
  2
*D1
 10
0.0
 20
9.0
 11
84.4999996948
 21
9.0
 70
160
 71
2
 42
170.0
  3
DIMSTYLE_2
100
AcDbAlignedDimension
 13
170.0
 23
0.0
 14
0.0
 24
0.0
 50
180.0
100
AcDbRotatedDimension
  0
DIMENSION
  5
23A
100
AcDbEntity
  8
_03_2D_ZEICHNUNG_BEMASSUNGEN
100
AcDbDimension
 62
7
  6
CONTINUOUS
  2
*D2
 10
179.6881922255
 20
0.0
 11
179.6881922255
 21
-16.4999991713
 70
160
 71
2
 42
32.0
  3
DIMSTYLE_3
100
AcDbAlignedDimension
 13
170.0
 23
-32.0
 14
0.0
 24
0.0
 50
90.0
100
AcDbRotatedDimension
  0
LINE
  5
23B
100
AcDbEntity
  8
_30_VOLUMEN
100
AcDbLine
 62
4
  6
CONTINUOUS
 10
-0.0
 20
-24.5
 11
-0.0
 21
-0.5
  0
LINE
  5
23C
100
AcDbEntity
  8
_30_VOLUMEN
100
AcDbLine
 62
4
  6
CONTINUOUS
 10
0.5
 20
-25.0
 11
0.5
 21
-0.0
  0
LINE
  5
23D
100
AcDbEntity
  8
_30_VOLUMEN
100
AcDbLine
 62
4
  6
CONTINUOUS
 10
-0.0
 20
-0.5
 11
0.5
 21
-0.0
  0
LINE
  5
23E
100
AcDbEntity
  8
_30_VOLUMEN
100
AcDbLine
 62
4
  6
CONTINUOUS
 10
-0.0
 20
-24.5
 11
0.5
 21
-25.0
  0
LINE
  5
23F
100
AcDbEntity
  8
_30_VOLUMEN
100
AcDbLine
 62
4
  6
CONTINUOUS
 10
169.1621185288
 20
-31.9998892498
 11
155.7059736263
 21
-31.2660800764
  0
LINE
  5
240
100
AcDbEntity
  8
_21_KURVEN
100
AcDbLine
 62
7
  6
CONTINUOUS
 10
169.1621185288
 20
-31.9998892498
 11
155.7059736263
 21
-31.2660800764
  0
LINE
  5
241
100
AcDbEntity
  8
_30_VOLUMEN
100
AcDbLine
 62
4
  6
CONTINUOUS
 10
0.5
 20
-25.0
 11
134.6
 21
-25.0
  0
LINE
  5
242
100
AcDbEntity
  8
_26_BEZUGSACHSEN
100
AcDbLine
 62
4
  6
CONTINUOUS
 10
135.6679620888
 20
-28.9856887758
 11
154.5140700457
 21
-29.973371442
  0
LINE
  5
243
100
AcDbEntity
  8
_26_BEZUGSACHSEN
100
AcDbLine
 62
4
  6
CONTINUOUS
 10
147.252071741
 20
-18.1228672564
 11
161.1113252077
 21
-18.8786593056
  0
LINE
  5
244
100
AcDbEntity
  8
_30_VOLUMEN
100
AcDbLine
 62
4
  6
CONTINUOUS
 10
148.7781454377
 20
-18.2060892257
 11
162.2342903402
 21
-18.9398983991
  0
LINE
  5
245
100
AcDbEntity
  8
_21_KURVEN
100
AcDbLine
 62
7
  6
CONTINUOUS
 10
148.7781454377
 20
-18.2060892257
 11
162.2342903402
 21
-18.9398983991
  0
LINE
  5
246
100
AcDbEntity
  8
_30_VOLUMEN
100
AcDbLine
 62
4
  6
CONTINUOUS
 10
161.5986606143
 20
-18.4226273734
 11
160.805357805
 21
-18.3793658833
  0
LINE
  5
247
100
AcDbEntity
  8
_30_VOLUMEN
100
AcDbLine
 62
4
  6
CONTINUOUS
 10
149.5424679062
 20
0.0
 11
136.7329494941
 21
0.0
  0
LINE
  5
248
100
AcDbEntity
  8
0
100
AcDbLine
 62
4
  6
CONTINUOUS
 10
136.7329494941
 20
0.0
 11
134.6
 21
0.0
  0
LINE
  5
249
100
AcDbEntity
  8
_30_VOLUMEN
100
AcDbLine
 62
4
  6
CONTINUOUS
 10
0.5
 20
-0.0
 11
134.6
 21
0.0
  0
LINE
  5
24A
100
AcDbEntity
  8
0
100
AcDbLine
 62
4
  6
CONTINUOUS
 10
136.2076951546
 20
-0.6454397313
 11
136.7329494941
 21
0.0
  0
LINE
  5
24B
100
AcDbEntity
  8
_30_VOLUMEN
100
AcDbLine
 62
4
  6
CONTINUOUS
 10
155.2507990488
 20
-31.090414952
 11
154.6151693229
 21
-30.5731439263
  0
LINE
  5
24C
100
AcDbEntity
  8
_30_VOLUMEN
100
AcDbLine
 62
7
  6
CONTINUOUS
 10
155.076448334
 20
-30.8910894005
 11
154.4408186081
 21
-30.3738183747
  0
LINE
  5
24D
100
AcDbEntity
  8
_30_VOLUMEN
100
AcDbLine
 62
7
  6
CONTINUOUS
 10
162.2342903402
 20
-18.9398983991
 11
161.5986606143
 21
-18.4226273734
  0
LINE
  5
24E
100
AcDbEntity
  8
_30_VOLUMEN
100
AcDbLine
 62
4
  6
CONTINUOUS
 10
162.6894649177
 20
-19.1155635234
 11
162.0538351918
 21
-18.5982924977
  0
LINE
  5
24F
100
AcDbEntity
  8
_30_VOLUMEN
100
AcDbLine
 62
4
  6
CONTINUOUS
 10
135.6679620888
 20
-28.9856887758
 11
135.6053294684
 21
-28.7519406544
  0
LINE
  5
250
100
AcDbEntity
  8
0
100
AcDbLine
 62
4
  6
CONTINUOUS
 10
135.6053294684
 20
-28.7519406544
 11
134.6
 21
-25.0
  0
LINE
  5
251
100
AcDbEntity
  8
0
100
AcDbLine
 62
4
  6
CONTINUOUS
 10
134.6
 20
0.0
 11
134.6
 21
-25.0
  0
LINE
  5
252
100
AcDbEntity
  8
0
100
AcDbLine
 62
4
  6
CONTINUOUS
 10
136.2076951546
 20
0.0
 11
136.2076951546
 21
-0.6454397313
  0
LINE
  5
253
100
AcDbEntity
  8
0
100
AcDbLine
 62
4
  6
CONTINUOUS
 10
136.2076951546
 20
-0.6454397313
 11
135.6053294684
 21
-28.7519406544
  0
LINE
  5
254
100
AcDbEntity
  8
_28_BEZUGSPUNKTE
100
AcDbLine
 62
1
  6
CONTINUOUS
 10
170.15625
 20
-32.15625
 11
169.84375
 21
-31.84375
  0
LINE
  5
255
100
AcDbEntity
  8
_30_VOLUMEN
100
AcDbLine
 62
4
  6
CONTINUOUS
 10
154.1848513806
 20
-29.9561178228
 11
154.4408186081
 21
-30.3738183747
  0
LINE
  5
256
100
AcDbEntity
  8
_30_VOLUMEN
100
AcDbLine
 62
4
  6
CONTINUOUS
 10
155.076448334
 20
-30.8910894005
 11
148.0490548602
 21
-19.4234255041
  0
LINE
  5
257
100
AcDbEntity
  8
_21_KURVEN
100
AcDbLine
 62
7
  6
CONTINUOUS
 10
155.076448334
 20
-30.8910894005
 11
148.0490548602
 21
-19.4234255041
  0
LINE
  5
258
100
AcDbEntity
  8
_26_BEZUGSACHSEN
100
AcDbLine
 62
4
  6
CONTINUOUS
 10
154.5140700457
 20
-29.973371442
 11
147.252071741
 21
-18.1228672564
  0
LINE
  5
259
100
AcDbEntity
  8
_26_BEZUGSACHSEN
100
AcDbLine
 62
4
  6
CONTINUOUS
 10
149.5424679062
 20
0.0
 11
161.1113252077
 21
-18.8786593056
  0
LINE
  5
25A
100
AcDbEntity
  8
_30_VOLUMEN
100
AcDbLine
 62
4
  6
CONTINUOUS
 10
162.8638156325
 20
-19.314889075
 11
169.8912091063
 21
-30.7825529713
  0
LINE
  5
25B
100
AcDbEntity
  8
_21_KURVEN
100
AcDbLine
 62
7
  6
CONTINUOUS
 10
162.8638156325
 20
-19.314889075
 11
169.8912091063
 21
-30.7825529713
  0
LINE
  5
25C
100
AcDbEntity
  8
_28_BEZUGSPUNKTE
100
AcDbLine
 62
1
  6
CONTINUOUS
 10
170.15625
 20
-31.84375
 11
169.84375
 21
-32.15625
  0
ARC
  5
25D
100
AcDbEntity
  8
_30_VOLUMEN
100
AcDbCircle
 62
4
  6
CONTINUOUS
 10
158.3688998188
 20
-24.5457282562
 40
2.527170727
100
AcDbArc
 50
37.7645120831
 51
41.5681142764
  0
ARC
  5
25E
100
AcDbEntity
  8
_30_VOLUMEN
100
AcDbCircle
 62
4
  6
CONTINUOUS
 10
158.3027769724
 20
-24.6279356826
 40
2.5270280491
100
AcDbArc
 50
237.0194340245
 51
241.7385615827
  0
ARC
  5
25F
100
AcDbEntity
  8
_30_VOLUMEN
100
AcDbCircle
 62
4
  6
CONTINUOUS
 10
158.3728288226
 20
-24.5425607771
 40
2.5221295315
100
AcDbArc
 50
41.5735011745
 51
44.2853384597
  0
ARC
  5
260
100
AcDbEntity
  8
_30_VOLUMEN
100
AcDbCircle
 62
4
  6
CONTINUOUS
 10
158.299350804
 20
-24.6337096797
 40
2.5203200749
100
AcDbArc
 50
241.7450132327
 51
243.9121865044
  0
ARC
  5
261
100
AcDbEntity
  8
_30_VOLUMEN
100
AcDbCircle
 62
4
  6
CONTINUOUS
 10
148.1015273773
 20
-18.49341886
 40
0.8051615325
100
AcDbArc
 50
153.0305536982
 51
161.4351258503
  0
ARC
  5
262
100
AcDbEntity
  8
_30_VOLUMEN
100
AcDbCircle
 62
4
  6
CONTINUOUS
 10
162.1874468687
 20
-19.7305734302
 40
0.7938943178
100
AcDbArc
 50
31.5741529863
 51
50.776050691
  0
ARC
  5
263
100
AcDbEntity
  8
_30_VOLUMEN
100
AcDbCircle
 62
4
  6
CONTINUOUS
 10
155.1171873718
 20
-29.9581340195
 40
0.7938943178
100
AcDbArc
 50
211.5741529863
 51
230.776050691
  0
ARC
  5
264
100
AcDbEntity
  8
_30_VOLUMEN
100
AcDbCircle
 62
4
  6
CONTINUOUS
 10
155.7528170977
 20
-30.4754050452
 40
0.7938943178
100
AcDbArc
 50
211.5741529863
 51
230.776050691
  0
ARC
  5
265
100
AcDbEntity
  8
_30_VOLUMEN
100
AcDbCircle
 62
4
  6
CONTINUOUS
 10
161.5561202615
 20
-19.2104261258
 40
0.7889464849
100
AcDbArc
 50
50.8860542832
 51
86.9090865471
  0
ARC
  5
266
100
AcDbEntity
  8
_30_VOLUMEN
100
AcDbCircle
 62
4
  6
CONTINUOUS
 10
155.7485139791
 20
-30.4782813239
 40
0.7889464849
100
AcDbArc
 50
230.8860542832
 51
266.9090865471
  0
ARC
  5
267
100
AcDbEntity
  8
_30_VOLUMEN
100
AcDbCircle
 62
4
  6
CONTINUOUS
 10
162.1917499874
 20
-19.7276971515
 40
0.7889464849
100
AcDbArc
 50
50.8860542832
 51
86.9090865471
  0
SPLINE
  5
268
100
AcDbEntity
  8
_30_VOLUMEN
100
AcDbSpline
 62
4
  6
CONTINUOUS
 70
0
 71
3
 72
11
 73
7
 74
0
 42
0.0000001
 43
0.0000001
 44
0.0000000001
 40
0.0
 40
0.0
 40
0.0
 40
0.0
 40
0.2498941932
 40
0.5004528743
 40
0.7507028463
 40
1.0
 40
1.0
 40
1.0
 40
1.0
 10
169.1621185288
 20
-31.9998892498
 30
0.0
 10
169.3051164563
 20
-32.0076874112
 30
0.0
 10
169.6017941395
 20
-31.9422985948
 30
0.0
 10
169.9273979913
 20
-31.6302784954
 30
0.0
 10
170.0488813059
 20
-31.1962154042
 30
0.0
 10
169.9658575597
 20
-30.904368176
 30
0.0
 10
169.8912091063
 20
-30.7825529713
 30
0.0
  0
SPLINE
  5
269
100
AcDbEntity
  8
_30_VOLUMEN
100
AcDbSpline
 62
4
  6
CONTINUOUS
 70
0
 71
3
 72
11
 73
7
 74
0
 42
0.0000001
 43
0.0000001
 44
0.0000000001
 40
0.0
 40
0.0
 40
0.0
 40
0.0
 40
0.2505755058
 40
0.5010388405
 40
0.7506866831
 40
1.0
 40
1.0
 40
1.0
 40
1.0
 10
159.6725004216
 20
-26.7691327738
 30
0.0
 10
159.4888657689
 20
-26.8829867671
 30
0.0
 10
159.0911822036
 20
-27.0650548784
 30
0.0
 10
158.4476155328
 20
-27.1811614638
 30
0.0
 10
157.7964799616
 20
-27.1324630051
 30
0.0
 10
157.3841186374
 20
-26.9918020315
 30
0.0
 10
157.1910447029
 20
-26.8972623886
 30
0.0
  0
SPLINE
  5
26A
100
AcDbEntity
  8
_30_VOLUMEN
100
AcDbSpline
 62
4
  6
CONTINUOUS
 70
0
 71
3
 72
11
 73
7
 74
0
 42
0.0000001
 43
0.0000001
 44
0.0000000001
 40
0.0
 40
0.0
 40
0.0
 40
0.0
 40
0.2537320609
 40
0.5047881408
 40
0.753216558
 40
1.0
 40
1.0
 40
1.0
 40
1.0
 10
157.478487911
 20
-22.785668259
 30
0.0
 10
157.7036952714
 20
-22.6460390717
 30
0.0
 10
158.197734602
 20
-22.4355616001
 30
0.0
 10
158.9930319992
 20
-22.3607909855
 30
0.0
 10
159.7663297868
 20
-22.5298214417
 30
0.0
 10
160.2217317883
 20
-22.795173858
 30
0.0
 10
160.421628307
 20
-22.9578482469
 30
0.0
  0
SPLINE
  5
26B
100
AcDbEntity
  8
_30_VOLUMEN
100
AcDbSpline
 62
4
  6
CONTINUOUS
 70
0
 71
3
 72
13
 73
9
 74
0
 42
0.0000001
 43
0.0000001
 44
0.0000000001
 40
0.0
 40
0.0
 40
0.0
 40
0.0
 40
0.1247637825
 40
0.2496847897
 40
0.3748252345
 40
0.5001888013
 40
0.749982682
 40
1.0
 40
1.0
 40
1.0
 40
1.0
 10
160.3667154248
 20
-22.9980446039
 30
0.0
 10
160.4762839277
 20
-23.1394667348
 30
0.0
 10
160.6663319851
 20
-23.4466148713
 30
0.0
 10
160.8479658942
 20
-23.9564719205
 30
0.0
 10
160.9195404422
 20
-24.4942191653
 30
0.0
 10
160.8635643534
 20
-25.2139120394
 30
0.0
 10
160.5134377143
 20
-26.0688227849
 30
0.0
 10
159.9771933466
 20
-26.5802223163
 30
0.0
 10
159.6725004216
 20
-26.7691327738
 30
0.0
  0
SPLINE
  5
26C
100
AcDbEntity
  8
_30_VOLUMEN
100
AcDbSpline
 62
4
  6
CONTINUOUS
 70
0
 71
3
 72
15
 73
11
 74
0
 42
0.0000001
 43
0.0000001
 44
0.0000000001
 40
0.0
 40
0.0
 40
0.0
 40
0.0
 40
0.1223179476
 40
0.2453306197
 40
0.3690720501
 40
0.4939343281
 40
0.6198136481
 40
0.7463814821
 40
0.873357856
 40
1.0
 40
1.0
 40
1.0
 40
1.0
 10
157.1646542372
 20
-26.9600626226
 30
0.0
 10
157.0104051402
 20
-26.8345357862
 30
0.0
 10
156.7304193231
 20
-26.5441362775
 30
0.0
 10
156.4254199846
 20
-26.0209658894
 30
0.0
 10
156.252481605
 20
-25.4359471376
 30
0.0
 10
156.2220358448
 20
-24.8220882454
 30
0.0
 10
156.3380915678
 20
-24.2138419649
 30
0.0
 10
156.5946790325
 20
-23.6464378895
 30
0.0
 10
156.9777095895
 20
-23.1542803386
 30
0.0
 10
157.3034916702
 20
-22.894166413
 30
0.0
 10
157.478487911
 20
-22.785668259
 30
0.0
  0
SPLINE
  5
26D
100
AcDbEntity
  8
_30_VOLUMEN
100
AcDbSpline
 62
4
  6
CONTINUOUS
 70
0
 71
3
 72
15
 73
11
 74
0
 42
0.0000001
 43
0.0000001
 44
0.0000000001
 40
0.0
 40
0.0
 40
0.0
 40
0.0
 40
0.1252708963
 40
0.250109997
 40
0.3746547271
 40
0.4991476448
 40
0.6238909295
 40
0.7490391565
 40
0.8744801865
 40
1.0
 40
1.0
 40
1.0
 40
1.0
 10
160.5466879598
 20
-27.6756947679
 30
0.0
 10
160.2113361312
 20
-27.8836138305
 30
0.0
 10
159.4520345301
 20
-28.1705032841
 30
0.0
 10
158.2429461606
 20
-28.1307889816
 30
0.0
 10
157.1422793779
 20
-27.6305447733
 30
0.0
 10
156.3209819282
 20
-26.7439768336
 30
0.0
 10
155.9037854508
 20
-25.6079702072
 30
0.0
 10
155.9543841986
 20
-24.3959811952
 30
0.0
 10
156.4612725519
 20
-23.2931167965
 30
0.0
 10
157.0575578236
 20
-22.7386159118
 30
0.0
 10
157.3935760067
 20
-22.5302837076
 30
0.0
  0
SPLINE
  5
26E
100
AcDbEntity
  8
_30_VOLUMEN
100
AcDbSpline
 62
7
  6
CONTINUOUS
 70
0
 71
3
 72
11
 73
7
 74
0
 42
0.0000001
 43
0.0000001
 44
0.0000000001
 40
0.0
 40
0.0
 40
0.0
 40
0.0
 40
0.2507271995
 40
0.5011624127
 40
0.7507179362
 40
1.0
 40
1.0
 40
1.0
 40
1.0
 10
160.1311394364
 20
-27.1423699966
 30
0.0
 10
159.9068142499
 20
-27.2814522335
 30
0.0
 10
159.4122083925
 20
-27.4915052232
 30
0.0
 10
158.6131687154
 20
-27.5668141272
 30
0.0
 10
157.8307594988
 20
-27.3948428004
 30
0.0
 10
157.3681445057
 20
-27.1257629819
 30
0.0
 10
157.1646729823
 20
-26.9600396076
 30
0.0
  0
SPLINE
  5
26F
100
AcDbEntity
  8
_30_VOLUMEN
100
AcDbSpline
 62
4
  6
CONTINUOUS
 70
0
 71
3
 72
15
 73
11
 74
0
 42
0.0000001
 43
0.0000001
 44
0.0000000001
 40
0.0
 40
0.0
 40
0.0
 40
0.0
 40
0.1252553645
 40
0.2501118389
 40
0.3746528342
 40
0.4991476405
 40
0.6238928575
 40
0.7490373191
 40
0.8744957424
 40
1.0
 40
1.0
 40
1.0
 40
1.0
 10
160.4853941882
 20
-27.6018762615
 30
0.0
 10
160.1563012031
 20
-27.8059148238
 30
0.0
 10
159.4110727836
 20
-28.08740353
 30
0.0
 10
158.2243867825
 20
-28.0487022761
 30
0.0
 10
157.1441260626
 20
-27.5575921896
 30
0.0
 10
156.3379800472
 20
-26.6875384005
 30
0.0
 10
155.9286212085
 20
-25.5725608689
 30
0.0
 10
155.9781569572
 20
-24.3829788325
 30
0.0
 10
156.4759000478
 20
-23.3006724168
 30
0.0
 10
157.0610593888
 20
-22.7564118158
 30
0.0
 10
157.3908063099
 20
-22.5519678114
 30
0.0
  0
SPLINE
  5
270
100
AcDbEntity
  8
_30_VOLUMEN
100
AcDbSpline
 62
7
  6
CONTINUOUS
 70
0
 71
3
 72
15
 73
11
 74
0
 42
0.0000001
 43
0.0000001
 44
0.0000000001
 40
0.0
 40
0.0
 40
0.0
 40
0.0
 40
0.1252215719
 40
0.2508590701
 40
0.3762124334
 40
0.501380115
 40
0.6263544638
 40
0.7510791259
 40
0.8755882985
 40
1.0
 40
1.0
 40
1.0
 40
1.0
 10
160.1311394364
 20
-27.1423699966
 30
0.0
 10
160.304571921
 20
-27.0348413757
 30
0.0
 10
160.6273223613
 20
-26.776722341
 30
0.0
 10
161.0077737012
 20
-26.2890720131
 30
0.0
 10
161.2628042951
 20
-25.7251666423
 30
0.0
 10
161.3778985504
 20
-25.1183956445
 30
0.0
 10
161.3480272797
 20
-24.5024406947
 30
0.0
 10
161.1727929844
 20
-23.9121687148
 30
0.0
 10
160.8637923657
 20
-23.3810437086
 30
0.0
 10
160.5788081143
 20
-23.0859062522
 30
0.0
 10
160.421609562
 20
-22.957871262
 30
0.0
  0
SPLINE
  5
271
100
AcDbEntity
  8
_30_VOLUMEN
100
AcDbSpline
 62
4
  6
CONTINUOUS
 70
0
 71
3
 72
15
 73
11
 74
0
 42
0.0000001
 43
0.0000001
 44
0.0000000001
 40
0.0
 40
0.0
 40
0.0
 40
0.0
 40
0.1255042576
 40
0.2509626809
 40
0.3761071425
 40
0.5008523595
 40
0.6253471658
 40
0.7498881611
 40
0.8747446355
 40
1.0
 40
1.0
 40
1.0
 40
1.0
 10
160.4853941882
 20
-27.6018762615
 30
0.0
 10
160.8151411092
 20
-27.3974322571
 30
0.0
 10
161.4003004503
 20
-26.8531716561
 30
0.0
 10
161.8980435408
 20
-25.7708652404
 30
0.0
 10
161.9475792896
 20
-24.5812832039
 30
0.0
 10
161.5382204508
 20
-23.4663056724
 30
0.0
 10
160.7320744355
 20
-22.5962518833
 30
0.0
 10
159.6518137156
 20
-22.1051417968
 30
0.0
 10
158.4651277145
 20
-22.0664405429
 30
0.0
 10
157.7198992949
 20
-22.3479292491
 30
0.0
 10
157.3908063099
 20
-22.5519678114
 30
0.0
  0
SPLINE
  5
272
100
AcDbEntity
  8
_30_VOLUMEN
100
AcDbSpline
 62
4
  6
CONTINUOUS
 70
0
 71
3
 72
15
 73
11
 74
0
 42
0.0000001
 43
0.0000001
 44
0.0000000001
 40
0.0
 40
0.0
 40
0.0
 40
0.0
 40
0.1252708963
 40
0.250109997
 40
0.3746547271
 40
0.4991476448
 40
0.6238909295
 40
0.7490391565
 40
0.8744801865
 40
1.0
 40
1.0
 40
1.0
 40
1.0
 10
157.3935760067
 20
-22.5302837076
 30
0.0
 10
157.7289278353
 20
-22.322364645
 30
0.0
 10
158.4882294364
 20
-22.0354751914
 30
0.0
 10
159.6973178058
 20
-22.0751894938
 30
0.0
 10
160.7979845886
 20
-22.5754337021
 30
0.0
 10
161.6192820383
 20
-23.4620016419
 30
0.0
 10
162.0364785157
 20
-24.5980082683
 30
0.0
 10
161.9858797679
 20
-25.8099972802
 30
0.0
 10
161.4789914146
 20
-26.9128616789
 30
0.0
 10
160.8827061429
 20
-27.4673625636
 30
0.0
 10
160.5466879598
 20
-27.6756947679
 30
0.0
  0
SPLINE
  5
273
100
AcDbEntity
  8
_30_VOLUMEN
100
AcDbSpline
 62
4
  6
CONTINUOUS
 70
0
 71
3
 72
11
 73
7
 74
0
 42
0.0000001
 43
0.0000001
 44
0.0000000001
 40
0.0
 40
0.0
 40
0.0
 40
0.0
 40
0.2498941932
 40
0.5004528743
 40
0.7507028463
 40
1.0
 40
1.0
 40
1.0
 40
1.0
 10
148.7781454377
 20
-18.2060892257
 30
0.0
 10
148.6351475102
 20
-18.1982910642
 30
0.0
 10
148.3384698269
 20
-18.2636798807
 30
0.0
 10
148.0128659752
 20
-18.5756999801
 30
0.0
 10
147.8913826606
 20
-19.0097630713
 30
0.0
 10
147.9744064068
 20
-19.3016102995
 30
0.0
 10
148.0490548602
 20
-19.4234255041
 30
0.0
  0
SPLINE
  5
274
100
AcDbEntity
  8
_21_KURVEN
100
AcDbSpline
 62
7
  6
CONTINUOUS
 70
0
 71
3
 72
36
 73
32
 74
0
 42
0.0000001
 43
0.0000001
 44
0.0000000001
 40
0.0
 40
0.0
 40
0.0
 40
0.0
 40
0.0625
 40
0.09375
 40
0.125
 40
0.1875
 40
0.21875
 40
0.25
 40
0.28125
 40
0.3125
 40
0.375
 40
0.40625
 40
0.4375
 40
0.453125
 40
0.46875
 40
0.5
 40
0.53125
 40
0.546875
 40
0.5625
 40
0.59375
 40
0.625
 40
0.6875
 40
0.71875
 40
0.75
 40
0.78125
 40
0.8125
 40
0.84375
 40
0.875
 40
0.90625
 40
0.9375
 40
1.0
 40
1.0
 40
1.0
 40
1.0
 10
148.7781454377
 20
-18.2060892257
 30
0.0
 10
148.7425667464
 20
-18.2076356583
 30
0.0
 10
148.6892685989
 20
-18.2110239667
 30
0.0
 10
148.617924844
 20
-18.2112670735
 30
0.0
 10
148.5478601596
 20
-18.2335070735
 30
0.0
 10
148.4756087559
 20
-18.2442618626
 30
0.0
 10
148.4108768366
 20
-18.2785357381
 30
0.0
 10
148.3611424553
 20
-18.3007803348
 30
0.0
 10
148.3123900989
 20
-18.3251086281
 30
0.0
 10
148.2556551018
 20
-18.3712976339
 30
0.0
 10
148.1950472731
 20
-18.4118112264
 30
0.0
 10
148.1477093268
 20
-18.4677657599
 30
0.0
 10
148.1176226259
 20
-18.5015951104
 30
0.0
 10
148.0914369572
 20
-18.5275397147
 30
0.0
 10
148.074116908
 20
-18.5588736098
 30
0.0
 10
148.0503761658
 20
-18.5967771257
 30
0.0
 10
148.0280331942
 20
-18.6355165887
 30
0.0
 10
148.0084767121
 20
-18.6655129685
 30
0.0
 10
147.9978629371
 20
-18.7007704654
 30
0.0
 10
147.9821124996
 20
-18.7431738046
 30
0.0
 10
147.9549189851
 20
-18.8111755176
 30
0.0
 10
147.9476286575
 20
-18.8835783112
 30
0.0
 10
147.9335074943
 20
-18.9552476851
 30
0.0
 10
147.9349246339
 20
-19.0095960273
 30
0.0
 10
147.9387808372
 20
-19.0638317676
 30
0.0
 10
147.9385186589
 20
-19.1186363299
 30
0.0
 10
147.9522909434
 20
-19.1712782059
 30
0.0
 10
147.9664461607
 20
-19.223618656
 30
0.0
 10
147.976680162
 20
-19.2774645299
 30
0.0
 10
148.0107280724
 20
-19.3416320023
 30
0.0
 10
148.0333334091
 20
-19.3908543528
 30
0.0
 10
148.0490548771
 20
-19.4234255318
 30
0.0
  0
SPLINE
  5
275
100
AcDbEntity
  8
_21_KURVEN
100
AcDbSpline
 62
7
  6
CONTINUOUS
 70
0
 71
3
 72
9
 73
5
 74
0
 42
0.0000001
 43
0.0000001
 44
0.0000000001
 40
0.0
 40
0.0
 40
0.0
 40
0.0
 40
0.5
 40
1.0
 40
1.0
 40
1.0
 40
1.0
 10
162.8638156325
 20
-19.314889075
 30
0.0
 10
162.8411713581
 20
-19.2800333819
 30
0.0
 10
162.7906871673
 20
-19.2066896454
 30
0.0
 10
162.7251855287
 20
-19.1464605397
 30
0.0
 10
162.6900257449
 20
-19.1160203494
 30
0.0
  0
SPLINE
  5
276
100
AcDbEntity
  8
_21_KURVEN
100
AcDbSpline
 62
7
  6
CONTINUOUS
 70
0
 71
3
 72
9
 73
5
 74
0
 42
0.0000001
 43
0.0000001
 44
0.0000000001
 40
0.0
 40
0.0
 40
0.0
 40
0.0
 40
0.5
 40
1.0
 40
1.0
 40
1.0
 40
1.0
 10
162.6900257525
 20
-19.1160203556
 30
0.0
 10
162.6770384665
 20
-19.1056579068
 30
0.0
 10
162.6464555105
 20
-19.0817816392
 30
0.0
 10
162.6136691761
 20
-19.0610261288
 30
0.0
 10
162.5954894777
 20
-19.0498604061
 30
0.0
  0
SPLINE
  5
277
100
AcDbEntity
  8
_21_KURVEN
100
AcDbSpline
 62
7
  6
CONTINUOUS
 70
0
 71
3
 72
10
 73
6
 74
0
 42
0.0000001
 43
0.0000001
 44
0.0000000001
 40
0.0
 40
0.0
 40
0.0
 40
0.0
 40
0.25
 40
0.5
 40
1.0
 40
1.0
 40
1.0
 40
1.0
 10
162.595489475
 20
-19.0498604045
 30
0.0
 10
162.5883064417
 20
-19.0456837649
 30
0.0
 10
162.5748117563
 20
-19.037835068
 30
0.0
 10
162.5401554623
 20
-19.0193196343
 30
0.0
 10
162.5194651295
 20
-19.0100203421
 30
0.0
 10
162.5012277227
 20
-19.0019735282
 30
0.0
  0
SPLINE
  5
278
100
AcDbEntity
  8
_21_KURVEN
100
AcDbSpline
 62
7
  6
CONTINUOUS
 70
0
 71
3
 72
9
 73
5
 74
0
 42
0.0000001
 43
0.0000001
 44
0.0000000001
 40
0.0
 40
0.0
 40
0.0
 40
0.0
 40
0.5
 40
1.0
 40
1.0
 40
1.0
 40
1.0
 10
162.5012277201
 20
-19.0019735271
 30
0.0
 10
162.4599698173
 20
-18.9857445197
 30
0.0
 10
162.3735539855
 20
-18.9545651457
 30
0.0
 10
162.2821597307
 20
-18.9439660295
 30
0.0
 10
162.2342903426
 20
-18.9398983992
 30
0.0
  0
SPLINE
  5
279
100
AcDbEntity
  8
_21_KURVEN
100
AcDbSpline
 62
7
  6
CONTINUOUS
 70
0
 71
3
 72
9
 73
5
 74
0
 42
0.0000001
 43
0.0000001
 44
0.0000000001
 40
0.0
 40
0.0
 40
0.0
 40
0.0
 40
0.5
 40
1.0
 40
1.0
 40
1.0
 40
1.0
 10
169.1621185288
 20
-31.9998892498
 30
0.0
 10
169.2176559916
 20
-32.0009718684
 30
0.0
 10
169.3365068559
 20
-31.9986405533
 30
0.0
 10
169.4448129923
 20
-31.9642248877
 30
0.0
 10
169.5013846763
 20
-31.9440584979
 30
0.0
  0
SPLINE
  5
27A
100
AcDbEntity
  8
_21_KURVEN
100
AcDbSpline
 62
7
  6
CONTINUOUS
 70
0
 71
3
 72
9
 73
5
 74
0
 42
0.0000001
 43
0.0000001
 44
0.0000000001
 40
0.0
 40
0.0
 40
0.0
 40
0.0
 40
0.5
 40
1.0
 40
1.0
 40
1.0
 40
1.0
 10
169.5013846816
 20
-31.9440584957
 30
0.0
 10
169.5524022626
 20
-31.9216019127
 30
0.0
 10
169.6585938831
 20
-31.8702851224
 30
0.0
 10
169.745821065
 20
-31.7906694066
 30
0.0
 10
169.787833235
 20
-31.7493465119
 30
0.0
  0
SPLINE
  5
27B
100
AcDbEntity
  8
_21_KURVEN
100
AcDbSpline
 62
7
  6
CONTINUOUS
 70
0
 71
3
 72
9
 73
5
 74
0
 42
0.0000001
 43
0.0000001
 44
0.0000000001
 40
0.0
 40
0.0
 40
0.0
 40
0.0
 40
0.5
 40
1.0
 40
1.0
 40
1.0
 40
1.0
 10
169.787833231
 20
-31.749346516
 30
0.0
 10
169.8247576196
 20
-31.7074594872
 30
0.0
 10
169.8996832373
 20
-31.6161439856
 30
0.0
 10
169.9454089143
 20
-31.507319177
 30
0.0
 10
169.9661325747
 20
-31.4523450625
 30
0.0
  0
SPLINE
  5
27C
100
AcDbEntity
  8
_21_KURVEN
100
AcDbSpline
 62
7
  6
CONTINUOUS
 70
0
 71
3
 72
9
 73
5
 74
0
 42
0.0000001
 43
0.0000001
 44
0.0000000001
 40
0.0
 40
0.0
 40
0.0
 40
0.0
 40
0.5
 40
1.0
 40
1.0
 40
1.0
 40
1.0
 10
169.9661325743
 20
-31.4523450639
 30
0.0
 10
169.9820417532
 20
-31.3988926802
 30
0.0
 10
170.0116564251
 20
-31.2847238494
 30
0.0
 10
170.0073173095
 20
-31.1671162272
 30
0.0
 10
170.0030421532
 20
-31.1094086008
 30
0.0
  0
SPLINE
  5
27D
100
AcDbEntity
  8
_21_KURVEN
100
AcDbSpline
 62
7
  6
CONTINUOUS
 70
0
 71
3
 72
9
 73
5
 74
0
 42
0.0000001
 43
0.0000001
 44
0.0000000001
 40
0.0
 40
0.0
 40
0.0
 40
0.0
 40
0.5
 40
1.0
 40
1.0
 40
1.0
 40
1.0
 10
170.0030421535
 20
-31.1094086036
 30
0.0
 10
169.9950005308
 20
-31.054409137
 30
0.0
 10
169.9738513901
 20
-30.9387814914
 30
0.0
 10
169.9203534833
 20
-30.8344021143
 30
0.0
 10
169.8912091039
 20
-30.7825529675
 30
0.0
  0
SPLINE
  5
27E
100
AcDbEntity
  8
_21_KURVEN
100
AcDbSpline
 62
1
  6
CENTER
 70
0
 71
3
 72
163
 73
159
 74
0
 42
0.0000001
 43
0.0000001
 44
0.0000000001
 40
0.0
 40
0.0
 40
0.0
 40
0.0
 40
0.015625
 40
0.03125
 40
0.0390625
 40
0.046875
 40
0.0546875
 40
0.05859375
 40
0.060546875
 40
0.0625
 40
0.064453125
 40
0.06640625
 40
0.0703125
 40
0.078125
 40
0.09375
 40
0.109375
 40
0.1171875
 40
0.12109375
 40
0.123046875
 40
0.125
 40
0.126953125
 40
0.12890625
 40
0.1328125
 40
0.140625
 40
0.15625
 40
0.171875
 40
0.1796875
 40
0.18359375
 40
0.185546875
 40
0.1875
 40
0.189453125
 40
0.19140625
 40
0.1953125
 40
0.203125
 40
0.21875
 40
0.234375
 40
0.2421875
 40
0.24609375
 40
0.248046875
 40
0.25
 40
0.251953125
 40
0.25390625
 40
0.2578125
 40
0.265625
 40
0.28125
 40
0.296875
 40
0.3046875
 40
0.30859375
 40
0.310546875
 40
0.3125
 40
0.314453125
 40
0.31640625
 40
0.3203125
 40
0.328125
 40
0.34375
 40
0.359375
 40
0.3671875
 40
0.37109375
 40
0.373046875
 40
0.375
 40
0.376953125
 40
0.37890625
 40
0.3828125
 40
0.390625
 40
0.40625
 40
0.421875
 40
0.4296875
 40
0.43359375
 40
0.435546875
 40
0.4375
 40
0.439453125
 40
0.44140625
 40
0.4453125
 40
0.453125
 40
0.46875
 40
0.484375
 40
0.4921875
 40
0.49609375
 40
0.498046875
 40
0.5
 40
0.501953125
 40
0.50390625
 40
0.5078125
 40
0.515625
 40
0.53125
 40
0.546875
 40
0.5546875
 40
0.55859375
 40
0.560546875
 40
0.5625
 40
0.564453125
 40
0.56640625
 40
0.5703125
 40
0.578125
 40
0.59375
 40
0.609375
 40
0.6171875
 40
0.62109375
 40
0.623046875
 40
0.625
 40
0.626953125
 40
0.62890625
 40
0.6328125
 40
0.640625
 40
0.65625
 40
0.671875
 40
0.6796875
 40
0.68359375
 40
0.685546875
 40
0.6875
 40
0.689453125
 40
0.69140625
 40
0.6953125
 40
0.703125
 40
0.71875
 40
0.734375
 40
0.7421875
 40
0.74609375
 40
0.748046875
 40
0.75
 40
0.751953125
 40
0.75390625
 40
0.7578125
 40
0.765625
 40
0.78125
 40
0.796875
 40
0.8046875
 40
0.80859375
 40
0.810546875
 40
0.8125
 40
0.814453125
 40
0.81640625
 40
0.8203125
 40
0.828125
 40
0.84375
 40
0.859375
 40
0.8671875
 40
0.87109375
 40
0.873046875
 40
0.875
 40
0.876953125
 40
0.87890625
 40
0.8828125
 40
0.890625
 40
0.90625
 40
0.921875
 40
0.9296875
 40
0.93359375
 40
0.935546875
 40
0.9375
 40
0.939453125
 40
0.94140625
 40
0.9453125
 40
0.953125
 40
0.9609375
 40
0.96875
 40
0.984375
 40
1.0
 40
1.0
 40
1.0
 40
1.0
 10
162.263267
 20
-30.4768971708
 30
0.0
 10
162.3453166404
 20
-30.4142569908
 30
0.0
 10
162.5094129826
 20
-30.2889734557
 30
0.0
 10
162.7145481035
 20
-30.1323849133
 30
0.0
 10
162.8786253444
 20
-30.0070807386
 30
0.0
 10
163.0017670267
 20
-29.9131931039
 30
0.0
 10
163.1041187798
 20
-29.834665646
 30
0.0
 10
163.1762876282
 20
-29.7802611342
 30
0.0
 10
163.2167109427
 20
-29.7482910984
 30
0.0
 10
163.2493271904
 20
-29.7267974563
 30
0.0
 10
163.2731564048
 20
-29.6958091467
 30
0.0
 10
163.3079934939
 20
-29.657802995
 30
0.0
 10
163.3675325825
 20
-29.5897518243
 30
0.0
 10
163.4876303504
 20
-29.4547484742
 30
0.0
 10
163.6586067695
 20
-29.2612689361
 30
0.0
 10
163.830008394
 20
-29.0681665192
 30
0.0
 10
163.9495108744
 20
-28.9326351994
 30
0.0
 10
164.0098684833
 20
-28.8653099871
 30
0.0
 10
164.0433874358
 20
-28.8261347595
 30
0.0
 10
164.0712667311
 20
-28.7987385298
 30
0.0
 10
164.0886712576
 20
-28.7637533752
 30
0.0
 10
164.1155307503
 20
-28.7197534059
 30
0.0
 10
164.1608352504
 20
-28.6415222093
 30
0.0
 10
164.2526589455
 20
-28.4859385757
 30
0.0
 10
164.3831360515
 20
-28.2631797336
 30
0.0
 10
164.5140978582
 20
-28.0407330975
 30
0.0
 10
164.6052429722
 20
-27.8847123755
 30
0.0
 10
164.6514805214
 20
-27.8070821756
 30
0.0
 10
164.6768374416
 20
-27.7621143676
 30
0.0
 10
164.6988587433
 20
-27.7301029753
 30
0.0
 10
164.7093978669
 20
-27.6915375751
 30
0.0
 10
164.727454863
 20
-27.6424029587
 30
0.0
 10
164.7571915006
 20
-27.5553542775
 30
0.0
 10
164.8179966782
 20
-27.3820130797
 30
0.0
 10
164.9040912295
 20
-27.1339762567
 30
0.0
 10
164.9907287764
 20
-26.886125282
 30
0.0
 10
165.0507737602
 20
-26.7125238965
 30
0.0
 10
165.0815556643
 20
-26.6258329735
 30
0.0
 10
165.0979293741
 20
-26.5761222269
 30
0.0
 10
165.1136405306
 20
-26.539327033
 30
0.0
 10
165.1162361656
 20
-26.5006669134
 30
0.0
 10
165.1242715199
 20
-26.4497705383
 30
0.0
 10
165.1362053843
 20
-26.360399385
 30
0.0
 10
165.1615930158
 20
-26.1818721732
 30
0.0
 10
165.1969933549
 20
-25.9267181841
 30
0.0
 10
165.2329694652
 20
-25.6716149514
 30
0.0
 10
165.2575510171
 20
-25.4930166804
 30
0.0
 10
165.2705932411
 20
-25.4037432335
 30
0.0
 10
165.2768437045
 20
-25.3526895132
 30
0.0
 10
165.2849235607
 20
-25.3145128496
 30
0.0
 10
165.2800365005
 20
-25.2759018406
 30
0.0
 10
165.2780430966
 20
-25.2245719736
 30
0.0
 10
165.2724507451
 20
-25.1346743931
 30
0.0
 10
165.2627687273
 20
-24.9549277311
 30
0.0
 10
165.2480793699
 20
-24.6981328697
 30
0.0
 10
165.2339593683
 20
-24.4413012914
 30
0.0
 10
165.2234802524
 20
-24.2616060332
 30
0.0
 10
165.2189839107
 20
-24.1716377724
 30
0.0
 10
165.215225504
 20
-24.1204217281
 30
0.0
 10
165.2157615571
 20
-24.0814609899
 30
0.0
 10
165.2034727122
 20
-24.0445978763
 30
0.0
 10
165.1915607288
 20
-23.9947154278
 30
0.0
 10
165.1686338978
 20
-23.9077615767
 30
0.0
 10
165.124266556
 20
-23.733609727
 30
0.0
 10
165.0600353807
 20
-23.4849687272
 30
0.0
 10
164.9963701529
 20
-23.2362033429
 30
0.0
 10
164.9512104845
 20
-23.0622256314
 30
0.0
 10
164.9293731026
 20
-22.9750323403
 30
0.0
 10
164.9157066817
 20
-22.9255354835
 30
0.0
 10
164.9088084875
 20
-22.8874876082
 30
0.0
 10
164.8890977659
 20
-22.8529767234
 30
0.0
 10
164.8672856194
 20
-22.8057285313
 30
0.0
 10
164.8270356447
 20
-22.7236183584
 30
0.0
 10
164.7480190325
 20
-22.5589848678
 30
0.0
 10
164.6343022298
 20
-22.3240544752
 30
0.0
 10
164.5211037353
 20
-22.0888697922
 30
0.0
 10
164.4413614917
 20
-21.9245923083
 30
0.0
 10
164.4021092602
 20
-21.8419926262
 30
0.0
 10
164.3786903584
 20
-21.7955327346
 30
0.0
 10
164.3639165219
 20
-21.7585997331
 30
0.0
 10
164.3384758539
 20
-21.7296490993
 30
0.0
 10
164.3082753967
 20
-21.6882641117
 30
0.0
 10
164.2536939559
 20
-21.6171355926
 30
0.0
 10
164.1457664861
 20
-21.4739527933
 30
0.0
 10
163.9908845176
 20
-21.2699398371
 30
0.0
 10
163.836448859
 20
-21.0655546353
 30
0.0
 10
163.7278965554
 20
-20.9228929798
 30
0.0
 10
163.6741742612
 20
-20.8510478878
 30
0.0
 10
163.6425902434
 20
-20.8108168618
 30
0.0
 10
163.6214006767
 20
-20.7783205882
 30
0.0
 10
163.5906601051
 20
-20.7547046747
 30
0.0
 10
163.5530039206
 20
-20.7201194358
 30
0.0
 10
163.4855560505
 20
-20.6610362267
 30
0.0
 10
163.3517658432
 20
-20.541839411
 30
0.0
 10
163.1600155348
 20
-20.3721561727
 30
0.0
 10
162.9686452128
 20
-20.2020438886
 30
0.0
 10
162.8343230246
 20
-20.083447737
 30
0.0
 10
162.7676066282
 20
-20.0235386148
 30
0.0
 10
162.728772486
 20
-19.9902834178
 30
0.0
 10
162.7016512842
 20
-19.9625808432
 30
0.0
 10
162.6668677067
 20
-19.9454336827
 30
0.0
 10
162.6231621255
 20
-19.9188892167
 30
0.0
 10
162.54543419
 20
-19.8741490978
 30
0.0
 10
162.3908655984
 20
-19.7834448236
 30
0.0
 10
162.1695518932
 20
-19.6545721916
 30
0.0
 10
161.9485538579
 20
-19.5252114474
 30
0.0
 10
161.7935433284
 20
-19.4351905303
 30
0.0
 10
161.7164230575
 20
-19.3895107955
 30
0.0
 10
161.6717388996
 20
-19.3644794772
 30
0.0
 10
161.6399620781
 20
-19.3426830481
 30
0.0
 10
161.6015477846
 20
-19.332442687
 30
0.0
 10
161.5526437551
 20
-19.3147582694
 30
0.0
 10
161.4659850574
 20
-19.2856856305
 30
0.0
 10
161.2934335152
 20
-19.2261999131
 30
0.0
 10
161.0465191193
 20
-19.1419949887
 30
0.0
 10
160.7997947262
 20
-19.0572445949
 30
0.0
 10
160.62697718
 20
-18.9985225347
 30
0.0
 10
160.5406842377
 20
-18.9683998671
 30
0.0
 10
160.4911911994
 20
-18.9524064048
 30
0.0
 10
160.4545866829
 20
-18.9369704471
 30
0.0
 10
160.4160125103
 20
-18.9346881878
 30
0.0
 10
160.3652672597
 20
-18.9270573522
 30
0.0
 10
160.2761435816
 20
-18.915837589
 30
0.0
 10
160.0981234585
 20
-18.8918737441
 30
0.0
 10
159.843686939
 20
-18.8585098438
 30
0.0
 10
159.5893058258
 20
-18.8245687521
 30
0.0
 10
159.411208134
 20
-18.8014129751
 30
0.0
 10
159.3221911128
 20
-18.7890821185
 30
0.0
 10
159.271274103
 20
-18.7832405762
 30
0.0
 10
159.2332276744
 20
-18.775460569
 30
0.0
 10
159.1946410013
 20
-18.7806736327
 30
0.0
 10
159.1433805183
 20
-18.7830925858
 30
0.0
 10
159.0535871772
 20
-18.7894338907
 30
0.0
 10
158.8740612693
 20
-18.8006107995
 30
0.0
 10
158.61757474
 20
-18.8174373239
 30
0.0
 10
158.3610562368
 20
-18.8336938028
 30
0.0
 10
158.1815750924
 20
-18.8456687751
 30
0.0
 10
158.0917202015
 20
-18.8509127426
 30
0.0
 10
158.0405588376
 20
-18.8550988365
 30
0.0
 10
158.0016676131
 20
-18.8548822179
 30
0.0
 10
157.9647650509
 20
-18.8674955845
 30
0.0
 10
157.9148680086
 20
-18.8798384893
 30
0.0
 10
157.8278709391
 20
-18.9035202574
 30
0.0
 10
157.6536452823
 20
-18.9493968923
 30
0.0
 10
157.4048916141
 20
-19.0157844686
 30
0.0
 10
157.1560184233
 20
-19.0816061325
 30
0.0
 10
156.9819600982
 20
-19.1282750448
 30
0.0
 10
156.8947329477
 20
-19.1508674315
 30
0.0
 10
156.8452064255
 20
-19.1649646647
 30
0.0
 10
156.8071654104
 20
-19.1721877158
 30
0.0
 10
156.7725501074
 20
-19.192216613
 30
0.0
 10
156.7252014433
 20
-19.2144549866
 30
0.0
 10
156.6428980198
 20
-19.2554533163
 30
0.0
 10
156.5250306304
 20
-19.3129342935
 30
0.0
 10
156.3837143541
 20
-19.3823772062
 30
0.0
 10
156.195249117
 20
-19.4748050151
 30
0.0
 10
155.9596826076
 20
-19.5903959862
 30
0.0
 10
155.7712248174
 20
-19.6828516325
 30
0.0
 10
155.6769964951
 20
-19.7290815969
 30
0.0
  0
SPLINE
  5
27F
100
AcDbEntity
  8
_21_KURVEN
100
AcDbSpline
 62
1
  6
CENTER
 70
0
 71
3
 72
163
 73
159
 74
0
 42
0.0000001
 43
0.0000001
 44
0.0000000001
 40
0.0
 40
0.0
 40
0.0
 40
0.0
 40
0.015625
 40
0.03125
 40
0.0390625
 40
0.046875
 40
0.0546875
 40
0.05859375
 40
0.060546875
 40
0.0625
 40
0.064453125
 40
0.06640625
 40
0.0703125
 40
0.078125
 40
0.09375
 40
0.109375
 40
0.1171875
 40
0.12109375
 40
0.123046875
 40
0.125
 40
0.126953125
 40
0.12890625
 40
0.1328125
 40
0.140625
 40
0.15625
 40
0.171875
 40
0.1796875
 40
0.18359375
 40
0.185546875
 40
0.1875
 40
0.189453125
 40
0.19140625
 40
0.1953125
 40
0.203125
 40
0.21875
 40
0.234375
 40
0.2421875
 40
0.24609375
 40
0.248046875
 40
0.25
 40
0.251953125
 40
0.25390625
 40
0.2578125
 40
0.265625
 40
0.28125
 40
0.296875
 40
0.3046875
 40
0.30859375
 40
0.310546875
 40
0.3125
 40
0.314453125
 40
0.31640625
 40
0.3203125
 40
0.328125
 40
0.34375
 40
0.359375
 40
0.3671875
 40
0.37109375
 40
0.373046875
 40
0.375
 40
0.376953125
 40
0.37890625
 40
0.3828125
 40
0.390625
 40
0.40625
 40
0.421875
 40
0.4296875
 40
0.43359375
 40
0.435546875
 40
0.4375
 40
0.439453125
 40
0.44140625
 40
0.4453125
 40
0.453125
 40
0.46875
 40
0.484375
 40
0.4921875
 40
0.49609375
 40
0.498046875
 40
0.5
 40
0.501953125
 40
0.50390625
 40
0.5078125
 40
0.515625
 40
0.53125
 40
0.546875
 40
0.5546875
 40
0.55859375
 40
0.560546875
 40
0.5625
 40
0.564453125
 40
0.56640625
 40
0.5703125
 40
0.578125
 40
0.59375
 40
0.609375
 40
0.6171875
 40
0.62109375
 40
0.623046875
 40
0.625
 40
0.626953125
 40
0.62890625
 40
0.6328125
 40
0.640625
 40
0.65625
 40
0.671875
 40
0.6796875
 40
0.68359375
 40
0.685546875
 40
0.6875
 40
0.689453125
 40
0.69140625
 40
0.6953125
 40
0.703125
 40
0.71875
 40
0.734375
 40
0.7421875
 40
0.74609375
 40
0.748046875
 40
0.75
 40
0.751953125
 40
0.75390625
 40
0.7578125
 40
0.765625
 40
0.78125
 40
0.796875
 40
0.8046875
 40
0.80859375
 40
0.810546875
 40
0.8125
 40
0.814453125
 40
0.81640625
 40
0.8203125
 40
0.828125
 40
0.84375
 40
0.859375
 40
0.8671875
 40
0.87109375
 40
0.873046875
 40
0.875
 40
0.876953125
 40
0.87890625
 40
0.8828125
 40
0.890625
 40
0.90625
 40
0.921875
 40
0.9296875
 40
0.93359375
 40
0.935546875
 40
0.9375
 40
0.939453125
 40
0.94140625
 40
0.9453125
 40
0.953125
 40
0.9609375
 40
0.96875
 40
0.984375
 40
1.0
 40
1.0
 40
1.0
 40
1.0
 10
155.6769969665
 20
-19.7290813047
 30
0.0
 10
155.5949473261
 20
-19.7917214846
 30
0.0
 10
155.4308509839
 20
-19.9170050198
 30
0.0
 10
155.225715863
 20
-20.0735935622
 30
0.0
 10
155.0616386221
 20
-20.1988977368
 30
0.0
 10
154.9384969398
 20
-20.2927853715
 30
0.0
 10
154.8361451867
 20
-20.3713128294
 30
0.0
 10
154.7639763383
 20
-20.4257173412
 30
0.0
 10
154.7235530238
 20
-20.4576873771
 30
0.0
 10
154.6909367761
 20
-20.4791810192
 30
0.0
 10
154.6671075617
 20
-20.5101693288
 30
0.0
 10
154.6322704726
 20
-20.5481754805
 30
0.0
 10
154.572731384
 20
-20.6162266511
 30
0.0
 10
154.4526336161
 20
-20.7512300012
 30
0.0
 10
154.281657197
 20
-20.9447095394
 30
0.0
 10
154.1102555725
 20
-21.1378119563
 30
0.0
 10
153.9907530921
 20
-21.2733432761
 30
0.0
 10
153.9303954832
 20
-21.3406684883
 30
0.0
 10
153.8968765307
 20
-21.3798437159
 30
0.0
 10
153.8689972354
 20
-21.4072399456
 30
0.0
 10
153.8515927089
 20
-21.4422251003
 30
0.0
 10
153.8247332162
 20
-21.4862250696
 30
0.0
 10
153.7794287161
 20
-21.5644562661
 30
0.0
 10
153.687605021
 20
-21.7200398997
 30
0.0
 10
153.557127915
 20
-21.9427987418
 30
0.0
 10
153.4261661083
 20
-22.1652453779
 30
0.0
 10
153.3350209943
 20
-22.3212660999
 30
0.0
 10
153.2887834451
 20
-22.3988962999
 30
0.0
 10
153.2634265249
 20
-22.4438641079
 30
0.0
 10
153.2414052232
 20
-22.4758755001
 30
0.0
 10
153.2308660996
 20
-22.5144409003
 30
0.0
 10
153.2128091035
 20
-22.5635755168
 30
0.0
 10
153.1830724659
 20
-22.650624198
 30
0.0
 10
153.1222672883
 20
-22.8239653957
 30
0.0
 10
153.036172737
 20
-23.0720022188
 30
0.0
 10
152.9495351901
 20
-23.3198531934
 30
0.0
 10
152.8894902063
 20
-23.4934545789
 30
0.0
 10
152.8587083022
 20
-23.580145502
 30
0.0
 10
152.8423345923
 20
-23.6298562485
 30
0.0
 10
152.8266234359
 20
-23.6666514425
 30
0.0
 10
152.8240278009
 20
-23.7053115621
 30
0.0
 10
152.8159924466
 20
-23.7562079371
 30
0.0
 10
152.8040585822
 20
-23.8455790904
 30
0.0
 10
152.7786709506
 20
-24.0241063022
 30
0.0
 10
152.7432706116
 20
-24.2792602914
 30
0.0
 10
152.7072945013
 20
-24.5343635241
 30
0.0
 10
152.6827129494
 20
-24.712961795
 30
0.0
 10
152.6696707254
 20
-24.8022352419
 30
0.0
 10
152.6634202619
 20
-24.8532889622
 30
0.0
 10
152.6553404058
 20
-24.8914656259
 30
0.0
 10
152.660227466
 20
-24.9300766348
 30
0.0
 10
152.6622208699
 20
-24.9814065018
 30
0.0
 10
152.6678132214
 20
-25.0713040824
 30
0.0
 10
152.6774952392
 20
-25.2510507444
 30
0.0
 10
152.6921845966
 20
-25.5078456057
 30
0.0
 10
152.7063045982
 20
-25.764677184
 30
0.0
 10
152.7167837141
 20
-25.9443724423
 30
0.0
 10
152.7212800558
 20
-26.034340703
 30
0.0
 10
152.7250384625
 20
-26.0855567474
 30
0.0
 10
152.7245024094
 20
-26.1245174856
 30
0.0
 10
152.7367912543
 20
-26.1613805991
 30
0.0
 10
152.7487032377
 20
-26.2112630477
 30
0.0
 10
152.7716300687
 20
-26.2982168987
 30
0.0
 10
152.8159974105
 20
-26.4723687484
 30
0.0
 10
152.8802285858
 20
-26.7210097483
 30
0.0
 10
152.9438938136
 20
-26.9697751325
 30
0.0
 10
152.989053482
 20
-27.143752844
 30
0.0
 10
153.0108908639
 20
-27.2309461351
 30
0.0
 10
153.0245572848
 20
-27.2804429919
 30
0.0
 10
153.031455479
 20
-27.3184908673
 30
0.0
 10
153.0511662006
 20
-27.3530017521
 30
0.0
 10
153.0729783471
 20
-27.4002499442
 30
0.0
 10
153.1132283218
 20
-27.482360117
 30
0.0
 10
153.192244934
 20
-27.6469936076
 30
0.0
 10
153.3059617367
 20
-27.8819240002
 30
0.0
 10
153.4191602312
 20
-28.1171086833
 30
0.0
 10
153.4989024748
 20
-28.2813861672
 30
0.0
 10
153.5381547063
 20
-28.3639858492
 30
0.0
 10
153.561573608
 20
-28.4104457409
 30
0.0
 10
153.5763474446
 20
-28.4473787424
 30
0.0
 10
153.6017881126
 20
-28.4763293762
 30
0.0
 10
153.6319885698
 20
-28.5177143637
 30
0.0
 10
153.6865700106
 20
-28.5888428829
 30
0.0
 10
153.7944974804
 20
-28.7320256822
 30
0.0
 10
153.9493794488
 20
-28.9360386384
 30
0.0
 10
154.1038151075
 20
-29.1404238402
 30
0.0
 10
154.212367411
 20
-29.2830854956
 30
0.0
 10
154.2660897053
 20
-29.3549305876
 30
0.0
 10
154.2976737231
 20
-29.3951616137
 30
0.0
 10
154.3188632897
 20
-29.4276578873
 30
0.0
 10
154.3496038613
 20
-29.4512738008
 30
0.0
 10
154.3872600459
 20
-29.4858590396
 30
0.0
 10
154.454707916
 20
-29.5449422488
 30
0.0
 10
154.5884981233
 20
-29.6641390644
 30
0.0
 10
154.7802484317
 20
-29.8338223027
 30
0.0
 10
154.9716187537
 20
-30.0039345869
 30
0.0
 10
155.1059409419
 20
-30.1225307384
 30
0.0
 10
155.1726573383
 20
-30.1824398607
 30
0.0
 10
155.2114914804
 20
-30.2156950576
 30
0.0
 10
155.2386126823
 20
-30.2433976322
 30
0.0
 10
155.2733962598
 20
-30.2605447927
 30
0.0
 10
155.317101841
 20
-30.2870892588
 30
0.0
 10
155.3948297764
 20
-30.3318293776
 30
0.0
 10
155.5493983681
 20
-30.4225336518
 30
0.0
 10
155.7707120733
 20
-30.5514062838
 30
0.0
 10
155.9917101086
 20
-30.680767028
 30
0.0
 10
156.1467206381
 20
-30.7707879451
 30
0.0
 10
156.223840909
 20
-30.81646768
 30
0.0
 10
156.2685250669
 20
-30.8414989982
 30
0.0
 10
156.3003018884
 20
-30.8632954273
 30
0.0
 10
156.3387161818
 20
-30.8735357884
 30
0.0
 10
156.3876202114
 20
-30.8912202061
 30
0.0
 10
156.4742789091
 20
-30.9202928449
 30
0.0
 10
156.6468304513
 20
-30.9797785624
 30
0.0
 10
156.8937448472
 20
-31.0639834867
 30
0.0
 10
157.1404692403
 20
-31.1487338805
 30
0.0
 10
157.3132867865
 20
-31.2074559408
 30
0.0
 10
157.3995797287
 20
-31.2375786083
 30
0.0
 10
157.4490727671
 20
-31.2535720707
 30
0.0
 10
157.4856772835
 20
-31.2690080283
 30
0.0
 10
157.5242514562
 20
-31.2712902877
 30
0.0
 10
157.5749967067
 20
-31.2789211233
 30
0.0
 10
157.6641203849
 20
-31.2901408865
 30
0.0
 10
157.842140508
 20
-31.3141047314
 30
0.0
 10
158.0965770275
 20
-31.3474686317
 30
0.0
 10
158.3509581407
 20
-31.3814097234
 30
0.0
 10
158.5290558325
 20
-31.4045655004
 30
0.0
 10
158.6180728537
 20
-31.4168963569
 30
0.0
 10
158.6689898635
 20
-31.4227378993
 30
0.0
 10
158.7070362921
 20
-31.4305179065
 30
0.0
 10
158.7456229652
 20
-31.4253048427
 30
0.0
 10
158.7968834482
 20
-31.4228858896
 30
0.0
 10
158.8866767893
 20
-31.4165445847
 30
0.0
 10
159.0662026971
 20
-31.405367676
 30
0.0
 10
159.3226892265
 20
-31.3885411516
 30
0.0
 10
159.5792077297
 20
-31.3722846726
 30
0.0
 10
159.7586888741
 20
-31.3603097003
 30
0.0
 10
159.848543765
 20
-31.3550657328
 30
0.0
 10
159.8997051289
 20
-31.350879639
 30
0.0
 10
159.9385963534
 20
-31.3510962576
 30
0.0
 10
159.9754989156
 20
-31.3384828909
 30
0.0
 10
160.0253959579
 20
-31.3261399862
 30
0.0
 10
160.1123930274
 20
-31.3024582181
 30
0.0
 10
160.2866186842
 20
-31.2565815831
 30
0.0
 10
160.5353723523
 20
-31.1901940069
 30
0.0
 10
160.7842455431
 20
-31.124372343
 30
0.0
 10
160.9583038683
 20
-31.0777034307
 30
0.0
 10
161.0455310188
 20
-31.0551110439
 30
0.0
 10
161.095057541
 20
-31.0410138108
 30
0.0
 10
161.1330985561
 20
-31.0337907596
 30
0.0
 10
161.1677138591
 20
-31.0137618625
 30
0.0
 10
161.2150625232
 20
-30.9915234888
 30
0.0
 10
161.2973659467
 20
-30.9505251591
 30
0.0
 10
161.4152333361
 20
-30.893044182
 30
0.0
 10
161.5565496124
 20
-30.8236012693
 30
0.0
 10
161.7450148494
 20
-30.7311734603
 30
0.0
 10
161.9805813589
 20
-30.6155824892
 30
0.0
 10
162.1690391491
 20
-30.523126843
 30
0.0
 10
162.2632674714
 20
-30.4768968785
 30
0.0
  0
SPLINE
  5
280
100
AcDbEntity
  8
_21_KURVEN
100
AcDbSpline
 62
7
  6
CONTINUOUS
 70
0
 71
3
 72
9
 73
5
 74
0
 42
0.0000001
 43
0.0000001
 44
0.0000000001
 40
0.0
 40
0.0
 40
0.0
 40
0.0
 40
0.5
 40
1.0
 40
1.0
 40
1.0
 40
1.0
 10
155.076448334
 20
-30.8910894005
 30
0.0
 10
155.1006669372
 20
-30.9282254018
 30
0.0
 10
155.151407859
 20
-31.0013900566
 30
0.0
 10
155.2171208662
 20
-31.0613880251
 30
0.0
 10
155.251434959
 20
-31.090931901
 30
0.0
  0
SPLINE
  5
281
100
AcDbEntity
  8
_21_KURVEN
100
AcDbSpline
 62
7
  6
CONTINUOUS
 70
0
 71
3
 72
8
 73
4
 74
0
 42
0.0000001
 43
0.0000001
 44
0.0000000001
 40
0.0
 40
0.0
 40
0.0
 40
0.0
 40
1.0
 40
1.0
 40
1.0
 40
1.0
 10
155.2514349547
 20
-31.0909318975
 30
0.0
 10
155.2774501322
 20
-31.1116058199
 30
0.0
 10
155.311024276
 20
-31.1354346896
 30
0.0
 10
155.3447744925
 20
-31.1561180715
 30
0.0
  0
SPLINE
  5
282
100
AcDbEntity
  8
_21_KURVEN
100
AcDbSpline
 62
7
  6
CONTINUOUS
 70
0
 71
3
 72
10
 73
6
 74
0
 42
0.0000001
 43
0.0000001
 44
0.0000000001
 40
0.0
 40
0.0
 40
0.0
 40
0.0
 40
0.25
 40
0.5
 40
1.0
 40
1.0
 40
1.0
 40
1.0
 10
155.3447744915
 20
-31.156118071
 30
0.0
 10
155.3519575247
 20
-31.1602947106
 30
0.0
 10
155.3654522102
 20
-31.1681434075
 30
0.0
 10
155.4001085042
 20
-31.1866588411
 30
0.0
 10
155.420798837
 20
-31.1959581334
 30
0.0
 10
155.4390362438
 20
-31.2040049473
 30
0.0
  0
SPLINE
  5
283
100
AcDbEntity
  8
_21_KURVEN
100
AcDbSpline
 62
7
  6
CONTINUOUS
 70
0
 71
3
 72
9
 73
5
 74
0
 42
0.0000001
 43
0.0000001
 44
0.0000000001
 40
0.0
 40
0.0
 40
0.0
 40
0.0
 40
0.5
 40
1.0
 40
1.0
 40
1.0
 40
1.0
 10
155.4390362464
 20
-31.2040049484
 30
0.0
 10
155.4802941492
 20
-31.2202339557
 30
0.0
 10
155.566709981
 20
-31.2514133298
 30
0.0
 10
155.6581042358
 20
-31.2620124459
 30
0.0
 10
155.7059736239
 20
-31.2660800762
 30
0.0
  0
ENDSEC
  0
SECTION
  2
OBJECTS
  0
DICTIONARY
  5
C
100
AcDbDictionary
280
0
281
1
  3
ACAD_GROUP
350
D
  3
ACAD_MLINESTYLE
350
17
  3
ACAD_LAYOUT
350
1A
  3
ACAD_PLOTSETTINGS
350
19
  3
ACAD_PLOTSTYLENAME
350
E
  0
DICTIONARY
  5
D
102
{ACAD_REACTORS
330
C
102
}
100
AcDbDictionary
280
0
281
1
  0
ACDBDICTIONARYWDFLT
  5
E
102
{ACAD_REACTORS
330
C
102
}
100
AcDbDictionary
281
1
  3
Normal
350
F
100
AcDbDictionaryWithDefault
340
F
  0
DICTIONARY
  5
17
102
{ACAD_REACTORS
330
C
102
}
100
AcDbDictionary
280
0
281
1
  3
Standard
350
18
  0
DICTIONARY
  5
19
102
{ACAD_REACTORS
330
C
102
}
100
AcDbDictionary
281
1
  0
DICTIONARY
  5
1A
102
{ACAD_REACTORS
330
C
102
}
100
AcDbDictionary
281
1
  3
Model
350
284
  3
Layout1
350
285
  0
ACDBPLACEHOLDER
  5
F
102
{ACAD_REACTORS
330
E
102
}
  0
MLINESTYLE
  5
18
102
{ACAD_REACTORS
330
17
102
}
100
AcDbMlineStyle
  2
STANDARD
 70
0
  3

 62
256
 51
90.0
 52
90.0
 71
2
 49
0.5
 62
256
  6
BYLAYER
 49
-0.5
 62
256
  6
BYLAYER
  0
LAYOUT
  5
284
102
{ACAD_REACTORS
330
1A
102
}
100
AcDbPlotSettings
  1

  2
none_device
  4
ISO_A3_(420.00_x_297.00_MM)
  6

 40
0.0
 41
0.0
 42
0.0
 43
0.0
 44
420.0
 45
297.0
 46
0.0
 47
0.0
 48
0.0
 49
0.0
140
0.0
141
0.0
142
1.0
143
1.0
 70
1024
 72
1
 73
0
 74
0
  7

 75
0
147
1.0
148
0.0
149
0.0
100
AcDbLayout
  1
Model
 70
0
 71
0
 10
0.0
 20
0.0
 11
420.0
 21
297.0
 12
0.0
 22
0.0
 32
0.0
 14
0.0
 24
0.0
 34
0.0
 15
0.0
 25
0.0
 35
0.0
146
0.0
 13
0.0
 23
0.0
 33
0.0
 16
1.0
 26
0.0
 36
0.0
 17
0.0
 27
1.0
 37
0.0
 76
0
330
20E
345
0
346
0
  0
LAYOUT
  5
285
102
{ACAD_REACTORS
330
1A
102
}
100
AcDbPlotSettings
  1

  2
none_device
  4
ISO_A3_(420.00_x_297.00_MM)
  6

 40
0.0
 41
0.0
 42
0.0
 43
0.0
 44
420.0
 45
297.0
 46
0.0
 47
0.0
 48
0.0
 49
0.0
140
0.0
141
0.0
142
1.0
143
1.0
 70
0
 72
1
 73
0
 74
0
  7

 75
0
147
1.0
148
0.0
149
0.0
100
AcDbLayout
  1
Layout1
 70
0
 71
1
 10
0.0
 20
0.0
 11
420.0
 21
297.0
 12
0.0
 22
0.0
 32
0.0
 14
0.0
 24
0.0
 34
0.0
 15
0.0
 25
0.0
 35
0.0
146
0.0
 13
0.0
 23
0.0
 33
0.0
 16
1.0
 26
0.0
 36
0.0
 17
0.0
 27
1.0
 37
0.0
 76
0
330
20F
345
0
346
0
  0
ENDSEC
  0
EOF
