999
DXF file: 70541116.dxf
999
Pro/ENGINEER 2017380 by Parametric Technology Corporation
  0
SECTION
  2
HEADER
  9
$ACADVER
  1
AC1027
  9
$DWGCODEPAGE
  3
ANSI_1252
  9
$EXTMAX
 10
420.0
 20
297.0
 30
0.0
  9
$EXTMIN
 10
0.0
 20
0.0
 30
0.0
  9
$LIMMIN
 10
0.0
 20
0.0
  9
$LIMMAX
 10
420.0
 20
297.0
  9
$VIEWCTR
 10
210.0
 20
148.5
  9
$VIEWSIZE
 40
297.0
  9
$CLAYER
  8
0
  9
$LTSCALE
 40
23.1
  9
$CELTYPE
  6
BYLAYER
  9
$DIMSCALE
 40
1.0
  9
$DIMASZ
 40
3.5
  9
$DIMEXO
 40
0.0
  9
$DIMDLI
 40
15.96
  9
$DIMEXE
 40
1.5
  9
$DIMCEN
 40
3.78
  9
$DIMLFAC
 40
1.0
  9
$DIMBLK
  1
_FILLED
  9
$DIMALT
 70
0
  9
$DIMALTF
 40
25.4
  9
$DIMTXT
 40
3.5
  9
$DIMTOL
 70
1
  9
$DIMLIM
 70
0
  9
$DIMTFAC
 40
1.0
  9
$DIMTP
 40
0.05
  9
$DIMTM
 40
0.05
  9
$DIMGAP
 40
0.625
  9
$DIMDSEP
 70
46
  9
$AUNITS
 70
0
  9
$PDMODE
 70
3
  9
$PDSIZE
 40
0.3125
  9
$HANDSEED
  5
281
  9
$TILEMODE
 70
1
  9
$MEASUREMENT
 70
1
  9
$INSUNITS
 70
4
  0
ENDSEC
  0
SECTION
  2
CLASSES
  0
CLASS
  1
ACDBDICTIONARYWDFLT
  2
AcDbDictionaryWithDefault
  3
AutoCAD 2000
 90
0
 91
1
280
0
281
0
  0
CLASS
  1
ACDBPLACEHOLDER
  2
AcDbPlaceHolder
  3
AutoCAD 2000
 90
0
 91
1
280
0
281
0
  0
CLASS
  1
LAYOUT
  2
AcDbLayout
  3
AutoCAD 2000
 90
0
 91
0
280
0
281
0
  0
ENDSEC
  0
SECTION
  2
TABLES
  0
TABLE
  2
VPORT
  5
8
100
AcDbSymbolTable
 70
2
  0
VPORT
  5
1F4
100
AcDbSymbolTableRecord
100
AcDbViewportTableRecord
  2
*ACTIVE
 70
0
 10
0.0
 20
0.0
 11
1.0
 21
1.0
 12
210.0
 22
148.5
 13
0.0
 23
0.0
 14
1.0
 24
1.0
 15
0.0
 25
0.0
 16
0.0
 26
0.0
 36
1.0
 17
0.0
 27
0.0
 37
0.0
 40
297.0
 41
1.4141414141
 42
50.0
 43
0.0
 44
0.0
 50
0.0
 51
0.0
 71
0
 72
100
 73
1
 74
1
 75
0
 76
0
 77
0
 78
0
  0
ENDTAB
  0
TABLE
  2
LTYPE
  5
5
100
AcDbSymbolTable
 70
6
  0
LTYPE
  5
14
100
AcDbSymbolTableRecord
100
AcDbLinetypeTableRecord
  2
BYBLOCK
 70
0
  3

 72
65
 73
0
 40
0.0
  0
LTYPE
  5
15
100
AcDbSymbolTableRecord
100
AcDbLinetypeTableRecord
  2
BYLAYER
 70
0
  3

 72
65
 73
0
 40
0.0
  0
LTYPE
  5
16
100
AcDbSymbolTableRecord
100
AcDbLinetypeTableRecord
  2
CONTINUOUS
 70
64
  3
Solid line
 72
65
 73
0
 40
0.0
  0
LTYPE
  5
1F5
100
AcDbSymbolTableRecord
100
AcDbLinetypeTableRecord
  2
CENTER
 70
64
  3
____ _ ____ _ ____ _ ____ _ ____ _ ____ _ ____
 72
65
 73
4
 40
0.6
 49
0.375
 74
0
 49
-0.075
 74
0
 49
0.075
 74
0
 49
-0.075
 74
0
  0
LTYPE
  5
1F6
100
AcDbSymbolTableRecord
100
AcDbLinetypeTableRecord
  2
HIDDEN
 70
64
  3
- - - - - - - - - - - - - - - - - - - -
 72
65
 73
2
 40
0.2
 49
0.1
 74
0
 49
-0.1
 74
0
  0
LTYPE
  5
1F7
100
AcDbSymbolTableRecord
100
AcDbLinetypeTableRecord
  2
PHANTOM
 70
64
  3
_____ _ _ _____ _ _ _____ _ _ _____
 72
65
 73
6
 40
0.8
 49
0.45
 74
0
 49
-0.05
 74
0
 49
0.1
 74
0
 49
-0.05
 74
0
 49
0.1
 74
0
 49
-0.05
 74
0
  0
LTYPE
  5
1F8
100
AcDbSymbolTableRecord
100
AcDbLinetypeTableRecord
  2
DOT
 70
64
  3
. . . . . . . . . . . . . . . . . . . .
 72
65
 73
2
 40
0.2
 49
0.1
 74
0
 49
-0.1
 74
0
  0
LTYPE
  5
1F9
100
AcDbSymbolTableRecord
100
AcDbLinetypeTableRecord
  2
DASHED
 70
64
  3
- - - - - - - - - - - - - - - - - - - -
 72
65
 73
2
 40
0.2
 49
0.1
 74
0
 49
-0.1
 74
0
  0
ENDTAB
  0
TABLE
  2
LAYER
  5
2
100
AcDbSymbolTable
 70
36
  0
LAYER
  5
10
100
AcDbSymbolTableRecord
100
AcDbLayerTableRecord
  2
0
 70
0
 62
7
  6
CONTINUOUS
370
-3
390
F
  0
LAYER
  5
1FA
100
AcDbSymbolTableRecord
100
AcDbLayerTableRecord
  2
DEFAULT_1
 70
0
 62
7
  6
CENTER
370
-3
390
F
  0
LAYER
  5
1FB
100
AcDbSymbolTableRecord
100
AcDbLayerTableRecord
  2
DEFAULT_2
 70
0
 62
1
  6
HIDDEN
370
-3
390
F
  0
LAYER
  5
1FC
100
AcDbSymbolTableRecord
100
AcDbLayerTableRecord
  2
DEFAULT_3
 70
0
 62
7
  6
PHANTOM
370
-3
390
F
  0
LAYER
  5
1FD
100
AcDbSymbolTableRecord
100
AcDbLayerTableRecord
  2
BG_STARTBEZUEGE
 70
0
 62
7
  6
CONTINUOUS
370
-3
390
F
  0
LAYER
  5
1FE
100
AcDbSymbolTableRecord
100
AcDbLayerTableRecord
  2
HILFEN
 70
0
 62
7
  6
CONTINUOUS
370
-3
390
F
  0
LAYER
  5
1FF
100
AcDbSymbolTableRecord
100
AcDbLayerTableRecord
  2
PLATZIERUNG
 70
0
 62
7
  6
CONTINUOUS
370
-3
390
F
  0
LAYER
  5
200
100
AcDbSymbolTableRecord
100
AcDbLayerTableRecord
  2
T_STARTBEZUEGE
 70
0
 62
7
  6
CONTINUOUS
370
-3
390
F
  0
LAYER
  5
201
100
AcDbSymbolTableRecord
100
AcDbLayerTableRecord
  2
_03_2D_ZEICHNUNG_BEMASSUNGEN
 70
0
 62
7
  6
CONTINUOUS
370
-3
390
F
  0
LAYER
  5
202
100
AcDbSymbolTableRecord
100
AcDbLayerTableRecord
  2
_04_NOTIZEN
 70
0
 62
7
  6
CONTINUOUS
370
-3
390
F
  0
LAYER
  5
203
100
AcDbSymbolTableRecord
100
AcDbLayerTableRecord
  2
_05_2D_ELEMENTE
 70
0
 62
7
  6
CONTINUOUS
370
-3
390
F
  0
LAYER
  5
204
100
AcDbSymbolTableRecord
100
AcDbLayerTableRecord
  2
_07_EINRASTLINIEN
 70
0
 62
7
  6
CONTINUOUS
370
-3
390
F
  0
LAYER
  5
205
100
AcDbSymbolTableRecord
100
AcDbLayerTableRecord
  2
_21_KURVEN
 70
0
 62
7
  6
CONTINUOUS
370
-3
390
F
  0
LAYER
  5
206
100
AcDbSymbolTableRecord
100
AcDbLayerTableRecord
  2
_24_IMPORT
 70
0
 62
7
  6
CONTINUOUS
370
-3
390
F
  0
LAYER
  5
207
100
AcDbSymbolTableRecord
100
AcDbLayerTableRecord
  2
_26_BEZUGSACHSEN
 70
0
 62
7
  6
CONTINUOUS
370
-3
390
F
  0
LAYER
  5
208
100
AcDbSymbolTableRecord
100
AcDbLayerTableRecord
  2
_27_BEZUGSEBENEN
 70
0
 62
7
  6
CONTINUOUS
370
-3
390
F
  0
LAYER
  5
209
100
AcDbSymbolTableRecord
100
AcDbLayerTableRecord
  2
_28_BEZUGSPUNKTE
 70
0
 62
7
  6
CONTINUOUS
370
-3
390
F
  0
LAYER
  5
20A
100
AcDbSymbolTableRecord
100
AcDbLayerTableRecord
  2
_29_KOORDINATENSYSTEME
 70
0
 62
7
  6
CONTINUOUS
370
-3
390
F
  0
LAYER
  5
20B
100
AcDbSymbolTableRecord
100
AcDbLayerTableRecord
  2
_30_VOLUMEN
 70
0
 62
7
  6
CONTINUOUS
370
-3
390
F
  0
ENDTAB
  0
TABLE
  2
STYLE
  5
3
100
AcDbSymbolTable
 70
1
  0
STYLE
  5
11
100
AcDbSymbolTableRecord
100
AcDbTextStyleTableRecord
  2
STANDARD
 70
0
 40
0.0
 41
0.7
 50
0.0
 71
0
 42
0.2
  3
SIMPLEX.SHX
  4

  0
STYLE
  5
20C
100
AcDbSymbolTableRecord
100
AcDbTextStyleTableRecord
  2
TEXTSTYLE_1
 70
0
 40
0.0
 41
0.8
 50
0.0
 71
0
 42
0.2
  3
gdt
  4

  0
ENDTAB
  0
TABLE
  2
VIEW
  5
6
100
AcDbSymbolTable
 70
0
  0
ENDTAB
  0
TABLE
  2
UCS
  5
7
100
AcDbSymbolTable
 70
0
  0
ENDTAB
  0
TABLE
  2
APPID
  5
9
100
AcDbSymbolTable
 70
1
  0
APPID
  5
20D
100
AcDbSymbolTableRecord
100
AcDbRegAppTableRecord
  2
ACAD
 70
0
  0
ENDTAB
  0
TABLE
  2
BLOCK_RECORD
  5
1
100
AcDbSymbolTable
 70
0
  0
BLOCK_RECORD
  5
20E
100
AcDbSymbolTableRecord
100
AcDbBlockTableRecord
  2
*Model_Space
  0
BLOCK_RECORD
  5
20F
100
AcDbSymbolTableRecord
100
AcDbBlockTableRecord
  2
*Paper_Space
  0
BLOCK_RECORD
  5
210
100
AcDbSymbolTableRecord
100
AcDbBlockTableRecord
  2
_FILLED
  0
BLOCK_RECORD
  5
211
100
AcDbSymbolTableRecord
100
AcDbBlockTableRecord
  2
*D0
  0
BLOCK_RECORD
  5
212
100
AcDbSymbolTableRecord
100
AcDbBlockTableRecord
  2
*D1
  0
BLOCK_RECORD
  5
213
100
AcDbSymbolTableRecord
100
AcDbBlockTableRecord
  2
*D2
  0
ENDTAB
  0
TABLE
  2
DIMSTYLE
  5
A
100
AcDbSymbolTable
 70
1
100
AcDbDimStyleTable
 71
0
  0
DIMSTYLE
105
214
100
AcDbSymbolTableRecord
100
AcDbDimStyleTableRecord
  2
STANDARD
 70
0
  3

  4

 40
1.0
 41
3.5
 42
0.0
 43
0.38
 44
1.5
 45
0.0
 46
0.0
 47
0.05
 48
0.05
140
3.5
141
0.09
142
0.0
143
25.4
144
1.0
145
0.0
146
1.0
147
0.625
 71
1.0
 72
0.0
 73
0
 74
0
 75
0
 76
0
 77
1
 78
8
 79
2
170
0
171
1
172
0
173
0
174
0
175
0
176
0
177
0
178
2
270
2
179
2
271
2
272
2
273
2
274
2
275
0
280
0
281
0
282
0
283
1
284
8
285
0
286
0
287
3
288
0
340
11
278
46
341
210
342
210
343
210
344
210
  0
DIMSTYLE
105
215
100
AcDbSymbolTableRecord
100
AcDbDimStyleTableRecord
  2
DIMSTYLE_1
 70
0
  3

  4

 40
1.0
 41
3.5
 42
0.0
 43
0.38
 44
1.5
 45
0.0
 46
0.0
 47
0.2
 48
0.2
140
3.5
141
0.09
142
0.0
143
25.4
144
1.0
145
0.0
146
1.0
147
0.875
 71
0.0
 72
0.0
 73
0
 74
0
 75
0
 76
0
 77
1
 78
8
 79
2
170
0
171
1
172
0
173
0
174
0
175
0
176
0
177
0
178
2
270
2
179
2
271
2
272
2
273
2
274
2
275
0
280
0
281
0
282
0
283
1
284
8
285
0
286
0
287
3
288
0
340
11
278
46
341
210
342
210
343
210
344
210
  0
DIMSTYLE
105
216
100
AcDbSymbolTableRecord
100
AcDbDimStyleTableRecord
  2
DIMSTYLE_2
 70
0
  3

  4

 40
1.0
 41
3.5
 42
0.0
 43
0.38
 44
1.5
 45
0.0
 46
0.0
 47
0.3
 48
0.3
140
3.5
141
0.09
142
0.0
143
25.4
144
1.0
145
0.0
146
1.0
147
0.875
 71
0.0
 72
0.0
 73
0
 74
0
 75
0
 76
0
 77
1
 78
8
 79
2
170
0
171
1
172
0
173
0
174
0
175
0
176
0
177
0
178
2
270
2
179
2
271
2
272
2
273
2
274
2
275
0
280
0
281
0
282
0
283
1
284
8
285
0
286
0
287
3
288
0
340
11
278
46
341
210
342
210
343
210
344
210
  0
ENDTAB
  0
ENDSEC
  0
SECTION
  2
BLOCKS
  0
BLOCK
  5
20
100
AcDbEntity
  8
0
100
AcDbBlockBegin
  2
*Model_Space
 70
0
 10
0.0
 20
0.0
 30
0.0
  3
*Model_Space
  1

  0
ENDBLK
  5
21
100
AcDbEntity
  8
0
100
AcDbBlockEnd
  0
BLOCK
  5
1C
100
AcDbEntity
  8
0
100
AcDbBlockBegin
  2
*Paper_Space
 70
0
 10
0.0
 20
0.0
 30
0.0
  3
*Paper_Space
  1

  0
ENDBLK
  5
1D
100
AcDbEntity
  8
0
100
AcDbBlockEnd
  0
BLOCK
  5
217
100
AcDbEntity
  8
0
100
AcDbBlockBegin
  2
_FILLED
 70
64
 10
0.0
 20
0.0
  3
_FILLED
  1

  0
SOLID
  5
218
100
AcDbEntity
  8
0
  6
BYBLOCK
 62
0
100
AcDbTrace
 10
0.0
 20
0.0
 11
-1.0
 21
0.125
 12
-1.0
 22
-0.125
 13
-1.0
 23
-0.125
  0
ENDBLK
  5
219
100
AcDbEntity
  8
0
  6
BYBLOCK
 62
0
100
AcDbBlockEnd
  0
BLOCK
  5
21A
100
AcDbEntity
  8
_03_2D_ZEICHNUNG_BEMASSUNGEN
100
AcDbBlockBegin
 62
7
  6
CONTINUOUS
  2
*D0
 70
65
 10
0.0
 20
0.0
  3
*D0
  1

  0
TEXT
  5
21B
100
AcDbEntity
  8
_03_2D_ZEICHNUNG_BEMASSUNGEN
100
AcDbText
 62
2
  6
CONTINUOUS
 10
-9.875
 20
-10.375
  7
STANDARD
 40
3.5
  1
16
 50
90.0
 41
0.6785714286
 72
1
 11
-9.875
 21
-8.0
100
AcDbText
  0
LINE
  5
21C
100
AcDbEntity
  8
_03_2D_ZEICHNUNG_BEMASSUNGEN
100
AcDbLine
 62
7
  6
CONTINUOUS
 10
-0.0
 20
-0.0
 11
-10.5
 21
0.0
  0
LINE
  5
21D
100
AcDbEntity
  8
_03_2D_ZEICHNUNG_BEMASSUNGEN
100
AcDbLine
 62
7
  6
CONTINUOUS
 10
-0.0
 20
-16.0
 11
-10.5
 21
-16.0
  0
LINE
  5
21E
100
AcDbEntity
  8
_03_2D_ZEICHNUNG_BEMASSUNGEN
100
AcDbLine
 62
7
  6
CONTINUOUS
 10
-9.0
 20
0.0
 11
-9.0
 21
6.0
  0
LINE
  5
21F
100
AcDbEntity
  8
_03_2D_ZEICHNUNG_BEMASSUNGEN
100
AcDbLine
 62
7
  6
CONTINUOUS
 10
-9.0
 20
6.0
 11
-9.0
 21
-8.0
  0
LINE
  5
220
100
AcDbEntity
  8
_03_2D_ZEICHNUNG_BEMASSUNGEN
100
AcDbLine
 62
7
  6
CONTINUOUS
 10
-9.0
 20
-16.0
 11
-9.0
 21
-22.0
  0
LINE
  5
221
100
AcDbEntity
  8
_03_2D_ZEICHNUNG_BEMASSUNGEN
100
AcDbLine
 62
7
  6
CONTINUOUS
 10
-9.0
 20
-22.0
 11
-9.0
 21
-8.0
  0
INSERT
  5
222
100
AcDbEntity
  8
_03_2D_ZEICHNUNG_BEMASSUNGEN
100
AcDbBlockReference
 62
7
  6
CONTINUOUS
  2
_FILLED
 10
-9.0
 20
0.0
 41
3.5
 42
3.5
 43
3.5
 50
270.0
  0
INSERT
  5
223
100
AcDbEntity
  8
_03_2D_ZEICHNUNG_BEMASSUNGEN
100
AcDbBlockReference
 62
7
  6
CONTINUOUS
  2
_FILLED
 10
-9.0
 20
-16.0
 41
3.5
 42
3.5
 43
3.5
 50
90.0
  0
ENDBLK
  5
224
100
AcDbEntity
  8
0
  6
BYBLOCK
 62
0
100
AcDbBlockEnd
  0
BLOCK
  5
225
100
AcDbEntity
  8
_03_2D_ZEICHNUNG_BEMASSUNGEN
100
AcDbBlockBegin
 62
7
  6
CONTINUOUS
  2
*D1
 70
65
 10
0.0
 20
0.0
  3
*D1
  1

  0
TEXT
  5
226
100
AcDbEntity
  8
_03_2D_ZEICHNUNG_BEMASSUNGEN
100
AcDbText
 62
2
  6
CONTINUOUS
 10
46.25
 20
9.875
  7
STANDARD
 40
3.5
  1
100
 41
0.7142857143
 72
1
 11
50.0
 21
9.875
100
AcDbText
  0
LINE
  5
227
100
AcDbEntity
  8
_03_2D_ZEICHNUNG_BEMASSUNGEN
100
AcDbLine
 62
7
  6
CONTINUOUS
 10
100.0
 20
0.0
 11
100.0
 21
10.5
  0
LINE
  5
228
100
AcDbEntity
  8
_03_2D_ZEICHNUNG_BEMASSUNGEN
100
AcDbLine
 62
7
  6
CONTINUOUS
 10
0.0
 20
0.0
 11
0.0
 21
10.5
  0
LINE
  5
229
100
AcDbEntity
  8
_03_2D_ZEICHNUNG_BEMASSUNGEN
100
AcDbLine
 62
7
  6
CONTINUOUS
 10
100.0
 20
9.0
 11
50.0
 21
9.0
  0
LINE
  5
22A
100
AcDbEntity
  8
_03_2D_ZEICHNUNG_BEMASSUNGEN
100
AcDbLine
 62
7
  6
CONTINUOUS
 10
0.0
 20
9.0
 11
50.0
 21
9.0
  0
INSERT
  5
22B
100
AcDbEntity
  8
_03_2D_ZEICHNUNG_BEMASSUNGEN
100
AcDbBlockReference
 62
7
  6
CONTINUOUS
  2
_FILLED
 10
100.0
 20
9.0
 41
3.5
 42
3.5
 43
3.5
  0
INSERT
  5
22C
100
AcDbEntity
  8
_03_2D_ZEICHNUNG_BEMASSUNGEN
100
AcDbBlockReference
 62
7
  6
CONTINUOUS
  2
_FILLED
 10
0.0
 20
9.0
 41
3.5
 42
3.5
 43
3.5
 50
180.0
  0
ENDBLK
  5
22D
100
AcDbEntity
  8
0
  6
BYBLOCK
 62
0
100
AcDbBlockEnd
  0
BLOCK
  5
22E
100
AcDbEntity
  8
_03_2D_ZEICHNUNG_BEMASSUNGEN
100
AcDbBlockBegin
 62
7
  6
CONTINUOUS
  2
*D2
 70
65
 10
0.0
 20
0.0
  3
*D2
  1

  0
TEXT
  5
22F
100
AcDbEntity
  8
_03_2D_ZEICHNUNG_BEMASSUNGEN
100
AcDbText
 62
2
  6
CONTINUOUS
 10
108.8128969635
 20
-12.75
  7
STANDARD
 40
3.5
  1
20
 50
90.0
 41
0.7857142857
 72
1
 11
108.8128969635
 21
-10.0
100
AcDbText
  0
LINE
  5
230
100
AcDbEntity
  8
_03_2D_ZEICHNUNG_BEMASSUNGEN
100
AcDbLine
 62
7
  6
CONTINUOUS
 10
100.0
 20
-20.0
 11
111.1878969635
 21
-20.0
  0
LINE
  5
231
100
AcDbEntity
  8
_03_2D_ZEICHNUNG_BEMASSUNGEN
100
AcDbLine
 62
7
  6
CONTINUOUS
 10
0.0
 20
0.0
 11
111.1878969635
 21
0.0
  0
LINE
  5
232
100
AcDbEntity
  8
_03_2D_ZEICHNUNG_BEMASSUNGEN
100
AcDbLine
 62
7
  6
CONTINUOUS
 10
109.6878969635
 20
-20.0
 11
109.6878969635
 21
-10.0
  0
LINE
  5
233
100
AcDbEntity
  8
_03_2D_ZEICHNUNG_BEMASSUNGEN
100
AcDbLine
 62
7
  6
CONTINUOUS
 10
109.6878969635
 20
0.0
 11
109.6878969635
 21
-10.0
  0
INSERT
  5
234
100
AcDbEntity
  8
_03_2D_ZEICHNUNG_BEMASSUNGEN
100
AcDbBlockReference
 62
7
  6
CONTINUOUS
  2
_FILLED
 10
109.6878969635
 20
-20.0
 41
3.5
 42
3.5
 43
3.5
 50
270.0
  0
INSERT
  5
235
100
AcDbEntity
  8
_03_2D_ZEICHNUNG_BEMASSUNGEN
100
AcDbBlockReference
 62
7
  6
CONTINUOUS
  2
_FILLED
 10
109.6878969635
 20
0.0
 41
3.5
 42
3.5
 43
3.5
 50
90.0
  0
ENDBLK
  5
236
100
AcDbEntity
  8
0
  6
BYBLOCK
 62
0
100
AcDbBlockEnd
  0
ENDSEC
  0
SECTION
  2
ENTITIES
  0
DIMENSION
  5
237
100
AcDbEntity
  8
_03_2D_ZEICHNUNG_BEMASSUNGEN
100
AcDbDimension
 62
7
  6
CONTINUOUS
  2
*D0
 10
-9.0
 20
-16.0
 11
-9.0
 21
-8.500000124
 70
160
 71
2
 42
16.0
  3
DIMSTYLE_1
100
AcDbAlignedDimension
 13
-0.0
 23
-0.0
 14
-0.0
 24
-16.0
 50
270.0
100
AcDbRotatedDimension
  0
DIMENSION
  5
238
100
AcDbEntity
  8
_03_2D_ZEICHNUNG_BEMASSUNGEN
100
AcDbDimension
 62
7
  6
CONTINUOUS
  2
*D1
 10
0.0
 20
9.0
 11
49.5000002289
 21
9.0
 70
160
 71
2
 42
100.0
  3
DIMSTYLE_2
100
AcDbAlignedDimension
 13
100.0
 23
0.0
 14
0.0
 24
0.0
 50
180.0
100
AcDbRotatedDimension
  0
DIMENSION
  5
239
100
AcDbEntity
  8
_03_2D_ZEICHNUNG_BEMASSUNGEN
100
AcDbDimension
 62
7
  6
CONTINUOUS
  2
*D2
 10
109.6878969635
 20
0.0
 11
109.6878969635
 21
-10.4999993195
 70
160
 71
2
 42
20.0
  3
DIMSTYLE_1
100
AcDbAlignedDimension
 13
100.0
 23
-20.0
 14
0.0
 24
0.0
 50
90.0
100
AcDbRotatedDimension
  0
LINE
  5
23A
100
AcDbEntity
  8
_30_VOLUMEN
100
AcDbLine
 62
4
  6
CONTINUOUS
 10
-0.0
 20
-15.5
 11
-0.0
 21
-0.5
  0
LINE
  5
23B
100
AcDbEntity
  8
_30_VOLUMEN
100
AcDbLine
 62
4
  6
CONTINUOUS
 10
0.5
 20
-16.0
 11
0.5
 21
-0.0
  0
LINE
  5
23C
100
AcDbEntity
  8
_30_VOLUMEN
100
AcDbLine
 62
4
  6
CONTINUOUS
 10
-0.0
 20
-0.5
 11
0.5
 21
-0.0
  0
LINE
  5
23D
100
AcDbEntity
  8
_30_VOLUMEN
100
AcDbLine
 62
4
  6
CONTINUOUS
 10
-0.0
 20
-15.5
 11
0.5
 21
-16.0
  0
LINE
  5
23E
100
AcDbEntity
  8
_30_VOLUMEN
100
AcDbLine
 62
4
  6
CONTINUOUS
 10
99.1618956037
 20
-19.9997449309
 11
89.5551484378
 21
-19.4675792849
  0
LINE
  5
23F
100
AcDbEntity
  8
_21_KURVEN
100
AcDbLine
 62
7
  6
CONTINUOUS
 10
99.1618956037
 20
-19.9997449309
 11
89.5551484378
 21
-19.4675792849
  0
LINE
  5
240
100
AcDbEntity
  8
_30_VOLUMEN
100
AcDbLine
 62
4
  6
CONTINUOUS
 10
0.5
 20
-16.0
 11
70.0
 21
-16.0
  0
LINE
  5
241
100
AcDbEntity
  8
_26_BEZUGSACHSEN
100
AcDbLine
 62
4
  6
CONTINUOUS
 10
70.8462583861
 20
-17.2553157956
 11
88.3625222762
 21
-18.1733042874
  0
LINE
  5
242
100
AcDbEntity
  8
_30_VOLUMEN
100
AcDbLine
 62
4
  6
CONTINUOUS
 10
70.8462583861
 20
-17.2553157956
 11
70.2977614703
 21
-17.1112609357
  0
LINE
  5
243
100
AcDbEntity
  8
_26_BEZUGSACHSEN
100
AcDbLine
 62
4
  6
CONTINUOUS
 10
83.0993501991
 20
-9.5845880537
 11
93.7042088958
 21
-10.1720440762
  0
LINE
  5
244
100
AcDbEntity
  8
_30_VOLUMEN
100
AcDbLine
 62
4
  6
CONTINUOUS
 10
84.6253515589
 20
-9.6691208811
 11
94.2320987248
 21
-10.2012865271
  0
LINE
  5
245
100
AcDbEntity
  8
_21_KURVEN
100
AcDbLine
 62
7
  6
CONTINUOUS
 10
84.6253515589
 20
-9.6691208811
 11
94.2320987248
 21
-10.2012865271
  0
LINE
  5
246
100
AcDbEntity
  8
_30_VOLUMEN
100
AcDbLine
 62
4
  6
CONTINUOUS
 10
93.7496544668
 20
-9.9142623552
 11
93.539092291
 21
-9.902598266
  0
LINE
  5
247
100
AcDbEntity
  8
_30_VOLUMEN
100
AcDbLine
 62
4
  6
CONTINUOUS
 10
87.4707722689
 20
0.0
 11
71.1195400488
 21
0.0
  0
LINE
  5
248
100
AcDbEntity
  8
0
100
AcDbLine
 62
4
  6
CONTINUOUS
 10
71.1195400488
 20
0.0
 11
70.0
 21
0.0
  0
LINE
  5
249
100
AcDbEntity
  8
_30_VOLUMEN
100
AcDbLine
 62
4
  6
CONTINUOUS
 10
0.5
 20
-0.0
 11
70.0
 21
0.0
  0
LINE
  5
24A
100
AcDbEntity
  8
_30_VOLUMEN
100
AcDbLine
 62
4
  6
CONTINUOUS
 10
89.1948620572
 20
-19.3577735392
 11
88.7124177992
 21
-19.0707493674
  0
LINE
  5
24B
100
AcDbEntity
  8
_30_VOLUMEN
100
AcDbLine
 62
7
  6
CONTINUOUS
 10
88.9252128334
 20
-19.0915318224
 11
88.4427685753
 21
-18.8045076505
  0
LINE
  5
24C
100
AcDbEntity
  8
_30_VOLUMEN
100
AcDbLine
 62
4
  6
CONTINUOUS
 10
70.2977614703
 20
-17.1112609357
 11
70.0
 21
-16.0
  0
LINE
  5
24D
100
AcDbEntity
  8
0
100
AcDbLine
 62
4
  6
CONTINUOUS
 10
70.0
 20
0.0
 11
70.0
 21
-16.0
  0
LINE
  5
24E
100
AcDbEntity
  8
_30_VOLUMEN
100
AcDbLine
 62
4
  6
CONTINUOUS
 10
71.1195400488
 20
0.0
 11
70.8462583861
 21
-17.2553157956
  0
LINE
  5
24F
100
AcDbEntity
  8
_30_VOLUMEN
100
AcDbLine
 62
7
  6
CONTINUOUS
 10
94.2320987248
 20
-10.2012865271
 11
93.7496544668
 21
-9.9142623552
  0
LINE
  5
250
100
AcDbEntity
  8
_30_VOLUMEN
100
AcDbLine
 62
4
  6
CONTINUOUS
 10
94.5923851054
 20
-10.3110922727
 11
94.1099408474
 21
-10.0240681009
  0
LINE
  5
251
100
AcDbEntity
  8
_28_BEZUGSPUNKTE
100
AcDbLine
 62
1
  6
CONTINUOUS
 10
100.15625
 20
-20.15625
 11
99.84375
 21
-19.84375
  0
LINE
  5
252
100
AcDbEntity
  8
_30_VOLUMEN
100
AcDbLine
 62
4
  6
CONTINUOUS
 10
88.0457947862
 20
-18.156705303
 11
88.4427685753
 21
-18.8045076505
  0
LINE
  5
253
100
AcDbEntity
  8
_30_VOLUMEN
100
AcDbLine
 62
4
  6
CONTINUOUS
 10
88.9252128334
 20
-19.0915318224
 11
83.897919778
 21
-10.8877351683
  0
LINE
  5
254
100
AcDbEntity
  8
_21_KURVEN
100
AcDbLine
 62
7
  6
CONTINUOUS
 10
88.9252128334
 20
-19.0915318224
 11
83.897919778
 21
-10.8877351683
  0
LINE
  5
255
100
AcDbEntity
  8
_26_BEZUGSACHSEN
100
AcDbLine
 62
4
  6
CONTINUOUS
 10
88.3625222762
 20
-18.1733042874
 11
83.0993501991
 21
-9.5845880537
  0
LINE
  5
256
100
AcDbEntity
  8
_26_BEZUGSACHSEN
100
AcDbLine
 62
4
  6
CONTINUOUS
 10
87.4707722689
 20
0.0
 11
93.7042088958
 21
-10.1720440762
  0
LINE
  5
257
100
AcDbEntity
  8
_30_VOLUMEN
100
AcDbLine
 62
4
  6
CONTINUOUS
 10
94.8620343293
 20
-10.5773339896
 11
99.8893273846
 21
-18.7811306437
  0
LINE
  5
258
100
AcDbEntity
  8
_21_KURVEN
100
AcDbLine
 62
7
  6
CONTINUOUS
 10
94.8620343293
 20
-10.5773339896
 11
99.8893273846
 21
-18.7811306437
  0
LINE
  5
259
100
AcDbEntity
  8
_28_BEZUGSPUNKTE
100
AcDbLine
 62
1
  6
CONTINUOUS
 10
100.15625
 20
-19.84375
 11
99.84375
 21
-20.15625
  0
ARC
  5
25A
100
AcDbEntity
  8
_30_VOLUMEN
100
AcDbCircle
 62
4
  6
CONTINUOUS
 10
91.4038416312
 20
-14.5563880609
 40
1.8934629882
100
AcDbArc
 50
245.4611622647
 51
249.8302113616
  0
ARC
  5
25B
100
AcDbEntity
  8
_30_VOLUMEN
100
AcDbCircle
 62
4
  6
CONTINUOUS
 10
91.4381057664
 20
-14.5064635016
 40
1.8559370869
100
AcDbArc
 50
53.0665907488
 51
54.1351159632
  0
ARC
  5
25C
100
AcDbEntity
  8
_30_VOLUMEN
100
AcDbCircle
 62
4
  6
CONTINUOUS
 10
84.1061741402
 20
-10.1865857614
 40
0.8083126104
100
AcDbArc
 50
134.1798677097
 51
163.9974979961
  0
SPLINE
  5
25D
100
AcDbEntity
  8
_30_VOLUMEN
100
AcDbSpline
 62
4
  6
CONTINUOUS
 70
0
 71
3
 72
11
 73
7
 74
0
 42
0.0000001
 43
0.0000001
 44
0.0000000001
 40
0.0
 40
0.0
 40
0.0
 40
0.0
 40
0.2496529689
 40
0.4999960717
 40
0.7503418531
 40
1.0
 40
1.0
 40
1.0
 40
1.0
 10
99.1618956037
 20
-19.9997449309
 30
0.0
 10
99.3048183433
 20
-20.0076621344
 30
0.0
 10
99.6014886576
 20
-19.9424310684
 30
0.0
 10
99.9267789341
 20
-19.6299163539
 30
0.0
 10
100.0474873079
 20
-19.1952780203
 30
0.0
 10
99.9641203514
 20
-18.9031816727
 30
0.0
 10
99.8893273846
 20
-18.7811306437
 30
0.0
  0
SPLINE
  5
25E
100
AcDbEntity
  8
_30_VOLUMEN
100
AcDbSpline
 62
4
  6
CONTINUOUS
 70
0
 71
3
 72
8
 73
4
 74
0
 42
0.0000001
 43
0.0000001
 44
0.0000000001
 40
0.0
 40
0.0
 40
0.0
 40
0.0
 40
1.0
 40
1.0
 40
1.0
 40
1.0
 10
94.8620343293
 20
-10.5773339896
 30
0.0
 10
94.7960350371
 20
-10.4696329334
 30
0.0
 10
94.7009505789
 20
-10.3756597542
 30
0.0
 10
94.5923948018
 20
-10.3110759533
 30
0.0
  0
SPLINE
  5
25F
100
AcDbEntity
  8
_30_VOLUMEN
100
AcDbSpline
 62
4
  6
CONTINUOUS
 70
0
 71
3
 72
8
 73
4
 74
0
 42
0.0000001
 43
0.0000001
 44
0.0000000001
 40
0.0
 40
0.0
 40
0.0
 40
0.0
 40
1.0
 40
1.0
 40
1.0
 40
1.0
 10
93.7496544668
 20
-9.9142623552
 30
0.0
 10
93.8750130543
 20
-9.9212065927
 30
0.0
 10
94.0020513564
 20
-9.9598586098
 30
0.0
 10
94.1099505438
 20
-10.0240517814
 30
0.0
  0
SPLINE
  5
260
100
AcDbEntity
  8
_30_VOLUMEN
100
AcDbSpline
 62
4
  6
CONTINUOUS
 70
0
 71
3
 72
9
 73
5
 74
0
 42
0.0000001
 43
0.0000001
 44
0.0000000001
 40
0.0
 40
0.0
 40
0.0
 40
0.0
 40
0.5008228839
 40
1.0
 40
1.0
 40
1.0
 40
1.0
 10
92.4010864041
 20
-16.1627902741
 30
0.0
 10
92.1595961808
 20
-16.3126919535
 30
0.0
 10
91.6022982676
 20
-16.5055651597
 30
0.0
 10
91.0168966552
 20
-16.4314104832
 30
0.0
 10
90.7509693536
 20
-16.3337343628
 30
0.0
  0
SPLINE
  5
261
100
AcDbEntity
  8
_30_VOLUMEN
100
AcDbSpline
 62
4
  6
CONTINUOUS
 70
0
 71
3
 72
8
 73
4
 74
0
 42
0.0000001
 43
0.0000001
 44
0.0000000001
 40
0.0
 40
0.0
 40
0.0
 40
0.0
 40
1.0
 40
1.0
 40
1.0
 40
1.0
 10
89.1948523609
 20
-19.3577898587
 30
0.0
 10
89.3027515482
 20
-19.4219830303
 30
0.0
 10
89.4297898503
 20
-19.4606350474
 30
0.0
 10
89.5551484378
 20
-19.4675792849
 30
0.0
  0
SPLINE
  5
262
100
AcDbEntity
  8
_30_VOLUMEN
100
AcDbSpline
 62
4
  6
CONTINUOUS
 70
0
 71
3
 72
8
 73
4
 74
0
 42
0.0000001
 43
0.0000001
 44
0.0000000001
 40
0.0
 40
0.0
 40
0.0
 40
0.0
 40
1.0
 40
1.0
 40
1.0
 40
1.0
 10
88.7124081028
 20
-19.0707656868
 30
0.0
 10
88.6038523257
 20
-19.006181886
 30
0.0
 10
88.5087678675
 20
-18.9122087068
 30
0.0
 10
88.4427685753
 20
-18.8045076505
 30
0.0
  0
SPLINE
  5
263
100
AcDbEntity
  8
_30_VOLUMEN
100
AcDbSpline
 62
4
  6
CONTINUOUS
 70
0
 71
3
 72
11
 73
7
 74
0
 42
0.0000001
 43
0.0000001
 44
0.0000000001
 40
0.0
 40
0.0
 40
0.0
 40
0.0
 40
0.253692833
 40
0.5047463942
 40
0.7533368335
 40
1.0
 40
1.0
 40
1.0
 40
1.0
 10
90.7462214415
 20
-13.1170620942
 30
0.0
 10
90.8925154003
 20
-13.0262521649
 30
0.0
 10
91.209893735
 20
-12.8846638022
 30
0.0
 10
91.7216624386
 20
-12.8077767277
 30
0.0
 10
92.2302580441
 20
-12.8726173854
 30
0.0
 10
92.5445495311
 20
-13.0050469004
 30
0.0
 10
92.6884277564
 20
-13.0906454494
 30
0.0
  0
SPLINE
  5
264
100
AcDbEntity
  8
_30_VOLUMEN
100
AcDbSpline
 62
4
  6
CONTINUOUS
 70
0
 71
3
 72
15
 73
11
 74
0
 42
0.0000001
 43
0.0000001
 44
0.0000000001
 40
0.0
 40
0.0
 40
0.0
 40
0.0
 40
0.1244961227
 40
0.2491138135
 40
0.3739427922
 40
0.4989798029
 40
0.6241613998
 40
0.7494465411
 40
0.8749476046
 40
1.0
 40
1.0
 40
1.0
 40
1.0
 10
92.5533131592
 20
-13.0229491128
 30
0.0
 10
92.6756137613
 20
-13.1148855568
 30
0.0
 10
92.898641697
 20
-13.3298790168
 30
0.0
 10
93.1447452697
 20
-13.7231382645
 30
0.0
 10
93.2892085691
 20
-14.1649994567
 30
0.0
 10
93.3225621873
 20
-14.6292547611
 30
0.0
 10
93.2442556547
 20
-15.0885769428
 30
0.0
 10
93.0577946665
 20
-15.5163978308
 30
0.0
 10
92.7742643266
 20
-15.8864303369
 30
0.0
 10
92.5316615628
 20
-16.0817375702
 30
0.0
 10
92.4010864041
 20
-16.1627902741
 30
0.0
  0
SPLINE
  5
265
100
AcDbEntity
  8
_30_VOLUMEN
100
AcDbSpline
 62
4
  6
CONTINUOUS
 70
0
 71
3
 72
11
 73
7
 74
0
 42
0.0000001
 43
0.0000001
 44
0.0000000001
 40
0.0
 40
0.0
 40
0.0
 40
0.0
 40
0.2444819235
 40
0.493177395
 40
0.7463705531
 40
1.0
 40
1.0
 40
1.0
 40
1.0
 10
90.7404010985
 20
-16.3649838772
 30
0.0
 10
90.4708919603
 20
-16.2046427893
 30
0.0
 10
90.0036689472
 20
-15.7298003975
 30
0.0
 10
89.7500810212
 20
-14.7635760346
 30
0.0
 10
89.9983308223
 20
-13.7839966496
 30
0.0
 10
90.4698113849
 20
-13.2886397719
 30
0.0
 10
90.7462214415
 20
-13.1170620942
 30
0.0
  0
SPLINE
  5
266
100
AcDbEntity
  8
_30_VOLUMEN
100
AcDbSpline
 62
4
  6
CONTINUOUS
 70
0
 71
3
 72
15
 73
11
 74
0
 42
0.0000001
 43
0.0000001
 44
0.0000000001
 40
0.0
 40
0.0
 40
0.0
 40
0.0
 40
0.1250938133
 40
0.2498577087
 40
0.3744297651
 40
0.49906116
 40
0.6239680432
 40
0.7492044675
 40
0.8746317147
 40
1.0
 40
1.0
 40
1.0
 40
1.0
 10
93.1225633431
 20
-16.8398803296
 30
0.0
 10
92.8619415487
 20
-17.0016576643
 30
0.0
 10
92.2713106437
 20
-17.2247406859
 30
0.0
 10
91.3305174353
 20
-17.193107723
 30
0.0
 10
90.4739699529
 20
-16.8024086812
 30
0.0
 10
89.8344490532
 20
-16.1113581893
 30
0.0
 10
89.5089495941
 20
-15.2263248787
 30
0.0
 10
89.5468163853
 20
-14.2821805021
 30
0.0
 10
89.9400547453
 20
-13.4231248564
 30
0.0
 10
90.4034901871
 20
-12.9911177774
 30
0.0
 10
90.6646838195
 20
-12.8289854823
 30
0.0
  0
SPLINE
  5
267
100
AcDbEntity
  8
_30_VOLUMEN
100
AcDbSpline
 62
7
  6
CONTINUOUS
 70
0
 71
3
 72
11
 73
7
 74
0
 42
0.0000001
 43
0.0000001
 44
0.0000000001
 40
0.0
 40
0.0
 40
0.0
 40
0.0
 40
0.2501987407
 40
0.5008641071
 40
0.7505797782
 40
1.0
 40
1.0
 40
1.0
 40
1.0
 10
92.7043215083
 20
-16.3431962033
 30
0.0
 10
92.5584464096
 20
-16.433746131
 30
0.0
 10
92.2398587871
 20
-16.575360377
 30
0.0
 10
91.7244595297
 20
-16.6531121484
 30
0.0
 10
91.2076544234
 20
-16.5878703354
 30
0.0
 10
90.8876167973
 20
-16.4522952935
 30
0.0
 10
90.7405451674
 20
-16.3647418692
 30
0.0
  0
SPLINE
  5
268
100
AcDbEntity
  8
_30_VOLUMEN
100
AcDbSpline
 62
4
  6
CONTINUOUS
 70
0
 71
3
 72
15
 73
11
 74
0
 42
0.0000001
 43
0.0000001
 44
0.0000000001
 40
0.0
 40
0.0
 40
0.0
 40
0.0
 40
0.1250587146
 40
0.2498871937
 40
0.3744343751
 40
0.4990610949
 40
0.623963437
 40
0.749174658
 40
0.8746667172
 40
1.0
 40
1.0
 40
1.0
 40
1.0
 10
93.0608098298
 20
-16.772738229
 30
0.0
 10
92.8064936134
 20
-16.9306014643
 30
0.0
 10
92.2298803126
 20
-17.1480756838
 30
0.0
 10
91.3115029805
 20
-17.1177403143
 30
0.0
 10
90.4756494504
 20
-16.7357332694
 30
0.0
 10
89.8512179532
 20
-16.0615508568
 30
0.0
 10
89.5338988887
 20
-15.1976548058
 30
0.0
 10
89.570186775
 20
-14.2759837687
 30
0.0
 10
89.9545397328
 20
-13.4376398284
 30
0.0
 10
90.4066963066
 20
-13.015745924
 30
0.0
 10
90.661570878
 20
-12.8575360976
 30
0.0
  0
SPLINE
  5
269
100
AcDbEntity
  8
_30_VOLUMEN
100
AcDbSpline
 62
7
  6
CONTINUOUS
 70
0
 71
3
 72
15
 73
11
 74
0
 42
0.0000001
 43
0.0000001
 44
0.0000000001
 40
0.0
 40
0.0
 40
0.0
 40
0.0
 40
0.1249948854
 40
0.2506096509
 40
0.3759449061
 40
0.5010908823
 40
0.6261199677
 40
0.7508994868
 40
0.8755010195
 40
1.0
 40
1.0
 40
1.0
 40
1.0
 10
92.7043215083
 20
-16.3431962033
 30
0.0
 10
92.8419447189
 20
-16.2577685196
 30
0.0
 10
93.0965499502
 20
-16.0495918675
 30
0.0
 10
93.3884897798
 20
-15.6533196485
 30
0.0
 10
93.5701141674
 20
-15.1951371589
 30
0.0
 10
93.6301365577
 20
-14.7069685811
 30
0.0
 10
93.5655795595
 20
-14.2199624497
 30
0.0
 10
93.379073627
 20
-13.7661914198
 30
0.0
 10
93.0845075878
 20
-13.3749894116
 30
0.0
 10
92.8269166292
 20
-13.1734172341
 30
0.0
 10
92.6882836875
 20
-13.0908874575
 30
0.0
  0
SPLINE
  5
26A
100
AcDbEntity
  8
_30_VOLUMEN
100
AcDbSpline
 62
4
  6
CONTINUOUS
 70
0
 71
3
 72
15
 73
11
 74
0
 42
0.0000001
 43
0.0000001
 44
0.0000000001
 40
0.0
 40
0.0
 40
0.0
 40
0.0
 40
0.1253332828
 40
0.250825342
 40
0.376036563
 40
0.5009389051
 40
0.6255656249
 40
0.7501128063
 40
0.8749412854
 40
1.0
 40
1.0
 40
1.0
 40
1.0
 10
93.0608098298
 20
-16.772738229
 30
0.0
 10
93.3156844012
 20
-16.6145284027
 30
0.0
 10
93.7678409749
 20
-16.1926344983
 30
0.0
 10
94.1521939327
 20
-15.3542905579
 30
0.0
 10
94.1884818191
 20
-14.4326195209
 30
0.0
 10
93.8711627546
 20
-13.5687234699
 30
0.0
 10
93.2467312574
 20
-12.8945410573
 30
0.0
 10
92.4108777273
 20
-12.5125340124
 30
0.0
 10
91.4925003951
 20
-12.4821986429
 30
0.0
 10
90.9158870944
 20
-12.6996728624
 30
0.0
 10
90.661570878
 20
-12.8575360976
 30
0.0
  0
SPLINE
  5
26B
100
AcDbEntity
  8
_30_VOLUMEN
100
AcDbSpline
 62
4
  6
CONTINUOUS
 70
0
 71
3
 72
15
 73
11
 74
0
 42
0.0000001
 43
0.0000001
 44
0.0000000001
 40
0.0
 40
0.0
 40
0.0
 40
0.0
 40
0.1250938133
 40
0.2498577087
 40
0.3744297651
 40
0.49906116
 40
0.6239680432
 40
0.7492044675
 40
0.8746317147
 40
1.0
 40
1.0
 40
1.0
 40
1.0
 10
90.6646838195
 20
-12.8289854823
 30
0.0
 10
90.9253056139
 20
-12.6672081477
 30
0.0
 10
91.5159365189
 20
-12.4441251261
 30
0.0
 10
92.4567297274
 20
-12.4757580889
 30
0.0
 10
93.3132772097
 20
-12.8664571308
 30
0.0
 10
93.9527981094
 20
-13.5575076226
 30
0.0
 10
94.2782975685
 20
-14.4425409333
 30
0.0
 10
94.2404307773
 20
-15.3866853099
 30
0.0
 10
93.8471924173
 20
-16.2457409556
 30
0.0
 10
93.3837569755
 20
-16.6777480345
 30
0.0
 10
93.1225633431
 20
-16.8398803296
 30
0.0
  0
SPLINE
  5
26C
100
AcDbEntity
  8
_30_VOLUMEN
100
AcDbSpline
 62
4
  6
CONTINUOUS
 70
0
 71
3
 72
8
 73
4
 74
0
 42
0.0000001
 43
0.0000001
 44
0.0000000001
 40
0.0
 40
0.0
 40
0.0
 40
0.0
 40
1.0
 40
1.0
 40
1.0
 40
1.0
 10
94.5923948018
 20
-10.3110759533
 30
0.0
 10
94.4844956144
 20
-10.2468827817
 30
0.0
 10
94.3574573124
 20
-10.2082307645
 30
0.0
 10
94.2320987248
 20
-10.2012865271
 30
0.0
  0
SPLINE
  5
26D
100
AcDbEntity
  8
_30_VOLUMEN
100
AcDbSpline
 62
4
  6
CONTINUOUS
 70
0
 71
3
 72
11
 73
7
 74
0
 42
0.0000001
 43
0.0000001
 44
0.0000000001
 40
0.0
 40
0.0
 40
0.0
 40
0.0
 40
0.2496529689
 40
0.4999960717
 40
0.7503418531
 40
1.0
 40
1.0
 40
1.0
 40
1.0
 10
84.6253515589
 20
-9.6691208811
 30
0.0
 10
84.4824288193
 20
-9.6612036776
 30
0.0
 10
84.1857585051
 20
-9.7264347436
 30
0.0
 10
83.8604682286
 20
-10.0389494581
 30
0.0
 10
83.7397598547
 20
-10.4735877917
 30
0.0
 10
83.8231268112
 20
-10.7656841393
 30
0.0
 10
83.897919778
 20
-10.8877351683
 30
0.0
  0
SPLINE
  5
26E
100
AcDbEntity
  8
_30_VOLUMEN
100
AcDbSpline
 62
4
  6
CONTINUOUS
 70
0
 71
3
 72
8
 73
4
 74
0
 42
0.0000001
 43
0.0000001
 44
0.0000000001
 40
0.0
 40
0.0
 40
0.0
 40
0.0
 40
1.0
 40
1.0
 40
1.0
 40
1.0
 10
88.9252128334
 20
-19.0915318224
 30
0.0
 10
88.9912121255
 20
-19.1992328786
 30
0.0
 10
89.0862965838
 20
-19.2932060578
 30
0.0
 10
89.1948523609
 20
-19.3577898587
 30
0.0
  0
SPLINE
  5
26F
100
AcDbEntity
  8
_21_KURVEN
100
AcDbSpline
 62
7
  6
CONTINUOUS
 70
0
 71
3
 72
36
 73
32
 74
0
 42
0.0000001
 43
0.0000001
 44
0.0000000001
 40
0.0
 40
0.0
 40
0.0
 40
0.0
 40
0.0625
 40
0.09375
 40
0.125
 40
0.1875
 40
0.21875
 40
0.25
 40
0.28125
 40
0.3125
 40
0.375
 40
0.40625
 40
0.4375
 40
0.453125
 40
0.46875
 40
0.5
 40
0.53125
 40
0.546875
 40
0.5625
 40
0.59375
 40
0.625
 40
0.6875
 40
0.71875
 40
0.75
 40
0.78125
 40
0.8125
 40
0.84375
 40
0.875
 40
0.90625
 40
0.9375
 40
1.0
 40
1.0
 40
1.0
 40
1.0
 10
84.6253515589
 20
-9.6691208811
 30
0.0
 10
84.5897790589
 20
-9.6706420342
 30
0.0
 10
84.5364915711
 20
-9.6739940964
 30
0.0
 10
84.465156539
 20
-9.6741821826
 30
0.0
 10
84.3951288478
 20
-9.6964014764
 30
0.0
 10
84.3228998554
 20
-9.7071164637
 30
0.0
 10
84.2582198492
 20
-9.7413920024
 30
0.0
 10
84.2085200709
 20
-9.7636316836
 30
0.0
 10
84.159804894
 20
-9.7879589804
 30
0.0
 10
84.1031362624
 20
-9.8341739072
 30
0.0
 10
84.0425879229
 20
-9.8747018169
 30
0.0
 10
83.9953278522
 20
-9.9307043601
 30
0.0
 10
83.9652884067
 20
-9.9645615977
 30
0.0
 10
83.9391393461
 20
-9.9905251739
 30
0.0
 10
83.9218618234
 20
-10.0218930876
 30
0.0
 10
83.8981728528
 20
-10.0598355891
 30
0.0
 10
83.8758825681
 20
-10.0986163893
 30
0.0
 10
83.8563671478
 20
-10.1286430253
 30
0.0
 10
83.8458001784
 20
-10.163945691
 30
0.0
 10
83.8301063847
 20
-10.2064010356
 30
0.0
 10
83.8030039372
 20
-10.2744846471
 30
0.0
 10
83.7958080173
 20
-10.3469914582
 30
0.0
 10
83.7817811191
 20
-10.4187584353
 30
0.0
 10
83.7832683127
 20
-10.473190206
 30
0.0
 10
83.7871941371
 20
-10.5275110976
 30
0.0
 10
83.7870028003
 20
-10.5823984756
 30
0.0
 10
83.8008414777
 20
-10.6351307872
 30
0.0
 10
83.8150626534
 20
-10.6875615134
 30
0.0
 10
83.8253650203
 20
-10.7414968997
 30
0.0
 10
83.8594918257
 20
-10.8057880081
 30
0.0
 10
83.8821580961
 20
-10.8551024718
 30
0.0
 10
83.897919795
 20
-10.887735196
 30
0.0
  0
SPLINE
  5
270
100
AcDbEntity
  8
_21_KURVEN
100
AcDbSpline
 62
7
  6
CONTINUOUS
 70
0
 71
3
 72
8
 73
4
 74
0
 42
0.0000001
 43
0.0000001
 44
0.0000000001
 40
0.0
 40
0.0
 40
0.0
 40
0.0
 40
1.0
 40
1.0
 40
1.0
 40
1.0
 10
94.8620343293
 20
-10.5773339896
 30
0.0
 10
94.841315788
 20
-10.5444371247
 30
0.0
 10
94.8150429333
 20
-10.5079862087
 30
0.0
 10
94.7871416398
 20
-10.4746442884
 30
0.0
  0
SPLINE
  5
271
100
AcDbEntity
  8
_21_KURVEN
100
AcDbSpline
 62
7
  6
CONTINUOUS
 70
0
 71
3
 72
10
 73
6
 74
0
 42
0.0000001
 43
0.0000001
 44
0.0000000001
 40
0.0
 40
0.0
 40
0.0
 40
0.0
 40
0.25
 40
0.5
 40
1.0
 40
1.0
 40
1.0
 40
1.0
 10
94.7871416361
 20
-10.4746442841
 30
0.0
 10
94.7731593047
 20
-10.4592345392
 30
0.0
 10
94.7457471238
 20
-10.4292857398
 30
0.0
 10
94.6801897066
 20
-10.36850521
 30
0.0
 10
94.6300688367
 20
-10.3349798548
 30
0.0
 10
94.5923851014
 20
-10.3110922703
 30
0.0
  0
SPLINE
  5
272
100
AcDbEntity
  8
_21_KURVEN
100
AcDbSpline
 62
7
  6
CONTINUOUS
 70
0
 71
3
 72
9
 73
5
 74
0
 42
0.0000001
 43
0.0000001
 44
0.0000000001
 40
0.0
 40
0.0
 40
0.0
 40
0.0
 40
0.5
 40
1.0
 40
1.0
 40
1.0
 40
1.0
 10
94.5923851054
 20
-10.3110922727
 30
0.0
 10
94.5634366677
 20
-10.2946862977
 30
0.0
 10
94.5035728562
 20
-10.2621432407
 30
0.0
 10
94.433601921
 20
-10.2390446907
 30
0.0
 10
94.3991683896
 20
-10.228674971
 30
0.0
  0
SPLINE
  5
273
100
AcDbEntity
  8
_21_KURVEN
100
AcDbSpline
 62
7
  6
CONTINUOUS
 70
0
 71
3
 72
9
 73
5
 74
0
 42
0.0000001
 43
0.0000001
 44
0.0000000001
 40
0.0
 40
0.0
 40
0.0
 40
0.0
 40
0.5
 40
1.0
 40
1.0
 40
1.0
 40
1.0
 10
94.3991683917
 20
-10.2286749716
 30
0.0
 10
94.3723018059
 20
-10.2217520903
 30
0.0
 10
94.3182388061
 20
-10.2088338835
 30
0.0
 10
94.262864677
 20
-10.2035924681
 30
0.0
 10
94.2320987245
 20
-10.201286527
 30
0.0
  0
SPLINE
  5
274
100
AcDbEntity
  8
_21_KURVEN
100
AcDbSpline
 62
7
  6
CONTINUOUS
 70
0
 71
3
 72
9
 73
5
 74
0
 42
0.0000001
 43
0.0000001
 44
0.0000000001
 40
0.0
 40
0.0
 40
0.0
 40
0.0
 40
0.5
 40
1.0
 40
1.0
 40
1.0
 40
1.0
 10
99.1618956037
 20
-19.9997449309
 30
0.0
 10
99.2174279197
 20
-20.0008723069
 30
0.0
 10
99.3362617639
 20
-19.9986297321
 30
0.0
 10
99.4445106683
 20
-19.964246018
 30
0.0
 10
99.5010496286
 20
-19.9440929999
 30
0.0
  0
SPLINE
  5
275
100
AcDbEntity
  8
_21_KURVEN
100
AcDbSpline
 62
7
  6
CONTINUOUS
 70
0
 71
3
 72
9
 73
5
 74
0
 42
0.0000001
 43
0.0000001
 44
0.0000000001
 40
0.0
 40
0.0
 40
0.0
 40
0.0
 40
0.5
 40
1.0
 40
1.0
 40
1.0
 40
1.0
 10
99.501049634
 20
-19.9440929978
 30
0.0
 10
99.5520321868
 20
-19.9216420053
 30
0.0
 10
99.6581449874
 20
-19.8703299227
 30
0.0
 10
99.7452590208
 20
-19.7906613233
 30
0.0
 10
99.7872128477
 20
-19.7493084485
 30
0.0
  0
SPLINE
  5
276
100
AcDbEntity
  8
_21_KURVEN
100
AcDbSpline
 62
7
  6
CONTINUOUS
 70
0
 71
3
 72
9
 73
5
 74
0
 42
0.0000001
 43
0.0000001
 44
0.0000000001
 40
0.0
 40
0.0
 40
0.0
 40
0.0
 40
0.5
 40
1.0
 40
1.0
 40
1.0
 40
1.0
 10
99.7872128437
 20
-19.7493084526
 30
0.0
 10
99.82407876
 20
-19.7073866392
 30
0.0
 10
99.8988775623
 20
-19.6159909804
 30
0.0
 10
99.9444572424
 20
-19.5070368212
 30
0.0
 10
99.9651074307
 20
-19.4519955198
 30
0.0
  0
SPLINE
  5
277
100
AcDbEntity
  8
_21_KURVEN
100
AcDbSpline
 62
7
  6
CONTINUOUS
 70
0
 71
3
 72
9
 73
5
 74
0
 42
0.0000001
 43
0.0000001
 44
0.0000000001
 40
0.0
 40
0.0
 40
0.0
 40
0.0
 40
0.5
 40
1.0
 40
1.0
 40
1.0
 40
1.0
 10
99.9651074303
 20
-19.4519955212
 30
0.0
 10
99.9809456707
 20
-19.3984745179
 30
0.0
 10
100.0104093398
 20
-19.2841557333
 30
0.0
 10
100.0059187801
 20
-19.1663665875
 30
0.0
 10
100.0015695662
 20
-19.1085682252
 30
0.0
  0
SPLINE
  5
278
100
AcDbEntity
  8
_21_KURVEN
100
AcDbSpline
 62
7
  6
CONTINUOUS
 70
0
 71
3
 72
9
 73
5
 74
0
 42
0.0000001
 43
0.0000001
 44
0.0000000001
 40
0.0
 40
0.0
 40
0.0
 40
0.0
 40
0.5
 40
1.0
 40
1.0
 40
1.0
 40
1.0
 10
100.0015695665
 20
-19.108568228
 30
0.0
 10
99.9934578293
 20
-19.0534792036
 30
0.0
 10
99.972161784
 20
-18.9376599831
 30
0.0
 10
99.9185353186
 20
-18.8330809557
 30
0.0
 10
99.8893273823
 20
-18.7811306398
 30
0.0
  0
SPLINE
  5
279
100
AcDbEntity
  8
_21_KURVEN
100
AcDbSpline
 62
1
  6
CENTER
 70
0
 71
3
 72
131
 73
127
 74
0
 42
0.0000001
 43
0.0000001
 44
0.0000000001
 40
0.0
 40
0.0
 40
0.0
 40
0.0
 40
0.015625
 40
0.03125
 40
0.046875
 40
0.0546875
 40
0.05859375
 40
0.0625
 40
0.06640625
 40
0.0703125
 40
0.078125
 40
0.09375
 40
0.109375
 40
0.1171875
 40
0.12109375
 40
0.125
 40
0.12890625
 40
0.1328125
 40
0.140625
 40
0.15625
 40
0.171875
 40
0.1796875
 40
0.18359375
 40
0.1875
 40
0.19140625
 40
0.1953125
 40
0.203125
 40
0.21875
 40
0.234375
 40
0.2421875
 40
0.24609375
 40
0.25
 40
0.25390625
 40
0.2578125
 40
0.265625
 40
0.28125
 40
0.296875
 40
0.3046875
 40
0.30859375
 40
0.3125
 40
0.31640625
 40
0.3203125
 40
0.328125
 40
0.34375
 40
0.359375
 40
0.3671875
 40
0.37109375
 40
0.375
 40
0.37890625
 40
0.3828125
 40
0.390625
 40
0.40625
 40
0.421875
 40
0.4296875
 40
0.43359375
 40
0.4375
 40
0.44140625
 40
0.4453125
 40
0.453125
 40
0.46875
 40
0.484375
 40
0.4921875
 40
0.49609375
 40
0.5
 40
0.50390625
 40
0.5078125
 40
0.515625
 40
0.53125
 40
0.546875
 40
0.5546875
 40
0.55859375
 40
0.5625
 40
0.56640625
 40
0.5703125
 40
0.578125
 40
0.59375
 40
0.609375
 40
0.6171875
 40
0.62109375
 40
0.625
 40
0.62890625
 40
0.6328125
 40
0.640625
 40
0.65625
 40
0.671875
 40
0.6796875
 40
0.68359375
 40
0.6875
 40
0.69140625
 40
0.6953125
 40
0.703125
 40
0.71875
 40
0.734375
 40
0.7421875
 40
0.74609375
 40
0.75
 40
0.75390625
 40
0.7578125
 40
0.765625
 40
0.78125
 40
0.796875
 40
0.8046875
 40
0.80859375
 40
0.8125
 40
0.81640625
 40
0.8203125
 40
0.828125
 40
0.84375
 40
0.859375
 40
0.8671875
 40
0.87109375
 40
0.875
 40
0.87890625
 40
0.8828125
 40
0.890625
 40
0.90625
 40
0.921875
 40
0.9296875
 40
0.93359375
 40
0.9375
 40
0.94140625
 40
0.9453125
 40
0.953125
 40
0.96875
 40
0.984375
 40
1.0
 40
1.0
 40
1.0
 40
1.0
 10
94.3683912834
 20
-18.8728867559
 30
0.0
 10
94.42986056
 20
-18.8258832298
 30
0.0
 10
94.5527760953
 20
-18.7318512825
 30
0.0
 10
94.7372875049
 20
-18.5909527312
 30
0.0
 10
94.8906442022
 20
-18.4731016104
 30
0.0
 10
94.998779371
 20
-18.3914553657
 30
0.0
 10
95.059345201
 20
-18.3434747131
 30
0.0
 10
95.1082222356
 20
-18.3112234647
 30
0.0
 10
95.1439014691
 20
-18.2646980802
 30
0.0
 10
95.1960788631
 20
-18.2076443439
 30
0.0
 10
95.2852282393
 20
-18.1054686296
 30
0.0
 10
95.4138388306
 20
-17.9608137044
 30
0.0
 10
95.5415483743
 20
-17.8153585425
 30
0.0
 10
95.6319592172
 20
-17.7143031597
 30
0.0
 10
95.6821543063
 20
-17.6554889025
 30
0.0
 10
95.7239156117
 20
-17.6143651162
 30
0.0
 10
95.7499510876
 20
-17.5618278655
 30
0.0
 10
95.7901520939
 20
-17.4957603169
 30
0.0
 10
95.8579303547
 20
-17.3782769826
 30
0.0
 10
95.9562386211
 20
-17.2114974811
 30
0.0
 10
96.0535200742
 20
-17.0440552644
 30
0.0
 10
96.1227358736
 20
-16.9274997315
 30
0.0
 10
96.1606778906
 20
-16.8599742093
 30
0.0
 10
96.1936443564
 20
-16.8119102867
 30
0.0
 10
96.2093759442
 20
-16.7539866682
 30
0.0
 10
96.2363650439
 20
-16.680194645
 30
0.0
 10
96.2807747235
 20
-16.5494531254
 30
0.0
 10
96.3458480375
 20
-16.363542769
 30
0.0
 10
96.409771493
 20
-16.1772374955
 30
0.0
 10
96.4557909744
 20
-16.0470488599
 30
0.0
 10
96.4802503856
 20
-15.9723880189
 30
0.0
 10
96.5037435176
 20
-15.9171300912
 30
0.0
 10
96.5075610727
 20
-15.8590550186
 30
0.0
 10
96.5195161234
 20
-15.7826043115
 30
0.0
 10
96.5372197209
 20
-15.6483569895
 30
0.0
 10
96.5643475481
 20
-15.4568206144
 30
0.0
 10
96.5902565112
 20
-15.2651756799
 30
0.0
 10
96.6096665186
 20
-15.131080341
 30
0.0
 10
96.618940068
 20
-15.0543908034
 30
0.0
 10
96.6309849563
 20
-14.9970485061
 30
0.0
 10
96.6235798817
 20
-14.9390385998
 30
0.0
 10
96.6204927078
 20
-14.8619246287
 30
0.0
 10
96.6119093043
 20
-14.7268698195
 30
0.0
 10
96.6014632512
 20
-14.5339653218
 30
0.0
 10
96.589812151
 20
-14.3411377335
 30
0.0
 10
96.5829158133
 20
-14.205975251
 30
0.0
 10
96.5771775361
 20
-14.1290304807
 30
0.0
 10
96.5779065286
 20
-14.0705014354
 30
0.0
 10
96.559403476
 20
-14.0151087938
 30
0.0
 10
96.5414429834
 20
-13.9401574094
 30
0.0
 10
96.506866715
 20
-13.8095076266
 30
0.0
 10
96.4592692562
 20
-13.622554079
 30
0.0
 10
96.4104742061
 20
-13.4358633156
 30
0.0
 10
96.3775745654
 20
-13.3048456348
 30
0.0
 10
96.356979372
 20
-13.2304723759
 30
0.0
 10
96.3465600605
 20
-13.1733059402
 30
0.0
 10
96.3169301142
 20
-13.121438477
 30
0.0
 10
96.2841259857
 20
-13.0504323564
 30
0.0
 10
96.2235800825
 20
-12.9270450237
 30
0.0
 10
96.1388546435
 20
-12.7502269412
 30
0.0
 10
96.0530328055
 20
-12.5739471383
 30
0.0
 10
95.9940218609
 20
-12.4498062141
 30
0.0
 10
95.9588056546
 20
-12.3799843087
 30
0.0
 10
95.9365764018
 20
-12.324483458
 30
0.0
 10
95.8983633745
 20
-12.2809624111
 30
0.0
 10
95.8529894041
 20
-12.2187543498
 30
0.0
 10
95.7709724735
 20
-12.1118509155
 30
0.0
 10
95.655285389
 20
-11.9580009505
 30
0.0
 10
95.5386546246
 20
-11.8049394632
 30
0.0
 10
95.4579588458
 20
-11.6969321602
 30
0.0
 10
95.4105087797
 20
-11.6364587499
 30
0.0
 10
95.3786655916
 20
-11.5876154785
 30
0.0
 10
95.3325140538
 20
-11.5521025374
 30
0.0
 10
95.2759707196
 20
-11.5001006269
 30
0.0
 10
95.1746825884
 20
-11.4112800127
 30
0.0
 10
95.031299041
 20
-11.2831267728
 30
0.0
 10
94.8871123553
 20
-11.1558825465
 30
0.0
 10
94.7869486177
 20
-11.0657893132
 30
0.0
 10
94.7286383793
 20
-11.0157872328
 30
0.0
 10
94.687908025
 20
-10.9741384493
 30
0.0
 10
94.6357052811
 20
-10.948338675
 30
0.0
 10
94.5701043026
 20
-10.9084089593
 30
0.0
 10
94.4534278141
 20
-10.8411255988
 30
0.0
 10
94.2878065759
 20
-10.7435128577
 30
0.0
 10
94.1215185012
 20
-10.646934465
 30
0.0
 10
94.0057755838
 20
-10.5782030167
 30
0.0
 10
93.9387075649
 20
-10.5405488675
 30
0.0
 10
93.8910059675
 20
-10.5077672415
 30
0.0
 10
93.8333713077
 20
-10.4923391901
 30
0.0
 10
93.7599901647
 20
-10.4657133945
 30
0.0
 10
93.6299556475
 20
-10.4219588748
 30
0.0
 10
93.4450624687
 20
-10.3578107008
 30
0.0
 10
93.2597686059
 20
-10.2948186863
 30
0.0
 10
93.1302950464
 20
-10.2494455433
 30
0.0
 10
93.0560323986
 20
-10.2253632987
 30
0.0
 10
93.0011023557
 20
-10.2021311705
 30
0.0
 10
92.9432434192
 20
-10.1986581883
 30
0.0
 10
92.8671198843
 20
-10.1871334115
 30
0.0
 10
92.7334268311
 20
-10.1701964469
 30
0.0
 10
92.54269276
 20
-10.144156115
 30
0.0
 10
92.3518429881
 20
-10.1193394182
 30
0.0
 10
92.218311916
 20
-10.1006893644
 30
0.0
 10
92.1419338395
 20
-10.0918565849
 30
0.0
 10
92.0848558828
 20
-10.0801240653
 30
0.0
 10
92.0269928267
 20
-10.0879110887
 30
0.0
 10
91.9501156504
 20
-10.0914832527
 30
0.0
 10
91.8154560052
 20
-10.1009267447
 30
0.0
 10
91.6231271009
 20
-10.1125951925
 30
0.0
 10
91.4308674346
 20
-10.1254722703
 30
0.0
 10
91.2961108562
 20
-10.1332236803
 30
0.0
 10
91.2193860034
 20
-10.1394548303
 30
0.0
 10
91.1610555914
 20
-10.1390836012
 30
0.0
 10
91.1057328156
 20
-10.157989852
 30
0.0
 10
91.0309195147
 20
-10.176472091
 30
0.0
 10
90.9004903105
 20
-10.2119688326
 30
0.0
 10
90.71386397
 20
-10.2608771201
 30
0.0
 10
90.5274921626
 20
-10.310985403
 30
0.0
 10
90.3967066119
 20
-10.3448021511
 30
0.0
 10
90.322453284
 20
-10.3659243799
 30
0.0
 10
90.2654124094
 20
-10.3767306616
 30
0.0
 10
90.2135344131
 20
-10.4067793168
 30
0.0
 10
90.1425628781
 20
-10.4401322224
 30
0.0
 10
90.0192017863
 20
-10.5016271647
 30
0.0
 10
89.8425326923
 20
-10.5878410401
 30
0.0
 10
89.6307188711
 20
-10.6920024473
 30
0.0
 10
89.4894736396
 20
-10.761309146
 30
0.0
 10
89.418855526
 20
-10.7959792753
 30
0.0
  0
SPLINE
  5
27A
100
AcDbEntity
  8
_21_KURVEN
100
AcDbSpline
 62
1
  6
CENTER
 70
0
 71
3
 72
83
 73
79
 74
0
 42
0.0000001
 43
0.0000001
 44
0.0000000001
 40
0.0
 40
0.0
 40
0.0
 40
0.0
 40
0.03125
 40
0.0625
 40
0.078125
 40
0.09375
 40
0.109375
 40
0.1171875
 40
0.12109375
 40
0.125
 40
0.12890625
 40
0.1328125
 40
0.140625
 40
0.15625
 40
0.1875
 40
0.21875
 40
0.234375
 40
0.2421875
 40
0.24609375
 40
0.25
 40
0.25390625
 40
0.2578125
 40
0.265625
 40
0.28125
 40
0.3125
 40
0.34375
 40
0.359375
 40
0.3671875
 40
0.37109375
 40
0.375
 40
0.37890625
 40
0.3828125
 40
0.390625
 40
0.40625
 40
0.4375
 40
0.46875
 40
0.484375
 40
0.4921875
 40
0.49609375
 40
0.5
 40
0.50390625
 40
0.5078125
 40
0.515625
 40
0.53125
 40
0.5625
 40
0.59375
 40
0.609375
 40
0.6171875
 40
0.62109375
 40
0.625
 40
0.62890625
 40
0.6328125
 40
0.640625
 40
0.65625
 40
0.6875
 40
0.71875
 40
0.734375
 40
0.7421875
 40
0.74609375
 40
0.75
 40
0.75390625
 40
0.7578125
 40
0.765625
 40
0.78125
 40
0.8125
 40
0.84375
 40
0.859375
 40
0.8671875
 40
0.87109375
 40
0.875
 40
0.87890625
 40
0.8828125
 40
0.890625
 40
0.90625
 40
0.921875
 40
0.9375
 40
0.96875
 40
1.0
 40
1.0
 40
1.0
 40
1.0
 10
89.4188558792
 20
-10.7959790561
 30
0.0
 10
89.3503757719
 20
-10.8496750562
 30
0.0
 10
89.2134184209
 20
-10.9570700049
 30
0.0
 10
89.0422074137
 20
-11.0912989485
 30
0.0
 10
88.9052686769
 20
-11.1987130623
 30
0.0
 10
88.8024830085
 20
-11.2791896162
 30
0.0
 10
88.7170878087
 20
-11.3465206164
 30
0.0
 10
88.6568018756
 20
-11.3931279492
 30
0.0
 10
88.6231479879
 20
-11.4205794646
 30
0.0
 10
88.5956674337
 20
-11.438861659
 30
0.0
 10
88.5767498249
 20
-11.4659602454
 30
0.0
 10
88.5485397017
 20
-11.4990166736
 30
0.0
 10
88.500561447
 20
-11.5582957647
 30
0.0
 10
88.4036112926
 20
-11.6758337037
 30
0.0
 10
88.2656882537
 20
-11.8443166056
 30
0.0
 10
88.127349145
 20
-12.0124565858
 30
0.0
 10
88.0309814882
 20
-12.1304746151
 30
0.0
 10
87.9822022992
 20
-12.189093582
 30
0.0
 10
87.9552819924
 20
-12.2232130673
 30
0.0
 10
87.9324013187
 20
-12.2470453252
 30
0.0
 10
87.9198056617
 20
-12.277595541
 30
0.0
 10
87.8994241764
 20
-12.3159860478
 30
0.0
 10
87.8654254157
 20
-12.3842592816
 30
0.0
 10
87.796235031
 20
-12.5200289369
 30
0.0
 10
87.6980799456
 20
-12.7144162812
 30
0.0
 10
87.5994436955
 20
-12.9085604921
 30
0.0
 10
87.5309269414
 20
-13.0446705343
 30
0.0
 10
87.4960019386
 20
-13.1124757361
 30
0.0
 10
87.4771120639
 20
-13.1516199567
 30
0.0
 10
87.4599333131
 20
-13.179854326
 30
0.0
 10
87.4542663066
 20
-13.2123846845
 30
0.0
 10
87.4426951602
 20
-13.2542601313
 30
0.0
 10
87.4243134959
 20
-13.3282390286
 30
0.0
 10
87.3862155366
 20
-13.4757008529
 30
0.0
 10
87.3325561901
 20
-13.6866296872
 30
0.0
 10
87.2783737589
 20
-13.897426886
 30
0.0
 10
87.2410081181
 20
-14.045073
 30
0.0
 10
87.2216195159
 20
-14.118798499
 30
0.0
 10
87.211669932
 20
-14.1610820158
 30
0.0
 10
87.2010205438
 20
-14.1923585464
 30
0.0
 10
87.2025551477
 20
-14.2253021749
 30
0.0
 10
87.2003516814
 20
-14.268645569
 30
0.0
 10
87.1984724937
 20
-14.344766827
 30
0.0
 10
87.1933020042
 20
-14.496818104
 30
0.0
 10
87.1867229782
 20
-14.7141287295
 30
0.0
 10
87.1796041427
 20
-14.9314255579
 30
0.0
 10
87.1751893865
 20
-15.0834961508
 30
0.0
 10
87.1722710654
 20
-15.1595908495
 30
0.0
 10
87.1717410086
 20
-15.2029770145
 30
0.0
 10
87.1681339268
 20
-15.2357892261
 30
0.0
 10
87.1767962245
 20
-15.2675593461
 30
0.0
 10
87.1840665716
 20
-15.310282989
 30
0.0
 10
87.1987803742
 20
-15.384880115
 30
0.0
 10
87.2267863987
 20
-15.5341970704
 30
0.0
 10
87.2676045818
 20
-15.7474224
 30
0.0
 10
87.3078922312
 20
-15.9607524356
 30
0.0
 10
87.3366410028
 20
-16.1099228027
 30
0.0
 10
87.3503335282
 20
-16.1847214877
 30
0.0
 10
87.3592485295
 20
-16.2271205421
 30
0.0
 10
87.3628574943
 20
-16.2598879862
 30
0.0
 10
87.3782302536
 20
-16.288954343
 30
0.0
 10
87.394624227
 20
-16.3290003873
 30
0.0
 10
87.425222308
 20
-16.3984803006
 30
0.0
 10
87.485055895
 20
-16.5378708629
 30
0.0
 10
87.5713052193
 20
-16.7367405838
 30
0.0
 10
87.6570588385
 20
-16.935828471
 30
0.0
 10
87.7175864127
 20
-17.0749136005
 30
0.0
 10
87.7472302613
 20
-17.1448134839
 30
0.0
 10
87.7651609207
 20
-17.1841832127
 30
0.0
 10
87.7758120883
 20
-17.2153276033
 30
0.0
 10
87.7971549053
 20
-17.2402901487
 30
0.0
 10
87.8218826276
 20
-17.2757298394
 30
0.0
 10
87.8668937232
 20
-17.3367446392
 30
0.0
 10
87.9302868584
 20
-17.4244338875
 30
0.0
 10
88.0067474689
 20
-17.5294361559
 30
0.0
 10
88.1085590762
 20
-17.6695177415
 30
0.0
 10
88.2358705152
 20
-17.8445925888
 30
0.0
 10
88.337705364
 20
-17.9846607363
 30
0.0
 10
88.3886245762
 20
-18.0546937764
 30
0.0
  0
SPLINE
  5
27B
100
AcDbEntity
  8
_21_KURVEN
100
AcDbSpline
 62
1
  6
CENTER
 70
0
 71
3
 72
59
 73
55
 74
0
 42
0.0000001
 43
0.0000001
 44
0.0000000001
 40
0.0
 40
0.0
 40
0.0
 40
0.0
 40
0.0625
 40
0.09375
 40
0.125
 40
0.1328125
 40
0.140625
 40
0.15625
 40
0.171875
 40
0.1875
 40
0.21875
 40
0.25
 40
0.265625
 40
0.2734375
 40
0.28125
 40
0.28515625
 40
0.2890625
 40
0.296875
 40
0.3125
 40
0.34375
 40
0.375
 40
0.40625
 40
0.421875
 40
0.4296875
 40
0.4375
 40
0.453125
 40
0.46875
 40
0.5
 40
0.53125
 40
0.546875
 40
0.5625
 40
0.5703125
 40
0.578125
 40
0.59375
 40
0.625
 40
0.65625
 40
0.6875
 40
0.703125
 40
0.7109375
 40
0.71484375
 40
0.71875
 40
0.7265625
 40
0.734375
 40
0.75
 40
0.78125
 40
0.8125
 40
0.828125
 40
0.84375
 40
0.859375
 40
0.8671875
 40
0.875
 40
0.90625
 40
0.9375
 40
1.0
 40
1.0
 40
1.0
 40
1.0
 10
88.3886245721
 20
-18.0546937719
 30
0.0
 10
88.4886622591
 20
-18.1448047618
 30
0.0
 10
88.6386423913
 20
-18.2800581851
 30
0.0
 10
88.8389214938
 20
-18.460048329
 30
0.0
 10
88.9510055024
 20
-18.5619448233
 30
0.0
 10
89.0266354035
 20
-18.6288434254
 30
0.0
 10
89.0748907219
 20
-18.6759057496
 30
0.0
 10
89.1509908727
 20
-18.7167754314
 30
0.0
 10
89.2386248648
 20
-18.7700131666
 30
0.0
 10
89.3567561001
 20
-18.8395367389
 30
0.0
 10
89.5039912723
 20
-18.9269064719
 30
0.0
 10
89.651334542
 20
-19.0142402277
 30
0.0
 10
89.7545480363
 20
-19.0751237214
 30
0.0
 10
89.8133692514
 20
-19.1103538858
 30
0.0
 10
89.8505098923
 20
-19.1313333032
 30
0.0
 10
89.8793561707
 20
-19.1505015829
 30
0.0
 10
89.9113654811
 20
-19.1609624278
 30
0.0
 10
89.9668303054
 20
-19.1807870638
 30
0.0
 10
90.0781531472
 20
-19.2193536119
 30
0.0
 10
90.2369668026
 20
-19.2750539861
 30
0.0
 10
90.4276955457
 20
-19.3414637665
 30
0.0
 10
90.586420277
 20
-19.3974337384
 30
0.0
 10
90.6979142976
 20
-19.4354813109
 30
0.0
 10
90.7610270038
 20
-19.4589737908
 30
0.0
 10
90.8301294428
 20
-19.4649325342
 30
0.0
 10
90.9144566937
 20
-19.4783872462
 30
0.0
 10
91.0505259355
 20
-19.4965420492
 30
0.0
 10
91.2202233765
 20
-19.5205059435
 30
0.0
 10
91.3900452123
 20
-19.543604196
 30
0.0
 10
91.5259154223
 20
-19.5631440257
 30
0.0
 10
91.6107402526
 20
-19.5731361711
 30
0.0
 10
91.678822654
 20
-19.586193176
 30
0.0
 10
91.7460901474
 20
-19.5807732254
 30
0.0
 10
91.8639506724
 20
-19.5745174186
 30
0.0
 10
92.0322474478
 20
-19.5638772268
 30
0.0
 10
92.2342400013
 20
-19.5519041415
 30
0.0
 10
92.4025462569
 20
-19.5415471877
 30
0.0
 10
92.5203885326
 20
-19.5347461477
 30
0.0
 10
92.5792733042
 20
-19.5307719741
 30
0.0
 10
92.612980102
 20
-19.5294203058
 30
0.0
 10
92.6461010996
 20
-19.518841563
 30
0.0
 10
92.6877028531
 20
-19.5087769422
 30
0.0
 10
92.7541540172
 20
-19.4909113285
 30
0.0
 10
92.8704929531
 20
-19.4604604952
 30
0.0
 10
93.0366866706
 20
-19.4165905686
 30
0.0
 10
93.2028053452
 20
-19.3726451285
 30
0.0
 10
93.3358841978
 20
-19.3379649978
 30
0.0
 10
93.4351866242
 20
-19.3105715436
 30
0.0
 10
93.519551059
 20
-19.292156427
 30
0.0
 10
93.5804162555
 20
-19.2592864536
 30
0.0
 10
93.6734182556
 20
-19.2146463039
 30
0.0
 10
93.8122069932
 20
-19.1457309749
 30
0.0
 10
94.0594771793
 20
-19.0246783045
 30
0.0
 10
94.244809522
 20
-18.933559521
 30
0.0
 10
94.3683911498
 20
-18.8728868388
 30
0.0
  0
SPLINE
  5
27C
100
AcDbEntity
  8
_21_KURVEN
100
AcDbSpline
 62
7
  6
CONTINUOUS
 70
0
 71
3
 72
8
 73
4
 74
0
 42
0.0000001
 43
0.0000001
 44
0.0000000001
 40
0.0
 40
0.0
 40
0.0
 40
0.0
 40
1.0
 40
1.0
 40
1.0
 40
1.0
 10
88.9252128334
 20
-19.0915318224
 30
0.0
 10
88.9459313746
 20
-19.1244286873
 30
0.0
 10
88.9722042293
 20
-19.1608796033
 30
0.0
 10
89.0001055228
 20
-19.1942215236
 30
0.0
  0
SPLINE
  5
27D
100
AcDbEntity
  8
_21_KURVEN
100
AcDbSpline
 62
7
  6
CONTINUOUS
 70
0
 71
3
 72
9
 73
5
 74
0
 42
0.0000001
 43
0.0000001
 44
0.0000000001
 40
0.0
 40
0.0
 40
0.0
 40
0.0
 40
0.5
 40
1.0
 40
1.0
 40
1.0
 40
1.0
 10
89.0001055265
 20
-19.1942215279
 30
0.0
 10
89.0535857681
 20
-19.2505241377
 30
0.0
 10
89.167590015
 20
-19.3588983857
 30
0.0
 10
89.3142106469
 20
-19.4157921444
 30
0.0
 10
89.3880787775
 20
-19.4401908422
 30
0.0
  0
SPLINE
  5
27E
100
AcDbEntity
  8
_21_KURVEN
100
AcDbSpline
 62
7
  6
CONTINUOUS
 70
0
 71
3
 72
9
 73
5
 74
0
 42
0.0000001
 43
0.0000001
 44
0.0000000001
 40
0.0
 40
0.0
 40
0.0
 40
0.0
 40
0.5
 40
1.0
 40
1.0
 40
1.0
 40
1.0
 10
89.3880787709
 20
-19.4401908404
 30
0.0
 10
89.4149453568
 20
-19.4471137216
 30
0.0
 10
89.4690083565
 20
-19.4600319285
 30
0.0
 10
89.5243824856
 20
-19.4652733438
 30
0.0
 10
89.5551484382
 20
-19.4675792849
 30
0.0
  0
ENDSEC
  0
SECTION
  2
OBJECTS
  0
DICTIONARY
  5
C
100
AcDbDictionary
280
0
281
1
  3
ACAD_GROUP
350
D
  3
ACAD_MLINESTYLE
350
17
  3
ACAD_LAYOUT
350
1A
  3
ACAD_PLOTSETTINGS
350
19
  3
ACAD_PLOTSTYLENAME
350
E
  0
DICTIONARY
  5
D
102
{ACAD_REACTORS
330
C
102
}
100
AcDbDictionary
280
0
281
1
  0
ACDBDICTIONARYWDFLT
  5
E
102
{ACAD_REACTORS
330
C
102
}
100
AcDbDictionary
281
1
  3
Normal
350
F
100
AcDbDictionaryWithDefault
340
F
  0
DICTIONARY
  5
17
102
{ACAD_REACTORS
330
C
102
}
100
AcDbDictionary
280
0
281
1
  3
Standard
350
18
  0
DICTIONARY
  5
19
102
{ACAD_REACTORS
330
C
102
}
100
AcDbDictionary
281
1
  0
DICTIONARY
  5
1A
102
{ACAD_REACTORS
330
C
102
}
100
AcDbDictionary
281
1
  3
Model
350
27F
  3
Layout1
350
280
  0
ACDBPLACEHOLDER
  5
F
102
{ACAD_REACTORS
330
E
102
}
  0
MLINESTYLE
  5
18
102
{ACAD_REACTORS
330
17
102
}
100
AcDbMlineStyle
  2
STANDARD
 70
0
  3

 62
256
 51
90.0
 52
90.0
 71
2
 49
0.5
 62
256
  6
BYLAYER
 49
-0.5
 62
256
  6
BYLAYER
  0
LAYOUT
  5
27F
102
{ACAD_REACTORS
330
1A
102
}
100
AcDbPlotSettings
  1

  2
none_device
  4
ISO_A3_(420.00_x_297.00_MM)
  6

 40
0.0
 41
0.0
 42
0.0
 43
0.0
 44
420.0
 45
297.0
 46
0.0
 47
0.0
 48
0.0
 49
0.0
140
0.0
141
0.0
142
1.0
143
1.0
 70
1024
 72
1
 73
0
 74
0
  7

 75
0
147
1.0
148
0.0
149
0.0
100
AcDbLayout
  1
Model
 70
0
 71
0
 10
0.0
 20
0.0
 11
420.0
 21
297.0
 12
0.0
 22
0.0
 32
0.0
 14
0.0
 24
0.0
 34
0.0
 15
0.0
 25
0.0
 35
0.0
146
0.0
 13
0.0
 23
0.0
 33
0.0
 16
1.0
 26
0.0
 36
0.0
 17
0.0
 27
1.0
 37
0.0
 76
0
330
20E
345
0
346
0
  0
LAYOUT
  5
280
102
{ACAD_REACTORS
330
1A
102
}
100
AcDbPlotSettings
  1

  2
none_device
  4
ISO_A3_(420.00_x_297.00_MM)
  6

 40
0.0
 41
0.0
 42
0.0
 43
0.0
 44
420.0
 45
297.0
 46
0.0
 47
0.0
 48
0.0
 49
0.0
140
0.0
141
0.0
142
1.0
143
1.0
 70
0
 72
1
 73
0
 74
0
  7

 75
0
147
1.0
148
0.0
149
0.0
100
AcDbLayout
  1
Layout1
 70
0
 71
1
 10
0.0
 20
0.0
 11
420.0
 21
297.0
 12
0.0
 22
0.0
 32
0.0
 14
0.0
 24
0.0
 34
0.0
 15
0.0
 25
0.0
 35
0.0
146
0.0
 13
0.0
 23
0.0
 33
0.0
 16
1.0
 26
0.0
 36
0.0
 17
0.0
 27
1.0
 37
0.0
 76
0
330
20F
345
0
346
0
  0
ENDSEC
  0
EOF
