999
DXF file: 70541825.dxf
999
Pro/ENGINEER 2017380 by Parametric Technology Corporation
  0
SECTION
  2
HEADER
  9
$ACADVER
  1
AC1027
  9
$DWGCODEPAGE
  3
ANSI_1252
  9
$EXTMAX
 10
420.0
 20
297.0
 30
0.0
  9
$EXTMIN
 10
0.0
 20
0.0
 30
0.0
  9
$LIMMIN
 10
0.0
 20
0.0
  9
$LIMMAX
 10
420.0
 20
297.0
  9
$VIEWCTR
 10
210.0
 20
148.5
  9
$VIEWSIZE
 40
297.0
  9
$CLAYER
  8
0
  9
$LTSCALE
 40
23.1
  9
$CELTYPE
  6
BYLAYER
  9
$DIMSCALE
 40
1.0
  9
$DIMASZ
 40
3.5
  9
$DIMEXO
 40
0.0
  9
$DIMDLI
 40
15.96
  9
$DIMEXE
 40
1.5
  9
$DIMCEN
 40
3.78
  9
$DIMLFAC
 40
1.0
  9
$DIMBLK
  1
_FILLED
  9
$DIMALT
 70
0
  9
$DIMALTF
 40
25.4
  9
$DIMTXT
 40
3.5
  9
$DIMTOL
 70
1
  9
$DIMLIM
 70
0
  9
$DIMTFAC
 40
1.0
  9
$DIMTP
 40
0.05
  9
$DIMTM
 40
0.05
  9
$DIMGAP
 40
0.625
  9
$DIMDSEP
 70
46
  9
$AUNITS
 70
0
  9
$PDMODE
 70
3
  9
$PDSIZE
 40
0.3125
  9
$HANDSEED
  5
290
  9
$TILEMODE
 70
1
  9
$MEASUREMENT
 70
1
  9
$INSUNITS
 70
4
  0
ENDSEC
  0
SECTION
  2
CLASSES
  0
CLASS
  1
ACDBDICTIONARYWDFLT
  2
AcDbDictionaryWithDefault
  3
AutoCAD 2000
 90
0
 91
1
280
0
281
0
  0
CLASS
  1
ACDBPLACEHOLDER
  2
AcDbPlaceHolder
  3
AutoCAD 2000
 90
0
 91
1
280
0
281
0
  0
CLASS
  1
LAYOUT
  2
AcDbLayout
  3
AutoCAD 2000
 90
0
 91
0
280
0
281
0
  0
ENDSEC
  0
SECTION
  2
TABLES
  0
TABLE
  2
VPORT
  5
8
100
AcDbSymbolTable
 70
2
  0
VPORT
  5
1F4
100
AcDbSymbolTableRecord
100
AcDbViewportTableRecord
  2
*ACTIVE
 70
0
 10
0.0
 20
0.0
 11
1.0
 21
1.0
 12
210.0
 22
148.5
 13
0.0
 23
0.0
 14
1.0
 24
1.0
 15
0.0
 25
0.0
 16
0.0
 26
0.0
 36
1.0
 17
0.0
 27
0.0
 37
0.0
 40
297.0
 41
1.4141414141
 42
50.0
 43
0.0
 44
0.0
 50
0.0
 51
0.0
 71
0
 72
100
 73
1
 74
1
 75
0
 76
0
 77
0
 78
0
  0
ENDTAB
  0
TABLE
  2
LTYPE
  5
5
100
AcDbSymbolTable
 70
6
  0
LTYPE
  5
14
100
AcDbSymbolTableRecord
100
AcDbLinetypeTableRecord
  2
BYBLOCK
 70
0
  3

 72
65
 73
0
 40
0.0
  0
LTYPE
  5
15
100
AcDbSymbolTableRecord
100
AcDbLinetypeTableRecord
  2
BYLAYER
 70
0
  3

 72
65
 73
0
 40
0.0
  0
LTYPE
  5
16
100
AcDbSymbolTableRecord
100
AcDbLinetypeTableRecord
  2
CONTINUOUS
 70
64
  3
Solid line
 72
65
 73
0
 40
0.0
  0
LTYPE
  5
1F5
100
AcDbSymbolTableRecord
100
AcDbLinetypeTableRecord
  2
CENTER
 70
64
  3
____ _ ____ _ ____ _ ____ _ ____ _ ____ _ ____
 72
65
 73
4
 40
0.6
 49
0.375
 74
0
 49
-0.075
 74
0
 49
0.075
 74
0
 49
-0.075
 74
0
  0
LTYPE
  5
1F6
100
AcDbSymbolTableRecord
100
AcDbLinetypeTableRecord
  2
HIDDEN
 70
64
  3
- - - - - - - - - - - - - - - - - - - -
 72
65
 73
2
 40
0.2
 49
0.1
 74
0
 49
-0.1
 74
0
  0
LTYPE
  5
1F7
100
AcDbSymbolTableRecord
100
AcDbLinetypeTableRecord
  2
PHANTOM
 70
64
  3
_____ _ _ _____ _ _ _____ _ _ _____
 72
65
 73
6
 40
0.8
 49
0.45
 74
0
 49
-0.05
 74
0
 49
0.1
 74
0
 49
-0.05
 74
0
 49
0.1
 74
0
 49
-0.05
 74
0
  0
LTYPE
  5
1F8
100
AcDbSymbolTableRecord
100
AcDbLinetypeTableRecord
  2
DOT
 70
64
  3
. . . . . . . . . . . . . . . . . . . .
 72
65
 73
2
 40
0.2
 49
0.1
 74
0
 49
-0.1
 74
0
  0
LTYPE
  5
1F9
100
AcDbSymbolTableRecord
100
AcDbLinetypeTableRecord
  2
DASHED
 70
64
  3
- - - - - - - - - - - - - - - - - - - -
 72
65
 73
2
 40
0.2
 49
0.1
 74
0
 49
-0.1
 74
0
  0
ENDTAB
  0
TABLE
  2
LAYER
  5
2
100
AcDbSymbolTable
 70
36
  0
LAYER
  5
10
100
AcDbSymbolTableRecord
100
AcDbLayerTableRecord
  2
0
 70
0
 62
7
  6
CONTINUOUS
370
-3
390
F
  0
LAYER
  5
1FA
100
AcDbSymbolTableRecord
100
AcDbLayerTableRecord
  2
DEFAULT_1
 70
0
 62
7
  6
CENTER
370
-3
390
F
  0
LAYER
  5
1FB
100
AcDbSymbolTableRecord
100
AcDbLayerTableRecord
  2
DEFAULT_2
 70
0
 62
1
  6
HIDDEN
370
-3
390
F
  0
LAYER
  5
1FC
100
AcDbSymbolTableRecord
100
AcDbLayerTableRecord
  2
DEFAULT_3
 70
0
 62
7
  6
PHANTOM
370
-3
390
F
  0
LAYER
  5
1FD
100
AcDbSymbolTableRecord
100
AcDbLayerTableRecord
  2
BG_STARTBEZUEGE
 70
0
 62
7
  6
CONTINUOUS
370
-3
390
F
  0
LAYER
  5
1FE
100
AcDbSymbolTableRecord
100
AcDbLayerTableRecord
  2
HILFEN
 70
0
 62
7
  6
CONTINUOUS
370
-3
390
F
  0
LAYER
  5
1FF
100
AcDbSymbolTableRecord
100
AcDbLayerTableRecord
  2
PLATZIERUNG
 70
0
 62
7
  6
CONTINUOUS
370
-3
390
F
  0
LAYER
  5
200
100
AcDbSymbolTableRecord
100
AcDbLayerTableRecord
  2
T_STARTBEZUEGE
 70
0
 62
7
  6
CONTINUOUS
370
-3
390
F
  0
LAYER
  5
201
100
AcDbSymbolTableRecord
100
AcDbLayerTableRecord
  2
_03_2D_ZEICHNUNG_BEMASSUNGEN
 70
0
 62
7
  6
CONTINUOUS
370
-3
390
F
  0
LAYER
  5
202
100
AcDbSymbolTableRecord
100
AcDbLayerTableRecord
  2
_04_NOTIZEN
 70
0
 62
7
  6
CONTINUOUS
370
-3
390
F
  0
LAYER
  5
203
100
AcDbSymbolTableRecord
100
AcDbLayerTableRecord
  2
_05_2D_ELEMENTE
 70
0
 62
7
  6
CONTINUOUS
370
-3
390
F
  0
LAYER
  5
204
100
AcDbSymbolTableRecord
100
AcDbLayerTableRecord
  2
_07_EINRASTLINIEN
 70
0
 62
7
  6
CONTINUOUS
370
-3
390
F
  0
LAYER
  5
205
100
AcDbSymbolTableRecord
100
AcDbLayerTableRecord
  2
_21_KURVEN
 70
0
 62
7
  6
CONTINUOUS
370
-3
390
F
  0
LAYER
  5
206
100
AcDbSymbolTableRecord
100
AcDbLayerTableRecord
  2
_24_IMPORT
 70
0
 62
7
  6
CONTINUOUS
370
-3
390
F
  0
LAYER
  5
207
100
AcDbSymbolTableRecord
100
AcDbLayerTableRecord
  2
_26_BEZUGSACHSEN
 70
0
 62
7
  6
CONTINUOUS
370
-3
390
F
  0
LAYER
  5
208
100
AcDbSymbolTableRecord
100
AcDbLayerTableRecord
  2
_27_BEZUGSEBENEN
 70
0
 62
7
  6
CONTINUOUS
370
-3
390
F
  0
LAYER
  5
209
100
AcDbSymbolTableRecord
100
AcDbLayerTableRecord
  2
_28_BEZUGSPUNKTE
 70
0
 62
7
  6
CONTINUOUS
370
-3
390
F
  0
LAYER
  5
20A
100
AcDbSymbolTableRecord
100
AcDbLayerTableRecord
  2
_29_KOORDINATENSYSTEME
 70
0
 62
7
  6
CONTINUOUS
370
-3
390
F
  0
LAYER
  5
20B
100
AcDbSymbolTableRecord
100
AcDbLayerTableRecord
  2
_30_VOLUMEN
 70
0
 62
7
  6
CONTINUOUS
370
-3
390
F
  0
ENDTAB
  0
TABLE
  2
STYLE
  5
3
100
AcDbSymbolTable
 70
1
  0
STYLE
  5
11
100
AcDbSymbolTableRecord
100
AcDbTextStyleTableRecord
  2
STANDARD
 70
0
 40
0.0
 41
0.7
 50
0.0
 71
0
 42
0.2
  3
SIMPLEX.SHX
  4

  0
STYLE
  5
20C
100
AcDbSymbolTableRecord
100
AcDbTextStyleTableRecord
  2
TEXTSTYLE_1
 70
0
 40
0.0
 41
0.8
 50
0.0
 71
0
 42
0.2
  3
gdt
  4

  0
ENDTAB
  0
TABLE
  2
VIEW
  5
6
100
AcDbSymbolTable
 70
0
  0
ENDTAB
  0
TABLE
  2
UCS
  5
7
100
AcDbSymbolTable
 70
0
  0
ENDTAB
  0
TABLE
  2
APPID
  5
9
100
AcDbSymbolTable
 70
1
  0
APPID
  5
20D
100
AcDbSymbolTableRecord
100
AcDbRegAppTableRecord
  2
ACAD
 70
0
  0
ENDTAB
  0
TABLE
  2
BLOCK_RECORD
  5
1
100
AcDbSymbolTable
 70
0
  0
BLOCK_RECORD
  5
20E
100
AcDbSymbolTableRecord
100
AcDbBlockTableRecord
  2
*Model_Space
  0
BLOCK_RECORD
  5
20F
100
AcDbSymbolTableRecord
100
AcDbBlockTableRecord
  2
*Paper_Space
  0
BLOCK_RECORD
  5
210
100
AcDbSymbolTableRecord
100
AcDbBlockTableRecord
  2
_FILLED
  0
BLOCK_RECORD
  5
211
100
AcDbSymbolTableRecord
100
AcDbBlockTableRecord
  2
*D0
  0
BLOCK_RECORD
  5
212
100
AcDbSymbolTableRecord
100
AcDbBlockTableRecord
  2
*D1
  0
BLOCK_RECORD
  5
213
100
AcDbSymbolTableRecord
100
AcDbBlockTableRecord
  2
*D2
  0
ENDTAB
  0
TABLE
  2
DIMSTYLE
  5
A
100
AcDbSymbolTable
 70
1
100
AcDbDimStyleTable
 71
0
  0
DIMSTYLE
105
214
100
AcDbSymbolTableRecord
100
AcDbDimStyleTableRecord
  2
STANDARD
 70
0
  3

  4

 40
1.0
 41
3.5
 42
0.0
 43
0.38
 44
1.5
 45
0.0
 46
0.0
 47
0.05
 48
0.05
140
3.5
141
0.09
142
0.0
143
25.4
144
1.0
145
0.0
146
1.0
147
0.625
 71
1.0
 72
0.0
 73
0
 74
0
 75
0
 76
0
 77
1
 78
8
 79
2
170
0
171
1
172
0
173
0
174
0
175
0
176
0
177
0
178
2
270
2
179
2
271
2
272
2
273
2
274
2
275
0
280
0
281
0
282
0
283
1
284
8
285
0
286
0
287
3
288
0
340
11
278
46
341
210
342
210
343
210
344
210
  0
DIMSTYLE
105
215
100
AcDbSymbolTableRecord
100
AcDbDimStyleTableRecord
  2
DIMSTYLE_1
 70
0
  3

  4

 40
1.0
 41
3.5
 42
0.0
 43
0.38
 44
1.5
 45
0.0
 46
0.0
 47
0.2
 48
0.2
140
3.5
141
0.09
142
0.0
143
25.4
144
1.0
145
0.0
146
1.0
147
0.875
 71
0.0
 72
0.0
 73
0
 74
0
 75
0
 76
0
 77
1
 78
8
 79
2
170
0
171
1
172
0
173
0
174
0
175
0
176
0
177
0
178
2
270
2
179
2
271
2
272
2
273
2
274
2
275
0
280
0
281
0
282
0
283
1
284
8
285
0
286
0
287
3
288
0
340
11
278
46
341
210
342
210
343
210
344
210
  0
DIMSTYLE
105
216
100
AcDbSymbolTableRecord
100
AcDbDimStyleTableRecord
  2
DIMSTYLE_2
 70
0
  3

  4

 40
1.0
 41
3.5
 42
0.0
 43
0.38
 44
1.5
 45
0.0
 46
0.0
 47
0.5
 48
0.5
140
3.5
141
0.09
142
0.0
143
25.4
144
1.0
145
0.0
146
1.0
147
0.875
 71
0.0
 72
0.0
 73
0
 74
0
 75
0
 76
0
 77
1
 78
8
 79
2
170
0
171
1
172
0
173
0
174
0
175
0
176
0
177
0
178
2
270
2
179
2
271
2
272
2
273
2
274
2
275
0
280
0
281
0
282
0
283
1
284
8
285
0
286
0
287
3
288
0
340
11
278
46
341
210
342
210
343
210
344
210
  0
DIMSTYLE
105
217
100
AcDbSymbolTableRecord
100
AcDbDimStyleTableRecord
  2
DIMSTYLE_3
 70
0
  3

  4

 40
1.0
 41
3.5
 42
0.0
 43
0.38
 44
1.5
 45
0.0
 46
0.0
 47
0.3
 48
0.3
140
3.5
141
0.09
142
0.0
143
25.4
144
1.0
145
0.0
146
1.0
147
0.875
 71
0.0
 72
0.0
 73
0
 74
0
 75
0
 76
0
 77
1
 78
8
 79
2
170
0
171
1
172
0
173
0
174
0
175
0
176
0
177
0
178
2
270
2
179
2
271
2
272
2
273
2
274
2
275
0
280
0
281
0
282
0
283
1
284
8
285
0
286
0
287
3
288
0
340
11
278
46
341
210
342
210
343
210
344
210
  0
ENDTAB
  0
ENDSEC
  0
SECTION
  2
BLOCKS
  0
BLOCK
  5
20
100
AcDbEntity
  8
0
100
AcDbBlockBegin
  2
*Model_Space
 70
0
 10
0.0
 20
0.0
 30
0.0
  3
*Model_Space
  1

  0
ENDBLK
  5
21
100
AcDbEntity
  8
0
100
AcDbBlockEnd
  0
BLOCK
  5
1C
100
AcDbEntity
  8
0
100
AcDbBlockBegin
  2
*Paper_Space
 70
0
 10
0.0
 20
0.0
 30
0.0
  3
*Paper_Space
  1

  0
ENDBLK
  5
1D
100
AcDbEntity
  8
0
100
AcDbBlockEnd
  0
BLOCK
  5
218
100
AcDbEntity
  8
0
100
AcDbBlockBegin
  2
_FILLED
 70
64
 10
0.0
 20
0.0
  3
_FILLED
  1

  0
SOLID
  5
219
100
AcDbEntity
  8
0
  6
BYBLOCK
 62
0
100
AcDbTrace
 10
0.0
 20
0.0
 11
-1.0
 21
0.125
 12
-1.0
 22
-0.125
 13
-1.0
 23
-0.125
  0
ENDBLK
  5
21A
100
AcDbEntity
  8
0
  6
BYBLOCK
 62
0
100
AcDbBlockEnd
  0
BLOCK
  5
21B
100
AcDbEntity
  8
_03_2D_ZEICHNUNG_BEMASSUNGEN
100
AcDbBlockBegin
 62
7
  6
CONTINUOUS
  2
*D0
 70
65
 10
0.0
 20
0.0
  3
*D0
  1

  0
TEXT
  5
21C
100
AcDbEntity
  8
_03_2D_ZEICHNUNG_BEMASSUNGEN
100
AcDbText
 62
2
  6
CONTINUOUS
 10
-9.875
 20
-15.125
  7
STANDARD
 40
3.5
  1
25
 50
90.0
 41
0.75
 72
1
 11
-9.875
 21
-12.5
100
AcDbText
  0
LINE
  5
21D
100
AcDbEntity
  8
_03_2D_ZEICHNUNG_BEMASSUNGEN
100
AcDbLine
 62
7
  6
CONTINUOUS
 10
-0.0
 20
-0.0
 11
-10.5
 21
0.0
  0
LINE
  5
21E
100
AcDbEntity
  8
_03_2D_ZEICHNUNG_BEMASSUNGEN
100
AcDbLine
 62
7
  6
CONTINUOUS
 10
-0.0
 20
-25.0
 11
-10.5
 21
-25.0
  0
LINE
  5
21F
100
AcDbEntity
  8
_03_2D_ZEICHNUNG_BEMASSUNGEN
100
AcDbLine
 62
7
  6
CONTINUOUS
 10
-9.0
 20
0.0
 11
-9.0
 21
6.0
  0
LINE
  5
220
100
AcDbEntity
  8
_03_2D_ZEICHNUNG_BEMASSUNGEN
100
AcDbLine
 62
7
  6
CONTINUOUS
 10
-9.0
 20
6.0
 11
-9.0
 21
-12.5
  0
LINE
  5
221
100
AcDbEntity
  8
_03_2D_ZEICHNUNG_BEMASSUNGEN
100
AcDbLine
 62
7
  6
CONTINUOUS
 10
-9.0
 20
-25.0
 11
-9.0
 21
-31.0
  0
LINE
  5
222
100
AcDbEntity
  8
_03_2D_ZEICHNUNG_BEMASSUNGEN
100
AcDbLine
 62
7
  6
CONTINUOUS
 10
-9.0
 20
-31.0
 11
-9.0
 21
-12.5
  0
INSERT
  5
223
100
AcDbEntity
  8
_03_2D_ZEICHNUNG_BEMASSUNGEN
100
AcDbBlockReference
 62
7
  6
CONTINUOUS
  2
_FILLED
 10
-9.0
 20
0.0
 41
3.5
 42
3.5
 43
3.5
 50
270.0
  0
INSERT
  5
224
100
AcDbEntity
  8
_03_2D_ZEICHNUNG_BEMASSUNGEN
100
AcDbBlockReference
 62
7
  6
CONTINUOUS
  2
_FILLED
 10
-9.0
 20
-25.0
 41
3.5
 42
3.5
 43
3.5
 50
90.0
  0
ENDBLK
  5
225
100
AcDbEntity
  8
0
  6
BYBLOCK
 62
0
100
AcDbBlockEnd
  0
BLOCK
  5
226
100
AcDbEntity
  8
_03_2D_ZEICHNUNG_BEMASSUNGEN
100
AcDbBlockBegin
 62
7
  6
CONTINUOUS
  2
*D1
 70
65
 10
0.0
 20
0.0
  3
*D1
  1

  0
TEXT
  5
227
100
AcDbEntity
  8
_03_2D_ZEICHNUNG_BEMASSUNGEN
100
AcDbText
 62
2
  6
CONTINUOUS
 10
71.375
 20
9.875
  7
STANDARD
 40
3.5
  1
150
 41
0.6904761905
 72
1
 11
75.0
 21
9.875
100
AcDbText
  0
LINE
  5
228
100
AcDbEntity
  8
_03_2D_ZEICHNUNG_BEMASSUNGEN
100
AcDbLine
 62
7
  6
CONTINUOUS
 10
150.0
 20
0.0
 11
150.0
 21
10.5
  0
LINE
  5
229
100
AcDbEntity
  8
_03_2D_ZEICHNUNG_BEMASSUNGEN
100
AcDbLine
 62
7
  6
CONTINUOUS
 10
0.0
 20
0.0
 11
0.0
 21
10.5
  0
LINE
  5
22A
100
AcDbEntity
  8
_03_2D_ZEICHNUNG_BEMASSUNGEN
100
AcDbLine
 62
7
  6
CONTINUOUS
 10
150.0
 20
9.0
 11
75.0
 21
9.0
  0
LINE
  5
22B
100
AcDbEntity
  8
_03_2D_ZEICHNUNG_BEMASSUNGEN
100
AcDbLine
 62
7
  6
CONTINUOUS
 10
0.0
 20
9.0
 11
75.0
 21
9.0
  0
INSERT
  5
22C
100
AcDbEntity
  8
_03_2D_ZEICHNUNG_BEMASSUNGEN
100
AcDbBlockReference
 62
7
  6
CONTINUOUS
  2
_FILLED
 10
150.0
 20
9.0
 41
3.5
 42
3.5
 43
3.5
  0
INSERT
  5
22D
100
AcDbEntity
  8
_03_2D_ZEICHNUNG_BEMASSUNGEN
100
AcDbBlockReference
 62
7
  6
CONTINUOUS
  2
_FILLED
 10
0.0
 20
9.0
 41
3.5
 42
3.5
 43
3.5
 50
180.0
  0
ENDBLK
  5
22E
100
AcDbEntity
  8
0
  6
BYBLOCK
 62
0
100
AcDbBlockEnd
  0
BLOCK
  5
22F
100
AcDbEntity
  8
_03_2D_ZEICHNUNG_BEMASSUNGEN
100
AcDbBlockBegin
 62
7
  6
CONTINUOUS
  2
*D2
 70
65
 10
0.0
 20
0.0
  3
*D2
  1

  0
TEXT
  5
230
100
AcDbEntity
  8
_03_2D_ZEICHNUNG_BEMASSUNGEN
100
AcDbText
 62
2
  6
CONTINUOUS
 10
158.8209785151
 20
-18.625
  7
STANDARD
 40
3.5
  1
32
 50
90.0
 41
0.75
 72
1
 11
158.8209785151
 21
-16.0
100
AcDbText
  0
LINE
  5
231
100
AcDbEntity
  8
_03_2D_ZEICHNUNG_BEMASSUNGEN
100
AcDbLine
 62
7
  6
CONTINUOUS
 10
150.0
 20
-32.0
 11
161.1959785151
 21
-32.0
  0
LINE
  5
232
100
AcDbEntity
  8
_03_2D_ZEICHNUNG_BEMASSUNGEN
100
AcDbLine
 62
7
  6
CONTINUOUS
 10
0.0
 20
0.0
 11
161.1959785151
 21
0.0
  0
LINE
  5
233
100
AcDbEntity
  8
_03_2D_ZEICHNUNG_BEMASSUNGEN
100
AcDbLine
 62
7
  6
CONTINUOUS
 10
159.6959785151
 20
-32.0
 11
159.6959785151
 21
-16.0
  0
LINE
  5
234
100
AcDbEntity
  8
_03_2D_ZEICHNUNG_BEMASSUNGEN
100
AcDbLine
 62
7
  6
CONTINUOUS
 10
159.6959785151
 20
0.0
 11
159.6959785151
 21
-16.0
  0
INSERT
  5
235
100
AcDbEntity
  8
_03_2D_ZEICHNUNG_BEMASSUNGEN
100
AcDbBlockReference
 62
7
  6
CONTINUOUS
  2
_FILLED
 10
159.6959785151
 20
-32.0
 41
3.5
 42
3.5
 43
3.5
 50
270.0
  0
INSERT
  5
236
100
AcDbEntity
  8
_03_2D_ZEICHNUNG_BEMASSUNGEN
100
AcDbBlockReference
 62
7
  6
CONTINUOUS
  2
_FILLED
 10
159.6959785151
 20
0.0
 41
3.5
 42
3.5
 43
3.5
 50
90.0
  0
ENDBLK
  5
237
100
AcDbEntity
  8
0
  6
BYBLOCK
 62
0
100
AcDbBlockEnd
  0
ENDSEC
  0
SECTION
  2
ENTITIES
  0
DIMENSION
  5
238
100
AcDbEntity
  8
_03_2D_ZEICHNUNG_BEMASSUNGEN
100
AcDbDimension
 62
7
  6
CONTINUOUS
  2
*D0
 10
-9.0
 20
-25.0
 11
-9.0
 21
-13.0000002766
 70
160
 71
2
 42
25.0
  3
DIMSTYLE_1
100
AcDbAlignedDimension
 13
-0.0
 23
-0.0
 14
-0.0
 24
-25.0
 50
270.0
100
AcDbRotatedDimension
  0
DIMENSION
  5
239
100
AcDbEntity
  8
_03_2D_ZEICHNUNG_BEMASSUNGEN
100
AcDbDimension
 62
7
  6
CONTINUOUS
  2
*D1
 10
0.0
 20
9.0
 11
74.4999993896
 21
9.0
 70
160
 71
2
 42
150.0
  3
DIMSTYLE_2
100
AcDbAlignedDimension
 13
150.0
 23
0.0
 14
0.0
 24
0.0
 50
180.0
100
AcDbRotatedDimension
  0
DIMENSION
  5
23A
100
AcDbEntity
  8
_03_2D_ZEICHNUNG_BEMASSUNGEN
100
AcDbDimension
 62
7
  6
CONTINUOUS
  2
*D2
 10
159.6959785151
 20
0.0
 11
159.6959785151
 21
-16.5000059199
 70
160
 71
2
 42
32.0
  3
DIMSTYLE_3
100
AcDbAlignedDimension
 13
150.0
 23
-32.0
 14
0.0
 24
0.0
 50
90.0
100
AcDbRotatedDimension
  0
LINE
  5
23B
100
AcDbEntity
  8
_30_VOLUMEN
100
AcDbLine
 62
4
  6
CONTINUOUS
 10
-0.0
 20
-24.5
 11
-0.0
 21
-0.5
  0
LINE
  5
23C
100
AcDbEntity
  8
_30_VOLUMEN
100
AcDbLine
 62
4
  6
CONTINUOUS
 10
0.5
 20
-25.0
 11
0.5
 21
-0.0
  0
LINE
  5
23D
100
AcDbEntity
  8
_30_VOLUMEN
100
AcDbLine
 62
4
  6
CONTINUOUS
 10
-0.0
 20
-0.5
 11
0.5
 21
-0.0
  0
LINE
  5
23E
100
AcDbEntity
  8
_30_VOLUMEN
100
AcDbLine
 62
4
  6
CONTINUOUS
 10
-0.0
 20
-24.5
 11
0.5
 21
-25.0
  0
LINE
  5
23F
100
AcDbEntity
  8
_30_VOLUMEN
100
AcDbLine
 62
4
  6
CONTINUOUS
 10
124.5536336531
 20
-22.2745062564
 11
121.6984991248
 21
-22.710424593
  0
LINE
  5
240
100
AcDbEntity
  8
_30_VOLUMEN
100
AcDbLine
 62
4
  6
CONTINUOUS
 10
149.172193897
 20
-32.0002135972
 11
139.5794019461
 21
-31.5607772279
  0
LINE
  5
241
100
AcDbEntity
  8
_21_KURVEN
100
AcDbLine
 62
7
  6
CONTINUOUS
 10
149.172193897
 20
-32.0002135972
 11
139.5794019461
 21
-31.5607772279
  0
LINE
  5
242
100
AcDbEntity
  8
_26_BEZUGSACHSEN
100
AcDbLine
 62
4
  6
CONTINUOUS
 10
130.6803529664
 20
-30.6803529663
 11
138.8972276593
 21
-31.1109811217
  0
LINE
  5
243
100
AcDbEntity
  8
_30_VOLUMEN
100
AcDbLine
 62
4
  6
CONTINUOUS
 10
0.5
 20
-25.0
 11
117.0
 21
-25.0
  0
LINE
  5
244
100
AcDbEntity
  8
0
100
AcDbLine
 62
4
  6
CONTINUOUS
 10
117.0
 20
-25.0
 11
125.0
 21
-25.0
  0
LINE
  5
245
100
AcDbEntity
  8
_30_VOLUMEN
100
AcDbLine
 62
4
  6
CONTINUOUS
 10
139.704535893
 20
-22.0402506973
 11
144.1549666921
 21
-22.2441205573
  0
LINE
  5
246
100
AcDbEntity
  8
_21_KURVEN
100
AcDbLine
 62
7
  6
CONTINUOUS
 10
139.704535893
 20
-22.0402506973
 11
144.1549666921
 21
-22.2441205573
  0
LINE
  5
247
100
AcDbEntity
  8
_30_VOLUMEN
100
AcDbLine
 62
4
  6
CONTINUOUS
 10
141.4544773253
 20
-28.6335971788
 11
127.6051068033
 21
-25.3684241232
  0
LINE
  5
248
100
AcDbEntity
  8
_30_VOLUMEN
100
AcDbLine
 62
4
  6
CONTINUOUS
 10
135.5833796088
 20
-25.7826071545
 11
128.7904101178
 21
-24.181074369
  0
LINE
  5
249
100
AcDbEntity
  8
_30_VOLUMEN
100
AcDbLine
 62
4
  6
CONTINUOUS
 10
139.3201480082
 20
-31.5041627261
 11
138.7518140021
 21
-31.2742723281
  0
LINE
  5
24A
100
AcDbEntity
  8
_30_VOLUMEN
100
AcDbLine
 62
7
  6
CONTINUOUS
 10
138.9469936087
 20
-31.1906232889
 11
138.7282034392
 21
-31.1021229376
  0
LINE
  5
24B
100
AcDbEntity
  8
0
100
AcDbLine
 62
4
  6
CONTINUOUS
 10
121.9740900606
 20
0.0
 11
117.0
 21
0.0
  0
LINE
  5
24C
100
AcDbEntity
  8
_30_VOLUMEN
100
AcDbLine
 62
4
  6
CONTINUOUS
 10
0.5
 20
-0.0
 11
117.0
 21
0.0
  0
LINE
  5
24D
100
AcDbEntity
  8
_30_VOLUMEN
100
AcDbLine
 62
4
  6
CONTINUOUS
 10
135.5833796088
 20
-25.7826071545
 11
141.7453911693
 21
-28.2933626478
  0
LINE
  5
24E
100
AcDbEntity
  8
_30_VOLUMEN
100
AcDbLine
 62
4
  6
CONTINUOUS
 10
127.6051068033
 20
-25.3684241232
 11
121.6984991248
 21
-22.710424593
  0
LINE
  5
24F
100
AcDbEntity
  8
_30_VOLUMEN
100
AcDbLine
 62
4
  6
CONTINUOUS
 10
128.7904101178
 20
-24.181074369
 11
124.5536336531
 21
-22.2745062564
  0
LINE
  5
250
100
AcDbEntity
  8
_30_VOLUMEN
100
AcDbLine
 62
4
  6
CONTINUOUS
 10
144.4142206301
 20
-22.3007350591
 11
144.0886426808
 21
-22.1690391839
  0
LINE
  5
251
100
AcDbEntity
  8
_30_VOLUMEN
100
AcDbLine
 62
4
  6
CONTINUOUS
 10
130.6803529664
 20
-30.6803529663
 11
125.0
 21
-25.0
  0
LINE
  5
252
100
AcDbEntity
  8
_30_VOLUMEN
100
AcDbLine
 62
4
  6
CONTINUOUS
 10
129.2400094083
 20
-14.0812453643
 11
133.0210014258
 21
-16.7846682493
  0
LINE
  5
253
100
AcDbEntity
  8
_30_VOLUMEN
100
AcDbLine
 62
4
  6
CONTINUOUS
 10
128.072573554
 20
-11.5665348427
 11
133.3437594825
 21
-15.3354517313
  0
LINE
  5
254
100
AcDbEntity
  8
_30_VOLUMEN
100
AcDbLine
 62
4
  6
CONTINUOUS
 10
137.8303731112
 20
-21.8541547746
 11
143.0311224835
 21
-26.0454993425
  0
LINE
  5
255
100
AcDbEntity
  8
0
100
AcDbLine
 62
4
  6
CONTINUOUS
 10
117.0
 20
0.0
 11
117.0
 21
-25.0
  0
LINE
  5
256
100
AcDbEntity
  8
_28_BEZUGSPUNKTE
100
AcDbLine
 62
1
  6
CONTINUOUS
 10
150.15625
 20
-32.15625
 11
149.84375
 21
-31.84375
  0
LINE
  5
257
100
AcDbEntity
  8
_30_VOLUMEN
100
AcDbLine
 62
4
  6
CONTINUOUS
 10
133.0210014258
 20
-16.7846682493
 11
137.8303731112
 21
-21.8541547746
  0
LINE
  5
258
100
AcDbEntity
  8
0
100
AcDbLine
 62
4
  6
CONTINUOUS
 10
121.9566236227
 20
0.0
 11
120.8699156581
 21
-25.0
  0
LINE
  5
259
100
AcDbEntity
  8
_30_VOLUMEN
100
AcDbLine
 62
4
  6
CONTINUOUS
 10
121.6984991248
 20
-22.710424593
 11
128.072573554
 21
-11.5665348427
  0
LINE
  5
25A
100
AcDbEntity
  8
_30_VOLUMEN
100
AcDbLine
 62
4
  6
CONTINUOUS
 10
124.5536336531
 20
-22.2745062564
 11
129.2400094083
 21
-14.0812453643
  0
LINE
  5
25B
100
AcDbEntity
  8
_30_VOLUMEN
100
AcDbLine
 62
4
  6
CONTINUOUS
 10
128.7904101178
 20
-24.181074369
 11
127.6051068033
 21
-25.3684241232
  0
LINE
  5
25C
100
AcDbEntity
  8
_30_VOLUMEN
100
AcDbLine
 62
4
  6
CONTINUOUS
 10
121.9740900606
 20
0.0
 11
139.3427669376
 21
-14.5740503615
  0
LINE
  5
25D
100
AcDbEntity
  8
_30_VOLUMEN
100
AcDbLine
 62
4
  6
CONTINUOUS
 10
133.3437594825
 20
-15.3354517313
 11
143.1490104169
 21
-25.671019606
  0
LINE
  5
25E
100
AcDbEntity
  8
_30_VOLUMEN
100
AcDbLine
 62
4
  6
CONTINUOUS
 10
138.9469936087
 20
-31.1906232889
 11
136.6398962621
 21
-27.4984957432
  0
LINE
  5
25F
100
AcDbEntity
  8
_21_KURVEN
100
AcDbLine
 62
7
  6
CONTINUOUS
 10
138.9469936087
 20
-31.1906232889
 11
136.6398962621
 21
-27.4984957432
  0
LINE
  5
260
100
AcDbEntity
  8
_30_VOLUMEN
100
AcDbLine
 62
4
  6
CONTINUOUS
 10
129.2400094083
 20
-14.0812453643
 11
128.072573554
 21
-11.5665348427
  0
LINE
  5
261
100
AcDbEntity
  8
_30_VOLUMEN
100
AcDbLine
 62
4
  6
CONTINUOUS
 10
133.0210014258
 20
-16.7846682493
 11
133.3437594825
 21
-15.3354517313
  0
LINE
  5
262
100
AcDbEntity
  8
_30_VOLUMEN
100
AcDbLine
 62
4
  6
CONTINUOUS
 10
137.8303731112
 20
-21.8541547746
 11
135.5833796088
 21
-25.7826071545
  0
LINE
  5
263
100
AcDbEntity
  8
_21_KURVEN
100
AcDbLine
 62
7
  6
CONTINUOUS
 10
135.5833796088
 20
-25.7826071545
 11
137.8303731112
 21
-21.8541547746
  0
LINE
  5
264
100
AcDbEntity
  8
_26_BEZUGSACHSEN
100
AcDbLine
 62
4
  6
CONTINUOUS
 10
139.3427669376
 20
-14.5740503615
 11
144.1349868129
 21
-22.2432052987
  0
LINE
  5
265
100
AcDbEntity
  8
_30_VOLUMEN
100
AcDbLine
 62
4
  6
CONTINUOUS
 10
144.7873750296
 20
-22.6142744964
 11
149.8860673838
 21
-30.7738879237
  0
LINE
  5
266
100
AcDbEntity
  8
_21_KURVEN
100
AcDbLine
 62
7
  6
CONTINUOUS
 10
144.7873750296
 20
-22.6142744964
 11
149.8860673838
 21
-30.7738879237
  0
LINE
  5
267
100
AcDbEntity
  8
_30_VOLUMEN
100
AcDbLine
 62
7
  6
CONTINUOUS
 10
141.7453911693
 20
-28.2933626478
 11
141.4544773253
 21
-28.6335971788
  0
LINE
  5
268
100
AcDbEntity
  8
_28_BEZUGSPUNKTE
100
AcDbLine
 62
1
  6
CONTINUOUS
 10
150.15625
 20
-31.84375
 11
149.84375
 21
-32.15625
  0
LINE
  5
269
100
AcDbEntity
  8
_30_VOLUMEN
100
AcDbLine
 62
7
  6
CONTINUOUS
 10
143.0311224835
 20
-26.0454993425
 11
143.1490104169
 21
-25.671019606
  0
ARC
  5
26A
100
AcDbEntity
  8
_30_VOLUMEN
100
AcDbCircle
 62
7
  6
CONTINUOUS
 10
141.6467334934
 20
-26.8050688975
 40
1.9009379985
100
AcDbArc
 50
31.9985992802
 51
37.0566893197
  0
ARC
  5
26B
100
AcDbEntity
  8
_30_VOLUMEN
100
AcDbCircle
 62
7
  6
CONTINUOUS
 10
141.646029203
 20
-26.8349215274
 40
1.8849508241
100
AcDbArc
 50
263.6541969951
 51
264.1729529969
  0
ARC
  5
26C
100
AcDbEntity
  8
_30_VOLUMEN
100
AcDbCircle
 62
7
  6
CONTINUOUS
 10
141.6455144249
 20
-26.842190251
 40
1.8776697614
100
AcDbArc
 50
247.9877158602
 51
263.6452935401
  0
ARC
  5
26D
100
AcDbEntity
  8
_30_VOLUMEN
100
AcDbCircle
 62
7
  6
CONTINUOUS
 10
141.6661524413
 20
-26.7913829733
 40
1.8771938646
100
AcDbArc
 50
37.0804978183
 51
51.5777567839
  0
ARC
  5
26E
100
AcDbEntity
  8
_30_VOLUMEN
100
AcDbCircle
 62
4
  6
CONTINUOUS
 10
141.2875117682
 20
-26.6983756501
 40
1.8769286598
100
AcDbArc
 50
259.5175198267
 51
265.9750471041
  0
ARC
  5
26F
100
AcDbEntity
  8
_30_VOLUMEN
100
AcDbCircle
 62
7
  6
CONTINUOUS
 10
141.6453643878
 20
-26.8552617406
 40
1.8646487434
100
AcDbArc
 50
264.1298216084
 51
282.0291204375
  0
ARC
  5
270
100
AcDbEntity
  8
_30_VOLUMEN
100
AcDbCircle
 62
4
  6
CONTINUOUS
 10
141.2846083159
 20
-26.7153122951
 40
1.8597464521
100
AcDbArc
 50
254.2855693598
 51
259.5105457089
  0
ARC
  5
271
100
AcDbEntity
  8
_30_VOLUMEN
100
AcDbCircle
 62
4
  6
CONTINUOUS
 10
141.6263668354
 20
-26.8932928849
 40
1.8231857161
100
AcDbArc
 50
239.1820166861
 51
247.943661942
  0
ARC
  5
272
100
AcDbEntity
  8
_30_VOLUMEN
100
AcDbCircle
 62
4
  6
CONTINUOUS
 10
139.6167637255
 20
-30.7676994395
 40
0.7939573547
100
AcDbArc
 50
248.0625459129
 51
267.3027983069
  0
ARC
  5
273
100
AcDbEntity
  8
_30_VOLUMEN
100
AcDbCircle
 62
4
  6
CONTINUOUS
 10
144.1176049128
 20
-23.0371983457
 40
0.7939573547
100
AcDbArc
 50
68.0625459129
 51
87.3027983069
  0
ARC
  5
274
100
AcDbEntity
  8
_30_VOLUMEN
100
AcDbCircle
 62
4
  6
CONTINUOUS
 10
144.1180510057
 20
-23.0320242684
 40
0.7889927255
100
AcDbArc
 50
31.9698053927
 51
67.9522222689
  0
ARC
  5
275
100
AcDbEntity
  8
_30_VOLUMEN
100
AcDbCircle
 62
4
  6
CONTINUOUS
 10
139.6163176326
 20
-30.7728735169
 40
0.7889927255
100
AcDbArc
 50
211.9698053927
 51
247.9522222689
  0
SPLINE
  5
276
100
AcDbEntity
  8
_30_VOLUMEN
100
AcDbSpline
 62
4
  6
CONTINUOUS
 70
0
 71
3
 72
11
 73
7
 74
0
 42
0.0000001
 43
0.0000001
 44
0.0000000001
 40
0.0
 40
0.0
 40
0.0
 40
0.0
 40
0.2493014218
 40
0.49955104
 40
0.7501067017
 40
1.0
 40
1.0
 40
1.0
 40
1.0
 10
149.172193897
 20
-32.0002135972
 30
0.0
 10
149.3149165119
 20
-32.0067515799
 30
0.0
 10
149.6105752009
 20
-31.9385116438
 30
0.0
 10
149.9320067352
 20
-31.6225109387
 30
0.0
 10
150.0479834186
 20
-31.1867039219
 30
0.0
 10
149.9619579083
 20
-30.8953381505
 30
0.0
 10
149.8860673838
 20
-30.7738879237
 30
0.0
  0
SPLINE
  5
277
100
AcDbEntity
  8
_30_VOLUMEN
100
AcDbSpline
 62
4
  6
CONTINUOUS
 70
0
 71
3
 72
8
 73
4
 74
0
 42
0.0000001
 43
0.0000001
 44
0.0000000001
 40
0.0
 40
0.0
 40
0.0
 40
0.0
 40
1.0
 40
1.0
 40
1.0
 40
1.0
 10
138.7518118354
 20
-31.2742777182
 30
0.0
 10
138.6504834053
 20
-31.2333370726
 30
0.0
 10
138.5560009044
 20
-31.1693920002
 30
0.0
 10
138.4801685076
 20
-31.0906961628
 30
0.0
  0
SPLINE
  5
278
100
AcDbEntity
  8
_30_VOLUMEN
100
AcDbSpline
 62
4
  6
CONTINUOUS
 70
0
 71
3
 72
11
 73
7
 74
0
 42
0.0000001
 43
0.0000001
 44
0.0000000001
 40
0.0
 40
0.0
 40
0.0
 40
0.0
 40
0.2505861785
 40
0.5005115343
 40
0.7501117809
 40
1.0
 40
1.0
 40
1.0
 40
1.0
 10
143.1135778948
 20
-28.8970955685
 30
0.0
 10
142.8652224645
 20
-29.055037907
 30
0.0
 10
142.3037780371
 20
-29.2789155737
 30
0.0
 10
141.4020056713
 20
-29.2781986208
 30
0.0
 10
140.5651301077
 20
-28.9441099737
 30
0.0
 10
140.1287630355
 20
-28.5274214098
 30
0.0
 10
139.9580038819
 20
-28.2887047903
 30
0.0
  0
SPLINE
  5
279
100
AcDbEntity
  8
_30_VOLUMEN
100
AcDbSpline
 62
4
  6
CONTINUOUS
 70
0
 71
3
 72
11
 73
7
 74
0
 42
0.0000001
 43
0.0000001
 44
0.0000000001
 40
0.0
 40
0.0
 40
0.0
 40
0.0
 40
0.2504962634
 40
0.5006166583
 40
0.7501476863
 40
1.0
 40
1.0
 40
1.0
 40
1.0
 10
143.0456338643
 20
-28.8340520802
 30
0.0
 10
142.8089171187
 20
-28.9845927642
 30
0.0
 10
142.2750214278
 20
-29.1997435335
 30
0.0
 10
141.4160787855
 20
-29.2112163582
 30
0.0
 10
140.612432676
 20
-28.9099817556
 30
0.0
 10
140.1842123715
 20
-28.5270522887
 30
0.0
 10
140.0136916995
 20
-28.3052056707
 30
0.0
  0
SPLINE
  5
27A
100
AcDbEntity
  8
_30_VOLUMEN
100
AcDbSpline
 62
4
  6
CONTINUOUS
 70
0
 71
3
 72
15
 73
11
 74
0
 42
0.0000001
 43
0.0000001
 44
0.0000000001
 40
0.0
 40
0.0
 40
0.0
 40
0.0
 40
0.1251098767
 40
0.2507540969
 40
0.3761627323
 40
0.501453788
 40
0.626436126
 40
0.7511228989
 40
0.8756179957
 40
1.0
 40
1.0
 40
1.0
 40
1.0
 10
143.0456338643
 20
-28.8340520802
 30
0.0
 10
143.2428436836
 20
-28.7086359378
 30
0.0
 10
143.6013230658
 20
-28.3940731565
 30
0.0
 10
143.9736489848
 20
-27.785984576
 30
0.0
 10
144.146728952
 20
-27.0931774713
 30
0.0
 10
144.10480644
 20
-26.3817745377
 30
0.0
 10
143.8521269027
 20
-25.7167931205
 30
0.0
 10
143.4114394107
 20
-25.1598674584
 30
0.0
 10
142.8238789385
 20
-24.7639722634
 30
0.0
 10
142.369346298
 20
-24.630856601
 30
0.0
 10
142.1389782722
 20
-24.6005615721
 30
0.0
  0
SPLINE
  5
27B
100
AcDbEntity
  8
_30_VOLUMEN
100
AcDbSpline
 62
4
  6
CONTINUOUS
 70
0
 71
3
 72
16
 73
12
 74
0
 42
0.0000001
 43
0.0000001
 44
0.0000000001
 40
0.0
 40
0.0
 40
0.0
 40
0.0
 40
0.1243755757
 40
0.2488006432
 40
0.3734249408
 40
0.4360367209
 40
0.4987326807
 40
0.6239668201
 40
0.7493367859
 40
0.8748395984
 40
1.0
 40
1.0
 40
1.0
 40
1.0
 10
142.0974487482
 20
-24.5502986651
 30
0.0
 10
142.3381205764
 20
-24.5727211543
 30
0.0
 10
142.8157730013
 20
-24.6945159147
 30
0.0
 10
143.4391714989
 20
-25.0873663876
 30
0.0
 10
143.8342915855
 20
-25.5607149051
 30
0.0
 10
144.0511355112
 20
-25.997202018
 30
0.0
 10
144.199308098
 20
-26.4628087614
 30
0.0
 10
144.2453666109
 20
-27.080523467
 30
0.0
 10
144.0738451167
 20
-27.8028753777
 30
0.0
 10
143.6914256806
 20
-28.4387345339
 30
0.0
 10
143.3188277305
 20
-28.7665663548
 30
0.0
 10
143.1135778948
 20
-28.8970955685
 30
0.0
  0
SPLINE
  5
27C
100
AcDbEntity
  8
_21_KURVEN
100
AcDbSpline
 62
7
  6
CONTINUOUS
 70
0
 71
3
 72
9
 73
5
 74
0
 42
0.0000001
 43
0.0000001
 44
0.0000000001
 40
0.0
 40
0.0
 40
0.0
 40
0.0
 40
0.5
 40
1.0
 40
1.0
 40
1.0
 40
1.0
 10
144.7873750296
 20
-22.6142744964
 30
0.0
 10
144.7627903692
 20
-22.5772779901
 30
0.0
 10
144.7097103223
 20
-22.5021203628
 30
0.0
 10
144.6409487588
 20
-22.441189639
 30
0.0
 10
144.604096547
 20
-22.410506623
 30
0.0
  0
SPLINE
  5
27D
100
AcDbEntity
  8
_21_KURVEN
100
AcDbSpline
 62
7
  6
CONTINUOUS
 70
0
 71
3
 72
9
 73
5
 74
0
 42
0.0000001
 43
0.0000001
 44
0.0000000001
 40
0.0
 40
0.0
 40
0.0
 40
0.0
 40
0.5
 40
1.0
 40
1.0
 40
1.0
 40
1.0
 10
144.6040965451
 20
-22.4105066215
 30
0.0
 10
144.5752300192
 20
-22.3889677511
 30
0.0
 10
144.5163591783
 20
-22.3471177048
 30
0.0
 10
144.450895525
 20
-22.3166661136
 30
0.0
 10
144.4149545085
 20
-22.3010323418
 30
0.0
  0
SPLINE
  5
27E
100
AcDbEntity
  8
_21_KURVEN
100
AcDbSpline
 62
7
  6
CONTINUOUS
 70
0
 71
3
 72
9
 73
5
 74
0
 42
0.0000001
 43
0.0000001
 44
0.0000000001
 40
0.0
 40
0.0
 40
0.0
 40
0.0
 40
0.5
 40
1.0
 40
1.0
 40
1.0
 40
1.0
 10
144.4149545008
 20
-22.3010323387
 30
0.0
 10
144.3839058886
 20
-22.289194117
 30
0.0
 10
144.3225324753
 20
-22.267027247
 30
0.0
 10
144.2528078662
 20
-22.2547515983
 30
0.0
 10
144.2182227958
 20
-22.2495768634
 30
0.0
  0
SPLINE
  5
27F
100
AcDbEntity
  8
_21_KURVEN
100
AcDbSpline
 62
7
  6
CONTINUOUS
 70
0
 71
3
 72
8
 73
4
 74
0
 42
0.0000001
 43
0.0000001
 44
0.0000000001
 40
0.0
 40
0.0
 40
0.0
 40
0.0
 40
1.0
 40
1.0
 40
1.0
 40
1.0
 10
144.2182227931
 20
-22.2495768631
 30
0.0
 10
144.2017195749
 20
-22.2475692868
 30
0.0
 10
144.1766481344
 20
-22.2452633136
 30
0.0
 10
144.154966695
 20
-22.2441205575
 30
0.0
  0
SPLINE
  5
280
100
AcDbEntity
  8
_21_KURVEN
100
AcDbSpline
 62
7
  6
CONTINUOUS
 70
0
 71
3
 72
9
 73
5
 74
0
 42
0.0000001
 43
0.0000001
 44
0.0000000001
 40
0.0
 40
0.0
 40
0.0
 40
0.0
 40
0.5
 40
1.0
 40
1.0
 40
1.0
 40
1.0
 10
149.172193897
 20
-32.0002135972
 30
0.0
 10
149.2276261912
 20
-32.0008038788
 30
0.0
 10
149.3461997716
 20
-31.9974094224
 30
0.0
 10
149.4538904338
 20
-31.9619587071
 30
0.0
 10
149.5101160317
 20
-31.9412471865
 30
0.0
  0
SPLINE
  5
281
100
AcDbEntity
  8
_21_KURVEN
100
AcDbSpline
 62
7
  6
CONTINUOUS
 70
0
 71
3
 72
9
 73
5
 74
0
 42
0.0000001
 43
0.0000001
 44
0.0000000001
 40
0.0
 40
0.0
 40
0.0
 40
0.0
 40
0.5
 40
1.0
 40
1.0
 40
1.0
 40
1.0
 10
149.5101160369
 20
-31.9412471843
 30
0.0
 10
149.5607735354
 20
-31.918290232
 30
0.0
 10
149.666164265
 20
-31.8659225557
 30
0.0
 10
149.7523126831
 20
-31.7853667867
 30
0.0
 10
149.793771833
 20
-31.7435850185
 30
0.0
  0
SPLINE
  5
282
100
AcDbEntity
  8
_21_KURVEN
100
AcDbSpline
 62
7
  6
CONTINUOUS
 70
0
 71
3
 72
9
 73
5
 74
0
 42
0.0000001
 43
0.0000001
 44
0.0000000001
 40
0.0
 40
0.0
 40
0.0
 40
0.0
 40
0.5
 40
1.0
 40
1.0
 40
1.0
 40
1.0
 10
149.7937718291
 20
-31.7435850227
 30
0.0
 10
149.8301476083
 20
-31.7012832697
 30
0.0
 10
149.9038890042
 20
-31.6091132621
 30
0.0
 10
149.9482954319
 20
-31.4996580576
 30
0.0
 10
149.9683576762
 20
-31.4443866424
 30
0.0
  0
SPLINE
  5
283
100
AcDbEntity
  8
_21_KURVEN
100
AcDbSpline
 62
7
  6
CONTINUOUS
 70
0
 71
3
 72
9
 73
5
 74
0
 42
0.0000001
 43
0.0000001
 44
0.0000000001
 40
0.0
 40
0.0
 40
0.0
 40
0.0
 40
0.5
 40
1.0
 40
1.0
 40
1.0
 40
1.0
 10
149.9683576758
 20
-31.4443866438
 30
0.0
 10
149.9836327067
 20
-31.3906829532
 30
0.0
 10
150.0119021263
 20
-31.2760162329
 30
0.0
 10
150.0062508566
 20
-31.1582060243
 30
0.0
 10
150.0013363872
 20
-31.1004181033
 30
0.0
  0
SPLINE
  5
284
100
AcDbEntity
  8
_21_KURVEN
100
AcDbSpline
 62
7
  6
CONTINUOUS
 70
0
 71
3
 72
9
 73
5
 74
0
 42
0.0000001
 43
0.0000001
 44
0.0000000001
 40
0.0
 40
0.0
 40
0.0
 40
0.0
 40
0.5
 40
1.0
 40
1.0
 40
1.0
 40
1.0
 10
150.0013363875
 20
-31.1004181061
 30
0.0
 10
149.9926938352
 20
-31.0453774397
 30
0.0
 10
149.9702902993
 20
-30.9297009611
 30
0.0
 10
149.9157327135
 20
-30.825583886
 30
0.0
 10
149.8860673813
 20
-30.7738879199
 30
0.0
  0
SPLINE
  5
285
100
AcDbEntity
  8
_21_KURVEN
100
AcDbSpline
 62
1
  6
CENTER
 70
0
 71
3
 72
119
 73
115
 74
0
 42
0.0000001
 43
0.0000001
 44
0.0000000001
 40
0.0
 40
0.0
 40
0.0
 40
0.0
 40
0.015625
 40
0.03125
 40
0.046875
 40
0.0546875
 40
0.0625
 40
0.06640625
 40
0.0703125
 40
0.078125
 40
0.09375
 40
0.109375
 40
0.1171875
 40
0.125
 40
0.12890625
 40
0.1328125
 40
0.13671875
 40
0.140625
 40
0.1484375
 40
0.15625
 40
0.171875
 40
0.1875
 40
0.203125
 40
0.2109375
 40
0.21875
 40
0.234375
 40
0.25
 40
0.2578125
 40
0.26171875
 40
0.265625
 40
0.2734375
 40
0.28125
 40
0.296875
 40
0.3125
 40
0.3203125
 40
0.328125
 40
0.33203125
 40
0.3359375
 40
0.33984375
 40
0.34375
 40
0.359375
 40
0.375
 40
0.390625
 40
0.39453125
 40
0.3984375
 40
0.40625
 40
0.4140625
 40
0.421875
 40
0.4375
 40
0.453125
 40
0.4609375
 40
0.46484375
 40
0.466796875
 40
0.46875
 40
0.47265625
 40
0.4765625
 40
0.484375
 40
0.5
 40
0.515625
 40
0.5234375
 40
0.52734375
 40
0.53125
 40
0.533203125
 40
0.53515625
 40
0.5390625
 40
0.546875
 40
0.5625
 40
0.578125
 40
0.5859375
 40
0.59375
 40
0.6015625
 40
0.60546875
 40
0.609375
 40
0.625
 40
0.640625
 40
0.65625
 40
0.66015625
 40
0.6640625
 40
0.66796875
 40
0.671875
 40
0.6796875
 40
0.6875
 40
0.703125
 40
0.71875
 40
0.7265625
 40
0.734375
 40
0.73828125
 40
0.7421875
 40
0.75
 40
0.765625
 40
0.78125
 40
0.7890625
 40
0.796875
 40
0.8125
 40
0.828125
 40
0.84375
 40
0.8515625
 40
0.859375
 40
0.86328125
 40
0.8671875
 40
0.87109375
 40
0.875
 40
0.8828125
 40
0.890625
 40
0.90625
 40
0.921875
 40
0.9296875
 40
0.93359375
 40
0.9375
 40
0.9453125
 40
0.953125
 40
0.96875
 40
0.984375
 40
1.0
 40
1.0
 40
1.0
 40
1.0
 10
144.3770995005
 20
-30.9191528224
 30
0.0
 10
144.4341739393
 20
-30.874504871
 30
0.0
 10
144.5483030756
 20
-30.7851879799
 30
0.0
 10
144.7196152267
 20
-30.651338573
 30
0.0
 10
144.8620298833
 20
-30.5394301052
 30
0.0
 10
144.9767315116
 20
-30.4507218752
 30
0.0
 10
145.0466680065
 20
-30.3934165186
 30
0.0
 10
145.1066295813
 20
-30.3518381079
 30
0.0
 10
145.1519432588
 20
-30.2946863695
 30
0.0
 10
145.236273628
 20
-30.200019498
 30
0.0
 10
145.3540843576
 20
-30.0619571774
 30
0.0
 10
145.4729563097
 20
-29.9250026432
 30
0.0
 10
145.5676359185
 20
-29.8150394748
 30
0.0
 10
145.627324945
 20
-29.7467574541
 30
0.0
 10
145.6739464041
 20
-29.6911638198
 30
0.0
 10
145.7119932219
 20
-29.6521056715
 30
0.0
 10
145.7382820268
 20
-29.6029832224
 30
0.0
 10
145.775151014
 20
-29.5390426878
 30
0.0
 10
145.8206227743
 20
-29.4585868758
 30
0.0
 10
145.8936757274
 20
-29.3301383682
 30
0.0
 10
145.9852137891
 20
-29.1695923722
 30
0.0
 10
146.0935472804
 20
-28.9764457245
 30
0.0
 10
146.1885699721
 20
-28.8171088416
 30
0.0
 10
146.2294985051
 20
-28.6776256614
 30
0.0
 10
146.2765457787
 20
-28.540237591
 30
0.0
 10
146.3333263416
 20
-28.3678062721
 30
0.0
 10
146.3905725949
 20
-28.1955409892
 30
0.0
 10
146.4310869928
 20
-28.0750939774
 30
0.0
 10
146.4533406207
 20
-28.005979555
 30
0.0
 10
146.4790156861
 20
-27.9379625336
 30
0.0
 10
146.4865705577
 20
-27.8450701971
 30
0.0
 10
146.5066295432
 20
-27.6990040121
 30
0.0
 10
146.5290457757
 20
-27.5155347078
 30
0.0
 10
146.5521280171
 20
-27.3324097537
 30
0.0
 10
146.5711213885
 20
-27.1857926085
 30
0.0
 10
146.5813402956
 20
-27.0942776724
 30
0.0
 10
146.5933482067
 20
-27.0208051478
 30
0.0
 10
146.5918469536
 20
-26.9664100139
 30
0.0
 10
146.5874016528
 20
-26.9122134548
 30
0.0
 10
146.5800214046
 20
-26.8037185442
 30
0.0
 10
146.568376087
 20
-26.6410137537
 30
0.0
 10
146.5528946656
 20
-26.4240772159
 30
0.0
 10
146.5420665057
 20
-26.2613051434
 30
0.0
 10
146.5335286174
 20
-26.152905549
 30
0.0
 10
146.5310063737
 20
-26.0803631285
 30
0.0
 10
146.5047405133
 20
-25.9916977241
 30
0.0
 10
146.4762162641
 20
-25.8850370543
 30
0.0
 10
146.4371218189
 20
-25.7429223403
 30
0.0
 10
146.3887326521
 20
-25.5651880665
 30
0.0
 10
146.3397555676
 20
-25.3876929277
 30
0.0
 10
146.3063710129
 20
-25.2630077638
 30
0.0
 10
146.2884839572
 20
-25.201260259
 30
0.0
 10
146.2801824876
 20
-25.1650184907
 30
0.0
 10
146.2620749183
 20
-25.1336680896
 30
0.0
 10
146.2427977063
 20
-25.092805461
 30
0.0
 10
146.2100799692
 20
-25.028360135
 30
0.0
 10
146.1537024096
 20
-24.9151424897
 30
0.0
 10
146.0726614499
 20
-24.7536542668
 30
0.0
 10
145.9919535495
 20
-24.5919958668
 30
0.0
 10
145.9351097069
 20
-24.4790164695
 30
0.0
 10
145.9031247002
 20
-24.4141967538
 30
0.0
 10
145.8819740298
 20
-24.3742913715
 30
0.0
 10
145.8677132952
 20
-24.3409754247
 30
0.0
 10
145.8437413865
 20
-24.3127404899
 30
0.0
 10
145.80511739
 20
-24.2615885551
 30
0.0
 10
145.7255043886
 20
-24.1605238829
 30
0.0
 10
145.6130324939
 20
-24.0154715093
 30
0.0
 10
145.5000215196
 20
-23.8707558414
 30
0.0
 10
145.4098977595
 20
-23.7547146297
 30
0.0
 10
145.3417733294
 20
-23.6682877297
 30
0.0
 10
145.2866562462
 20
-23.5943638993
 30
0.0
 10
145.2303202875
 20
-23.5493176744
 30
0.0
 10
145.1489642799
 20
-23.4781246035
 30
0.0
 10
145.0256199083
 20
-23.3728428521
 30
0.0
 10
144.8618534726
 20
-23.231672757
 30
0.0
 10
144.7390470427
 20
-23.1257658976
 30
0.0
 10
144.656928951
 20
-23.0554583964
 30
0.0
 10
144.6163580498
 20
-23.0197202651
 30
0.0
 10
144.5738839975
 20
-22.9862602422
 30
0.0
 10
144.5081949798
 20
-22.9524870758
 30
0.0
 10
144.4291828405
 20
-22.9065648721
 30
0.0
 10
144.3010428639
 20
-22.8351257239
 30
0.0
 10
144.1413755143
 20
-22.7453769377
 30
0.0
 10
143.9818283721
 20
-22.6548820831
 30
0.0
 10
143.8534960639
 20
-22.5846366444
 30
0.0
 10
143.7749647535
 20
-22.5357301671
 30
0.0
 10
143.7055247572
 20
-22.5163123242
 30
0.0
 10
143.6372376945
 20
-22.4934597986
 30
0.0
 10
143.5172056911
 20
-22.4550442028
 30
0.0
 10
143.3459477027
 20
-22.3995334929
 30
0.0
 10
143.1748333509
 20
-22.3435454106
 30
0.0
 10
143.0374240997
 20
-22.3004056684
 30
0.0
 10
142.9019710182
 20
-22.2510449294
 30
0.0
 10
142.7186306062
 20
-22.2339380771
 30
0.0
 10
142.5004481455
 20
-22.2076252276
 30
0.0
 10
142.3182090628
 20
-22.1869660598
 30
0.0
 10
142.1725136568
 20
-22.1702873427
 30
0.0
 10
142.0814245603
 20
-22.1596074982
 30
0.0
 10
142.0086000407
 20
-22.1517150194
 30
0.0
 10
141.9538590589
 20
-22.1439948578
 30
0.0
 10
141.90017269
 20
-22.1518079113
 30
0.0
 10
141.828222452
 20
-22.156798671
 30
0.0
 10
141.7384112185
 20
-22.1649039201
 30
0.0
 10
141.5946400606
 20
-22.1767780912
 30
0.0
 10
141.414968739
 20
-22.1923603139
 30
0.0
 10
141.235218395
 20
-22.2063522856
 30
0.0
 10
141.1095292633
 20
-22.2189685366
 30
0.0
 10
141.0374972791
 20
-22.2218174053
 30
0.0
 10
140.966533119
 20
-22.246883207
 30
0.0
 10
140.8774622934
 20
-22.2706083303
 30
0.0
 10
140.7351533271
 20
-22.3128202856
 30
0.0
 10
140.5571969622
 20
-22.3641255593
 30
0.0
 10
140.3436795457
 20
-22.4263206688
 30
0.0
 10
140.201328845
 20
-22.4676643074
 30
0.0
 10
140.1301542142
 20
-22.4883510976
 30
0.0
  0
SPLINE
  5
286
100
AcDbEntity
  8
_21_KURVEN
100
AcDbSpline
 62
1
  6
CENTER
 70
0
 71
3
 72
75
 73
71
 74
0
 42
0.0000001
 43
0.0000001
 44
0.0000000001
 40
0.0
 40
0.0
 40
0.0
 40
0.0
 40
0.03125
 40
0.0625
 40
0.078125
 40
0.0859375
 40
0.09375
 40
0.1015625
 40
0.109375
 40
0.125
 40
0.15625
 40
0.171875
 40
0.1875
 40
0.203125
 40
0.2109375
 40
0.21875
 40
0.25
 40
0.28125
 40
0.2890625
 40
0.296875
 40
0.3125
 40
0.328125
 40
0.34375
 40
0.375
 40
0.390625
 40
0.3984375
 40
0.40625
 40
0.4140625
 40
0.421875
 40
0.4375
 40
0.453125
 40
0.46875
 40
0.484375
 40
0.4921875
 40
0.49609375
 40
0.5
 40
0.50390625
 40
0.5078125
 40
0.515625
 40
0.53125
 40
0.546875
 40
0.5625
 40
0.578125
 40
0.5859375
 40
0.59375
 40
0.6015625
 40
0.609375
 40
0.625
 40
0.65625
 40
0.671875
 40
0.6875
 40
0.703125
 40
0.7109375
 40
0.71875
 40
0.75
 40
0.78125
 40
0.7890625
 40
0.796875
 40
0.8125
 40
0.828125
 40
0.84375
 40
0.875
 40
0.890625
 40
0.8984375
 40
0.90625
 40
0.9140625
 40
0.921875
 40
0.9375
 40
0.96875
 40
1.0
 40
1.0
 40
1.0
 40
1.0
 10
137.1900446428
 20
-27.6285560094
 30
0.0
 10
137.213376392
 20
-27.7222336854
 30
0.0
 10
137.26004135
 20
-27.9095886455
 30
0.0
 10
137.31836525
 20
-28.1437843052
 30
0.0
 10
137.3592053891
 20
-28.3077176664
 30
0.0
 10
137.3825218136
 20
-28.4013994573
 30
0.0
 10
137.4000676944
 20
-28.4716450756
 30
0.0
 10
137.4173897243
 20
-28.5419508014
 30
0.0
 10
137.4638649326
 20
-28.6294271244
 30
0.0
 10
137.5342642434
 20
-28.7854461886
 30
0.0
 10
137.6195474612
 20
-28.9624184885
 30
0.0
 10
137.7028441526
 20
-29.1400415386
 30
0.0
 10
137.7664493877
 20
-29.2726417778
 30
0.0
 10
137.816505748
 20
-29.384927659
 30
0.0
 10
137.8780451927
 20
-29.461616452
 30
0.0
 10
137.9648098966
 20
-29.5800438975
 30
0.0
 10
138.0975200634
 20
-29.7560458971
 30
0.0
 10
138.2282944812
 20
-29.9335131869
 30
0.0
 10
138.3169949342
 20
-30.0504753423
 30
0.0
 10
138.3729422149
 20
-30.1313971956
 30
0.0
 10
138.4660152213
 20
-30.2111210751
 30
0.0
 10
138.5746701449
 20
-30.3096143777
 30
0.0
 10
138.7207728694
 20
-30.4397175867
 30
0.0
 10
138.8655640041
 20
-30.5714986683
 30
0.0
 10
138.9948923155
 20
-30.6832041081
 30
0.0
 10
139.0649310279
 20
-30.7523734344
 30
0.0
 10
139.1282964392
 20
-30.7892669203
 30
0.0
 10
139.1915233357
 20
-30.8263518881
 30
0.0
 10
139.2758745745
 20
-30.8757307103
 30
0.0
 10
139.381294584
 20
-30.9374840445
 30
0.0
 10
139.5078169174
 20
-31.0115466764
 30
0.0
 10
139.6342964255
 20
-31.0857270949
 30
0.0
 10
139.7398234981
 20
-31.1471859628
 30
0.0
 10
139.8134434716
 20
-31.1909077484
 30
0.0
 10
139.8559006014
 20
-31.2147980792
 30
0.0
 10
139.8866488647
 20
-31.235796302
 30
0.0
 10
139.9215811774
 20
-31.2450193996
 30
0.0
 10
139.9666981495
 20
-31.2614241629
 30
0.0
 10
140.0463328477
 20
-31.2882187891
 30
0.0
 10
140.1597410745
 20
-31.3274976771
 30
0.0
 10
140.2959836808
 20
-31.374202453
 30
0.0
 10
140.4321843553
 20
-31.4210254267
 30
0.0
 10
140.5456974115
 20
-31.4600088205
 30
0.0
 10
140.6364988364
 20
-31.4912222388
 30
0.0
 10
140.7046194687
 20
-31.5145736435
 30
0.0
 10
140.7726663566
 20
-31.5381463325
 30
0.0
 10
140.8711001958
 20
-31.5464955554
 30
0.0
 10
141.0397617209
 20
-31.5719028951
 30
0.0
 10
141.2340736817
 20
-31.5961518596
 30
0.0
 10
141.427829496
 20
-31.6224262956
 30
0.0
 10
141.5732588642
 20
-31.6408437033
 30
0.0
 10
141.6943067069
 20
-31.6596423274
 30
0.0
 10
141.7920897907
 20
-31.6494557643
 30
0.0
 10
141.9385247115
 20
-31.6406854359
 30
0.0
 10
142.1582296301
 20
-31.624482682
 30
0.0
 10
142.3780839565
 20
-31.610704699
 30
0.0
 10
142.5243694695
 20
-31.5995095996
 30
0.0
 10
142.6225841759
 20
-31.5963279305
 30
0.0
 10
142.7403118448
 20
-31.5612427545
 30
0.0
 10
142.8822588212
 20
-31.5232266626
 30
0.0
 10
143.0711864845
 20
-31.4708397902
 30
0.0
 10
143.2607764314
 20
-31.4204731784
 30
0.0
 10
143.4251489658
 20
-31.3722140134
 30
0.0
 10
143.5213484194
 20
-31.3508072969
 30
0.0
 10
143.5871150417
 20
-31.3174390918
 30
0.0
 10
143.6529630874
 20
-31.2842919757
 30
0.0
 10
143.7407320797
 20
-31.240018701
 30
0.0
 10
143.8943410549
 20
-31.1625764175
 30
0.0
 10
144.1137754804
 20
-31.0519256643
 30
0.0
 10
144.2893251443
 20
-30.9634108277
 30
0.0
 10
144.3770997108
 20
-30.9191526887
 30
0.0
  0
LINE
  5
287
100
AcDbEntity
  8
_21_KURVEN
100
AcDbLine
 62
7
  6
CONTINUOUS
 10
138.9469936087
 20
-31.1906232889
 11
138.9584737746
 21
-31.2084602725
  0
SPLINE
  5
288
100
AcDbEntity
  8
_21_KURVEN
100
AcDbSpline
 62
7
  6
CONTINUOUS
 70
0
 71
3
 72
9
 73
5
 74
0
 42
0.0000001
 43
0.0000001
 44
0.0000000001
 40
0.0
 40
0.0
 40
0.0
 40
0.0
 40
0.5
 40
1.0
 40
1.0
 40
1.0
 40
1.0
 10
138.9584737746
 20
-31.2084602725
 30
0.0
 10
138.9823775096
 20
-31.2425514808
 30
0.0
 10
139.0311140804
 20
-31.3087634007
 30
0.0
 10
139.0968295815
 20
-31.3667097439
 30
0.0
 10
139.1302720843
 20
-31.3943911567
 30
0.0
  0
SPLINE
  5
289
100
AcDbEntity
  8
_21_KURVEN
100
AcDbSpline
 62
7
  6
CONTINUOUS
 70
0
 71
3
 72
9
 73
5
 74
0
 42
0.0000001
 43
0.0000001
 44
0.0000000001
 40
0.0
 40
0.0
 40
0.0
 40
0.0
 40
0.5
 40
1.0
 40
1.0
 40
1.0
 40
1.0
 10
139.1302720932
 20
-31.3943911637
 30
0.0
 10
139.1613992046
 20
-31.4175316972
 30
0.0
 10
139.2249855608
 20
-31.4623936747
 30
0.0
 10
139.2960796374
 20
-31.4939585779
 30
0.0
 10
139.3319624409
 20
-31.508831017
 30
0.0
  0
SPLINE
  5
28A
100
AcDbEntity
  8
_21_KURVEN
100
AcDbSpline
 62
7
  6
CONTINUOUS
 70
0
 71
3
 72
9
 73
5
 74
0
 42
0.0000001
 43
0.0000001
 44
0.0000000001
 40
0.0
 40
0.0
 40
0.0
 40
0.0
 40
0.5
 40
1.0
 40
1.0
 40
1.0
 40
1.0
 10
139.3319624377
 20
-31.5088310158
 30
0.0
 10
139.3605878688
 20
-31.5192435315
 30
0.0
 10
139.4209877488
 20
-31.5398903351
 30
0.0
 10
139.4839452941
 20
-31.5505535043
 30
0.0
 10
139.5161458426
 20
-31.5553209218
 30
0.0
  0
SPLINE
  5
28B
100
AcDbEntity
  8
_21_KURVEN
100
AcDbSpline
 62
7
  6
CONTINUOUS
 70
0
 71
3
 72
8
 73
4
 74
0
 42
0.0000001
 43
0.0000001
 44
0.0000000001
 40
0.0
 40
0.0
 40
0.0
 40
0.0
 40
1.0
 40
1.0
 40
1.0
 40
1.0
 10
139.5161458452
 20
-31.5553209222
 30
0.0
 10
139.5326490634
 20
-31.5573284984
 30
0.0
 10
139.5577205038
 20
-31.5596344716
 30
0.0
 10
139.5794019433
 20
-31.5607772278
 30
0.0
  0
SPLINE
  5
28C
100
AcDbEntity
  8
_30_VOLUMEN
100
AcDbSpline
 62
4
  6
CONTINUOUS
 70
0
 71
3
 72
15
 73
11
 74
0
 42
0.0000001
 43
0.0000001
 44
0.0000000001
 40
0.0
 40
0.0
 40
0.0
 40
0.0
 40
0.1246985527
 40
0.2497016266
 40
0.3749979901
 40
0.5004099578
 40
0.6257335929
 40
0.7507997332
 40
0.8755217125
 40
1.0
 40
1.0
 40
1.0
 40
1.0
 10
143.1490104169
 20
-25.671019606
 30
0.0
 10
143.278678202
 20
-25.8077004725
 30
0.0
 10
143.4954726891
 20
-26.1258661388
 30
0.0
 10
143.6524793605
 20
-26.6799496436
 30
0.0
 10
143.6280690146
 20
-27.2568431407
 30
0.0
 10
143.4242108738
 20
-27.7974539205
 30
0.0
 10
143.0618321417
 20
-28.2470373832
 30
0.0
 10
142.5774030649
 20
-28.5596975406
 30
0.0
 10
142.0208685032
 20
-28.7037265995
 30
0.0
 10
141.6375281646
 20
-28.6767538456
 30
0.0
 10
141.4544773253
 20
-28.6335971788
 30
0.0
  0
ELLIPSE
  5
28D
100
AcDbEntity
  8
_30_VOLUMEN
100
AcDbEllipse
 62
4
  6
CONTINUOUS
 10
142.2468297205
 20
-27.0860130107
 30
0.0
 11
0.5518507454
 21
1.1853601081
 31
0.0
 40
0.9284285505
 41
-3.0962842382
 42
-0.2258620997
  0
ENDSEC
  0
SECTION
  2
OBJECTS
  0
DICTIONARY
  5
C
100
AcDbDictionary
280
0
281
1
  3
ACAD_GROUP
350
D
  3
ACAD_MLINESTYLE
350
17
  3
ACAD_LAYOUT
350
1A
  3
ACAD_PLOTSETTINGS
350
19
  3
ACAD_PLOTSTYLENAME
350
E
  0
DICTIONARY
  5
D
102
{ACAD_REACTORS
330
C
102
}
100
AcDbDictionary
280
0
281
1
  0
ACDBDICTIONARYWDFLT
  5
E
102
{ACAD_REACTORS
330
C
102
}
100
AcDbDictionary
281
1
  3
Normal
350
F
100
AcDbDictionaryWithDefault
340
F
  0
DICTIONARY
  5
17
102
{ACAD_REACTORS
330
C
102
}
100
AcDbDictionary
280
0
281
1
  3
Standard
350
18
  0
DICTIONARY
  5
19
102
{ACAD_REACTORS
330
C
102
}
100
AcDbDictionary
281
1
  0
DICTIONARY
  5
1A
102
{ACAD_REACTORS
330
C
102
}
100
AcDbDictionary
281
1
  3
Model
350
28E
  3
Layout1
350
28F
  0
ACDBPLACEHOLDER
  5
F
102
{ACAD_REACTORS
330
E
102
}
  0
MLINESTYLE
  5
18
102
{ACAD_REACTORS
330
17
102
}
100
AcDbMlineStyle
  2
STANDARD
 70
0
  3

 62
256
 51
90.0
 52
90.0
 71
2
 49
0.5
 62
256
  6
BYLAYER
 49
-0.5
 62
256
  6
BYLAYER
  0
LAYOUT
  5
28E
102
{ACAD_REACTORS
330
1A
102
}
100
AcDbPlotSettings
  1

  2
none_device
  4
ISO_A3_(420.00_x_297.00_MM)
  6

 40
0.0
 41
0.0
 42
0.0
 43
0.0
 44
420.0
 45
297.0
 46
0.0
 47
0.0
 48
0.0
 49
0.0
140
0.0
141
0.0
142
1.0
143
1.0
 70
1024
 72
1
 73
0
 74
0
  7

 75
0
147
1.0
148
0.0
149
0.0
100
AcDbLayout
  1
Model
 70
0
 71
0
 10
0.0
 20
0.0
 11
420.0
 21
297.0
 12
0.0
 22
0.0
 32
0.0
 14
0.0
 24
0.0
 34
0.0
 15
0.0
 25
0.0
 35
0.0
146
0.0
 13
0.0
 23
0.0
 33
0.0
 16
1.0
 26
0.0
 36
0.0
 17
0.0
 27
1.0
 37
0.0
 76
0
330
20E
345
0
346
0
  0
LAYOUT
  5
28F
102
{ACAD_REACTORS
330
1A
102
}
100
AcDbPlotSettings
  1

  2
none_device
  4
ISO_A3_(420.00_x_297.00_MM)
  6

 40
0.0
 41
0.0
 42
0.0
 43
0.0
 44
420.0
 45
297.0
 46
0.0
 47
0.0
 48
0.0
 49
0.0
140
0.0
141
0.0
142
1.0
143
1.0
 70
0
 72
1
 73
0
 74
0
  7

 75
0
147
1.0
148
0.0
149
0.0
100
AcDbLayout
  1
Layout1
 70
0
 71
1
 10
0.0
 20
0.0
 11
420.0
 21
297.0
 12
0.0
 22
0.0
 32
0.0
 14
0.0
 24
0.0
 34
0.0
 15
0.0
 25
0.0
 35
0.0
146
0.0
 13
0.0
 23
0.0
 33
0.0
 16
1.0
 26
0.0
 36
0.0
 17
0.0
 27
1.0
 37
0.0
 76
0
330
20F
345
0
346
0
  0
ENDSEC
  0
EOF
