999
DXF file: 70541832.dxf
999
Pro/ENGINEER 2017380 by Parametric Technology Corporation
  0
SECTION
  2
HEADER
  9
$ACADVER
  1
AC1027
  9
$DWGCODEPAGE
  3
ANSI_1252
  9
$EXTMAX
 10
420.0
 20
297.0
 30
0.0
  9
$EXTMIN
 10
0.0
 20
0.0
 30
0.0
  9
$LIMMIN
 10
0.0
 20
0.0
  9
$LIMMAX
 10
420.0
 20
297.0
  9
$VIEWCTR
 10
210.0
 20
148.5
  9
$VIEWSIZE
 40
297.0
  9
$CLAYER
  8
0
  9
$LTSCALE
 40
23.1
  9
$CELTYPE
  6
BYLAYER
  9
$DIMSCALE
 40
1.0
  9
$DIMASZ
 40
3.5
  9
$DIMEXO
 40
0.0
  9
$DIMDLI
 40
15.96
  9
$DIMEXE
 40
1.5
  9
$DIMCEN
 40
3.78
  9
$DIMLFAC
 40
1.0
  9
$DIMBLK
  1
_FILLED
  9
$DIMALT
 70
0
  9
$DIMALTF
 40
25.4
  9
$DIMTXT
 40
3.5
  9
$DIMTOL
 70
1
  9
$DIMLIM
 70
0
  9
$DIMTFAC
 40
1.0
  9
$DIMTP
 40
0.05
  9
$DIMTM
 40
0.05
  9
$DIMGAP
 40
0.625
  9
$DIMDSEP
 70
46
  9
$AUNITS
 70
0
  9
$PDMODE
 70
3
  9
$PDSIZE
 40
0.3125
  9
$HANDSEED
  5
285
  9
$TILEMODE
 70
1
  9
$MEASUREMENT
 70
1
  9
$INSUNITS
 70
4
  0
ENDSEC
  0
SECTION
  2
CLASSES
  0
CLASS
  1
ACDBDICTIONARYWDFLT
  2
AcDbDictionaryWithDefault
  3
AutoCAD 2000
 90
0
 91
1
280
0
281
0
  0
CLASS
  1
ACDBPLACEHOLDER
  2
AcDbPlaceHolder
  3
AutoCAD 2000
 90
0
 91
1
280
0
281
0
  0
CLASS
  1
LAYOUT
  2
AcDbLayout
  3
AutoCAD 2000
 90
0
 91
0
280
0
281
0
  0
ENDSEC
  0
SECTION
  2
TABLES
  0
TABLE
  2
VPORT
  5
8
100
AcDbSymbolTable
 70
2
  0
VPORT
  5
1F4
100
AcDbSymbolTableRecord
100
AcDbViewportTableRecord
  2
*ACTIVE
 70
0
 10
0.0
 20
0.0
 11
1.0
 21
1.0
 12
210.0
 22
148.5
 13
0.0
 23
0.0
 14
1.0
 24
1.0
 15
0.0
 25
0.0
 16
0.0
 26
0.0
 36
1.0
 17
0.0
 27
0.0
 37
0.0
 40
297.0
 41
1.4141414141
 42
50.0
 43
0.0
 44
0.0
 50
0.0
 51
0.0
 71
0
 72
100
 73
1
 74
1
 75
0
 76
0
 77
0
 78
0
  0
ENDTAB
  0
TABLE
  2
LTYPE
  5
5
100
AcDbSymbolTable
 70
6
  0
LTYPE
  5
14
100
AcDbSymbolTableRecord
100
AcDbLinetypeTableRecord
  2
BYBLOCK
 70
0
  3

 72
65
 73
0
 40
0.0
  0
LTYPE
  5
15
100
AcDbSymbolTableRecord
100
AcDbLinetypeTableRecord
  2
BYLAYER
 70
0
  3

 72
65
 73
0
 40
0.0
  0
LTYPE
  5
16
100
AcDbSymbolTableRecord
100
AcDbLinetypeTableRecord
  2
CONTINUOUS
 70
64
  3
Solid line
 72
65
 73
0
 40
0.0
  0
LTYPE
  5
1F5
100
AcDbSymbolTableRecord
100
AcDbLinetypeTableRecord
  2
CENTER
 70
64
  3
____ _ ____ _ ____ _ ____ _ ____ _ ____ _ ____
 72
65
 73
4
 40
0.6
 49
0.375
 74
0
 49
-0.075
 74
0
 49
0.075
 74
0
 49
-0.075
 74
0
  0
LTYPE
  5
1F6
100
AcDbSymbolTableRecord
100
AcDbLinetypeTableRecord
  2
HIDDEN
 70
64
  3
- - - - - - - - - - - - - - - - - - - -
 72
65
 73
2
 40
0.2
 49
0.1
 74
0
 49
-0.1
 74
0
  0
LTYPE
  5
1F7
100
AcDbSymbolTableRecord
100
AcDbLinetypeTableRecord
  2
PHANTOM
 70
64
  3
_____ _ _ _____ _ _ _____ _ _ _____
 72
65
 73
6
 40
0.8
 49
0.45
 74
0
 49
-0.05
 74
0
 49
0.1
 74
0
 49
-0.05
 74
0
 49
0.1
 74
0
 49
-0.05
 74
0
  0
LTYPE
  5
1F8
100
AcDbSymbolTableRecord
100
AcDbLinetypeTableRecord
  2
DOT
 70
64
  3
. . . . . . . . . . . . . . . . . . . .
 72
65
 73
2
 40
0.2
 49
0.1
 74
0
 49
-0.1
 74
0
  0
LTYPE
  5
1F9
100
AcDbSymbolTableRecord
100
AcDbLinetypeTableRecord
  2
DASHED
 70
64
  3
- - - - - - - - - - - - - - - - - - - -
 72
65
 73
2
 40
0.2
 49
0.1
 74
0
 49
-0.1
 74
0
  0
ENDTAB
  0
TABLE
  2
LAYER
  5
2
100
AcDbSymbolTable
 70
36
  0
LAYER
  5
10
100
AcDbSymbolTableRecord
100
AcDbLayerTableRecord
  2
0
 70
0
 62
7
  6
CONTINUOUS
370
-3
390
F
  0
LAYER
  5
1FA
100
AcDbSymbolTableRecord
100
AcDbLayerTableRecord
  2
DEFAULT_1
 70
0
 62
7
  6
CENTER
370
-3
390
F
  0
LAYER
  5
1FB
100
AcDbSymbolTableRecord
100
AcDbLayerTableRecord
  2
DEFAULT_2
 70
0
 62
1
  6
HIDDEN
370
-3
390
F
  0
LAYER
  5
1FC
100
AcDbSymbolTableRecord
100
AcDbLayerTableRecord
  2
DEFAULT_3
 70
0
 62
7
  6
PHANTOM
370
-3
390
F
  0
LAYER
  5
1FD
100
AcDbSymbolTableRecord
100
AcDbLayerTableRecord
  2
BG_STARTBEZUEGE
 70
0
 62
7
  6
CONTINUOUS
370
-3
390
F
  0
LAYER
  5
1FE
100
AcDbSymbolTableRecord
100
AcDbLayerTableRecord
  2
HILFEN
 70
0
 62
7
  6
CONTINUOUS
370
-3
390
F
  0
LAYER
  5
1FF
100
AcDbSymbolTableRecord
100
AcDbLayerTableRecord
  2
PLATZIERUNG
 70
0
 62
7
  6
CONTINUOUS
370
-3
390
F
  0
LAYER
  5
200
100
AcDbSymbolTableRecord
100
AcDbLayerTableRecord
  2
T_STARTBEZUEGE
 70
0
 62
7
  6
CONTINUOUS
370
-3
390
F
  0
LAYER
  5
201
100
AcDbSymbolTableRecord
100
AcDbLayerTableRecord
  2
_03_2D_ZEICHNUNG_BEMASSUNGEN
 70
0
 62
7
  6
CONTINUOUS
370
-3
390
F
  0
LAYER
  5
202
100
AcDbSymbolTableRecord
100
AcDbLayerTableRecord
  2
_04_NOTIZEN
 70
0
 62
7
  6
CONTINUOUS
370
-3
390
F
  0
LAYER
  5
203
100
AcDbSymbolTableRecord
100
AcDbLayerTableRecord
  2
_05_2D_ELEMENTE
 70
0
 62
7
  6
CONTINUOUS
370
-3
390
F
  0
LAYER
  5
204
100
AcDbSymbolTableRecord
100
AcDbLayerTableRecord
  2
_07_EINRASTLINIEN
 70
0
 62
7
  6
CONTINUOUS
370
-3
390
F
  0
LAYER
  5
205
100
AcDbSymbolTableRecord
100
AcDbLayerTableRecord
  2
_21_KURVEN
 70
0
 62
7
  6
CONTINUOUS
370
-3
390
F
  0
LAYER
  5
206
100
AcDbSymbolTableRecord
100
AcDbLayerTableRecord
  2
_24_IMPORT
 70
0
 62
7
  6
CONTINUOUS
370
-3
390
F
  0
LAYER
  5
207
100
AcDbSymbolTableRecord
100
AcDbLayerTableRecord
  2
_26_BEZUGSACHSEN
 70
0
 62
7
  6
CONTINUOUS
370
-3
390
F
  0
LAYER
  5
208
100
AcDbSymbolTableRecord
100
AcDbLayerTableRecord
  2
_27_BEZUGSEBENEN
 70
0
 62
7
  6
CONTINUOUS
370
-3
390
F
  0
LAYER
  5
209
100
AcDbSymbolTableRecord
100
AcDbLayerTableRecord
  2
_28_BEZUGSPUNKTE
 70
0
 62
7
  6
CONTINUOUS
370
-3
390
F
  0
LAYER
  5
20A
100
AcDbSymbolTableRecord
100
AcDbLayerTableRecord
  2
_29_KOORDINATENSYSTEME
 70
0
 62
7
  6
CONTINUOUS
370
-3
390
F
  0
LAYER
  5
20B
100
AcDbSymbolTableRecord
100
AcDbLayerTableRecord
  2
_30_VOLUMEN
 70
0
 62
7
  6
CONTINUOUS
370
-3
390
F
  0
ENDTAB
  0
TABLE
  2
STYLE
  5
3
100
AcDbSymbolTable
 70
1
  0
STYLE
  5
11
100
AcDbSymbolTableRecord
100
AcDbTextStyleTableRecord
  2
STANDARD
 70
0
 40
0.0
 41
0.7
 50
0.0
 71
0
 42
0.2
  3
SIMPLEX.SHX
  4

  0
STYLE
  5
20C
100
AcDbSymbolTableRecord
100
AcDbTextStyleTableRecord
  2
TEXTSTYLE_1
 70
0
 40
0.0
 41
0.8
 50
0.0
 71
0
 42
0.2
  3
gdt
  4

  0
ENDTAB
  0
TABLE
  2
VIEW
  5
6
100
AcDbSymbolTable
 70
0
  0
ENDTAB
  0
TABLE
  2
UCS
  5
7
100
AcDbSymbolTable
 70
0
  0
ENDTAB
  0
TABLE
  2
APPID
  5
9
100
AcDbSymbolTable
 70
1
  0
APPID
  5
20D
100
AcDbSymbolTableRecord
100
AcDbRegAppTableRecord
  2
ACAD
 70
0
  0
ENDTAB
  0
TABLE
  2
BLOCK_RECORD
  5
1
100
AcDbSymbolTable
 70
0
  0
BLOCK_RECORD
  5
20E
100
AcDbSymbolTableRecord
100
AcDbBlockTableRecord
  2
*Model_Space
  0
BLOCK_RECORD
  5
20F
100
AcDbSymbolTableRecord
100
AcDbBlockTableRecord
  2
*Paper_Space
  0
BLOCK_RECORD
  5
210
100
AcDbSymbolTableRecord
100
AcDbBlockTableRecord
  2
_FILLED
  0
BLOCK_RECORD
  5
211
100
AcDbSymbolTableRecord
100
AcDbBlockTableRecord
  2
*D0
  0
BLOCK_RECORD
  5
212
100
AcDbSymbolTableRecord
100
AcDbBlockTableRecord
  2
*D1
  0
BLOCK_RECORD
  5
213
100
AcDbSymbolTableRecord
100
AcDbBlockTableRecord
  2
*D2
  0
ENDTAB
  0
TABLE
  2
DIMSTYLE
  5
A
100
AcDbSymbolTable
 70
1
100
AcDbDimStyleTable
 71
0
  0
DIMSTYLE
105
214
100
AcDbSymbolTableRecord
100
AcDbDimStyleTableRecord
  2
STANDARD
 70
0
  3

  4

 40
1.0
 41
3.5
 42
0.0
 43
0.38
 44
1.5
 45
0.0
 46
0.0
 47
0.05
 48
0.05
140
3.5
141
0.09
142
0.0
143
25.4
144
1.0
145
0.0
146
1.0
147
0.625
 71
1.0
 72
0.0
 73
0
 74
0
 75
0
 76
0
 77
1
 78
8
 79
2
170
0
171
1
172
0
173
0
174
0
175
0
176
0
177
0
178
2
270
2
179
2
271
2
272
2
273
2
274
2
275
0
280
0
281
0
282
0
283
1
284
8
285
0
286
0
287
3
288
0
340
11
278
46
341
210
342
210
343
210
344
210
  0
DIMSTYLE
105
215
100
AcDbSymbolTableRecord
100
AcDbDimStyleTableRecord
  2
DIMSTYLE_1
 70
0
  3

  4

 40
1.0
 41
3.5
 42
0.0
 43
0.38
 44
1.5
 45
0.0
 46
0.0
 47
0.2
 48
0.2
140
3.5
141
0.09
142
0.0
143
25.4
144
1.0
145
0.0
146
1.0
147
0.875
 71
0.0
 72
0.0
 73
0
 74
0
 75
0
 76
0
 77
1
 78
8
 79
2
170
0
171
1
172
0
173
0
174
0
175
0
176
0
177
0
178
2
270
2
179
2
271
2
272
2
273
2
274
2
275
0
280
0
281
0
282
0
283
1
284
8
285
0
286
0
287
3
288
0
340
11
278
46
341
210
342
210
343
210
344
210
  0
DIMSTYLE
105
216
100
AcDbSymbolTableRecord
100
AcDbDimStyleTableRecord
  2
DIMSTYLE_2
 70
0
  3

  4

 40
1.0
 41
3.5
 42
0.0
 43
0.38
 44
1.5
 45
0.0
 46
0.0
 47
0.5
 48
0.5
140
3.5
141
0.09
142
0.0
143
25.4
144
1.0
145
0.0
146
1.0
147
0.875
 71
0.0
 72
0.0
 73
0
 74
0
 75
0
 76
0
 77
1
 78
8
 79
2
170
0
171
1
172
0
173
0
174
0
175
0
176
0
177
0
178
2
270
2
179
2
271
2
272
2
273
2
274
2
275
0
280
0
281
0
282
0
283
1
284
8
285
0
286
0
287
3
288
0
340
11
278
46
341
210
342
210
343
210
344
210
  0
DIMSTYLE
105
217
100
AcDbSymbolTableRecord
100
AcDbDimStyleTableRecord
  2
DIMSTYLE_3
 70
0
  3

  4

 40
1.0
 41
3.5
 42
0.0
 43
0.38
 44
1.5
 45
0.0
 46
0.0
 47
0.3
 48
0.3
140
3.5
141
0.09
142
0.0
143
25.4
144
1.0
145
0.0
146
1.0
147
0.875
 71
0.0
 72
0.0
 73
0
 74
0
 75
0
 76
0
 77
1
 78
8
 79
2
170
0
171
1
172
0
173
0
174
0
175
0
176
0
177
0
178
2
270
2
179
2
271
2
272
2
273
2
274
2
275
0
280
0
281
0
282
0
283
1
284
8
285
0
286
0
287
3
288
0
340
11
278
46
341
210
342
210
343
210
344
210
  0
ENDTAB
  0
ENDSEC
  0
SECTION
  2
BLOCKS
  0
BLOCK
  5
20
100
AcDbEntity
  8
0
100
AcDbBlockBegin
  2
*Model_Space
 70
0
 10
0.0
 20
0.0
 30
0.0
  3
*Model_Space
  1

  0
ENDBLK
  5
21
100
AcDbEntity
  8
0
100
AcDbBlockEnd
  0
BLOCK
  5
1C
100
AcDbEntity
  8
0
100
AcDbBlockBegin
  2
*Paper_Space
 70
0
 10
0.0
 20
0.0
 30
0.0
  3
*Paper_Space
  1

  0
ENDBLK
  5
1D
100
AcDbEntity
  8
0
100
AcDbBlockEnd
  0
BLOCK
  5
218
100
AcDbEntity
  8
0
100
AcDbBlockBegin
  2
_FILLED
 70
64
 10
0.0
 20
0.0
  3
_FILLED
  1

  0
SOLID
  5
219
100
AcDbEntity
  8
0
  6
BYBLOCK
 62
0
100
AcDbTrace
 10
0.0
 20
0.0
 11
-1.0
 21
0.125
 12
-1.0
 22
-0.125
 13
-1.0
 23
-0.125
  0
ENDBLK
  5
21A
100
AcDbEntity
  8
0
  6
BYBLOCK
 62
0
100
AcDbBlockEnd
  0
BLOCK
  5
21B
100
AcDbEntity
  8
_03_2D_ZEICHNUNG_BEMASSUNGEN
100
AcDbBlockBegin
 62
7
  6
CONTINUOUS
  2
*D0
 70
65
 10
0.0
 20
0.0
  3
*D0
  1

  0
TEXT
  5
21C
100
AcDbEntity
  8
_03_2D_ZEICHNUNG_BEMASSUNGEN
100
AcDbText
 62
2
  6
CONTINUOUS
 10
-9.875
 20
-15.125
  7
STANDARD
 40
3.5
  1
25
 50
90.0
 41
0.75
 72
1
 11
-9.875
 21
-12.5
100
AcDbText
  0
LINE
  5
21D
100
AcDbEntity
  8
_03_2D_ZEICHNUNG_BEMASSUNGEN
100
AcDbLine
 62
7
  6
CONTINUOUS
 10
-0.0
 20
-0.0
 11
-10.5
 21
0.0
  0
LINE
  5
21E
100
AcDbEntity
  8
_03_2D_ZEICHNUNG_BEMASSUNGEN
100
AcDbLine
 62
7
  6
CONTINUOUS
 10
-0.0
 20
-25.0
 11
-10.5
 21
-25.0
  0
LINE
  5
21F
100
AcDbEntity
  8
_03_2D_ZEICHNUNG_BEMASSUNGEN
100
AcDbLine
 62
7
  6
CONTINUOUS
 10
-9.0
 20
0.0
 11
-9.0
 21
6.0
  0
LINE
  5
220
100
AcDbEntity
  8
_03_2D_ZEICHNUNG_BEMASSUNGEN
100
AcDbLine
 62
7
  6
CONTINUOUS
 10
-9.0
 20
6.0
 11
-9.0
 21
-12.5
  0
LINE
  5
221
100
AcDbEntity
  8
_03_2D_ZEICHNUNG_BEMASSUNGEN
100
AcDbLine
 62
7
  6
CONTINUOUS
 10
-9.0
 20
-25.0
 11
-9.0
 21
-31.0
  0
LINE
  5
222
100
AcDbEntity
  8
_03_2D_ZEICHNUNG_BEMASSUNGEN
100
AcDbLine
 62
7
  6
CONTINUOUS
 10
-9.0
 20
-31.0
 11
-9.0
 21
-12.5
  0
INSERT
  5
223
100
AcDbEntity
  8
_03_2D_ZEICHNUNG_BEMASSUNGEN
100
AcDbBlockReference
 62
7
  6
CONTINUOUS
  2
_FILLED
 10
-9.0
 20
0.0
 41
3.5
 42
3.5
 43
3.5
 50
270.0
  0
INSERT
  5
224
100
AcDbEntity
  8
_03_2D_ZEICHNUNG_BEMASSUNGEN
100
AcDbBlockReference
 62
7
  6
CONTINUOUS
  2
_FILLED
 10
-9.0
 20
-25.0
 41
3.5
 42
3.5
 43
3.5
 50
90.0
  0
ENDBLK
  5
225
100
AcDbEntity
  8
0
  6
BYBLOCK
 62
0
100
AcDbBlockEnd
  0
BLOCK
  5
226
100
AcDbEntity
  8
_03_2D_ZEICHNUNG_BEMASSUNGEN
100
AcDbBlockBegin
 62
7
  6
CONTINUOUS
  2
*D1
 70
65
 10
0.0
 20
0.0
  3
*D1
  1

  0
TEXT
  5
227
100
AcDbEntity
  8
_03_2D_ZEICHNUNG_BEMASSUNGEN
100
AcDbText
 62
2
  6
CONTINUOUS
 10
81.25
 20
9.875
  7
STANDARD
 40
3.5
  1
170
 41
0.7142857143
 72
1
 11
85.0
 21
9.875
100
AcDbText
  0
LINE
  5
228
100
AcDbEntity
  8
_03_2D_ZEICHNUNG_BEMASSUNGEN
100
AcDbLine
 62
7
  6
CONTINUOUS
 10
170.0
 20
0.0
 11
170.0
 21
10.5
  0
LINE
  5
229
100
AcDbEntity
  8
_03_2D_ZEICHNUNG_BEMASSUNGEN
100
AcDbLine
 62
7
  6
CONTINUOUS
 10
0.0
 20
0.0
 11
0.0
 21
10.5
  0
LINE
  5
22A
100
AcDbEntity
  8
_03_2D_ZEICHNUNG_BEMASSUNGEN
100
AcDbLine
 62
7
  6
CONTINUOUS
 10
170.0
 20
9.0
 11
85.0
 21
9.0
  0
LINE
  5
22B
100
AcDbEntity
  8
_03_2D_ZEICHNUNG_BEMASSUNGEN
100
AcDbLine
 62
7
  6
CONTINUOUS
 10
0.0
 20
9.0
 11
85.0
 21
9.0
  0
INSERT
  5
22C
100
AcDbEntity
  8
_03_2D_ZEICHNUNG_BEMASSUNGEN
100
AcDbBlockReference
 62
7
  6
CONTINUOUS
  2
_FILLED
 10
170.0
 20
9.0
 41
3.5
 42
3.5
 43
3.5
  0
INSERT
  5
22D
100
AcDbEntity
  8
_03_2D_ZEICHNUNG_BEMASSUNGEN
100
AcDbBlockReference
 62
7
  6
CONTINUOUS
  2
_FILLED
 10
0.0
 20
9.0
 41
3.5
 42
3.5
 43
3.5
 50
180.0
  0
ENDBLK
  5
22E
100
AcDbEntity
  8
0
  6
BYBLOCK
 62
0
100
AcDbBlockEnd
  0
BLOCK
  5
22F
100
AcDbEntity
  8
_03_2D_ZEICHNUNG_BEMASSUNGEN
100
AcDbBlockBegin
 62
7
  6
CONTINUOUS
  2
*D2
 70
65
 10
0.0
 20
0.0
  3
*D2
  1

  0
TEXT
  5
230
100
AcDbEntity
  8
_03_2D_ZEICHNUNG_BEMASSUNGEN
100
AcDbText
 62
2
  6
CONTINUOUS
 10
178.820840237
 20
-18.625
  7
STANDARD
 40
3.5
  1
32
 50
90.0
 41
0.75
 72
1
 11
178.820840237
 21
-16.0
100
AcDbText
  0
LINE
  5
231
100
AcDbEntity
  8
_03_2D_ZEICHNUNG_BEMASSUNGEN
100
AcDbLine
 62
7
  6
CONTINUOUS
 10
170.0
 20
-32.0
 11
181.195840237
 21
-32.0
  0
LINE
  5
232
100
AcDbEntity
  8
_03_2D_ZEICHNUNG_BEMASSUNGEN
100
AcDbLine
 62
7
  6
CONTINUOUS
 10
0.0
 20
0.0
 11
181.195840237
 21
0.0
  0
LINE
  5
233
100
AcDbEntity
  8
_03_2D_ZEICHNUNG_BEMASSUNGEN
100
AcDbLine
 62
7
  6
CONTINUOUS
 10
179.695840237
 20
-32.0
 11
179.695840237
 21
-16.0
  0
LINE
  5
234
100
AcDbEntity
  8
_03_2D_ZEICHNUNG_BEMASSUNGEN
100
AcDbLine
 62
7
  6
CONTINUOUS
 10
179.695840237
 20
0.0
 11
179.695840237
 21
-16.0
  0
INSERT
  5
235
100
AcDbEntity
  8
_03_2D_ZEICHNUNG_BEMASSUNGEN
100
AcDbBlockReference
 62
7
  6
CONTINUOUS
  2
_FILLED
 10
179.695840237
 20
-32.0
 41
3.5
 42
3.5
 43
3.5
 50
270.0
  0
INSERT
  5
236
100
AcDbEntity
  8
_03_2D_ZEICHNUNG_BEMASSUNGEN
100
AcDbBlockReference
 62
7
  6
CONTINUOUS
  2
_FILLED
 10
179.695840237
 20
0.0
 41
3.5
 42
3.5
 43
3.5
 50
90.0
  0
ENDBLK
  5
237
100
AcDbEntity
  8
0
  6
BYBLOCK
 62
0
100
AcDbBlockEnd
  0
ENDSEC
  0
SECTION
  2
ENTITIES
  0
DIMENSION
  5
238
100
AcDbEntity
  8
_03_2D_ZEICHNUNG_BEMASSUNGEN
100
AcDbDimension
 62
7
  6
CONTINUOUS
  2
*D0
 10
-9.0
 20
-25.0
 11
-9.0
 21
-13.0000002766
 70
160
 71
2
 42
25.0
  3
DIMSTYLE_1
100
AcDbAlignedDimension
 13
-0.0
 23
-0.0
 14
-0.0
 24
-25.0
 50
270.0
100
AcDbRotatedDimension
  0
DIMENSION
  5
239
100
AcDbEntity
  8
_03_2D_ZEICHNUNG_BEMASSUNGEN
100
AcDbDimension
 62
7
  6
CONTINUOUS
  2
*D1
 10
0.0
 20
9.0
 11
84.4999996948
 21
9.0
 70
160
 71
2
 42
170.0
  3
DIMSTYLE_2
100
AcDbAlignedDimension
 13
170.0
 23
0.0
 14
0.0
 24
0.0
 50
180.0
100
AcDbRotatedDimension
  0
DIMENSION
  5
23A
100
AcDbEntity
  8
_03_2D_ZEICHNUNG_BEMASSUNGEN
100
AcDbDimension
 62
7
  6
CONTINUOUS
  2
*D2
 10
179.695840237
 20
0.0
 11
179.695840237
 21
-16.4999952053
 70
160
 71
2
 42
32.0
  3
DIMSTYLE_3
100
AcDbAlignedDimension
 13
170.0
 23
-32.0
 14
0.0
 24
0.0
 50
90.0
100
AcDbRotatedDimension
  0
LINE
  5
23B
100
AcDbEntity
  8
_30_VOLUMEN
100
AcDbLine
 62
4
  6
CONTINUOUS
 10
-0.0
 20
-24.5
 11
-0.0
 21
-0.5
  0
LINE
  5
23C
100
AcDbEntity
  8
_30_VOLUMEN
100
AcDbLine
 62
4
  6
CONTINUOUS
 10
0.5
 20
-25.0
 11
0.5
 21
-0.0
  0
LINE
  5
23D
100
AcDbEntity
  8
_30_VOLUMEN
100
AcDbLine
 62
4
  6
CONTINUOUS
 10
-0.0
 20
-0.5
 11
0.5
 21
-0.0
  0
LINE
  5
23E
100
AcDbEntity
  8
_30_VOLUMEN
100
AcDbLine
 62
4
  6
CONTINUOUS
 10
-0.0
 20
-24.5
 11
0.5
 21
-25.0
  0
LINE
  5
23F
100
AcDbEntity
  8
_30_VOLUMEN
100
AcDbLine
 62
4
  6
CONTINUOUS
 10
159.3374394564
 20
-27.5433793073
 11
144.6529695344
 21
-30.2959850139
  0
LINE
  5
240
100
AcDbEntity
  8
_30_VOLUMEN
100
AcDbLine
 62
4
  6
CONTINUOUS
 10
152.7388244142
 20
-27.5796509035
 11
145.2409881713
 21
-28.9851212364
  0
LINE
  5
241
100
AcDbEntity
  8
_30_VOLUMEN
100
AcDbLine
 62
4
  6
CONTINUOUS
 10
152.7388244142
 20
-27.5796509035
 11
159.4204543616
 21
-27.259990282
  0
LINE
  5
242
100
AcDbEntity
  8
_30_VOLUMEN
100
AcDbLine
 62
4
  6
CONTINUOUS
 10
169.1689965666
 20
-32.000226626
 11
155.7060624263
 21
-31.3831487222
  0
LINE
  5
243
100
AcDbEntity
  8
_21_KURVEN
100
AcDbLine
 62
7
  6
CONTINUOUS
 10
169.1689965666
 20
-32.000226626
 11
155.7060624263
 21
-31.3831487222
  0
LINE
  5
244
100
AcDbEntity
  8
_30_VOLUMEN
100
AcDbLine
 62
4
  6
CONTINUOUS
 10
144.6529695344
 20
-30.2959850139
 11
136.1803659003
 21
-29.8821843113
  0
LINE
  5
245
100
AcDbEntity
  8
_26_BEZUGSACHSEN
100
AcDbLine
 62
4
  6
CONTINUOUS
 10
135.0095520399
 20
-30.0095520399
 11
155.1038845326
 21
-31.062651382
  0
LINE
  5
246
100
AcDbEntity
  8
_30_VOLUMEN
100
AcDbLine
 62
4
  6
CONTINUOUS
 10
0.5
 20
-25.0
 11
130.0
 21
-25.0
  0
LINE
  5
247
100
AcDbEntity
  8
_30_VOLUMEN
100
AcDbLine
 62
4
  6
CONTINUOUS
 10
145.2409881713
 20
-28.9851212364
 11
139.0114671785
 21
-28.6808723567
  0
LINE
  5
248
100
AcDbEntity
  8
_21_KURVEN
100
AcDbLine
 62
7
  6
CONTINUOUS
 10
150.5241647774
 20
-18.469404378
 11
162.1275379389
 21
-19.0012487081
  0
LINE
  5
249
100
AcDbEntity
  8
_30_VOLUMEN
100
AcDbLine
 62
4
  6
CONTINUOUS
 10
150.5241647774
 20
-18.469404378
 11
162.2897346314
 21
-19.0086830455
  0
LINE
  5
24A
100
AcDbEntity
  8
_30_VOLUMEN
100
AcDbLine
 62
4
  6
CONTINUOUS
 10
153.4906912615
 20
-22.2145126081
 11
159.9419599116
 21
-23.5386539738
  0
LINE
  5
24B
100
AcDbEntity
  8
_30_VOLUMEN
100
AcDbLine
 62
4
  6
CONTINUOUS
 10
140.567177082
 20
-17.5797062253
 11
146.6531411189
 21
-18.9083425006
  0
LINE
  5
24C
100
AcDbEntity
  8
0
100
AcDbLine
 62
4
  6
CONTINUOUS
 10
137.3447762272
 20
0.0
 11
130.0
 21
0.0
  0
LINE
  5
24D
100
AcDbEntity
  8
_30_VOLUMEN
100
AcDbLine
 62
4
  6
CONTINUOUS
 10
0.5
 20
-0.0
 11
130.0
 21
0.0
  0
LINE
  5
24E
100
AcDbEntity
  8
_30_VOLUMEN
100
AcDbLine
 62
4
  6
CONTINUOUS
 10
138.3003985753
 20
-14.754148631
 11
146.5777542622
 21
-16.561191026
  0
LINE
  5
24F
100
AcDbEntity
  8
_30_VOLUMEN
100
AcDbLine
 62
4
  6
CONTINUOUS
 10
146.6531411189
 20
-18.9083425006
 11
153.4906912615
 21
-22.2145126081
  0
LINE
  5
250
100
AcDbEntity
  8
_30_VOLUMEN
100
AcDbLine
 62
4
  6
CONTINUOUS
 10
146.5777542622
 20
-16.561191026
 11
159.9690575869
 21
-23.036306503
  0
LINE
  5
251
100
AcDbEntity
  8
_30_VOLUMEN
100
AcDbLine
 62
4
  6
CONTINUOUS
 10
135.0095520399
 20
-30.0095520399
 11
133.9095952444
 21
-28.9095952444
  0
LINE
  5
252
100
AcDbEntity
  8
0
100
AcDbLine
 62
4
  6
CONTINUOUS
 10
133.9095952444
 20
-28.9095952444
 11
130.0
 21
-25.0
  0
LINE
  5
253
100
AcDbEntity
  8
_30_VOLUMEN
100
AcDbLine
 62
4
  6
CONTINUOUS
 10
139.0114671785
 20
-28.6808723567
 11
136.1803659003
 21
-29.8821843113
  0
LINE
  5
254
100
AcDbEntity
  8
_30_VOLUMEN
100
AcDbLine
 62
4
  6
CONTINUOUS
 10
155.0886706383
 20
-31.0814545869
 11
155.06276813
 21
-31.0604965627
  0
LINE
  5
255
100
AcDbEntity
  8
_30_VOLUMEN
100
AcDbLine
 62
4
  6
CONTINUOUS
 10
137.3447762272
 20
0.0
 11
158.0229252174
 21
-12.1803606115
  0
LINE
  5
256
100
AcDbEntity
  8
0
100
AcDbLine
 62
4
  6
CONTINUOUS
 10
130.0
 20
0.0
 11
130.0
 21
-25.0
  0
LINE
  5
257
100
AcDbEntity
  8
_30_VOLUMEN
100
AcDbLine
 62
4
  6
CONTINUOUS
 10
162.587871578
 20
-19.1758652469
 11
162.1961530084
 21
-18.858921143
  0
LINE
  5
258
100
AcDbEntity
  8
_30_VOLUMEN
100
AcDbLine
 62
4
  6
CONTINUOUS
 10
140.567177082
 20
-17.5797062253
 11
138.3003985753
 21
-14.754148631
  0
LINE
  5
259
100
AcDbEntity
  8
0
100
AcDbLine
 62
4
  6
CONTINUOUS
 10
136.0547371927
 20
0.0
 11
133.9095952444
 21
-28.9095952444
  0
LINE
  5
25A
100
AcDbEntity
  8
_30_VOLUMEN
100
AcDbLine
 62
4
  6
CONTINUOUS
 10
136.1803659003
 20
-29.8821843113
 11
138.3003985753
 21
-14.754148631
  0
LINE
  5
25B
100
AcDbEntity
  8
_28_BEZUGSPUNKTE
100
AcDbLine
 62
1
  6
CONTINUOUS
 10
170.15625
 20
-32.15625
 11
169.84375
 21
-31.84375
  0
LINE
  5
25C
100
AcDbEntity
  8
_30_VOLUMEN
100
AcDbLine
 62
4
  6
CONTINUOUS
 10
155.1038845326
 20
-31.062651382
 11
153.5792648447
 21
-28.6227498518
  0
LINE
  5
25D
100
AcDbEntity
  8
_21_KURVEN
100
AcDbLine
 62
7
  6
CONTINUOUS
 10
155.0732611367
 20
-31.0136437041
 11
153.5792648447
 21
-28.6227498518
  0
LINE
  5
25E
100
AcDbEntity
  8
_30_VOLUMEN
100
AcDbLine
 62
4
  6
CONTINUOUS
 10
139.0114671785
 20
-28.6808723567
 11
140.567177082
 21
-17.5797062253
  0
LINE
  5
25F
100
AcDbEntity
  8
_30_VOLUMEN
100
AcDbLine
 62
4
  6
CONTINUOUS
 10
146.6531411189
 20
-18.9083425006
 11
146.5777542622
 21
-16.561191026
  0
LINE
  5
260
100
AcDbEntity
  8
_30_VOLUMEN
100
AcDbLine
 62
4
  6
CONTINUOUS
 10
145.2409881713
 20
-28.9851212364
 11
144.6529695344
 21
-30.2959850139
  0
LINE
  5
261
100
AcDbEntity
  8
_26_BEZUGSACHSEN
100
AcDbLine
 62
4
  6
CONTINUOUS
 10
158.0229252174
 20
-12.1803606115
 11
162.2897346314
 21
-19.0086830455
  0
LINE
  5
262
100
AcDbEntity
  8
_30_VOLUMEN
100
AcDbLine
 62
4
  6
CONTINUOUS
 10
162.7603392285
 20
-19.3707537261
 11
169.8875380967
 21
-30.7766561704
  0
LINE
  5
263
100
AcDbEntity
  8
_21_KURVEN
100
AcDbLine
 62
7
  6
CONTINUOUS
 10
162.7603392285
 20
-19.3707537261
 11
169.8875380967
 21
-30.7766561704
  0
LINE
  5
264
100
AcDbEntity
  8
_30_VOLUMEN
100
AcDbLine
 62
4
  6
CONTINUOUS
 10
153.4906912615
 20
-22.2145126081
 11
152.7388244142
 21
-27.5796509035
  0
LINE
  5
265
100
AcDbEntity
  8
_21_KURVEN
100
AcDbLine
 62
7
  6
CONTINUOUS
 10
152.7388244142
 20
-27.5796509035
 11
153.4906912615
 21
-22.2145126081
  0
LINE
  5
266
100
AcDbEntity
  8
_30_VOLUMEN
100
AcDbLine
 62
7
  6
CONTINUOUS
 10
159.9419599116
 20
-23.5386539738
 11
159.9690575869
 21
-23.036306503
  0
LINE
  5
267
100
AcDbEntity
  8
_30_VOLUMEN
100
AcDbLine
 62
7
  6
CONTINUOUS
 10
159.4204543616
 20
-27.259990282
 11
159.3374394564
 21
-27.5433793073
  0
LINE
  5
268
100
AcDbEntity
  8
_28_BEZUGSPUNKTE
100
AcDbLine
 62
1
  6
CONTINUOUS
 10
170.15625
 20
-31.84375
 11
169.84375
 21
-32.15625
  0
ARC
  5
269
100
AcDbEntity
  8
_30_VOLUMEN
100
AcDbCircle
 62
4
  6
CONTINUOUS
 10
162.0876496696
 20
-19.792281973
 40
0.7938496744
100
AcDbArc
 50
32.0725406196
 51
50.9406851822
  0
ARC
  5
26A
100
AcDbEntity
  8
_30_VOLUMEN
100
AcDbCircle
 62
4
  6
CONTINUOUS
 10
162.0908640498
 20
-19.7933284241
 40
0.7929282758
100
AcDbArc
 50
78.0407130226
 51
87.3490553822
  0
ARC
  5
26B
100
AcDbEntity
  8
_30_VOLUMEN
100
AcDbCircle
 62
4
  6
CONTINUOUS
 10
155.7419308281
 20
-30.5953568459
 40
0.7887224176
100
AcDbArc
 50
212.0280712192
 51
267.4077549958
  0
ARC
  5
26C
100
AcDbEntity
  8
_30_VOLUMEN
100
AcDbCircle
 62
4
  6
CONTINUOUS
 10
162.0927097557
 20
-19.7880192495
 40
0.7873521916
100
AcDbArc
 50
51.0311443962
 51
78.0920521174
  0
SPLINE
  5
26D
100
AcDbEntity
  8
_30_VOLUMEN
100
AcDbSpline
 62
4
  6
CONTINUOUS
 70
0
 71
3
 72
11
 73
7
 74
0
 42
0.0000001
 43
0.0000001
 44
0.0000000001
 40
0.0
 40
0.0
 40
0.0
 40
0.0
 40
0.2499081527
 40
0.5004687521
 40
0.7507098131
 40
1.0
 40
1.0
 40
1.0
 40
1.0
 10
169.1689965666
 20
-32.000226626
 30
0.0
 10
169.3120654591
 20
-32.0067842346
 30
0.0
 10
169.6081748054
 20
-31.9388327128
 30
0.0
 10
169.931085482
 20
-31.6240164407
 30
0.0
 10
170.0488090713
 20
-31.1889197758
 30
0.0
 10
169.9632449862
 20
-30.8978125197
 30
0.0
 10
169.8875380967
 20
-30.7766561704
 30
0.0
  0
SPLINE
  5
26E
100
AcDbEntity
  8
_21_KURVEN
100
AcDbSpline
 62
7
  6
CONTINUOUS
 70
0
 71
3
 72
10
 73
6
 74
0
 42
0.0000001
 43
0.0000001
 44
0.0000000001
 40
0.0
 40
0.0
 40
0.0
 40
0.0
 40
0.5
 40
0.75
 40
1.0
 40
1.0
 40
1.0
 40
1.0
 10
162.7603392285
 20
-19.3707537261
 30
0.0
 10
162.7373915582
 20
-19.336096895
 30
0.0
 10
162.6973360152
 20
-19.2799661905
 30
0.0
 10
162.6396047167
 20
-19.2208788976
 30
0.0
 10
162.6053529288
 20
-19.1908506875
 30
0.0
 10
162.5884114911
 20
-19.1763024916
 30
0.0
  0
SPLINE
  5
26F
100
AcDbEntity
  8
_21_KURVEN
100
AcDbSpline
 62
7
  6
CONTINUOUS
 70
0
 71
3
 72
9
 73
5
 74
0
 42
0.0000001
 43
0.0000001
 44
0.0000000001
 40
0.0
 40
0.0
 40
0.0
 40
0.0
 40
0.5
 40
1.0
 40
1.0
 40
1.0
 40
1.0
 10
162.5884114929
 20
-19.176302493
 30
0.0
 10
162.5732035596
 20
-19.1642827446
 30
0.0
 10
162.5436439165
 20
-19.1413323242
 30
0.0
 10
162.5071964046
 20
-19.1185919744
 30
0.0
 10
162.4897031894
 20
-19.1080708215
 30
0.0
  0
SPLINE
  5
270
100
AcDbEntity
  8
_21_KURVEN
100
AcDbSpline
 62
7
  6
CONTINUOUS
 70
0
 71
3
 72
10
 73
6
 74
0
 42
0.0000001
 43
0.0000001
 44
0.0000000001
 40
0.0
 40
0.0
 40
0.0
 40
0.0
 40
0.25
 40
0.5
 40
1.0
 40
1.0
 40
1.0
 40
1.0
 10
162.4897031932
 20
-19.1080708237
 30
0.0
 10
162.4824836667
 20
-19.1039567694
 30
0.0
 10
162.4689204035
 20
-19.096225651
 30
0.0
 10
162.4341022441
 20
-19.0780120574
 30
0.0
 10
162.4133305135
 20
-19.0688928418
 30
0.0
 10
162.3950226616
 20
-19.0610047448
 30
0.0
  0
SPLINE
  5
271
100
AcDbEntity
  8
_21_KURVEN
100
AcDbSpline
 62
7
  6
CONTINUOUS
 70
0
 71
3
 72
9
 73
5
 74
0
 42
0.0000001
 43
0.0000001
 44
0.0000000001
 40
0.0
 40
0.0
 40
0.0
 40
0.0
 40
0.5
 40
1.0
 40
1.0
 40
1.0
 40
1.0
 10
162.395022659
 20
-19.0610047437
 30
0.0
 10
162.3562359752
 20
-19.0460582484
 30
0.0
 10
162.2789652282
 20
-19.0183128895
 30
0.0
 10
162.1919852129
 20
-19.0068434999
 30
0.0
 10
162.1487139979
 20
-19.0025031743
 30
0.0
  0
LINE
  5
272
100
AcDbEntity
  8
_21_KURVEN
100
AcDbLine
 62
7
  6
CONTINUOUS
 10
162.1487139866
 20
-19.0025031735
 11
162.1275379388
 21
-19.0012487081
  0
SPLINE
  5
273
100
AcDbEntity
  8
_21_KURVEN
100
AcDbSpline
 62
7
  6
CONTINUOUS
 70
0
 71
3
 72
9
 73
5
 74
0
 42
0.0000001
 43
0.0000001
 44
0.0000000001
 40
0.0
 40
0.0
 40
0.0
 40
0.0
 40
0.5
 40
1.0
 40
1.0
 40
1.0
 40
1.0
 10
169.1689965666
 20
-32.000226626
 30
0.0
 10
169.2245451508
 20
-32.0008276008
 30
0.0
 10
169.3433794498
 20
-31.9974658968
 30
0.0
 10
169.4513900664
 20
-31.9621135892
 30
0.0
 10
169.5077883727
 20
-31.9414581198
 30
0.0
  0
SPLINE
  5
274
100
AcDbEntity
  8
_21_KURVEN
100
AcDbSpline
 62
7
  6
CONTINUOUS
 70
0
 71
3
 72
9
 73
5
 74
0
 42
0.0000001
 43
0.0000001
 44
0.0000000001
 40
0.0
 40
0.0
 40
0.0
 40
0.0
 40
0.5
 40
1.0
 40
1.0
 40
1.0
 40
1.0
 10
169.507788378
 20
-31.9414581176
 30
0.0
 10
169.5586125207
 20
-31.9185607798
 30
0.0
 10
169.6643617828
 20
-31.8663269011
 30
0.0
 10
169.7509002648
 20
-31.7859605781
 30
0.0
 10
169.7925548783
 20
-31.744276375
 30
0.0
  0
SPLINE
  5
275
100
AcDbEntity
  8
_21_KURVEN
100
AcDbSpline
 62
7
  6
CONTINUOUS
 70
0
 71
3
 72
9
 73
5
 74
0
 42
0.0000001
 43
0.0000001
 44
0.0000000001
 40
0.0
 40
0.0
 40
0.0
 40
0.0
 40
0.5
 40
1.0
 40
1.0
 40
1.0
 40
1.0
 10
169.7925548744
 20
-31.7442763792
 30
0.0
 10
169.82911665
 20
-31.7020721989
 30
0.0
 10
169.9032515833
 20
-31.6101136007
 30
0.0
 10
169.9480336169
 20
-31.5009001509
 30
0.0
 10
169.9682805114
 20
-31.4457503052
 30
0.0
  0
SPLINE
  5
276
100
AcDbEntity
  8
_21_KURVEN
100
AcDbSpline
 62
7
  6
CONTINUOUS
 70
0
 71
3
 72
9
 73
5
 74
0
 42
0.0000001
 43
0.0000001
 44
0.0000000001
 40
0.0
 40
0.0
 40
0.0
 40
0.0
 40
0.5
 40
1.0
 40
1.0
 40
1.0
 40
1.0
 10
169.9682805109
 20
-31.4457503066
 30
0.0
 10
169.9837259899
 20
-31.3921638284
 30
0.0
 10
170.0123501108
 20
-31.2777464404
 30
0.0
 10
170.0069895297
 20
-31.1601849226
 30
0.0
 10
170.0022130948
 20
-31.1025185271
 30
0.0
  0
SPLINE
  5
277
100
AcDbEntity
  8
_21_KURVEN
100
AcDbSpline
 62
7
  6
CONTINUOUS
 70
0
 71
3
 72
9
 73
5
 74
0
 42
0.0000001
 43
0.0000001
 44
0.0000000001
 40
0.0
 40
0.0
 40
0.0
 40
0.0
 40
0.5
 40
1.0
 40
1.0
 40
1.0
 40
1.0
 10
170.0022130952
 20
-31.1025185299
 30
0.0
 10
169.9936935957
 20
-31.0475927579
 30
0.0
 10
169.9715396635
 20
-30.9321568338
 30
0.0
 10
169.9171336459
 20
-30.8282488637
 30
0.0
 10
169.8875380944
 20
-30.7766561665
 30
0.0
  0
SPLINE
  5
278
100
AcDbEntity
  8
_21_KURVEN
100
AcDbSpline
 62
1
  6
CENTER
 70
0
 71
3
 72
163
 73
159
 74
0
 42
0.0000001
 43
0.0000001
 44
0.0000000001
 40
0.0
 40
0.0
 40
0.0
 40
0.0
 40
0.015625
 40
0.03125
 40
0.0390625
 40
0.046875
 40
0.0546875
 40
0.05859375
 40
0.060546875
 40
0.0625
 40
0.064453125
 40
0.06640625
 40
0.0703125
 40
0.078125
 40
0.09375
 40
0.109375
 40
0.1171875
 40
0.12109375
 40
0.123046875
 40
0.125
 40
0.126953125
 40
0.12890625
 40
0.1328125
 40
0.140625
 40
0.15625
 40
0.171875
 40
0.1796875
 40
0.18359375
 40
0.185546875
 40
0.1875
 40
0.189453125
 40
0.19140625
 40
0.1953125
 40
0.203125
 40
0.21875
 40
0.234375
 40
0.2421875
 40
0.24609375
 40
0.248046875
 40
0.25
 40
0.251953125
 40
0.25390625
 40
0.2578125
 40
0.265625
 40
0.28125
 40
0.296875
 40
0.3046875
 40
0.30859375
 40
0.310546875
 40
0.3125
 40
0.314453125
 40
0.31640625
 40
0.3203125
 40
0.328125
 40
0.34375
 40
0.359375
 40
0.3671875
 40
0.37109375
 40
0.373046875
 40
0.375
 40
0.376953125
 40
0.37890625
 40
0.3828125
 40
0.390625
 40
0.40625
 40
0.421875
 40
0.4296875
 40
0.43359375
 40
0.435546875
 40
0.4375
 40
0.439453125
 40
0.44140625
 40
0.4453125
 40
0.453125
 40
0.46875
 40
0.484375
 40
0.4921875
 40
0.49609375
 40
0.498046875
 40
0.5
 40
0.501953125
 40
0.50390625
 40
0.5078125
 40
0.515625
 40
0.53125
 40
0.546875
 40
0.5546875
 40
0.55859375
 40
0.560546875
 40
0.5625
 40
0.564453125
 40
0.56640625
 40
0.5703125
 40
0.578125
 40
0.59375
 40
0.609375
 40
0.6171875
 40
0.62109375
 40
0.623046875
 40
0.625
 40
0.626953125
 40
0.62890625
 40
0.6328125
 40
0.640625
 40
0.65625
 40
0.671875
 40
0.6796875
 40
0.68359375
 40
0.685546875
 40
0.6875
 40
0.689453125
 40
0.69140625
 40
0.6953125
 40
0.703125
 40
0.71875
 40
0.734375
 40
0.7421875
 40
0.74609375
 40
0.748046875
 40
0.75
 40
0.751953125
 40
0.75390625
 40
0.7578125
 40
0.765625
 40
0.78125
 40
0.796875
 40
0.8046875
 40
0.80859375
 40
0.810546875
 40
0.8125
 40
0.814453125
 40
0.81640625
 40
0.8203125
 40
0.828125
 40
0.84375
 40
0.859375
 40
0.8671875
 40
0.87109375
 40
0.873046875
 40
0.875
 40
0.876953125
 40
0.87890625
 40
0.8828125
 40
0.890625
 40
0.90625
 40
0.921875
 40
0.9296875
 40
0.93359375
 40
0.935546875
 40
0.9375
 40
0.939453125
 40
0.94140625
 40
0.9453125
 40
0.953125
 40
0.9609375
 40
0.96875
 40
0.984375
 40
1.0
 40
1.0
 40
1.0
 40
1.0
 10
162.2567054052
 20
-30.5371643666
 30
0.0
 10
162.3382136048
 20
-30.47381725
 30
0.0
 10
162.5012270376
 20
-30.3471198673
 30
0.0
 10
162.7050086603
 20
-30.1887638869
 30
0.0
 10
162.8680028121
 20
-30.0620460318
 30
0.0
 10
162.990332966
 20
-29.967097404
 30
0.0
 10
163.0920059382
 20
-29.8876881152
 30
0.0
 10
163.1637045602
 20
-29.8326617493
 30
0.0
 10
163.2038514915
 20
-29.8003435077
 30
0.0
 10
163.2362820934
 20
-29.7785685996
 30
0.0
 10
163.2598429362
 20
-29.747375901
 30
0.0
 10
163.29435105
 20
-29.7090704169
 30
0.0
 10
163.3533010105
 20
-29.640507889
 30
0.0
 10
163.4722300976
 20
-29.5044729042
 30
0.0
 10
163.6415315909
 20
-29.3095247785
 30
0.0
 10
163.8112615778
 20
-29.1149500598
 30
0.0
 10
163.9295907739
 20
-28.9783923051
 30
0.0
 10
163.9893655845
 20
-28.9105485858
 30
0.0
 10
164.0225453684
 20
-28.8710855398
 30
0.0
 10
164.0501876119
 20
-28.8434495438
 30
0.0
 10
164.0672888583
 20
-28.8083159969
 30
0.0
 10
164.0937670771
 20
-28.7640863012
 30
0.0
 10
164.1383936026
 20
-28.6854679096
 30
0.0
 10
164.2288690175
 20
-28.52909929
 30
0.0
 10
164.3574156755
 20
-28.3052251413
 30
0.0
 10
164.4864497606
 20
-28.0816589733
 30
0.0
 10
164.5762427776
 20
-27.9248591808
 30
0.0
 10
164.6218076003
 20
-27.846833652
 30
0.0
 10
164.6467747951
 20
-27.8016492163
 30
0.0
 10
164.6685187845
 20
-27.7694491852
 30
0.0
 10
164.6787233238
 20
-27.7307951809
 30
0.0
 10
164.6963541829
 20
-27.6815075348
 30
0.0
 10
164.7253357909
 20
-27.5942072834
 30
0.0
 10
164.7846375171
 20
-27.4203513419
 30
0.0
 10
164.8685807264
 20
-27.1715858765
 30
0.0
 10
164.9530685621
 20
-26.9230015378
 30
0.0
 10
165.0116078115
 20
-26.7488920188
 30
0.0
 10
165.0416378251
 20
-26.6619404363
 30
0.0
 10
165.0575803426
 20
-26.6120912975
 30
0.0
 10
165.0729724478
 20
-26.575162525
 30
0.0
 10
165.0752324299
 20
-26.5364826862
 30
0.0
 10
165.0828260374
 20
-26.4855203063
 30
0.0
 10
165.093984152
 20
-26.3960521183
 30
0.0
 10
165.117822199
 20
-26.2173176425
 30
0.0
 10
165.1510078192
 20
-25.9618750941
 30
0.0
 10
165.1847696693
 20
-25.7064783061
 30
0.0
 10
165.2078009945
 20
-25.5276797658
 30
0.0
 10
165.2200683516
 20
-25.4382996665
 30
0.0
 10
165.2258756465
 20
-25.3871954295
 30
0.0
 10
165.2336242181
 20
-25.348951458
 30
0.0
 10
165.2284016998
 20
-25.3103856088
 30
0.0
 10
165.225962474
 20
-25.2590767277
 30
0.0
 10
165.2195892583
 20
-25.1692341204
 30
0.0
 10
165.20834598
 20
-24.9895843716
 30
0.0
 10
165.191426103
 20
-24.7329353976
 30
0.0
 10
165.1750752806
 20
-24.4762447724
 30
0.0
 10
165.163035326
 20
-24.2966533353
 30
0.0
 10
165.1577575402
 20
-24.2067305494
 30
0.0
 10
165.1535542455
 20
-24.1555507871
 30
0.0
 10
165.1537519713
 20
-24.1165882099
 30
0.0
 10
165.1411426183
 20
-24.079834311
 30
0.0
 10
165.1287970756
 20
-24.030058748
 30
0.0
 10
165.1051144077
 20
-23.9433099654
 30
0.0
 10
165.0592333179
 20
-23.7695553823
 30
0.0
 10
164.9928408989
 20
-23.5214892595
 30
0.0
 10
164.9270133649
 20
-23.2732938538
 30
0.0
 10
164.8803414362
 20
-23.0997202666
 30
0.0
 10
164.8577461718
 20
-23.0127226146
 30
0.0
 10
164.8436494858
 20
-22.9633478283
 30
0.0
 10
164.8364206617
 20
-22.9253625106
 30
0.0
 10
164.8164096294
 20
-22.8910250261
 30
0.0
 10
164.7941864935
 20
-22.843969374
 30
0.0
 10
164.7532222091
 20
-22.7622141295
 30
0.0
 10
164.6727734356
 20
-22.5982776633
 30
0.0
 10
164.557012923
 20
-22.3643502495
 30
0.0
 10
164.4417685262
 20
-22.1301640693
 30
0.0
 10
164.3605971905
 20
-21.966589876
 30
0.0
 10
164.3206264292
 20
-21.8843365062
 30
0.0
 10
164.296803334
 20
-21.83808303
 30
0.0
 10
164.2817083054
 20
-21.8012807955
 30
0.0
 10
164.2560154358
 20
-21.7725528454
 30
0.0
 10
164.2254546468
 20
-21.7314327103
 30
0.0
 10
164.1702538198
 20
-21.660782596
 30
0.0
 10
164.0610795761
 20
-21.5185459607
 30
0.0
 10
163.904421117
 20
-21.3158906976
 30
0.0
 10
163.7482057489
 20
-21.1128593457
 30
0.0
 10
163.6384111779
 20
-20.9711492347
 30
0.0
 10
163.584063301
 20
-20.8997751495
 30
0.0
 10
163.5521289299
 20
-20.8598208895
 30
0.0
 10
163.5306565021
 20
-20.827510694
 30
0.0
 10
163.4997098927
 20
-20.804163035
 30
0.0
 10
163.461752196
 20
-20.769906807
 30
0.0
 10
163.3937891455
 20
-20.7114126991
 30
0.0
 10
163.2589596632
 20
-20.5933845741
 30
0.0
 10
163.0657298496
 20
-20.4253762392
 30
0.0
 10
162.8728763081
 20
-20.2569355946
 30
0.0
 10
162.7375200448
 20
-20.1395127032
 30
0.0
 10
162.6702813181
 20
-20.0801863991
 30
0.0
 10
162.6311571778
 20
-20.0472703312
 30
0.0
 10
162.6037945607
 20
-20.0198049222
 30
0.0
 10
162.5688609962
 20
-20.0029606068
 30
0.0
 10
162.5249235436
 20
-19.9767970262
 30
0.0
 10
162.4468046679
 20
-19.9327341129
 30
0.0
 10
162.2914435936
 20
-19.8433766446
 30
0.0
 10
162.0690038762
 20
-19.7164323179
 30
0.0
 10
161.8468755997
 20
-19.5889971771
 30
0.0
 10
161.6910785082
 20
-19.5003268486
 30
0.0
 10
161.6135591561
 20
-19.455319118
 30
0.0
 10
161.5686562369
 20
-19.4306770614
 30
0.0
 10
161.5366891463
 20
-19.409157741
 30
0.0
 10
161.4981847337
 20
-19.3992512089
 30
0.0
 10
161.4491256144
 20
-19.3819921137
 30
0.0
 10
161.3622117599
 20
-19.3536729895
 30
0.0
 10
161.1891382871
 20
-19.2956877572
 30
0.0
 10
160.9414849908
 20
-19.2136299013
 30
0.0
 10
160.6940169663
 20
-19.1310249678
 30
0.0
 10
160.5206841131
 20
-19.0738056443
 30
0.0
 10
160.4341269067
 20
-19.0444333956
 30
0.0
 10
160.384493445
 20
-19.028870241
 30
0.0
 10
160.3477537456
 20
-19.0137527944
 30
0.0
 10
160.3091585589
 20
-19.0118051767
 30
0.0
 10
160.2583454691
 20
-19.0046149038
 30
0.0
 10
160.1691215962
 20
-18.9941687419
 30
0.0
 10
159.9908878532
 20
-18.971750239
 30
0.0
 10
159.7361537154
 20
-18.9405949658
 30
0.0
 10
159.4814699731
 20
-18.9088620624
 30
0.0
 10
159.3031656765
 20
-18.8872522418
 30
0.0
 10
159.2140388148
 20
-18.8756941417
 30
0.0
 10
159.1630694992
 20
-18.8702945224
 30
0.0
 10
159.124954329
 20
-18.8628449772
 30
0.0
 10
159.0864117326
 20
-18.8683922505
 30
0.0
 10
159.035170669
 20
-18.8712555093
 30
0.0
 10
158.9454296168
 20
-18.8783749559
 30
0.0
 10
158.7659952126
 20
-18.8911077296
 30
0.0
 10
158.5096468665
 20
-18.9101570378
 30
0.0
 10
158.253261595
 20
-18.928636619
 30
0.0
 10
158.0738788863
 20
-18.9421670105
 30
0.0
 10
157.9840667529
 20
-18.9481897326
 30
0.0
 10
157.9329401578
 20
-18.9528191452
 30
0.0
 10
157.8940458478
 20
-18.9529397684
 30
0.0
 10
157.8572516802
 20
-18.9658722081
 30
0.0
 10
157.8074602814
 20
-18.9786468806
 30
0.0
 10
157.7206661759
 20
-19.0030812936
 30
0.0
 10
157.5468335273
 20
-19.050465333
 30
0.0
 10
157.2986486811
 20
-19.1190050679
 30
0.0
 10
157.0503393941
 20
-19.1869799676
 30
0.0
 10
156.8766809626
 20
-19.2351547763
 30
0.0
 10
156.7896473085
 20
-19.2585018815
 30
0.0
 10
156.7402416763
 20
-19.2730275431
 30
0.0
 10
156.7022622098
 20
-19.2805799274
 30
0.0
 10
156.6678197704
 20
-19.3009075301
 30
0.0
 10
156.6206627633
 20
-19.323554861
 30
0.0
 10
156.53871283
 20
-19.3652638883
 30
0.0
 10
156.4213409686
 20
-19.4237627502
 30
0.0
 10
156.2806233744
 20
-19.4944260106
 30
0.0
 10
156.0929549655
 20
-19.588481339
 30
0.0
 10
155.8583849798
 20
-19.706106575
 30
0.0
 10
155.6707242597
 20
-19.8001896742
 30
0.0
 10
155.5768944911
 20
-19.84723336
 30
0.0
  0
SPLINE
  5
279
100
AcDbEntity
  8
_21_KURVEN
100
AcDbSpline
 62
1
  6
CENTER
 70
0
 71
3
 72
12
 73
8
 74
0
 42
0.0000001
 43
0.0000001
 44
0.0000000001
 40
0.0
 40
0.0
 40
0.0
 40
0.0
 40
0.5
 40
0.625
 40
0.75
 40
0.875
 40
1.0
 40
1.0
 40
1.0
 40
1.0
 10
155.57689496
 20
-19.8472330637
 30
0.0
 10
155.4284494306
 20
-19.9439593959
 30
0.0
 10
155.2443693829
 20
-20.067171253
 30
0.0
 10
155.0345564184
 20
-20.2309861101
 30
0.0
 10
154.9315461567
 20
-20.3140818542
 30
0.0
 10
154.82789727
 20
-20.4007739517
 30
0.0
 10
154.7544243185
 20
-20.4656839561
 30
0.0
 10
154.7182345544
 20
-20.4972495492
 30
0.0
  0
SPLINE
  5
27A
100
AcDbEntity
  8
_21_KURVEN
100
AcDbSpline
 62
1
  6
CENTER
 70
0
 71
3
 72
10
 73
6
 74
0
 42
0.0000001
 43
0.0000001
 44
0.0000000001
 40
0.0
 40
0.0
 40
0.0
 40
0.0
 40
0.375
 40
0.75
 40
1.0
 40
1.0
 40
1.0
 40
1.0
 10
153.5797202343
 20
-28.6231186221
 30
0.0
 10
153.5856381282
 20
-28.6323907192
 30
0.0
 10
153.597062285
 20
-28.650284328
 30
0.0
 10
153.6146628903
 20
-28.6775001796
 30
0.0
 10
153.6216608968
 20
-28.688184326
 30
0.0
 10
153.6247802891
 20
-28.6929640455
 30
0.0
  0
SPLINE
  5
27B
100
AcDbEntity
  8
_21_KURVEN
100
AcDbSpline
 62
1
  6
CENTER
 70
0
 71
3
 72
71
 73
67
 74
0
 42
0.0000001
 43
0.0000001
 44
0.0000000001
 40
0.0
 40
0.0
 40
0.0
 40
0.0
 40
0.03125
 40
0.0625
 40
0.09375
 40
0.109375
 40
0.125
 40
0.1328125
 40
0.140625
 40
0.15625
 40
0.171875
 40
0.1875
 40
0.21875
 40
0.234375
 40
0.25
 40
0.265625
 40
0.2734375
 40
0.28125
 40
0.28515625
 40
0.2890625
 40
0.296875
 40
0.3125
 40
0.34375
 40
0.375
 40
0.40625
 40
0.4140625
 40
0.421875
 40
0.4296875
 40
0.43359375
 40
0.4375
 40
0.4453125
 40
0.453125
 40
0.46875
 40
0.5
 40
0.53125
 40
0.546875
 40
0.5546875
 40
0.5625
 40
0.56640625
 40
0.5703125
 40
0.578125
 40
0.5859375
 40
0.59375
 40
0.625
 40
0.65625
 40
0.6875
 40
0.703125
 40
0.7109375
 40
0.71484375
 40
0.71875
 40
0.7265625
 40
0.734375
 40
0.75
 40
0.765625
 40
0.78125
 40
0.8125
 40
0.828125
 40
0.84375
 40
0.859375
 40
0.8671875
 40
0.875
 40
0.890625
 40
0.90625
 40
0.9375
 40
0.96875
 40
1.0
 40
1.0
 40
1.0
 40
1.0
 10
153.6247802898
 20
-28.6929640464
 30
0.0
 10
153.688973802
 20
-28.7706872025
 30
0.0
 10
153.8173556606
 20
-28.9261388622
 30
0.0
 10
154.009959444
 20
-29.1592842668
 30
0.0
 10
154.1703721931
 20
-29.3536656848
 30
0.0
 10
154.2989038637
 20
-29.5089622677
 30
0.0
 10
154.3787776814
 20
-29.6064972203
 30
0.0
 10
154.4437267111
 20
-29.6834383083
 30
0.0
 10
154.5048426196
 20
-29.7643472221
 30
0.0
 10
154.6086734449
 20
-29.8370832641
 30
0.0
 10
154.726855323
 20
-29.9310071811
 30
0.0
 10
154.8866768027
 20
-30.0539139348
 30
0.0
 10
155.045854653
 20
-30.1774901689
 30
0.0
 10
155.2052791599
 20
-30.3008018135
 30
0.0
 10
155.3247511996
 20
-30.393409835
 30
0.0
 10
155.4245295943
 20
-30.4702791383
 30
0.0
 10
155.5038764123
 20
-30.532442152
 30
0.0
 10
155.554548737
 20
-30.5697771321
 30
0.0
 10
155.5926122189
 20
-30.6031187916
 30
0.0
 10
155.6397087617
 20
-30.6237792722
 30
0.0
 10
155.7205533112
 20
-30.6621451284
 30
0.0
 10
155.8833591717
 20
-30.7373117056
 30
0.0
 10
156.1153633044
 20
-30.8454793172
 30
0.0
 10
156.3939788726
 20
-30.9750813252
 30
0.0
 10
156.6029995235
 20
-31.0719360646
 30
0.0
 10
156.7421825175
 20
-31.137146062
 30
0.0
 10
156.8120825694
 20
-31.1685863072
 30
0.0
 10
156.8693314475
 20
-31.1985623282
 30
0.0
 10
156.9192476053
 20
-31.2070170077
 30
0.0
 10
156.9684447664
 20
-31.218183151
 30
0.0
 10
157.0301873739
 20
-31.2312125236
 30
0.0
 10
157.1288381396
 20
-31.2525777543
 30
0.0
 10
157.3015412724
 20
-31.2897239606
 30
0.0
 10
157.548224225
 20
-31.3429289972
 30
0.0
 10
157.7949279493
 20
-31.3960406805
 30
0.0
 10
157.9676020019
 20
-31.4333175813
 30
0.0
 10
158.0662984652
 20
-31.4544774349
 30
0.0
 10
158.1279242321
 20
-31.4680319195
 30
0.0
 10
158.1773613061
 20
-31.4781198327
 30
0.0
 10
158.2263001562
 20
-31.4909667827
 30
0.0
 10
158.2910398221
 20
-31.487277288
 30
0.0
 10
158.3678947953
 20
-31.4874603388
 30
0.0
 10
158.5220333305
 20
-31.48545631
 30
0.0
 10
158.7530569933
 20
-31.483423888
 30
0.0
 10
159.0612134462
 20
-31.4802616068
 30
0.0
 10
159.3179215087
 20
-31.4774034411
 30
0.0
 10
159.4977493689
 20
-31.4760687994
 30
0.0
 10
159.5874883321
 20
-31.4744608865
 30
0.0
 10
159.6390487948
 20
-31.4750593692
 30
0.0
 10
159.6877878595
 20
-31.4604222315
 30
0.0
 10
159.7496777562
 20
-31.4473425628
 30
0.0
 10
159.8481615658
 20
-31.4234991118
 30
0.0
 10
159.9714522525
 20
-31.394697643
 30
0.0
 10
160.1193186757
 20
-31.359696196
 30
0.0
 10
160.3165167385
 20
-31.3132331809
 30
0.0
 10
160.5136226116
 20
-31.2664160493
 30
0.0
 10
160.7109729299
 20
-31.2205070814
 30
0.0
 10
160.8583445228
 20
-31.1837049811
 30
0.0
 10
160.9831894841
 20
-31.1605594105
 30
0.0
 10
161.0747090559
 20
-31.1111567249
 30
0.0
 10
161.1676879855
 20
-31.067147998
 30
0.0
 10
161.2834119601
 20
-31.0102901856
 30
0.0
 10
161.4688496036
 20
-30.9203499527
 30
0.0
 10
161.7005507769
 20
-30.8075702742
 30
0.0
 10
161.9786334875
 20
-30.6723873192
 30
0.0
 10
162.1640140941
 20
-30.5822362713
 30
0.0
 10
162.2567053808
 20
-30.537164382
 30
0.0
  0
SPLINE
  5
27C
100
AcDbEntity
  8
_21_KURVEN
100
AcDbSpline
 62
7
  6
CONTINUOUS
 70
0
 71
3
 72
9
 73
5
 74
0
 42
0.0000001
 43
0.0000001
 44
0.0000000001
 40
0.0
 40
0.0
 40
0.0
 40
0.0
 40
0.5
 40
1.0
 40
1.0
 40
1.0
 40
1.0
 10
155.0732611367
 20
-31.0136437041
 30
0.0
 10
155.0899118111
 20
-31.0391785857
 30
0.0
 10
155.1258349974
 20
-31.0919934592
 30
0.0
 10
155.1697606985
 20
-31.1383176464
 30
0.0
 10
155.1926368699
 20
-31.161459111
 30
0.0
  0
SPLINE
  5
27D
100
AcDbEntity
  8
_21_KURVEN
100
AcDbSpline
 62
7
  6
CONTINUOUS
 70
0
 71
3
 72
8
 73
4
 74
0
 42
0.0000001
 43
0.0000001
 44
0.0000000001
 40
0.0
 40
0.0
 40
0.0
 40
0.0
 40
1.0
 40
1.0
 40
1.0
 40
1.0
 10
155.1926368717
 20
-31.1614591128
 30
0.0
 10
155.2086430653
 20
-31.1767776035
 30
0.0
 10
155.2252646933
 20
-31.191706191
 30
0.0
 10
155.2463880703
 20
-31.2090650295
 30
0.0
  0
SPLINE
  5
27E
100
AcDbEntity
  8
_21_KURVEN
100
AcDbSpline
 62
7
  6
CONTINUOUS
 70
0
 71
3
 72
8
 73
4
 74
0
 42
0.0000001
 43
0.0000001
 44
0.0000000001
 40
0.0
 40
0.0
 40
0.0
 40
0.0
 40
1.0
 40
1.0
 40
1.0
 40
1.0
 10
155.2463880687
 20
-31.2090650283
 30
0.0
 10
155.2768510203
 20
-31.233044856
 30
0.0
 10
155.3068254243
 20
-31.2539907368
 30
0.0
 10
155.3438971732
 20
-31.2763266072
 30
0.0
  0
SPLINE
  5
27F
100
AcDbEntity
  8
_21_KURVEN
100
AcDbSpline
 62
7
  6
CONTINUOUS
 70
0
 71
3
 72
10
 73
6
 74
0
 42
0.0000001
 43
0.0000001
 44
0.0000000001
 40
0.0
 40
0.0
 40
0.0
 40
0.0
 40
0.25
 40
0.5
 40
1.0
 40
1.0
 40
1.0
 40
1.0
 10
155.343897172
 20
-31.2763266065
 30
0.0
 10
155.3511166985
 20
-31.2804406608
 30
0.0
 10
155.3646799617
 20
-31.2881717793
 30
0.0
 10
155.3994981211
 20
-31.3063853729
 30
0.0
 10
155.4202698517
 20
-31.3155045885
 30
0.0
 10
155.4385777036
 20
-31.3233926855
 30
0.0
  0
SPLINE
  5
280
100
AcDbEntity
  8
_21_KURVEN
100
AcDbSpline
 62
7
  6
CONTINUOUS
 70
0
 71
3
 72
9
 73
5
 74
0
 42
0.0000001
 43
0.0000001
 44
0.0000000001
 40
0.0
 40
0.0
 40
0.0
 40
0.0
 40
0.5
 40
1.0
 40
1.0
 40
1.0
 40
1.0
 10
155.4385777062
 20
-31.3233926866
 30
0.0
 10
155.4799778229
 20
-31.3392627761
 30
0.0
 10
155.5666670993
 20
-31.3696905895
 30
0.0
 10
155.6581562294
 20
-31.379496461
 30
0.0
 10
155.7060624239
 20
-31.3831487221
 30
0.0
  0
SPLINE
  5
281
100
AcDbEntity
  8
_30_VOLUMEN
100
AcDbSpline
 62
4
  6
CONTINUOUS
 70
0
 71
3
 72
17
 73
13
 74
0
 42
0.0000001
 43
0.0000001
 44
0.0000000001
 40
0.0
 40
0.0
 40
0.0
 40
0.0
 40
0.1243379376
 40
0.2487132576
 40
0.3733290971
 40
0.4359481607
 40
0.4986470813
 40
0.6238662094
 40
0.7492289529
 40
0.8120926695
 40
0.8749099598
 40
1.0
 40
1.0
 40
1.0
 40
1.0
 10
159.9690575869
 20
-23.036306503
 30
0.0
 10
160.1920923857
 20
-23.1441508288
 30
0.0
 10
160.6069272809
 20
-23.4328388988
 30
0.0
 10
161.06172847
 20
-24.0361830644
 30
0.0
 10
161.2667950519
 20
-24.634153147
 30
0.0
 10
161.3141291163
 20
-25.1316387411
 30
0.0
 10
161.2836555894
 20
-25.6316908378
 30
0.0
 10
161.0991474261
 20
-26.2393308291
 30
0.0
 10
160.7366902921
 20
-26.7610565535
 30
0.0
 10
160.3628541267
 20
-27.0961420389
 30
0.0
 10
159.9426627092
 20
-27.36918134
 30
0.0
 10
159.582410928
 20
-27.4974593746
 30
0.0
 10
159.3374394564
 20
-27.5433793073
 30
0.0
  0
ELLIPSE
  5
282
100
AcDbEntity
  8
_30_VOLUMEN
100
AcDbEllipse
 62
4
  6
CONTINUOUS
 10
159.4753569139
 20
-25.3835775013
 30
0.0
 11
0.8831731325
 21
1.6972519545
 31
0.0
 40
0.9111256085
 41
-2.6535197578
 42
0.2537995089
  0
ENDSEC
  0
SECTION
  2
OBJECTS
  0
DICTIONARY
  5
C
100
AcDbDictionary
280
0
281
1
  3
ACAD_GROUP
350
D
  3
ACAD_MLINESTYLE
350
17
  3
ACAD_LAYOUT
350
1A
  3
ACAD_PLOTSETTINGS
350
19
  3
ACAD_PLOTSTYLENAME
350
E
  0
DICTIONARY
  5
D
102
{ACAD_REACTORS
330
C
102
}
100
AcDbDictionary
280
0
281
1
  0
ACDBDICTIONARYWDFLT
  5
E
102
{ACAD_REACTORS
330
C
102
}
100
AcDbDictionary
281
1
  3
Normal
350
F
100
AcDbDictionaryWithDefault
340
F
  0
DICTIONARY
  5
17
102
{ACAD_REACTORS
330
C
102
}
100
AcDbDictionary
280
0
281
1
  3
Standard
350
18
  0
DICTIONARY
  5
19
102
{ACAD_REACTORS
330
C
102
}
100
AcDbDictionary
281
1
  0
DICTIONARY
  5
1A
102
{ACAD_REACTORS
330
C
102
}
100
AcDbDictionary
281
1
  3
Model
350
283
  3
Layout1
350
284
  0
ACDBPLACEHOLDER
  5
F
102
{ACAD_REACTORS
330
E
102
}
  0
MLINESTYLE
  5
18
102
{ACAD_REACTORS
330
17
102
}
100
AcDbMlineStyle
  2
STANDARD
 70
0
  3

 62
256
 51
90.0
 52
90.0
 71
2
 49
0.5
 62
256
  6
BYLAYER
 49
-0.5
 62
256
  6
BYLAYER
  0
LAYOUT
  5
283
102
{ACAD_REACTORS
330
1A
102
}
100
AcDbPlotSettings
  1

  2
none_device
  4
ISO_A3_(420.00_x_297.00_MM)
  6

 40
0.0
 41
0.0
 42
0.0
 43
0.0
 44
420.0
 45
297.0
 46
0.0
 47
0.0
 48
0.0
 49
0.0
140
0.0
141
0.0
142
1.0
143
1.0
 70
1024
 72
1
 73
0
 74
0
  7

 75
0
147
1.0
148
0.0
149
0.0
100
AcDbLayout
  1
Model
 70
0
 71
0
 10
0.0
 20
0.0
 11
420.0
 21
297.0
 12
0.0
 22
0.0
 32
0.0
 14
0.0
 24
0.0
 34
0.0
 15
0.0
 25
0.0
 35
0.0
146
0.0
 13
0.0
 23
0.0
 33
0.0
 16
1.0
 26
0.0
 36
0.0
 17
0.0
 27
1.0
 37
0.0
 76
0
330
20E
345
0
346
0
  0
LAYOUT
  5
284
102
{ACAD_REACTORS
330
1A
102
}
100
AcDbPlotSettings
  1

  2
none_device
  4
ISO_A3_(420.00_x_297.00_MM)
  6

 40
0.0
 41
0.0
 42
0.0
 43
0.0
 44
420.0
 45
297.0
 46
0.0
 47
0.0
 48
0.0
 49
0.0
140
0.0
141
0.0
142
1.0
143
1.0
 70
0
 72
1
 73
0
 74
0
  7

 75
0
147
1.0
148
0.0
149
0.0
100
AcDbLayout
  1
Layout1
 70
0
 71
1
 10
0.0
 20
0.0
 11
420.0
 21
297.0
 12
0.0
 22
0.0
 32
0.0
 14
0.0
 24
0.0
 34
0.0
 15
0.0
 25
0.0
 35
0.0
146
0.0
 13
0.0
 23
0.0
 33
0.0
 16
1.0
 26
0.0
 36
0.0
 17
0.0
 27
1.0
 37
0.0
 76
0
330
20F
345
0
346
0
  0
ENDSEC
  0
EOF
