999
DXF file: 70543116_MCS.dxf
999
Pro/ENGINEER 2016380 by Parametric Technology Corporation
  0
SECTION
  2
HEADER
  9
$ACADVER
  1
AC1027
  9
$DWGCODEPAGE
  3
ANSI_1252
  9
$EXTMAX
 10
420.0
 20
297.0
 30
0.0
  9
$EXTMIN
 10
0.0
 20
0.0
 30
0.0
  9
$LIMMIN
 10
0.0
 20
0.0
  9
$LIMMAX
 10
420.0
 20
297.0
  9
$VIEWCTR
 10
210.0
 20
148.5
  9
$VIEWSIZE
 40
297.0
  9
$CLAYER
  8
0
  9
$LTSCALE
 40
23.1
  9
$CELTYPE
  6
BYLAYER
  9
$DIMSCALE
 40
1.0
  9
$DIMASZ
 40
3.5
  9
$DIMEXO
 40
0.0
  9
$DIMDLI
 40
15.96
  9
$DIMEXE
 40
1.5
  9
$DIMCEN
 40
3.78
  9
$DIMLFAC
 40
1.0
  9
$DIMBLK
  1
_FILLED
  9
$DIMALT
 70
0
  9
$DIMALTF
 40
25.4
  9
$DIMTXT
 40
3.5
  9
$DIMTOL
 70
1
  9
$DIMLIM
 70
0
  9
$DIMTFAC
 40
1.0
  9
$DIMTP
 40
0.05
  9
$DIMTM
 40
0.05
  9
$DIMGAP
 40
0.625
  9
$DIMDSEP
 70
46
  9
$AUNITS
 70
0
  9
$PDMODE
 70
3
  9
$PDSIZE
 40
0.3125
  9
$HANDSEED
  5
299
  9
$TILEMODE
 70
1
  9
$MEASUREMENT
 70
1
  9
$INSUNITS
 70
4
  0
ENDSEC
  0
SECTION
  2
CLASSES
  0
CLASS
  1
ACDBDICTIONARYWDFLT
  2
AcDbDictionaryWithDefault
  3
AutoCAD 2000
 90
0
 91
1
280
0
281
0
  0
CLASS
  1
ACDBPLACEHOLDER
  2
AcDbPlaceHolder
  3
AutoCAD 2000
 90
0
 91
1
280
0
281
0
  0
CLASS
  1
LAYOUT
  2
AcDbLayout
  3
AutoCAD 2000
 90
0
 91
0
280
0
281
0
  0
ENDSEC
  0
SECTION
  2
TABLES
  0
TABLE
  2
VPORT
  5
8
100
AcDbSymbolTable
 70
2
  0
VPORT
  5
1F4
100
AcDbSymbolTableRecord
100
AcDbViewportTableRecord
  2
*ACTIVE
 70
0
 10
0.0
 20
0.0
 11
1.0
 21
1.0
 12
210.0
 22
148.5
 13
0.0
 23
0.0
 14
1.0
 24
1.0
 15
0.0
 25
0.0
 16
0.0
 26
0.0
 36
1.0
 17
0.0
 27
0.0
 37
0.0
 40
297.0
 41
1.4141414141
 42
50.0
 43
0.0
 44
0.0
 50
0.0
 51
0.0
 71
0
 72
100
 73
1
 74
1
 75
0
 76
0
 77
0
 78
0
  0
ENDTAB
  0
TABLE
  2
LTYPE
  5
5
100
AcDbSymbolTable
 70
6
  0
LTYPE
  5
14
100
AcDbSymbolTableRecord
100
AcDbLinetypeTableRecord
  2
BYBLOCK
 70
0
  3

 72
65
 73
0
 40
0.0
  0
LTYPE
  5
15
100
AcDbSymbolTableRecord
100
AcDbLinetypeTableRecord
  2
BYLAYER
 70
0
  3

 72
65
 73
0
 40
0.0
  0
LTYPE
  5
16
100
AcDbSymbolTableRecord
100
AcDbLinetypeTableRecord
  2
CONTINUOUS
 70
64
  3
Solid line
 72
65
 73
0
 40
0.0
  0
LTYPE
  5
1F5
100
AcDbSymbolTableRecord
100
AcDbLinetypeTableRecord
  2
CENTER
 70
64
  3
____ _ ____ _ ____ _ ____ _ ____ _ ____ _ ____
 72
65
 73
4
 40
0.6
 49
0.375
 74
0
 49
-0.075
 74
0
 49
0.075
 74
0
 49
-0.075
 74
0
  0
LTYPE
  5
1F6
100
AcDbSymbolTableRecord
100
AcDbLinetypeTableRecord
  2
HIDDEN
 70
64
  3
- - - - - - - - - - - - - - - - - - - -
 72
65
 73
2
 40
0.2
 49
0.1
 74
0
 49
-0.1
 74
0
  0
LTYPE
  5
1F7
100
AcDbSymbolTableRecord
100
AcDbLinetypeTableRecord
  2
PHANTOM
 70
64
  3
_____ _ _ _____ _ _ _____ _ _ _____
 72
65
 73
6
 40
0.8
 49
0.45
 74
0
 49
-0.05
 74
0
 49
0.1
 74
0
 49
-0.05
 74
0
 49
0.1
 74
0
 49
-0.05
 74
0
  0
LTYPE
  5
1F8
100
AcDbSymbolTableRecord
100
AcDbLinetypeTableRecord
  2
DOT
 70
64
  3
. . . . . . . . . . . . . . . . . . . .
 72
65
 73
2
 40
0.2
 49
0.1
 74
0
 49
-0.1
 74
0
  0
LTYPE
  5
1F9
100
AcDbSymbolTableRecord
100
AcDbLinetypeTableRecord
  2
DASHED
 70
64
  3
- - - - - - - - - - - - - - - - - - - -
 72
65
 73
2
 40
0.2
 49
0.1
 74
0
 49
-0.1
 74
0
  0
ENDTAB
  0
TABLE
  2
LAYER
  5
2
100
AcDbSymbolTable
 70
36
  0
LAYER
  5
10
100
AcDbSymbolTableRecord
100
AcDbLayerTableRecord
  2
0
 70
0
 62
7
  6
CONTINUOUS
370
-3
390
F
  0
LAYER
  5
1FA
100
AcDbSymbolTableRecord
100
AcDbLayerTableRecord
  2
DEFAULT_1
 70
0
 62
7
  6
CENTER
370
-3
390
F
  0
LAYER
  5
1FB
100
AcDbSymbolTableRecord
100
AcDbLayerTableRecord
  2
DEFAULT_2
 70
0
 62
1
  6
HIDDEN
370
-3
390
F
  0
LAYER
  5
1FC
100
AcDbSymbolTableRecord
100
AcDbLayerTableRecord
  2
DEFAULT_3
 70
0
 62
7
  6
PHANTOM
370
-3
390
F
  0
LAYER
  5
1FD
100
AcDbSymbolTableRecord
100
AcDbLayerTableRecord
  2
BG_STARTBEZUEGE
 70
0
 62
7
  6
CONTINUOUS
370
-3
390
F
  0
LAYER
  5
1FE
100
AcDbSymbolTableRecord
100
AcDbLayerTableRecord
  2
HILFEN
 70
0
 62
7
  6
CONTINUOUS
370
-3
390
F
  0
LAYER
  5
1FF
100
AcDbSymbolTableRecord
100
AcDbLayerTableRecord
  2
PLATZIERUNG
 70
0
 62
7
  6
CONTINUOUS
370
-3
390
F
  0
LAYER
  5
200
100
AcDbSymbolTableRecord
100
AcDbLayerTableRecord
  2
T_STARTBEZUEGE
 70
0
 62
7
  6
CONTINUOUS
370
-3
390
F
  0
LAYER
  5
201
100
AcDbSymbolTableRecord
100
AcDbLayerTableRecord
  2
_03_2D_ZEICHNUNG_BEMASSUNGEN
 70
0
 62
7
  6
CONTINUOUS
370
-3
390
F
  0
LAYER
  5
202
100
AcDbSymbolTableRecord
100
AcDbLayerTableRecord
  2
_04_NOTIZEN
 70
0
 62
7
  6
CONTINUOUS
370
-3
390
F
  0
LAYER
  5
203
100
AcDbSymbolTableRecord
100
AcDbLayerTableRecord
  2
_05_2D_ELEMENTE
 70
0
 62
7
  6
CONTINUOUS
370
-3
390
F
  0
LAYER
  5
204
100
AcDbSymbolTableRecord
100
AcDbLayerTableRecord
  2
_07_EINRASTLINIEN
 70
0
 62
7
  6
CONTINUOUS
370
-3
390
F
  0
LAYER
  5
205
100
AcDbSymbolTableRecord
100
AcDbLayerTableRecord
  2
_21_KURVEN
 70
0
 62
7
  6
CONTINUOUS
370
-3
390
F
  0
LAYER
  5
206
100
AcDbSymbolTableRecord
100
AcDbLayerTableRecord
  2
_24_IMPORT
 70
0
 62
7
  6
CONTINUOUS
370
-3
390
F
  0
LAYER
  5
207
100
AcDbSymbolTableRecord
100
AcDbLayerTableRecord
  2
_26_BEZUGSACHSEN
 70
0
 62
7
  6
CONTINUOUS
370
-3
390
F
  0
LAYER
  5
208
100
AcDbSymbolTableRecord
100
AcDbLayerTableRecord
  2
_27_BEZUGSEBENEN
 70
0
 62
7
  6
CONTINUOUS
370
-3
390
F
  0
LAYER
  5
209
100
AcDbSymbolTableRecord
100
AcDbLayerTableRecord
  2
_28_BEZUGSPUNKTE
 70
0
 62
7
  6
CONTINUOUS
370
-3
390
F
  0
LAYER
  5
20A
100
AcDbSymbolTableRecord
100
AcDbLayerTableRecord
  2
_29_KOORDINATENSYSTEME
 70
0
 62
7
  6
CONTINUOUS
370
-3
390
F
  0
LAYER
  5
20B
100
AcDbSymbolTableRecord
100
AcDbLayerTableRecord
  2
_30_VOLUMEN
 70
0
 62
7
  6
CONTINUOUS
370
-3
390
F
  0
ENDTAB
  0
TABLE
  2
STYLE
  5
3
100
AcDbSymbolTable
 70
1
  0
STYLE
  5
11
100
AcDbSymbolTableRecord
100
AcDbTextStyleTableRecord
  2
STANDARD
 70
0
 40
0.0
 41
0.7
 50
0.0
 71
0
 42
0.2
  3
SIMPLEX.SHX
  4

  0
STYLE
  5
20C
100
AcDbSymbolTableRecord
100
AcDbTextStyleTableRecord
  2
TEXTSTYLE_1
 70
0
 40
0.0
 41
0.8
 50
0.0
 71
0
 42
0.2
  3
gdt
  4

  0
ENDTAB
  0
TABLE
  2
VIEW
  5
6
100
AcDbSymbolTable
 70
0
  0
ENDTAB
  0
TABLE
  2
UCS
  5
7
100
AcDbSymbolTable
 70
0
  0
ENDTAB
  0
TABLE
  2
APPID
  5
9
100
AcDbSymbolTable
 70
1
  0
APPID
  5
20D
100
AcDbSymbolTableRecord
100
AcDbRegAppTableRecord
  2
ACAD
 70
0
  0
ENDTAB
  0
TABLE
  2
BLOCK_RECORD
  5
1
100
AcDbSymbolTable
 70
0
  0
BLOCK_RECORD
  5
20E
100
AcDbSymbolTableRecord
100
AcDbBlockTableRecord
  2
*Model_Space
  0
BLOCK_RECORD
  5
20F
100
AcDbSymbolTableRecord
100
AcDbBlockTableRecord
  2
*Paper_Space
  0
BLOCK_RECORD
  5
210
100
AcDbSymbolTableRecord
100
AcDbBlockTableRecord
  2
_FILLED
  0
BLOCK_RECORD
  5
211
100
AcDbSymbolTableRecord
100
AcDbBlockTableRecord
  2
*D0
  0
BLOCK_RECORD
  5
212
100
AcDbSymbolTableRecord
100
AcDbBlockTableRecord
  2
*D1
  0
BLOCK_RECORD
  5
213
100
AcDbSymbolTableRecord
100
AcDbBlockTableRecord
  2
*D2
  0
ENDTAB
  0
TABLE
  2
DIMSTYLE
  5
A
100
AcDbSymbolTable
 70
1
100
AcDbDimStyleTable
 71
0
  0
DIMSTYLE
105
214
100
AcDbSymbolTableRecord
100
AcDbDimStyleTableRecord
  2
STANDARD
 70
0
  3

  4

 40
1.0
 41
3.5
 42
0.0
 43
0.38
 44
1.5
 45
0.0
 46
0.0
 47
0.05
 48
0.05
140
3.5
141
0.09
142
0.0
143
25.4
144
1.0
145
0.0
146
1.0
147
0.625
 71
1.0
 72
0.0
 73
0
 74
0
 75
0
 76
0
 77
1
 78
8
170
0
171
1
172
0
173
0
174
0
175
0
176
0
177
0
178
2
270
2
271
2
272
2
273
2
274
2
275
0
280
0
281
0
282
0
283
1
284
8
285
0
286
0
287
3
288
0
340
11
278
46
341
210
342
210
343
210
344
210
  0
DIMSTYLE
105
215
100
AcDbSymbolTableRecord
100
AcDbDimStyleTableRecord
  2
DIMSTYLE_1
 70
0
  3

  4

 40
1.0
 41
3.5
 42
0.0
 43
0.38
 44
1.5
 45
0.0
 46
0.0
 47
0.2
 48
0.2
140
3.5
141
0.09
142
0.0
143
25.4
144
1.0
145
0.0
146
1.0
147
0.875
 71
0.0
 72
0.0
 73
0
 74
0
 75
0
 76
0
 77
1
 78
8
170
0
171
1
172
0
173
0
174
0
175
0
176
0
177
0
178
2
270
2
271
2
272
2
273
2
274
2
275
0
280
0
281
0
282
0
283
1
284
8
285
0
286
0
287
3
288
0
340
11
278
46
341
210
342
210
343
210
344
210
  0
DIMSTYLE
105
216
100
AcDbSymbolTableRecord
100
AcDbDimStyleTableRecord
  2
DIMSTYLE_2
 70
0
  3

  4

 40
1.0
 41
3.5
 42
0.0
 43
0.38
 44
1.5
 45
0.0
 46
0.0
 47
0.3
 48
0.3
140
3.5
141
0.09
142
0.0
143
25.4
144
1.0
145
0.0
146
1.0
147
0.875
 71
0.0
 72
0.0
 73
0
 74
0
 75
0
 76
0
 77
1
 78
8
170
0
171
1
172
0
173
0
174
0
175
0
176
0
177
0
178
2
270
2
271
2
272
2
273
2
274
2
275
0
280
0
281
0
282
0
283
1
284
8
285
0
286
0
287
3
288
0
340
11
278
46
341
210
342
210
343
210
344
210
  0
ENDTAB
  0
ENDSEC
  0
SECTION
  2
BLOCKS
  0
BLOCK
  5
20
100
AcDbEntity
  8
0
100
AcDbBlockBegin
  2
*Model_Space
 70
0
 10
0.0
 20
0.0
 30
0.0
  3
*Model_Space
  1

  0
ENDBLK
  5
21
100
AcDbEntity
  8
0
100
AcDbBlockEnd
  0
BLOCK
  5
1C
100
AcDbEntity
  8
0
100
AcDbBlockBegin
  2
*Paper_Space
 70
0
 10
0.0
 20
0.0
 30
0.0
  3
*Paper_Space
  1

  0
ENDBLK
  5
1D
100
AcDbEntity
  8
0
100
AcDbBlockEnd
  0
BLOCK
  5
217
100
AcDbEntity
  8
0
100
AcDbBlockBegin
  2
_FILLED
 70
64
 10
0.0
 20
0.0
  3
_FILLED
  1

  0
SOLID
  5
218
100
AcDbEntity
  8
0
  6
BYBLOCK
 62
0
100
AcDbTrace
 10
0.0
 20
0.0
 11
-1.0
 21
0.125
 12
-1.0
 22
-0.125
 13
-1.0
 23
-0.125
  0
ENDBLK
  5
219
100
AcDbEntity
  8
0
  6
BYBLOCK
 62
0
100
AcDbBlockEnd
  0
BLOCK
  5
21A
100
AcDbEntity
  8
_03_2D_ZEICHNUNG_BEMASSUNGEN
100
AcDbBlockBegin
 62
7
  6
CONTINUOUS
  2
*D0
 70
65
 10
0.0
 20
0.0
  3
*D0
  1

  0
TEXT
  5
21B
100
AcDbEntity
  8
_03_2D_ZEICHNUNG_BEMASSUNGEN
100
AcDbText
 62
2
  6
CONTINUOUS
 10
-84.875
 20
93.625
  7
STANDARD
 40
3.5
  1
16
 50
90.0
 41
0.6785714286
 72
1
 11
-84.875
 21
96.0
100
AcDbText
  0
LINE
  5
21C
100
AcDbEntity
  8
_03_2D_ZEICHNUNG_BEMASSUNGEN
100
AcDbLine
 62
7
  6
CONTINUOUS
 10
-75.0
 20
104.0
 11
-85.5
 21
104.0
  0
LINE
  5
21D
100
AcDbEntity
  8
_03_2D_ZEICHNUNG_BEMASSUNGEN
100
AcDbLine
 62
7
  6
CONTINUOUS
 10
-75.0
 20
88.0
 11
-85.5
 21
88.0
  0
LINE
  5
21E
100
AcDbEntity
  8
_03_2D_ZEICHNUNG_BEMASSUNGEN
100
AcDbLine
 62
7
  6
CONTINUOUS
 10
-84.0
 20
104.0
 11
-84.0
 21
110.0
  0
LINE
  5
21F
100
AcDbEntity
  8
_03_2D_ZEICHNUNG_BEMASSUNGEN
100
AcDbLine
 62
7
  6
CONTINUOUS
 10
-84.0
 20
110.0
 11
-84.0
 21
96.0
  0
LINE
  5
220
100
AcDbEntity
  8
_03_2D_ZEICHNUNG_BEMASSUNGEN
100
AcDbLine
 62
7
  6
CONTINUOUS
 10
-84.0
 20
88.0
 11
-84.0
 21
82.0
  0
LINE
  5
221
100
AcDbEntity
  8
_03_2D_ZEICHNUNG_BEMASSUNGEN
100
AcDbLine
 62
7
  6
CONTINUOUS
 10
-84.0
 20
82.0
 11
-84.0
 21
96.0
  0
INSERT
  5
222
100
AcDbEntity
  8
_03_2D_ZEICHNUNG_BEMASSUNGEN
100
AcDbBlockReference
 62
7
  6
CONTINUOUS
  2
_FILLED
 10
-84.0
 20
104.0
 41
3.5
 42
3.5
 43
3.5
 50
270.0
  0
INSERT
  5
223
100
AcDbEntity
  8
_03_2D_ZEICHNUNG_BEMASSUNGEN
100
AcDbBlockReference
 62
7
  6
CONTINUOUS
  2
_FILLED
 10
-84.0
 20
88.0
 41
3.5
 42
3.5
 43
3.5
 50
90.0
  0
ENDBLK
  5
224
100
AcDbEntity
  8
0
  6
BYBLOCK
 62
0
100
AcDbBlockEnd
  0
BLOCK
  5
225
100
AcDbEntity
  8
_03_2D_ZEICHNUNG_BEMASSUNGEN
100
AcDbBlockBegin
 62
7
  6
CONTINUOUS
  2
*D1
 70
65
 10
0.0
 20
0.0
  3
*D1
  1

  0
TEXT
  5
226
100
AcDbEntity
  8
_03_2D_ZEICHNUNG_BEMASSUNGEN
100
AcDbText
 62
2
  6
CONTINUOUS
 10
-28.75
 20
113.875
  7
STANDARD
 40
3.5
  1
100
 41
0.7142857143
 72
1
 11
-25.0
 21
113.875
100
AcDbText
  0
LINE
  5
227
100
AcDbEntity
  8
_03_2D_ZEICHNUNG_BEMASSUNGEN
100
AcDbLine
 62
7
  6
CONTINUOUS
 10
25.0
 20
104.0
 11
25.0
 21
114.5
  0
LINE
  5
228
100
AcDbEntity
  8
_03_2D_ZEICHNUNG_BEMASSUNGEN
100
AcDbLine
 62
7
  6
CONTINUOUS
 10
-75.0
 20
104.0
 11
-75.0
 21
114.5
  0
LINE
  5
229
100
AcDbEntity
  8
_03_2D_ZEICHNUNG_BEMASSUNGEN
100
AcDbLine
 62
7
  6
CONTINUOUS
 10
25.0
 20
113.0
 11
-25.0
 21
113.0
  0
LINE
  5
22A
100
AcDbEntity
  8
_03_2D_ZEICHNUNG_BEMASSUNGEN
100
AcDbLine
 62
7
  6
CONTINUOUS
 10
-75.0
 20
113.0
 11
-25.0
 21
113.0
  0
INSERT
  5
22B
100
AcDbEntity
  8
_03_2D_ZEICHNUNG_BEMASSUNGEN
100
AcDbBlockReference
 62
7
  6
CONTINUOUS
  2
_FILLED
 10
25.0
 20
113.0
 41
3.5
 42
3.5
 43
3.5
 50
360.0
  0
INSERT
  5
22C
100
AcDbEntity
  8
_03_2D_ZEICHNUNG_BEMASSUNGEN
100
AcDbBlockReference
 62
7
  6
CONTINUOUS
  2
_FILLED
 10
-75.0
 20
113.0
 41
3.5
 42
3.5
 43
3.5
 50
180.0
  0
ENDBLK
  5
22D
100
AcDbEntity
  8
0
  6
BYBLOCK
 62
0
100
AcDbBlockEnd
  0
BLOCK
  5
22E
100
AcDbEntity
  8
_03_2D_ZEICHNUNG_BEMASSUNGEN
100
AcDbBlockBegin
 62
7
  6
CONTINUOUS
  2
*D2
 70
65
 10
0.0
 20
0.0
  3
*D2
  1

  0
TEXT
  5
22F
100
AcDbEntity
  8
_03_2D_ZEICHNUNG_BEMASSUNGEN
100
AcDbText
 62
2
  6
CONTINUOUS
 10
33.1640589628
 20
87.75
  7
STANDARD
 40
3.5
  1
22.5
 50
90.0
 41
0.7142857143
 72
1
 11
33.1640589628
 21
92.75
100
AcDbText
  0
LINE
  5
230
100
AcDbEntity
  8
_03_2D_ZEICHNUNG_BEMASSUNGEN
100
AcDbLine
 62
7
  6
CONTINUOUS
 10
25.0
 20
81.5
 11
35.5390589628
 21
81.5
  0
LINE
  5
231
100
AcDbEntity
  8
_03_2D_ZEICHNUNG_BEMASSUNGEN
100
AcDbLine
 62
7
  6
CONTINUOUS
 10
-75.0
 20
104.0
 11
35.5390589628
 21
104.0
  0
LINE
  5
232
100
AcDbEntity
  8
_03_2D_ZEICHNUNG_BEMASSUNGEN
100
AcDbLine
 62
7
  6
CONTINUOUS
 10
34.0390589628
 20
81.5
 11
34.0390589628
 21
92.75
  0
LINE
  5
233
100
AcDbEntity
  8
_03_2D_ZEICHNUNG_BEMASSUNGEN
100
AcDbLine
 62
7
  6
CONTINUOUS
 10
34.0390589628
 20
104.0
 11
34.0390589628
 21
92.75
  0
INSERT
  5
234
100
AcDbEntity
  8
_03_2D_ZEICHNUNG_BEMASSUNGEN
100
AcDbBlockReference
 62
7
  6
CONTINUOUS
  2
_FILLED
 10
34.0390589628
 20
81.5
 41
3.5
 42
3.5
 43
3.5
 50
270.0
  0
INSERT
  5
235
100
AcDbEntity
  8
_03_2D_ZEICHNUNG_BEMASSUNGEN
100
AcDbBlockReference
 62
7
  6
CONTINUOUS
  2
_FILLED
 10
34.0390589628
 20
104.0
 41
3.5
 42
3.5
 43
3.5
 50
90.0
  0
ENDBLK
  5
236
100
AcDbEntity
  8
0
  6
BYBLOCK
 62
0
100
AcDbBlockEnd
  0
ENDSEC
  0
SECTION
  2
ENTITIES
  0
DIMENSION
  5
237
100
AcDbEntity
  8
_03_2D_ZEICHNUNG_BEMASSUNGEN
100
AcDbDimension
 62
7
  6
CONTINUOUS
  2
*D0
 10
-84.0
 20
88.0
 11
-84.0
 21
95.500002594
 70
160
 71
2
 42
16.0
  3
DIMSTYLE_1
100
AcDbAlignedDimension
 13
-75.0
 23
104.0
 14
-75.0
 24
88.0
 50
270.0
100
AcDbRotatedDimension
  0
DIMENSION
  5
238
100
AcDbEntity
  8
_03_2D_ZEICHNUNG_BEMASSUNGEN
100
AcDbDimension
 62
7
  6
CONTINUOUS
  2
*D1
 10
-75.0
 20
113.0
 11
-25.4999988556
 21
113.0
 70
160
 71
2
 42
100.0
  3
DIMSTYLE_2
100
AcDbAlignedDimension
 13
25.0
 23
104.0
 14
-75.0
 24
104.0
 50
180.0
100
AcDbRotatedDimension
  0
DIMENSION
  5
239
100
AcDbEntity
  8
_03_2D_ZEICHNUNG_BEMASSUNGEN
100
AcDbDimension
 62
7
  6
CONTINUOUS
  2
*D2
 10
34.0390589628
 20
104.0
 11
34.0390589628
 21
92.2499998751
 70
160
 71
2
 42
22.5
  3
DIMSTYLE_1
100
AcDbAlignedDimension
 13
25.0
 23
81.5
 14
-75.0
 24
104.0
 50
90.0
100
AcDbRotatedDimension
  0
LINE
  5
23A
100
AcDbEntity
  8
_30_VOLUMEN
100
AcDbLine
 62
4
  6
CONTINUOUS
 10
-75.0
 20
88.5
 11
-75.0
 21
103.5
  0
LINE
  5
23B
100
AcDbEntity
  8
_30_VOLUMEN
100
AcDbLine
 62
4
  6
CONTINUOUS
 10
-74.5
 20
88.0
 11
-74.5
 21
104.0
  0
LINE
  5
23C
100
AcDbEntity
  8
_30_VOLUMEN
100
AcDbLine
 62
4
  6
CONTINUOUS
 10
-75.0
 20
103.5
 11
-74.5
 21
104.0
  0
LINE
  5
23D
100
AcDbEntity
  8
_30_VOLUMEN
100
AcDbLine
 62
4
  6
CONTINUOUS
 10
-75.0
 20
88.5
 11
-74.5
 21
88.0
  0
LINE
  5
23E
100
AcDbEntity
  8
_21_KURVEN
100
AcDbLine
 62
7
  6
CONTINUOUS
 10
25.0
 20
81.5
 11
5.0
 21
81.5
  0
LINE
  5
23F
100
AcDbEntity
  8
_21_KURVEN
100
AcDbLine
 62
7
  6
CONTINUOUS
 10
18.6197170362
 20
82.0250006885
 11
25.0390589628
 21
81.4601899021
  0
LINE
  5
240
100
AcDbEntity
  8
_30_VOLUMEN
100
AcDbLine
 62
4
  6
CONTINUOUS
 10
24.5667079129
 20
81.5042493236
 11
18.6551480231
 21
82.024382513
  0
LINE
  5
241
100
AcDbEntity
  8
_30_VOLUMEN
100
AcDbLine
 62
4
  6
CONTINUOUS
 10
-74.5
 20
88.0
 11
5.0
 21
88.0
  0
LINE
  5
242
100
AcDbEntity
  8
0
100
AcDbLine
 62
4
  6
CONTINUOUS
 10
12.0
 20
88.0
 11
5.0
 21
88.0
  0
LINE
  5
243
100
AcDbEntity
  8
_26_BEZUGSACHSEN
100
AcDbLine
 62
4
  6
CONTINUOUS
 10
24.1118708045
 20
88.9351020423
 11
24.2
 21
88.9351020423
  0
LINE
  5
244
100
AcDbEntity
  8
_21_KURVEN
100
AcDbLine
 62
7
  6
CONTINUOUS
 10
18.083714695
 20
87.1821962978
 11
17.7813413511
 21
87.2506676974
  0
LINE
  5
245
100
AcDbEntity
  8
_21_KURVEN
100
AcDbLine
 62
7
  6
CONTINUOUS
 10
17.7813413511
 20
87.2506676974
 11
19.9264772247
 21
86.6710906722
  0
LINE
  5
246
100
AcDbEntity
  8
_21_KURVEN
100
AcDbLine
 62
7
  6
CONTINUOUS
 10
19.2675725849
 20
87.1638561266
 11
18.1938426543
 21
87.453958589
  0
LINE
  5
247
100
AcDbEntity
  8
_21_KURVEN
100
AcDbLine
 62
7
  6
CONTINUOUS
 10
18.6197170362
 20
82.0250006885
 11
12.8118227248
 21
84.7637686138
  0
LINE
  5
248
100
AcDbEntity
  8
_30_VOLUMEN
100
AcDbLine
 62
4
  6
CONTINUOUS
 10
18.5889674681
 20
82.0422633054
 11
13.2404885356
 21
84.5643895294
  0
LINE
  5
249
100
AcDbEntity
  8
_30_VOLUMEN
100
AcDbLine
 62
4
  6
CONTINUOUS
 10
-74.5
 20
104.0
 11
5.0
 21
104.0
  0
LINE
  5
24A
100
AcDbEntity
  8
0
100
AcDbLine
 62
4
  6
CONTINUOUS
 10
18.1
 20
104.0
 11
5.0
 21
104.0
  0
LINE
  5
24B
100
AcDbEntity
  8
_30_VOLUMEN
100
AcDbLine
 62
4
  6
CONTINUOUS
 10
13.1743575617
 20
84.6057159344
 11
13.2404885356
 21
84.5643895294
  0
LINE
  5
24C
100
AcDbEntity
  8
_30_VOLUMEN
100
AcDbLine
 62
4
  6
CONTINUOUS
 10
13.1735536087
 20
84.6046354279
 11
12.5146489689
 21
85.0974008823
  0
LINE
  5
24D
100
AcDbEntity
  8
_30_VOLUMEN
100
AcDbLine
 62
7
  6
CONTINUOUS
 10
13.0919472107
 20
85.1531627392
 11
12.4330425709
 21
85.6459281937
  0
LINE
  5
24E
100
AcDbEntity
  8
0
100
AcDbLine
 62
4
  6
CONTINUOUS
 10
6.0717967697
 20
94.247483631
 11
13.3652697098
 21
104.0
  0
LINE
  5
24F
100
AcDbEntity
  8
_21_KURVEN
100
AcDbLine
 62
7
  6
CONTINUOUS
 10
19.9264772247
 20
86.6710906722
 11
19.2675725849
 21
87.1638561266
  0
LINE
  5
250
100
AcDbEntity
  8
_30_VOLUMEN
100
AcDbLine
 62
7
  6
CONTINUOUS
 10
16.5707814486
 20
90.0417466918
 11
16.5681341241
 21
90.043726508
  0
LINE
  5
251
100
AcDbEntity
  8
_30_VOLUMEN
100
AcDbLine
 62
7
  6
CONTINUOUS
 10
16.6201262113
 20
90.0905979251
 11
16.6180453134
 21
90.092154136
  0
LINE
  5
252
100
AcDbEntity
  8
_26_BEZUGSACHSEN
100
AcDbLine
 62
4
  6
CONTINUOUS
 10
13.8985443357
 20
86.2908692069
 11
12.0
 21
88.0
  0
LINE
  5
253
100
AcDbEntity
  8
_21_KURVEN
100
AcDbLine
 62
7
  6
CONTINUOUS
 10
21.9285499865
 20
93.7893135007
 11
16.5894764906
 21
90.0722645968
  0
LINE
  5
254
100
AcDbEntity
  8
_26_BEZUGSACHSEN
100
AcDbLine
 62
4
  6
CONTINUOUS
 10
16.5894764906
 20
90.0722645968
 11
21.9285499865
 21
93.7893135007
  0
LINE
  5
255
100
AcDbEntity
  8
_30_VOLUMEN
100
AcDbLine
 62
4
  6
CONTINUOUS
 10
16.6201262113
 20
90.0905979251
 11
21.5368689379
 21
93.5136212599
  0
LINE
  5
256
100
AcDbEntity
  8
_26_BEZUGSACHSEN
100
AcDbLine
 62
4
  6
CONTINUOUS
 10
24.1077546591
 20
88.9381803243
 11
24.1118708045
 21
88.9351020423
  0
LINE
  5
257
100
AcDbEntity
  8
0
100
AcDbLine
 62
4
  6
CONTINUOUS
 10
5.0
 20
104.0
 11
5.0
 21
88.0
  0
LINE
  5
258
100
AcDbEntity
  8
0
100
AcDbLine
 62
4
  6
CONTINUOUS
 10
6.0717967697
 20
104.0
 11
6.0717967697
 21
94.247483631
  0
LINE
  5
259
100
AcDbEntity
  8
0
100
AcDbLine
 62
4
  6
CONTINUOUS
 10
6.0717967697
 20
94.247483631
 11
5.9022366792
 21
88.0
  0
LINE
  5
25A
100
AcDbEntity
  8
_30_VOLUMEN
100
AcDbLine
 62
7
  6
CONTINUOUS
 10
21.5368689379
 20
93.5136212599
 11
21.53478804
 21
93.5151774708
  0
LINE
  5
25B
100
AcDbEntity
  8
_30_VOLUMEN
100
AcDbLine
 62
4
  6
CONTINUOUS
 10
21.9989060632
 20
93.5080503485
 11
21.770213003
 21
93.6790797099
  0
LINE
  5
25C
100
AcDbEntity
  8
_30_VOLUMEN
100
AcDbLine
 62
4
  6
CONTINUOUS
 10
12.4330425709
 20
85.6459281937
 11
13.2851953335
 21
86.8434041397
  0
LINE
  5
25D
100
AcDbEntity
  8
_26_BEZUGSACHSEN
100
AcDbLine
 62
4
  6
CONTINUOUS
 10
13.8985443357
 20
86.2908692069
 11
16.5894764906
 21
90.0722645968
  0
LINE
  5
25E
100
AcDbEntity
  8
_21_KURVEN
100
AcDbLine
 62
7
  6
CONTINUOUS
 10
12.8118227248
 20
84.7637686138
 11
16.5894764906
 21
90.0722645968
  0
LINE
  5
25F
100
AcDbEntity
  8
_30_VOLUMEN
100
AcDbLine
 62
4
  6
CONTINUOUS
 10
13.0919472107
 20
85.1531627392
 11
16.5707814486
 21
90.0417466918
  0
LINE
  5
260
100
AcDbEntity
  8
0
100
AcDbLine
 62
4
  6
CONTINUOUS
 10
24.2
 20
97.9
 11
18.1
 21
104.0
  0
LINE
  5
261
100
AcDbEntity
  8
_21_KURVEN
100
AcDbLine
 62
1
  6
CENTER
 10
24.1196937921
 20
88.8955322657
 11
24.1130635495
 21
88.9083469337
  0
LINE
  5
262
100
AcDbEntity
  8
_30_VOLUMEN
100
AcDbLine
 62
4
  6
CONTINUOUS
 10
22.1207765505
 20
93.3558599538
 11
24.5535022024
 21
87.9471428119
  0
LINE
  5
263
100
AcDbEntity
  8
_21_KURVEN
100
AcDbLine
 62
7
  6
CONTINUOUS
 10
24.5678004776
 20
87.9153532321
 11
21.9274990297
 21
93.7855769008
  0
LINE
  5
264
100
AcDbEntity
  8
_26_BEZUGSACHSEN
100
AcDbLine
 62
4
  6
CONTINUOUS
 10
21.9285499865
 20
93.7893135007
 11
24.1118708045
 21
88.9351020423
  0
LINE
  5
265
100
AcDbEntity
  8
_30_VOLUMEN
100
AcDbLine
 62
4
  6
CONTINUOUS
 10
24.5703379947
 20
87.8804107861
 11
25.0020742007
 21
81.9352612273
  0
LINE
  5
266
100
AcDbEntity
  8
_21_KURVEN
100
AcDbLine
 62
7
  6
CONTINUOUS
 10
25.0363751929
 20
81.4629252831
 11
24.5678004776
 21
87.9153532321
  0
LINE
  5
267
100
AcDbEntity
  8
0
100
AcDbLine
 62
4
  6
CONTINUOUS
 10
24.2
 20
88.9351020423
 11
24.2
 21
97.9
  0
LINE
  5
268
100
AcDbEntity
  8
_21_KURVEN
100
AcDbLine
 62
7
  6
CONTINUOUS
 10
25.0
 20
81.5
 11
25.0
 21
104.0
  0
ARC
  5
269
100
AcDbEntity
  8
_30_VOLUMEN
100
AcDbCircle
 62
4
  6
CONTINUOUS
 10
19.2665499062
 20
87.1127623682
 40
1.8641208939
100
AcDbArc
 50
245.2823416787
 51
254.8873394284
  0
ARC
  5
26A
100
AcDbEntity
  8
_30_VOLUMEN
100
AcDbCircle
 62
4
  6
CONTINUOUS
 10
19.3312255191
 20
87.188005308
 40
1.8470068555
100
AcDbArc
 50
31.2284308605
 51
41.6303603874
  0
ARC
  5
26B
100
AcDbEntity
  8
_30_VOLUMEN
100
AcDbCircle
 62
4
  6
CONTINUOUS
 10
16.735725544
 20
89.9245668739
 40
0.2023104439
100
AcDbArc
 50
124.847614796
 51
144.526340364
  0
ARC
  5
26C
100
AcDbEntity
  8
_30_VOLUMEN
100
AcDbCircle
 62
4
  6
CONTINUOUS
 10
24.3725624686
 20
87.8659909885
 40
0.1983048302
100
AcDbArc
 50
4.1543842893
 51
24.1563273914
  0
ARC
  5
26D
100
AcDbEntity
  8
_30_VOLUMEN
100
AcDbCircle
 62
4
  6
CONTINUOUS
 10
18.6719241765
 20
82.2181997298
 40
0.1945133438
100
AcDbArc
 50
244.7554072639
 51
264.9405570963
  0
SPLINE
  5
26E
100
AcDbEntity
  8
_30_VOLUMEN
100
AcDbSpline
 62
4
  6
CONTINUOUS
 70
0
 71
3
 72
8
 73
4
 74
0
 42
0.0000001
 43
0.0000001
 44
0.0000000001
 40
0.0
 40
0.0
 40
0.0
 40
0.0
 40
1.0
 40
1.0
 40
1.0
 40
1.0
 10
22.1207765505
 20
93.3558599538
 30
0.0
 10
22.0941214047
 20
93.4151227581
 30
0.0
 10
22.050718285
 20
93.4688325009
 30
0.0
 10
21.9988352172
 20
93.5079569697
 30
0.0
  0
SPLINE
  5
26F
100
AcDbEntity
  8
_30_VOLUMEN
100
AcDbSpline
 62
4
  6
CONTINUOUS
 70
0
 71
3
 72
9
 73
5
 74
0
 42
0.0000001
 43
0.0000001
 44
0.0000000001
 40
0.0
 40
0.0
 40
0.0
 40
0.0
 40
0.4979301728
 40
1.0
 40
1.0
 40
1.0
 40
1.0
 10
24.5667079129
 20
81.5042493236
 30
0.0
 10
24.6236738174
 20
81.4992371343
 30
0.0
 10
24.7415782606
 20
81.5150978374
 30
0.0
 10
24.8420575291
 20
81.5786472908
 30
0.0
 10
24.883034707
 20
81.6192146291
 30
0.0
  0
SPLINE
  5
270
100
AcDbEntity
  8
_30_VOLUMEN
100
AcDbSpline
 62
4
  6
CONTINUOUS
 70
0
 71
3
 72
9
 73
5
 74
0
 42
0.0000001
 43
0.0000001
 44
0.0000000001
 40
0.0
 40
0.0
 40
0.0
 40
0.0
 40
0.5014611801
 40
1.0
 40
1.0
 40
1.0
 40
1.0
 10
24.883034707
 20
81.6192146291
 30
0.0
 10
24.9240894374
 20
81.6598587442
 30
0.0
 10
24.9887928904
 20
81.7600031658
 30
0.0
 10
25.0062340884
 20
81.8779782055
 30
0.0
 10
25.0020742007
 20
81.9352612273
 30
0.0
  0
SPLINE
  5
271
100
AcDbEntity
  8
_30_VOLUMEN
100
AcDbSpline
 62
4
  6
CONTINUOUS
 70
0
 71
3
 72
13
 73
9
 74
0
 42
0.0000001
 43
0.0000001
 44
0.0000000001
 40
0.0
 40
0.0
 40
0.0
 40
0.0
 40
0.2505827095
 40
0.5006949563
 40
0.6261180584
 40
0.7510606269
 40
0.8756504234
 40
1.0
 40
1.0
 40
1.0
 40
1.0
 10
18.083714695
 20
87.1821962978
 30
0.0
 10
18.1664359237
 20
87.4763055577
 30
0.0
 10
18.4787465332
 20
88.032497452
 30
0.0
 10
19.1452995329
 20
88.4650216576
 30
0.0
 10
19.7464393056
 20
88.5964001399
 30
0.0
 10
20.2081898012
 20
88.5841884892
 30
0.0
 10
20.6514933376
 20
88.460463642
 30
0.0
 10
20.9182192053
 20
88.3080800608
 30
0.0
 10
21.0395629474
 20
88.2171847186
 30
0.0
  0
SPLINE
  5
272
100
AcDbEntity
  8
_30_VOLUMEN
100
AcDbSpline
 62
4
  6
CONTINUOUS
 70
0
 71
3
 72
11
 73
7
 74
0
 42
0.0000001
 43
0.0000001
 44
0.0000000001
 40
0.0
 40
0.0
 40
0.0
 40
0.0
 40
0.2511684833
 40
0.501993254
 40
0.7512703686
 40
1.0
 40
1.0
 40
1.0
 40
1.0
 10
18.083714695
 20
87.1821962978
 30
0.0
 10
18.0326878598
 20
87.0007741288
 30
0.0
 10
17.9848269118
 20
86.6206110917
 30
0.0
 10
18.0818992795
 20
86.0570426897
 30
0.0
 10
18.3415851966
 20
85.5492184901
 30
0.0
 10
18.6086497021
 20
85.2782957929
 30
0.0
 10
18.7580213642
 20
85.1664054876
 30
0.0
  0
SPLINE
  5
273
100
AcDbEntity
  8
_30_VOLUMEN
100
AcDbSpline
 62
4
  6
CONTINUOUS
 70
0
 71
3
 72
11
 73
7
 74
0
 42
0.0000001
 43
0.0000001
 44
0.0000000001
 40
0.0
 40
0.0
 40
0.0
 40
0.0
 40
0.2488877241
 40
0.497972742
 40
0.7489948545
 40
1.0
 40
1.0
 40
1.0
 40
1.0
 10
12.5147785752
 20
85.097585316
 30
0.0
 10
12.4743416812
 20
85.1280222933
 30
0.0
 10
12.4042389572
 20
85.2052306359
 30
0.0
 10
12.3522256548
 20
85.3525729602
 30
0.0
 10
12.3601547093
 20
85.5087201866
 30
0.0
 10
12.4034481424
 20
85.6043410301
 30
0.0
 10
12.4330425709
 20
85.6459281937
 30
0.0
  0
SPLINE
  5
274
100
AcDbEntity
  8
_30_VOLUMEN
100
AcDbSpline
 62
4
  6
CONTINUOUS
 70
0
 71
3
 72
9
 73
5
 74
0
 42
0.0000001
 43
0.0000001
 44
0.0000000001
 40
0.0
 40
0.0
 40
0.0
 40
0.0
 40
0.4986196845
 40
1.0
 40
1.0
 40
1.0
 40
1.0
 10
20.9106142016
 20
88.1455885753
 30
0.0
 10
21.0431102531
 20
87.9269341404
 30
0.0
 10
21.2190848692
 20
87.4276764654
 30
0.0
 10
21.1799410608
 20
86.9002293361
 30
0.0
 10
21.1103351147
 20
86.652750501
 30
0.0
  0
SPLINE
  5
275
100
AcDbEntity
  8
_30_VOLUMEN
100
AcDbSpline
 62
4
  6
CONTINUOUS
 70
0
 71
3
 72
12
 73
8
 74
0
 42
0.0000001
 43
0.0000001
 44
0.0000000001
 40
0.0
 40
0.0
 40
0.0
 40
0.0
 40
0.1244782563
 40
0.2492884786
 40
0.4987492752
 40
0.7494463153
 40
1.0
 40
1.0
 40
1.0
 40
1.0
 10
18.7805403305
 20
85.3131120134
 30
0.0
 10
18.8992765213
 20
85.2810316361
 30
0.0
 10
19.1441988172
 20
85.2400860844
 30
0.0
 10
19.6392438723
 20
85.2568976068
 30
0.0
 10
20.240615439
 20
85.4603810795
 30
0.0
 10
20.8131549288
 20
85.9593837808
 30
0.0
 10
21.0433056287
 20
86.4144320811
 30
0.0
 10
21.1103351147
 20
86.652750501
 30
0.0
  0
SPLINE
  5
276
100
AcDbEntity
  8
_30_VOLUMEN
100
AcDbSpline
 62
4
  6
CONTINUOUS
 70
0
 71
3
 72
15
 73
11
 74
0
 42
0.0000001
 43
0.0000001
 44
0.0000000001
 40
0.0
 40
0.0
 40
0.0
 40
0.0
 40
0.1258879401
 40
0.2517476031
 40
0.3770770555
 40
0.5016813929
 40
0.6257907199
 40
0.7499287226
 40
0.8746020031
 40
1.0
 40
1.0
 40
1.0
 40
1.0
 10
22.0716130983
 20
86.091513647
 30
0.0
 10
21.9923676295
 20
85.8097621961
 30
0.0
 10
21.7207438549
 20
85.2717723815
 30
0.0
 10
21.0431372116
 20
84.6826150073
 30
0.0
 10
20.1947337988
 20
84.3934248784
 30
0.0
 10
19.3040306733
 20
84.451183144
 30
0.0
 10
18.5072865776
 20
84.8481263484
 30
0.0
 10
17.9277367678
 20
85.5241858189
 30
0.0
 10
17.6536377952
 20
86.3730749387
 30
0.0
 10
17.7024042976
 20
86.9700127948
 30
0.0
 10
17.7813413511
 20
87.2506676974
 30
0.0
  0
SPLINE
  5
277
100
AcDbEntity
  8
_30_VOLUMEN
100
AcDbSpline
 62
4
  6
CONTINUOUS
 70
0
 71
3
 72
11
 73
7
 74
0
 42
0.0000001
 43
0.0000001
 44
0.0000000001
 40
0.0
 40
0.0
 40
0.0
 40
0.0
 40
0.2510051455
 40
0.502027258
 40
0.7511122759
 40
1.0
 40
1.0
 40
1.0
 40
1.0
 10
13.0919472107
 20
85.1531627392
 30
0.0
 10
13.0623527822
 20
85.1115755757
 30
0.0
 10
13.019059349
 20
85.0159547322
 30
0.0
 10
13.0111302945
 20
84.8598075058
 30
0.0
 10
13.063143597
 20
84.7124651815
 30
0.0
 10
13.133246321
 20
84.6352568389
 30
0.0
 10
13.173683215
 20
84.6048198616
 30
0.0
  0
SPLINE
  5
278
100
AcDbEntity
  8
_30_VOLUMEN
100
AcDbSpline
 62
4
  6
CONTINUOUS
 70
0
 71
3
 72
9
 73
5
 74
0
 42
0.0000001
 43
0.0000001
 44
0.0000000001
 40
0.0
 40
0.0
 40
0.0
 40
0.0
 40
0.4979043951
 40
1.0
 40
1.0
 40
1.0
 40
1.0
 10
21.9988352172
 20
93.5079569697
 30
0.0
 10
21.9344832349
 20
93.5564841141
 30
0.0
 10
21.7692631229
 20
93.6129026472
 30
0.0
 10
21.6035722678
 20
93.5600599424
 30
0.0
 10
21.5368689379
 20
93.5136212599
 30
0.0
  0
SPLINE
  5
279
100
AcDbEntity
  8
_30_VOLUMEN
100
AcDbSpline
 62
4
  6
CONTINUOUS
 70
0
 71
3
 72
11
 73
7
 74
0
 42
0.0000001
 43
0.0000001
 44
0.0000000001
 40
0.0
 40
0.0
 40
0.0
 40
0.0
 40
0.2487296314
 40
0.498006746
 40
0.7488315167
 40
1.0
 40
1.0
 40
1.0
 40
1.0
 10
21.0395629474
 20
88.2171847186
 30
0.0
 10
21.1889346095
 20
88.1052944133
 30
0.0
 10
21.455999115
 20
87.8343717161
 30
0.0
 10
21.7156850322
 20
87.3265475165
 30
0.0
 10
21.8127573999
 20
86.7629791145
 30
0.0
 10
21.7648964518
 20
86.3828160773
 30
0.0
 10
21.7138696166
 20
86.2013939083
 30
0.0
  0
SPLINE
  5
27A
100
AcDbEntity
  8
_30_VOLUMEN
100
AcDbSpline
 62
4
  6
CONTINUOUS
 70
0
 71
3
 72
15
 73
11
 74
0
 42
0.0000001
 43
0.0000001
 44
0.0000000001
 40
0.0
 40
0.0
 40
0.0
 40
0.0
 40
0.1258879401
 40
0.2517476031
 40
0.3770770555
 40
0.5016813929
 40
0.6257907199
 40
0.7499287226
 40
0.8746020031
 40
1.0
 40
1.0
 40
1.0
 40
1.0
 10
17.7813413511
 20
87.2506676974
 30
0.0
 10
17.86058682
 20
87.5324191484
 30
0.0
 10
18.1322105945
 20
88.070408963
 30
0.0
 10
18.8098172378
 20
88.6595663371
 30
0.0
 10
19.6582206506
 20
88.948756466
 30
0.0
 10
20.5489237762
 20
88.8909982004
 30
0.0
 10
21.3456678718
 20
88.494054996
 30
0.0
 10
21.9252176817
 20
87.8179955255
 30
0.0
 10
22.1993166542
 20
86.9691064058
 30
0.0
 10
22.1505501518
 20
86.3721685496
 30
0.0
 10
22.0716130983
 20
86.091513647
 30
0.0
  0
SPLINE
  5
27B
100
AcDbEntity
  8
_30_VOLUMEN
100
AcDbSpline
 62
4
  6
CONTINUOUS
 70
0
 71
3
 72
13
 73
9
 74
0
 42
0.0000001
 43
0.0000001
 44
0.0000000001
 40
0.0
 40
0.0
 40
0.0
 40
0.0
 40
0.1243495766
 40
0.2489393731
 40
0.3738819416
 40
0.4993050437
 40
0.7494172905
 40
1.0
 40
1.0
 40
1.0
 40
1.0
 10
18.7580213642
 20
85.1664054876
 30
0.0
 10
18.8793651063
 20
85.0755101453
 30
0.0
 10
19.146090974
 20
84.9231265641
 30
0.0
 10
19.5893945104
 20
84.799401717
 30
0.0
 10
20.051145006
 20
84.7871900663
 30
0.0
 10
20.6522847788
 20
84.9185685486
 30
0.0
 10
21.3188377784
 20
85.3510927542
 30
0.0
 10
21.631148388
 20
85.9072846484
 30
0.0
 10
21.7138696166
 20
86.2013939083
 30
0.0
  0
SPLINE
  5
27C
100
AcDbEntity
  8
_21_KURVEN
100
AcDbSpline
 62
5
  6
CONTINUOUS
 70
0
 71
3
 72
9
 73
5
 74
0
 42
0.0000001
 43
0.0000001
 44
0.0000000001
 40
0.0
 40
0.0
 40
0.0
 40
0.0
 40
0.5
 40
1.0
 40
1.0
 40
1.0
 40
1.0
 10
24.5667079129
 20
81.5042493236
 30
0.0
 10
24.6039744707
 20
81.5027450763
 30
0.0
 10
24.6830261727
 20
81.5037071018
 30
0.0
 10
24.7538736969
 20
81.5332862621
 30
0.0
 10
24.7895610854
 20
81.5502197205
 30
0.0
  0
SPLINE
  5
27D
100
AcDbEntity
  8
_21_KURVEN
100
AcDbSpline
 62
5
  6
CONTINUOUS
 70
0
 71
3
 72
9
 73
5
 74
0
 42
0.0000001
 43
0.0000001
 44
0.0000000001
 40
0.0
 40
0.0
 40
0.0
 40
0.0
 40
0.5
 40
1.0
 40
1.0
 40
1.0
 40
1.0
 10
24.789561093
 20
81.5502197246
 30
0.0
 10
24.8218356004
 20
81.5695131722
 30
0.0
 10
24.8880286265
 20
81.6138781056
 30
0.0
 10
24.9316600803
 20
81.6774170104
 30
0.0
 10
24.952729062
 20
81.711472609
 30
0.0
  0
SPLINE
  5
27E
100
AcDbEntity
  8
_21_KURVEN
100
AcDbSpline
 62
5
  6
CONTINUOUS
 70
0
 71
3
 72
9
 73
5
 74
0
 42
0.0000001
 43
0.0000001
 44
0.0000000001
 40
0.0
 40
0.0
 40
0.0
 40
0.0
 40
0.5
 40
1.0
 40
1.0
 40
1.0
 40
1.0
 10
24.9527290583
 20
81.7114726023
 30
0.0
 10
24.9693909013
 20
81.7452526736
 30
0.0
 10
25.0009205778
 20
81.8178069535
 30
0.0
 10
25.0030003652
 20
81.8965494544
 30
0.0
 10
25.0020742004
 20
81.9352612319
 30
0.0
  0
SPLINE
  5
27F
100
AcDbEntity
  8
_21_KURVEN
100
AcDbSpline
 62
5
  6
CONTINUOUS
 70
0
 71
3
 72
8
 73
4
 74
0
 42
0.0000001
 43
0.0000001
 44
0.0000000001
 40
0.0
 40
0.0
 40
0.0
 40
0.0
 40
1.0
 40
1.0
 40
1.0
 40
1.0
 10
18.5889674681
 20
82.0422633054
 30
0.0
 10
18.5952165813
 20
82.0393837919
 30
0.0
 10
18.6024749475
 20
82.0363929967
 30
0.0
 10
18.6110779712
 20
82.0334470009
 30
0.0
  0
LINE
  5
280
100
AcDbEntity
  8
_21_KURVEN
100
AcDbLine
 62
5
  6
CONTINUOUS
 10
18.6110779708
 20
82.033447001
 11
18.6226928976
 21
82.0300163481
  0
SPLINE
  5
281
100
AcDbEntity
  8
_21_KURVEN
100
AcDbSpline
 62
5
  6
CONTINUOUS
 70
0
 71
3
 72
8
 73
4
 74
0
 42
0.0000001
 43
0.0000001
 44
0.0000000001
 40
0.0
 40
0.0
 40
0.0
 40
0.0
 40
1.0
 40
1.0
 40
1.0
 40
1.0
 10
18.622692898
 20
82.030016348
 30
0.0
 10
18.6320557387
 20
82.0276872246
 30
0.0
 10
18.6430450623
 20
82.0256366112
 30
0.0
 10
18.655148024
 20
82.0243825129
 30
0.0
  0
SPLINE
  5
282
100
AcDbEntity
  8
_21_KURVEN
100
AcDbSpline
 62
5
  6
CONTINUOUS
 70
0
 71
3
 72
11
 73
7
 74
0
 42
0.0000001
 43
0.0000001
 44
0.0000000001
 40
0.0
 40
0.0
 40
0.0
 40
0.0
 40
0.25
 40
0.5
 40
0.75
 40
1.0
 40
1.0
 40
1.0
 40
1.0
 10
13.0919472107
 20
85.1531627392
 30
0.0
 10
13.0757842304
 20
85.1262669689
 30
0.0
 10
13.0445095457
 20
85.0718945716
 30
0.0
 10
13.0174023375
 20
84.9809377274
 30
0.0
 10
13.0158618068
 20
84.8863645131
 30
0.0
 10
13.0293671398
 20
84.825658033
 30
0.0
 10
13.0367107476
 20
84.7954372814
 30
0.0
  0
SPLINE
  5
283
100
AcDbEntity
  8
_21_KURVEN
100
AcDbSpline
 62
5
  6
CONTINUOUS
 70
0
 71
3
 72
9
 73
5
 74
0
 42
0.0000001
 43
0.0000001
 44
0.0000000001
 40
0.0
 40
0.0
 40
0.0
 40
0.0
 40
0.5
 40
1.0
 40
1.0
 40
1.0
 40
1.0
 10
13.0367107443
 20
84.7954372912
 30
0.0
 10
13.0551588118
 20
84.7493113783
 30
0.0
 10
13.100908943
 20
84.654900363
 30
0.0
 10
13.1845710929
 20
84.596692747
 30
0.0
 10
13.2281499471
 20
84.5704771497
 30
0.0
  0
LINE
  5
284
100
AcDbEntity
  8
_21_KURVEN
100
AcDbLine
 62
5
  6
CONTINUOUS
 10
13.2281499466
 20
84.57047715
 11
13.2404885355
 21
84.5643895295
  0
SPLINE
  5
285
100
AcDbEntity
  8
_21_KURVEN
100
AcDbSpline
 62
1
  6
CENTER
 70
0
 71
3
 72
65
 73
61
 74
0
 42
0.0000001
 43
0.0000001
 44
0.0000000001
 40
0.0
 40
0.0
 40
0.0
 40
0.0
 40
0.03125
 40
0.0625
 40
0.09375
 40
0.109375
 40
0.125
 40
0.1328125
 40
0.140625
 40
0.15625
 40
0.171875
 40
0.1875
 40
0.21875
 40
0.25
 40
0.265625
 40
0.2734375
 40
0.28125
 40
0.28515625
 40
0.2890625
 40
0.296875
 40
0.3125
 40
0.34375
 40
0.375
 40
0.40625
 40
0.4140625
 40
0.421875
 40
0.4296875
 40
0.4375
 40
0.453125
 40
0.46875
 40
0.5
 40
0.53125
 40
0.546875
 40
0.5625
 40
0.5703125
 40
0.578125
 40
0.5859375
 40
0.59375
 40
0.625
 40
0.65625
 40
0.6875
 40
0.703125
 40
0.7109375
 40
0.71484375
 40
0.71875
 40
0.7265625
 40
0.734375
 40
0.75
 40
0.78125
 40
0.8125
 40
0.828125
 40
0.84375
 40
0.859375
 40
0.8671875
 40
0.875
 40
0.890625
 40
0.90625
 40
0.9375
 40
0.96875
 40
1.0
 40
1.0
 40
1.0
 40
1.0
 10
15.3911655641
 20
87.8964500879
 30
0.0
 10
15.3786707222
 20
87.8215572145
 30
0.0
 10
15.353675527
 20
87.6717716998
 30
0.0
 10
15.316215802
 20
87.4470920347
 30
0.0
 10
15.284902917
 20
87.2598630433
 30
0.0
 10
15.2600675491
 20
87.1100707959
 30
0.0
 10
15.2440563176
 20
87.0164712454
 30
0.0
 10
15.2323675011
 20
86.9415444187
 30
0.0
 10
15.2165893114
 20
86.866789854
 30
0.0
 10
15.2261366615
 20
86.7721136662
 30
0.0
 10
15.230751945
 20
86.6587906526
 30
0.0
 10
15.2392889597
 20
86.507591798
 30
0.0
 10
15.2491892941
 20
86.318633473
 30
0.0
 10
15.2591942352
 20
86.1296410541
 30
0.0
 10
15.2665176737
 20
85.9973897879
 30
0.0
 10
15.270122577
 20
85.9217534175
 30
0.0
 10
15.2737492527
 20
85.874630892
 30
0.0
 10
15.2734989061
 20
85.8365884319
 30
0.0
 10
15.2847564192
 20
85.7998035656
 30
0.0
 10
15.3024513634
 20
85.7352109133
 30
0.0
 10
15.3392638884
 20
85.6061804853
 30
0.0
 10
15.3911203454
 20
85.421775997
 30
0.0
 10
15.4536141028
 20
85.2004980734
 30
0.0
 10
15.5005658311
 20
85.0346076103
 30
0.0
 10
15.5316481717
 20
84.9238983368
 30
0.0
 10
15.5475998284
 20
84.8687523031
 30
0.0
 10
15.5619533019
 20
84.8127949836
 30
0.0
 10
15.6020411401
 20
84.7488190994
 30
0.0
 10
15.6449747277
 20
84.665206394
 30
0.0
 10
15.7176964653
 20
84.5334725561
 30
0.0
 10
15.807093497
 20
84.3680279782
 30
0.0
 10
15.897476093
 20
84.2031344091
 30
0.0
 10
15.9686209277
 20
84.0705189573
 30
0.0
 10
16.0154967726
 20
83.9891102868
 30
0.0
 10
16.0475029833
 20
83.9206161309
 30
0.0
 10
16.0865448431
 20
83.8784615803
 30
0.0
 10
16.12405714
 20
83.835369657
 30
0.0
 10
16.1998678372
 20
83.7496670874
 30
0.0
 10
16.3132640546
 20
83.6209243713
 30
0.0
 10
16.4645925553
 20
83.4493121249
 30
0.0
 10
16.5908230759
 20
83.3064886457
 30
0.0
 10
16.6788667977
 20
83.2061005256
 30
0.0
 10
16.7233327204
 20
83.1564749768
 30
0.0
 10
16.7480259478
 20
83.1272017417
 30
0.0
 10
16.7799072958
 20
83.1071234521
 30
0.0
 10
16.8172981853
 20
83.0788777954
 30
0.0
 10
16.8784964579
 20
83.0354407397
 30
0.0
 10
16.9849589713
 20
82.9586155945
 30
0.0
 10
17.1373383506
 20
82.8492258145
 30
0.0
 10
17.2897659346
 20
82.7399377491
 30
0.0
 10
17.411360251
 20
82.6519748397
 30
0.0
 10
17.503570318
 20
82.5875390004
 30
0.0
 10
17.5771758373
 20
82.5289431822
 30
0.0
 10
17.6493521357
 20
82.5021883798
 30
0.0
 10
17.719207145
 20
82.4719195052
 30
0.0
 10
17.8073207213
 20
82.4352866384
 30
0.0
 10
17.9478582074
 20
82.376001547
 30
0.0
 10
18.1236825757
 20
82.3021260602
 30
0.0
 10
18.3346061207
 20
82.2133760211
 30
0.0
 10
18.4752343311
 20
82.1542282722
 30
0.0
 10
18.5455468721
 20
82.1246520298
 30
0.0
  0
SPLINE
  5
286
100
AcDbEntity
  8
_21_KURVEN
100
AcDbSpline
 62
1
  6
CENTER
 70
0
 71
3
 72
15
 73
11
 74
0
 42
0.0000001
 43
0.0000001
 44
0.0000000001
 40
0.0
 40
0.0
 40
0.0
 40
0.0
 40
0.125
 40
0.1875
 40
0.25
 40
0.5
 40
0.75
 40
0.8125
 40
0.875
 40
1.0
 40
1.0
 40
1.0
 40
1.0
 10
18.5455468926
 20
82.1246520238
 30
0.0
 10
18.5494824191
 20
82.1235062807
 30
0.0
 10
18.5547813252
 20
82.1219563259
 30
0.0
 10
18.5642640681
 20
82.1192150803
 30
0.0
 10
18.5900882349
 20
82.1118515701
 30
0.0
 10
18.6234158857
 20
82.1024245437
 30
0.0
 10
18.6612703573
 20
82.0924021447
 30
0.0
 10
18.6828651707
 20
82.0866777943
 30
0.0
 10
18.7050842962
 20
82.0810196945
 30
0.0
 10
18.7235829028
 20
82.0763475615
 30
0.0
 10
18.7355076933
 20
82.0733280413
 30
0.0
  0
SPLINE
  5
287
100
AcDbEntity
  8
_21_KURVEN
100
AcDbSpline
 62
1
  6
CENTER
 70
0
 71
3
 72
63
 73
59
 74
0
 42
0.0000001
 43
0.0000001
 44
0.0000000001
 40
0.0
 40
0.0
 40
0.0
 40
0.0
 40
0.03125
 40
0.0625
 40
0.09375
 40
0.109375
 40
0.125
 40
0.1328125
 40
0.140625
 40
0.15625
 40
0.171875
 40
0.1875
 40
0.21875
 40
0.25
 40
0.265625
 40
0.2734375
 40
0.28125
 40
0.28515625
 40
0.2890625
 40
0.296875
 40
0.3125
 40
0.34375
 40
0.375
 40
0.40625
 40
0.421875
 40
0.4296875
 40
0.4375
 40
0.453125
 40
0.46875
 40
0.5
 40
0.53125
 40
0.546875
 40
0.5625
 40
0.5703125
 40
0.578125
 40
0.59375
 40
0.625
 40
0.65625
 40
0.6875
 40
0.703125
 40
0.7109375
 40
0.71484375
 40
0.71875
 40
0.7265625
 40
0.734375
 40
0.75
 40
0.78125
 40
0.8125
 40
0.828125
 40
0.84375
 40
0.859375
 40
0.8671875
 40
0.875
 40
0.890625
 40
0.90625
 40
0.9375
 40
0.96875
 40
1.0
 40
1.0
 40
1.0
 40
1.0
 10
18.7355076948
 20
82.073328041
 30
0.0
 10
18.8101516911
 20
82.0634387723
 30
0.0
 10
18.9594394878
 20
82.0436546925
 30
0.0
 10
19.1833723582
 20
82.0140118281
 30
0.0
 10
19.3699796555
 20
81.9892124462
 30
0.0
 10
19.5192731329
 20
81.9695891009
 30
0.0
 10
19.6125641714
 20
81.956832607
 30
0.0
 10
19.6872368161
 20
81.9477539391
 30
0.0
 10
19.7617641129
 20
81.9345626847
 30
0.0
 10
19.8559635759
 20
81.9475098571
 30
0.0
 10
19.9687595481
 20
81.9561660833
 30
0.0
 10
20.1192399902
 20
81.9701045898
 30
0.0
 10
20.3073054075
 20
81.9867521374
 30
0.0
 10
20.4954041005
 20
82.0035059379
 30
0.0
 10
20.6270279013
 20
82.015553377
 30
0.0
 10
20.7023091492
 20
82.0218575599
 30
0.0
 10
20.7492015924
 20
82.0271717065
 30
0.0
 10
20.7870786434
 20
82.0282703632
 30
0.0
 10
20.8236299778
 20
82.0408804365
 30
0.0
 10
20.8878261559
 20
82.0609410977
 30
0.0
 10
21.0160513219
 20
82.1024930038
 30
0.0
 10
21.1993412289
 20
82.1610591067
 30
0.0
 10
21.4191379939
 20
82.2318785868
 30
0.0
 10
21.602657578
 20
82.2901526491
 30
0.0
 10
21.7304406156
 20
82.3322667334
 30
0.0
 10
21.8045196753
 20
82.3542878774
 30
0.0
 10
21.8679780838
 20
82.3967755987
 30
0.0
 10
21.9509394108
 20
82.4428746002
 30
0.0
 10
22.0816336121
 20
82.5205680093
 30
0.0
 10
22.245777513
 20
82.6162148206
 30
0.0
 10
22.4093717191
 20
82.7128226735
 30
0.0
 10
22.540945432
 20
82.7889784162
 30
0.0
 10
22.6217079801
 20
82.8389215837
 30
0.0
 10
22.6896738854
 20
82.8735287646
 30
0.0
 10
22.7453931413
 20
82.9276486951
 30
0.0
 10
22.84504273
 20
83.0189490117
 30
0.0
 10
22.986265118
 20
83.1511720489
 30
0.0
 10
23.156282522
 20
83.3090217123
 30
0.0
 10
23.2976407871
 20
83.4408976848
 30
0.0
 10
23.3970288123
 20
83.5328661011
 30
0.0
 10
23.446151728
 20
83.579279627
 30
0.0
 10
23.475138526
 20
83.6051149205
 30
0.0
 10
23.4949247289
 20
83.6378421417
 30
0.0
 10
23.5228072114
 20
83.6763917712
 30
0.0
 10
23.5656621088
 20
83.7393874632
 30
0.0
 10
23.6414689814
 20
83.849021558
 30
0.0
 10
23.7494038113
 20
84.0059201926
 30
0.0
 10
23.8572370654
 20
84.1628636229
 30
0.0
 10
23.9440360125
 20
84.2880880583
 30
0.0
 10
24.0075991368
 20
84.382970434
 30
0.0
 10
24.0654668837
 20
84.4589632119
 30
0.0
 10
24.0916425479
 20
84.5323908083
 30
0.0
 10
24.1213317046
 20
84.6036121172
 30
0.0
 10
24.1572401226
 20
84.6933941914
 30
0.0
 10
24.2153659849
 20
84.8366232824
 30
0.0
 10
24.2877924734
 20
85.0158046011
 30
0.0
 10
24.3748036981
 20
85.2307597414
 30
0.0
 10
24.4327922406
 20
85.3740750621
 30
0.0
 10
24.4617888795
 20
85.4457312357
 30
0.0
  0
SPLINE
  5
288
100
AcDbEntity
  8
_21_KURVEN
100
AcDbSpline
 62
1
  6
CENTER
 70
0
 71
3
 72
23
 73
19
 74
0
 42
0.0000001
 43
0.0000001
 44
0.0000000001
 40
0.0
 40
0.0
 40
0.0
 40
0.0
 40
0.125
 40
0.15625
 40
0.1875
 40
0.25
 40
0.3125
 40
0.375
 40
0.4375
 40
0.5
 40
0.5625
 40
0.625
 40
0.6875
 40
0.75
 40
0.8125
 40
0.84375
 40
0.875
 40
1.0
 40
1.0
 40
1.0
 40
1.0
 10
24.4617888853
 20
85.4457312565
 30
0.0
 10
24.4847196717
 20
85.5424724951
 30
0.0
 10
24.5121505835
 20
85.66362365
 30
0.0
 10
24.5487653909
 20
85.8083312157
 30
0.0
 10
24.5652868078
 20
85.9062404094
 30
0.0
 10
24.5823993993
 20
86.0292090654
 30
0.0
 10
24.6074137595
 20
86.1762313921
 30
0.0
 10
24.6201738057
 20
86.3244824984
 30
0.0
 10
24.6281652884
 20
86.4730463533
 30
0.0
 10
24.642832055
 20
86.621474338
 30
0.0
 10
24.6355662495
 20
86.7701330547
 30
0.0
 10
24.6349789978
 20
86.9187871584
 30
0.0
 10
24.6296101031
 20
87.0672289821
 30
0.0
 10
24.6119321096
 20
87.2147004358
 30
0.0
 10
24.600953619
 20
87.3379646088
 30
0.0
 10
24.5893177663
 20
87.4361700245
 30
0.0
 10
24.5599300928
 20
87.581571993
 30
0.0
 10
24.5385481499
 20
87.7032366947
 30
0.0
 10
24.5204481044
 20
87.8004096098
 30
0.0
  0
SPLINE
  5
289
100
AcDbEntity
  8
_21_KURVEN
100
AcDbSpline
 62
1
  6
CENTER
 70
0
 71
3
 72
15
 73
11
 74
0
 42
0.0000001
 43
0.0000001
 44
0.0000000001
 40
0.0
 40
0.0
 40
0.0
 40
0.0
 40
0.125
 40
0.1875
 40
0.25
 40
0.5
 40
0.75
 40
0.8125
 40
0.875
 40
1.0
 40
1.0
 40
1.0
 40
1.0
 10
24.5204481318
 20
87.8004094907
 30
0.0
 10
24.5195180588
 20
87.8044200673
 30
0.0
 10
24.5182720716
 20
87.8098237616
 30
0.0
 10
24.5160142659
 20
87.8194773698
 30
0.0
 10
24.5097779469
 20
87.845714735
 30
0.0
 10
24.5016640309
 20
87.8795366706
 30
0.0
 10
24.4918571986
 20
87.917601393
 30
0.0
 10
24.4862686351
 20
87.9393196745
 30
0.0
 10
24.4803186463
 20
87.9615470461
 30
0.0
 10
24.475331729
 20
87.980032764
 30
0.0
 10
24.4721236565
 20
87.9919532006
 30
0.0
  0
SPLINE
  5
28A
100
AcDbEntity
  8
_21_KURVEN
100
AcDbSpline
 62
1
  6
CENTER
 70
0
 71
3
 72
13
 73
9
 74
0
 42
0.0000001
 43
0.0000001
 44
0.0000000001
 40
0.0
 40
0.0
 40
0.0
 40
0.0
 40
0.125
 40
0.1875
 40
0.25
 40
0.375
 40
0.5
 40
1.0
 40
1.0
 40
1.0
 40
1.0
 10
24.4721236561
 20
87.9919532021
 30
0.0
 10
24.4617531918
 20
88.0274920329
 30
0.0
 10
24.4465804106
 20
88.0802739434
 30
0.0
 10
24.4248183743
 20
88.1527551666
 30
0.0
 10
24.3983413575
 20
88.2323141996
 30
0.0
 10
24.3656950743
 20
88.3289063057
 30
0.0
 10
24.2808936729
 20
88.5609996192
 30
0.0
 10
24.1931645163
 20
88.7465260873
 30
0.0
 10
24.1196937883
 20
88.8955322731
 30
0.0
  0
LINE
  5
28B
100
AcDbEntity
  8
_21_KURVEN
100
AcDbLine
 62
1
  6
CENTER
 10
24.1130635497
 20
88.9083469333
 11
24.0898466953
 21
88.952470613
  0
SPLINE
  5
28C
100
AcDbEntity
  8
_21_KURVEN
100
AcDbSpline
 62
1
  6
CENTER
 70
0
 71
3
 72
15
 73
11
 74
0
 42
0.0000001
 43
0.0000001
 44
0.0000000001
 40
0.0
 40
0.0
 40
0.0
 40
0.0
 40
0.125
 40
0.25
 40
0.375
 40
0.5
 40
0.625
 40
0.75
 40
0.875
 40
1.0
 40
1.0
 40
1.0
 40
1.0
 10
24.0898466955
 20
88.9524706125
 30
0.0
 10
24.0879106445
 20
88.9560873834
 30
0.0
 10
24.0840092849
 20
88.9633884055
 30
0.0
 10
24.0783327912
 20
88.9739350563
 30
0.0
 10
24.0718899828
 20
88.9858148727
 30
0.0
 10
24.0563413897
 20
89.0142566728
 30
0.0
 10
24.0541431598
 20
89.0181808221
 30
0.0
 10
24.0427269005
 20
89.0386360208
 30
0.0
 10
24.0305419108
 20
89.0602884641
 30
0.0
 10
24.0226289458
 20
89.0741185461
 30
0.0
 10
24.0186461682
 20
89.0811091971
 30
0.0
  0
SPLINE
  5
28D
100
AcDbEntity
  8
_21_KURVEN
100
AcDbSpline
 62
1
  6
CENTER
 70
0
 71
3
 72
73
 73
69
 74
0
 42
0.0000001
 43
0.0000001
 44
0.0000000001
 40
0.0
 40
0.0
 40
0.0
 40
0.0
 40
0.0625
 40
0.078125
 40
0.09375
 40
0.1015625
 40
0.109375
 40
0.1171875
 40
0.125
 40
0.140625
 40
0.15625
 40
0.171875
 40
0.1875
 40
0.203125
 40
0.2109375
 40
0.21875
 40
0.234375
 40
0.25
 40
0.28125
 40
0.3125
 40
0.3203125
 40
0.328125
 40
0.33203125
 40
0.3359375
 40
0.34375
 40
0.359375
 40
0.375
 40
0.390625
 40
0.40625
 40
0.421875
 40
0.4375
 40
0.4453125
 40
0.453125
 40
0.46875
 40
0.5
 40
0.53125
 40
0.546875
 40
0.5546875
 40
0.5625
 40
0.578125
 40
0.59375
 40
0.609375
 40
0.625
 40
0.640625
 40
0.65625
 40
0.6640625
 40
0.66796875
 40
0.671875
 40
0.6796875
 40
0.6875
 40
0.71875
 40
0.75
 40
0.765625
 40
0.78125
 40
0.7890625
 40
0.796875
 40
0.8125
 40
0.828125
 40
0.84375
 40
0.859375
 40
0.875
 40
0.8828125
 40
0.890625
 40
0.8984375
 40
0.90625
 40
0.921875
 40
0.9375
 40
1.0
 40
1.0
 40
1.0
 40
1.0
 10
24.0186461715
 20
89.0811091913
 30
0.0
 10
23.9167706267
 20
89.2232211229
 30
0.0
 10
23.7895518103
 20
89.4009731703
 30
0.0
 10
23.6365123865
 20
89.6139392288
 30
0.0
 10
23.5732484188
 20
89.7031236175
 30
0.0
 10
23.5214690278
 20
89.773428294
 30
0.0
 10
23.4858376595
 20
89.829016186
 30
0.0
 10
23.4379776999
 20
89.8736879569
 30
0.0
 10
23.3738501611
 20
89.9329696972
 30
0.0
 10
23.2937999572
 20
90.0071700001
 30
0.0
 10
23.1976868477
 20
90.0961602827
 30
0.0
 10
23.1016104461
 20
90.1851938848
 30
0.0
 10
23.0054400776
 20
90.2741042898
 30
0.0
 10
22.9255807368
 20
90.3485708512
 30
0.0
 10
22.8610619285
 20
90.4073067616
 30
0.0
 10
22.7988423565
 20
90.469092381
 30
0.0
 10
22.7046127889
 20
90.5244982609
 30
0.0
 10
22.5556281132
 20
90.6155085276
 30
0.0
 10
22.3688488903
 20
90.7285692936
 30
0.0
 10
22.2007162901
 20
90.8301954592
 30
0.0
 10
22.088954245
 20
90.8985114762
 30
0.0
 10
22.0418514955
 20
90.9260701179
 30
0.0
 10
22.0054212142
 20
90.9502357842
 30
0.0
 10
21.9644114443
 20
90.966651531
 30
0.0
 10
21.8905161743
 20
90.9917773647
 30
0.0
 10
21.7860646752
 20
91.0295569101
 30
0.0
 10
21.660244044
 20
91.0740744881
 30
0.0
 10
21.5345576664
 20
91.1188467761
 30
0.0
 10
21.4088131065
 20
91.1634181006
 30
0.0
 10
21.283167022
 20
91.2085385693
 30
0.0
 10
21.1781821858
 20
91.2444759489
 30
0.0
 10
21.0948165169
 20
91.2769425068
 30
0.0
 10
21.0072129967
 20
91.2840864955
 30
0.0
 10
20.855885291
 20
91.3084577232
 30
0.0
 10
20.6386366148
 20
91.33649699
 30
0.0
 10
20.4218844111
 20
91.3690352576
 30
0.0
 10
20.2698616438
 20
91.3871078841
 30
0.0
 10
20.1833503632
 20
91.4041496748
 30
0.0
 10
20.0955164415
 20
91.3961252244
 30
0.0
 10
19.9859667227
 20
91.3906936222
 30
0.0
 10
19.8544032884
 20
91.3821995869
 30
0.0
 10
19.722866648
 20
91.3742516649
 30
0.0
 10
19.5913266037
 20
91.3660954024
 30
0.0
 10
19.4597733807
 20
91.3582263885
 30
0.0
 10
19.3501924607
 20
91.3508849986
 30
0.0
 10
19.2733933742
 20
91.3472664989
 30
0.0
 10
19.229652625
 20
91.3428274227
 30
0.0
 10
19.1864557848
 20
91.3294588315
 30
0.0
 10
19.1322741066
 20
91.3157996491
 30
0.0
 10
19.0023883806
 20
91.2805112125
 30
0.0
 10
18.8075328022
 20
91.2285558611
 30
0.0
 10
18.5908960543
 20
91.1706614534
 30
0.0
 10
18.4179287638
 20
91.1237024449
 30
0.0
 10
18.3090342125
 20
91.0960448903
 30
0.0
 10
18.2312096402
 20
91.0538977646
 30
0.0
 10
18.1517622942
 20
91.0152475094
 30
0.0
 10
18.0530100791
 20
90.965734514
 30
0.0
 10
17.9342681374
 20
90.9068344605
 30
0.0
 10
17.8155921825
 20
90.8477925255
 30
0.0
 10
17.6968915637
 20
90.7888025753
 30
0.0
 10
17.5980016053
 20
90.7395892355
 30
0.0
 10
17.5188366333
 20
90.7003246864
 30
0.0
 10
17.4596055857
 20
90.6705909353
 30
0.0
 10
17.4077764979
 20
90.6260553819
 30
0.0
 10
17.3360858741
 20
90.5718442514
 30
0.0
 10
17.2473564955
 20
90.5023127887
 30
0.0
 10
17.0336760557
 20
90.3368969321
 30
0.0
 10
16.8557991087
 20
90.1986702668
 30
0.0
 10
16.7134367236
 20
90.0882105723
 30
0.0
  0
SPLINE
  5
28E
100
AcDbEntity
  8
_21_KURVEN
100
AcDbSpline
 62
1
  6
CENTER
 70
0
 71
3
 72
15
 73
11
 74
0
 42
0.0000001
 43
0.0000001
 44
0.0000000001
 40
0.0
 40
0.0
 40
0.0
 40
0.0
 40
0.125
 40
0.1875
 40
0.25
 40
0.5
 40
0.75
 40
0.8125
 40
0.875
 40
1.0
 40
1.0
 40
1.0
 40
1.0
 10
16.7134366498
 20
90.0882105022
 30
0.0
 10
16.7104311963
 20
90.0853456686
 30
0.0
 10
16.7063782773
 20
90.0814919291
 30
0.0
 10
16.6991533401
 20
90.0745795665
 30
0.0
 10
16.6795654924
 20
90.0557057116
 30
0.0
 10
16.6543517575
 20
90.0313108024
 30
0.0
 10
16.6263041182
 20
90.0032684789
 30
0.0
 10
16.6102978683
 20
89.9872745478
 30
0.0
 10
16.5940287316
 20
89.970705276
 30
0.0
 10
16.5805170423
 20
89.9568916911
 30
0.0
 10
16.5718003243
 20
89.9479907747
 30
0.0
  0
SPLINE
  5
28F
100
AcDbEntity
  8
_21_KURVEN
100
AcDbSpline
 62
1
  6
CENTER
 70
0
 71
3
 72
23
 73
19
 74
0
 42
0.0000001
 43
0.0000001
 44
0.0000000001
 40
0.0
 40
0.0
 40
0.0
 40
0.0
 40
0.125
 40
0.15625
 40
0.1875
 40
0.25
 40
0.3125
 40
0.375
 40
0.4375
 40
0.5
 40
0.5625
 40
0.625
 40
0.6875
 40
0.75
 40
0.8125
 40
0.84375
 40
0.875
 40
1.0
 40
1.0
 40
1.0
 40
1.0
 10
16.5718003233
 20
89.9479907736
 30
0.0
 10
16.5054556308
 20
89.8736333317
 30
0.0
 10
16.4234884826
 20
89.7798917211
 30
0.0
 10
16.3222367526
 20
89.6697862129
 30
0.0
 10
16.2609033904
 20
89.5912957686
 30
0.0
 10
16.1870339984
 20
89.4909559606
 30
0.0
 10
16.0947560171
 20
89.3731926291
 30
0.0
 10
16.012541182
 20
89.2484143494
 30
0.0
 10
15.9343216086
 20
89.1210524286
 30
0.0
 10
15.8503644098
 20
88.9970405224
 30
0.0
 10
15.785362451
 20
88.8622121988
 30
0.0
 10
15.7145570545
 20
88.7306195305
 30
0.0
 10
15.6480101688
 20
88.5969006584
 30
0.0
 10
15.5926290823
 20
88.4580828725
 30
0.0
 10
15.5430374282
 20
88.3438894766
 30
0.0
 10
15.5060390021
 20
88.2515127951
 30
0.0
 10
15.4618299351
 20
88.1088570048
 30
0.0
 10
15.4220493136
 20
87.9910424837
 30
0.0
 10
15.3911655308
 20
87.8964499695
 30
0.0
  0
SPLINE
  5
290
100
AcDbEntity
  8
_21_KURVEN
100
AcDbSpline
 62
5
  6
CONTINUOUS
 70
0
 71
3
 72
8
 73
4
 74
0
 42
0.0000001
 43
0.0000001
 44
0.0000000001
 40
0.0
 40
0.0
 40
0.0
 40
0.0
 40
1.0
 40
1.0
 40
1.0
 40
1.0
 10
16.6201262113
 20
90.0905979251
 30
0.0
 10
16.6021760684
 20
90.0773514206
 30
0.0
 10
16.5851010037
 20
90.0606729902
 30
0.0
 10
16.5707814498
 20
90.0417466935
 30
0.0
  0
SPLINE
  5
291
100
AcDbEntity
  8
_21_KURVEN
100
AcDbSpline
 62
5
  6
CONTINUOUS
 70
0
 71
3
 72
9
 73
5
 74
0
 42
0.0000001
 43
0.0000001
 44
0.0000000001
 40
0.0
 40
0.0
 40
0.0
 40
0.0
 40
0.5
 40
1.0
 40
1.0
 40
1.0
 40
1.0
 10
22.1207765505
 20
93.3558599538
 30
0.0
 10
22.0976001316
 20
93.3997261995
 30
0.0
 10
22.0422035803
 20
93.4886732
 30
0.0
 10
21.9528135381
 20
93.5376898557
 30
0.0
 10
21.9066782949
 20
93.5591466903
 30
0.0
  0
SPLINE
  5
292
100
AcDbEntity
  8
_21_KURVEN
100
AcDbSpline
 62
5
  6
CONTINUOUS
 70
0
 71
3
 72
8
 73
4
 74
0
 42
0.0000001
 43
0.0000001
 44
0.0000000001
 40
0.0
 40
0.0
 40
0.0
 40
0.0
 40
1.0
 40
1.0
 40
1.0
 40
1.0
 10
21.9066782955
 20
93.55914669
 30
0.0
 10
21.8730120523
 20
93.5713174134
 30
0.0
 10
21.8380170439
 20
93.5797237579
 30
0.0
 10
21.7996100271
 20
93.5840578317
 30
0.0
  0
SPLINE
  5
293
100
AcDbEntity
  8
_21_KURVEN
100
AcDbSpline
 62
5
  6
CONTINUOUS
 70
0
 71
3
 72
9
 73
5
 74
0
 42
0.0000001
 43
0.0000001
 44
0.0000000001
 40
0.0
 40
0.0
 40
0.0
 40
0.0
 40
0.5
 40
1.0
 40
1.0
 40
1.0
 40
1.0
 10
21.7996100262
 20
93.5840578318
 30
0.0
 10
21.7540467267
 20
93.5854166584
 30
0.0
 10
21.6618222367
 20
93.5828624076
 30
0.0
 10
21.577244115
 20
93.5383482509
 30
0.0
 10
21.5368689445
 20
93.5136212645
 30
0.0
  0
SPLINE
  5
294
100
AcDbEntity
  8
_21_KURVEN
100
AcDbSpline
 62
5
  6
CONTINUOUS
 70
0
 71
3
 72
8
 73
4
 74
0
 42
0.0000001
 43
0.0000001
 44
0.0000000001
 40
0.0
 40
0.0
 40
0.0
 40
0.0
 40
1.0
 40
1.0
 40
1.0
 40
1.0
 10
24.5703379947
 20
87.8804107861
 30
0.0
 10
24.5697755045
 20
87.8873225379
 30
0.0
 10
24.5688170749
 20
87.8951692188
 30
0.0
 10
24.5671646236
 20
87.9041625693
 30
0.0
  0
LINE
  5
295
100
AcDbEntity
  8
_21_KURVEN
100
AcDbLine
 62
5
  6
CONTINUOUS
 10
24.5671646237
 20
87.9041625688
 11
24.5644621449
 21
87.9160242209
  0
SPLINE
  5
296
100
AcDbEntity
  8
_21_KURVEN
100
AcDbSpline
 62
5
  6
CONTINUOUS
 70
0
 71
3
 72
8
 73
4
 74
0
 42
0.0000001
 43
0.0000001
 44
0.0000000001
 40
0.0
 40
0.0
 40
0.0
 40
0.0
 40
1.0
 40
1.0
 40
1.0
 40
1.0
 10
24.5644621448
 20
87.9160242212
 30
0.0
 10
24.5619073601
 20
87.9253622804
 30
0.0
 10
24.558319637
 20
87.9359723511
 30
0.0
 10
24.553502202
 20
87.9471428126
 30
0.0
  0
ENDSEC
  0
SECTION
  2
OBJECTS
  0
DICTIONARY
  5
C
100
AcDbDictionary
280
0
281
1
  3
ACAD_GROUP
350
D
  3
ACAD_MLINESTYLE
350
17
  3
ACAD_LAYOUT
350
1A
  3
ACAD_PLOTSETTINGS
350
19
  3
ACAD_PLOTSTYLENAME
350
E
  0
DICTIONARY
  5
D
102
{ACAD_REACTORS
330
C
102
}
100
AcDbDictionary
280
0
281
1
  0
ACDBDICTIONARYWDFLT
  5
E
102
{ACAD_REACTORS
330
C
102
}
100
AcDbDictionary
281
1
  3
Normal
350
F
100
AcDbDictionaryWithDefault
340
F
  0
DICTIONARY
  5
17
102
{ACAD_REACTORS
330
C
102
}
100
AcDbDictionary
280
0
281
1
  3
Standard
350
18
  0
DICTIONARY
  5
19
102
{ACAD_REACTORS
330
C
102
}
100
AcDbDictionary
281
1
  0
DICTIONARY
  5
1A
102
{ACAD_REACTORS
330
C
102
}
100
AcDbDictionary
281
1
  3
Model
350
297
  3
Layout1
350
298
  0
ACDBPLACEHOLDER
  5
F
102
{ACAD_REACTORS
330
E
102
}
  0
MLINESTYLE
  5
18
102
{ACAD_REACTORS
330
17
102
}
100
AcDbMlineStyle
  2
STANDARD
 70
0
  3

 62
256
 51
90.0
 52
90.0
 71
2
 49
0.5
 62
256
  6
BYLAYER
 49
-0.5
 62
256
  6
BYLAYER
  0
LAYOUT
  5
297
102
{ACAD_REACTORS
330
1A
102
}
100
AcDbPlotSettings
  1

  2
none_device
  4
ISO_A3_(420.00_x_297.00_MM)
  6

 40
0.0
 41
0.0
 42
0.0
 43
0.0
 44
420.0
 45
297.0
 46
0.0
 47
0.0
 48
0.0
 49
0.0
140
0.0
141
0.0
142
1.0
143
1.0
 70
1024
 72
1
 73
0
 74
0
  7

 75
0
147
1.0
148
0.0
149
0.0
100
AcDbLayout
  1
Model
 70
0
 71
0
 10
0.0
 20
0.0
 11
420.0
 21
297.0
 12
0.0
 22
0.0
 32
0.0
 14
0.0
 24
0.0
 34
0.0
 15
0.0
 25
0.0
 35
0.0
146
0.0
 13
0.0
 23
0.0
 33
0.0
 16
1.0
 26
0.0
 36
0.0
 17
0.0
 27
1.0
 37
0.0
 76
0
330
20E
345
0
346
0
  0
LAYOUT
  5
298
102
{ACAD_REACTORS
330
1A
102
}
100
AcDbPlotSettings
  1

  2
none_device
  4
ISO_A3_(420.00_x_297.00_MM)
  6

 40
0.0
 41
0.0
 42
0.0
 43
0.0
 44
420.0
 45
297.0
 46
0.0
 47
0.0
 48
0.0
 49
0.0
140
0.0
141
0.0
142
1.0
143
1.0
 70
0
 72
1
 73
0
 74
0
  7

 75
0
147
1.0
148
0.0
149
0.0
100
AcDbLayout
  1
Layout1
 70
0
 71
1
 10
0.0
 20
0.0
 11
420.0
 21
297.0
 12
0.0
 22
0.0
 32
0.0
 14
0.0
 24
0.0
 34
0.0
 15
0.0
 25
0.0
 35
0.0
146
0.0
 13
0.0
 23
0.0
 33
0.0
 16
1.0
 26
0.0
 36
0.0
 17
0.0
 27
1.0
 37
0.0
 76
0
330
20F
345
0
346
0
  0
ENDSEC
  0
EOF
