999
DXF file: 70543125_MCS.dxf
999
Pro/ENGINEER 2016380 by Parametric Technology Corporation
  0
SECTION
  2
HEADER
  9
$ACADVER
  1
AC1027
  9
$DWGCODEPAGE
  3
ANSI_1252
  9
$EXTMAX
 10
420.0
 20
297.0
 30
0.0
  9
$EXTMIN
 10
0.0
 20
0.0
 30
0.0
  9
$LIMMIN
 10
0.0
 20
0.0
  9
$LIMMAX
 10
420.0
 20
297.0
  9
$VIEWCTR
 10
210.0
 20
148.5
  9
$VIEWSIZE
 40
297.0
  9
$CLAYER
  8
0
  9
$LTSCALE
 40
23.1
  9
$CELTYPE
  6
BYLAYER
  9
$DIMSCALE
 40
1.0
  9
$DIMASZ
 40
3.5
  9
$DIMEXO
 40
0.0
  9
$DIMDLI
 40
15.96
  9
$DIMEXE
 40
1.5
  9
$DIMCEN
 40
3.78
  9
$DIMLFAC
 40
1.0
  9
$DIMBLK
  1
_FILLED
  9
$DIMALT
 70
0
  9
$DIMALTF
 40
25.4
  9
$DIMTXT
 40
3.5
  9
$DIMTOL
 70
1
  9
$DIMLIM
 70
0
  9
$DIMTFAC
 40
1.0
  9
$DIMTP
 40
0.05
  9
$DIMTM
 40
0.05
  9
$DIMGAP
 40
0.625
  9
$DIMDSEP
 70
46
  9
$AUNITS
 70
0
  9
$PDMODE
 70
3
  9
$PDSIZE
 40
0.3125
  9
$HANDSEED
  5
293
  9
$TILEMODE
 70
1
  9
$MEASUREMENT
 70
1
  9
$INSUNITS
 70
4
  0
ENDSEC
  0
SECTION
  2
CLASSES
  0
CLASS
  1
ACDBDICTIONARYWDFLT
  2
AcDbDictionaryWithDefault
  3
AutoCAD 2000
 90
0
 91
1
280
0
281
0
  0
CLASS
  1
ACDBPLACEHOLDER
  2
AcDbPlaceHolder
  3
AutoCAD 2000
 90
0
 91
1
280
0
281
0
  0
CLASS
  1
LAYOUT
  2
AcDbLayout
  3
AutoCAD 2000
 90
0
 91
0
280
0
281
0
  0
ENDSEC
  0
SECTION
  2
TABLES
  0
TABLE
  2
VPORT
  5
8
100
AcDbSymbolTable
 70
2
  0
VPORT
  5
1F4
100
AcDbSymbolTableRecord
100
AcDbViewportTableRecord
  2
*ACTIVE
 70
0
 10
0.0
 20
0.0
 11
1.0
 21
1.0
 12
210.0
 22
148.5
 13
0.0
 23
0.0
 14
1.0
 24
1.0
 15
0.0
 25
0.0
 16
0.0
 26
0.0
 36
1.0
 17
0.0
 27
0.0
 37
0.0
 40
297.0
 41
1.4141414141
 42
50.0
 43
0.0
 44
0.0
 50
0.0
 51
0.0
 71
0
 72
100
 73
1
 74
1
 75
0
 76
0
 77
0
 78
0
  0
ENDTAB
  0
TABLE
  2
LTYPE
  5
5
100
AcDbSymbolTable
 70
6
  0
LTYPE
  5
14
100
AcDbSymbolTableRecord
100
AcDbLinetypeTableRecord
  2
BYBLOCK
 70
0
  3

 72
65
 73
0
 40
0.0
  0
LTYPE
  5
15
100
AcDbSymbolTableRecord
100
AcDbLinetypeTableRecord
  2
BYLAYER
 70
0
  3

 72
65
 73
0
 40
0.0
  0
LTYPE
  5
16
100
AcDbSymbolTableRecord
100
AcDbLinetypeTableRecord
  2
CONTINUOUS
 70
64
  3
Solid line
 72
65
 73
0
 40
0.0
  0
LTYPE
  5
1F5
100
AcDbSymbolTableRecord
100
AcDbLinetypeTableRecord
  2
CENTER
 70
64
  3
____ _ ____ _ ____ _ ____ _ ____ _ ____ _ ____
 72
65
 73
4
 40
0.6
 49
0.375
 74
0
 49
-0.075
 74
0
 49
0.075
 74
0
 49
-0.075
 74
0
  0
LTYPE
  5
1F6
100
AcDbSymbolTableRecord
100
AcDbLinetypeTableRecord
  2
HIDDEN
 70
64
  3
- - - - - - - - - - - - - - - - - - - -
 72
65
 73
2
 40
0.2
 49
0.1
 74
0
 49
-0.1
 74
0
  0
LTYPE
  5
1F7
100
AcDbSymbolTableRecord
100
AcDbLinetypeTableRecord
  2
PHANTOM
 70
64
  3
_____ _ _ _____ _ _ _____ _ _ _____
 72
65
 73
6
 40
0.8
 49
0.45
 74
0
 49
-0.05
 74
0
 49
0.1
 74
0
 49
-0.05
 74
0
 49
0.1
 74
0
 49
-0.05
 74
0
  0
LTYPE
  5
1F8
100
AcDbSymbolTableRecord
100
AcDbLinetypeTableRecord
  2
DOT
 70
64
  3
. . . . . . . . . . . . . . . . . . . .
 72
65
 73
2
 40
0.2
 49
0.1
 74
0
 49
-0.1
 74
0
  0
LTYPE
  5
1F9
100
AcDbSymbolTableRecord
100
AcDbLinetypeTableRecord
  2
DASHED
 70
64
  3
- - - - - - - - - - - - - - - - - - - -
 72
65
 73
2
 40
0.2
 49
0.1
 74
0
 49
-0.1
 74
0
  0
ENDTAB
  0
TABLE
  2
LAYER
  5
2
100
AcDbSymbolTable
 70
36
  0
LAYER
  5
10
100
AcDbSymbolTableRecord
100
AcDbLayerTableRecord
  2
0
 70
0
 62
7
  6
CONTINUOUS
370
-3
390
F
  0
LAYER
  5
1FA
100
AcDbSymbolTableRecord
100
AcDbLayerTableRecord
  2
DEFAULT_1
 70
0
 62
7
  6
CENTER
370
-3
390
F
  0
LAYER
  5
1FB
100
AcDbSymbolTableRecord
100
AcDbLayerTableRecord
  2
DEFAULT_2
 70
0
 62
1
  6
HIDDEN
370
-3
390
F
  0
LAYER
  5
1FC
100
AcDbSymbolTableRecord
100
AcDbLayerTableRecord
  2
DEFAULT_3
 70
0
 62
7
  6
PHANTOM
370
-3
390
F
  0
LAYER
  5
1FD
100
AcDbSymbolTableRecord
100
AcDbLayerTableRecord
  2
BG_STARTBEZUEGE
 70
0
 62
7
  6
CONTINUOUS
370
-3
390
F
  0
LAYER
  5
1FE
100
AcDbSymbolTableRecord
100
AcDbLayerTableRecord
  2
HILFEN
 70
0
 62
7
  6
CONTINUOUS
370
-3
390
F
  0
LAYER
  5
1FF
100
AcDbSymbolTableRecord
100
AcDbLayerTableRecord
  2
PLATZIERUNG
 70
0
 62
7
  6
CONTINUOUS
370
-3
390
F
  0
LAYER
  5
200
100
AcDbSymbolTableRecord
100
AcDbLayerTableRecord
  2
T_STARTBEZUEGE
 70
0
 62
7
  6
CONTINUOUS
370
-3
390
F
  0
LAYER
  5
201
100
AcDbSymbolTableRecord
100
AcDbLayerTableRecord
  2
_03_2D_ZEICHNUNG_BEMASSUNGEN
 70
0
 62
7
  6
CONTINUOUS
370
-3
390
F
  0
LAYER
  5
202
100
AcDbSymbolTableRecord
100
AcDbLayerTableRecord
  2
_04_NOTIZEN
 70
0
 62
7
  6
CONTINUOUS
370
-3
390
F
  0
LAYER
  5
203
100
AcDbSymbolTableRecord
100
AcDbLayerTableRecord
  2
_05_2D_ELEMENTE
 70
0
 62
7
  6
CONTINUOUS
370
-3
390
F
  0
LAYER
  5
204
100
AcDbSymbolTableRecord
100
AcDbLayerTableRecord
  2
_07_EINRASTLINIEN
 70
0
 62
7
  6
CONTINUOUS
370
-3
390
F
  0
LAYER
  5
205
100
AcDbSymbolTableRecord
100
AcDbLayerTableRecord
  2
_21_KURVEN
 70
0
 62
7
  6
CONTINUOUS
370
-3
390
F
  0
LAYER
  5
206
100
AcDbSymbolTableRecord
100
AcDbLayerTableRecord
  2
_24_IMPORT
 70
0
 62
7
  6
CONTINUOUS
370
-3
390
F
  0
LAYER
  5
207
100
AcDbSymbolTableRecord
100
AcDbLayerTableRecord
  2
_26_BEZUGSACHSEN
 70
0
 62
7
  6
CONTINUOUS
370
-3
390
F
  0
LAYER
  5
208
100
AcDbSymbolTableRecord
100
AcDbLayerTableRecord
  2
_27_BEZUGSEBENEN
 70
0
 62
7
  6
CONTINUOUS
370
-3
390
F
  0
LAYER
  5
209
100
AcDbSymbolTableRecord
100
AcDbLayerTableRecord
  2
_28_BEZUGSPUNKTE
 70
0
 62
7
  6
CONTINUOUS
370
-3
390
F
  0
LAYER
  5
20A
100
AcDbSymbolTableRecord
100
AcDbLayerTableRecord
  2
_29_KOORDINATENSYSTEME
 70
0
 62
7
  6
CONTINUOUS
370
-3
390
F
  0
LAYER
  5
20B
100
AcDbSymbolTableRecord
100
AcDbLayerTableRecord
  2
_30_VOLUMEN
 70
0
 62
7
  6
CONTINUOUS
370
-3
390
F
  0
ENDTAB
  0
TABLE
  2
STYLE
  5
3
100
AcDbSymbolTable
 70
1
  0
STYLE
  5
11
100
AcDbSymbolTableRecord
100
AcDbTextStyleTableRecord
  2
STANDARD
 70
0
 40
0.0
 41
0.7
 50
0.0
 71
0
 42
0.2
  3
SIMPLEX.SHX
  4

  0
STYLE
  5
20C
100
AcDbSymbolTableRecord
100
AcDbTextStyleTableRecord
  2
TEXTSTYLE_1
 70
0
 40
0.0
 41
0.8
 50
0.0
 71
0
 42
0.2
  3
gdt
  4

  0
ENDTAB
  0
TABLE
  2
VIEW
  5
6
100
AcDbSymbolTable
 70
0
  0
ENDTAB
  0
TABLE
  2
UCS
  5
7
100
AcDbSymbolTable
 70
0
  0
ENDTAB
  0
TABLE
  2
APPID
  5
9
100
AcDbSymbolTable
 70
1
  0
APPID
  5
20D
100
AcDbSymbolTableRecord
100
AcDbRegAppTableRecord
  2
ACAD
 70
0
  0
ENDTAB
  0
TABLE
  2
BLOCK_RECORD
  5
1
100
AcDbSymbolTable
 70
0
  0
BLOCK_RECORD
  5
20E
100
AcDbSymbolTableRecord
100
AcDbBlockTableRecord
  2
*Model_Space
  0
BLOCK_RECORD
  5
20F
100
AcDbSymbolTableRecord
100
AcDbBlockTableRecord
  2
*Paper_Space
  0
BLOCK_RECORD
  5
210
100
AcDbSymbolTableRecord
100
AcDbBlockTableRecord
  2
_FILLED
  0
BLOCK_RECORD
  5
211
100
AcDbSymbolTableRecord
100
AcDbBlockTableRecord
  2
*D0
  0
BLOCK_RECORD
  5
212
100
AcDbSymbolTableRecord
100
AcDbBlockTableRecord
  2
*D1
  0
BLOCK_RECORD
  5
213
100
AcDbSymbolTableRecord
100
AcDbBlockTableRecord
  2
*D2
  0
ENDTAB
  0
TABLE
  2
DIMSTYLE
  5
A
100
AcDbSymbolTable
 70
1
100
AcDbDimStyleTable
 71
0
  0
DIMSTYLE
105
214
100
AcDbSymbolTableRecord
100
AcDbDimStyleTableRecord
  2
STANDARD
 70
0
  3

  4

 40
1.0
 41
3.5
 42
0.0
 43
0.38
 44
1.5
 45
0.0
 46
0.0
 47
0.05
 48
0.05
140
3.5
141
0.09
142
0.0
143
25.4
144
1.0
145
0.0
146
1.0
147
0.625
 71
1.0
 72
0.0
 73
0
 74
0
 75
0
 76
0
 77
1
 78
8
170
0
171
1
172
0
173
0
174
0
175
0
176
0
177
0
178
2
270
2
271
2
272
2
273
2
274
2
275
0
280
0
281
0
282
0
283
1
284
8
285
0
286
0
287
3
288
0
340
11
278
46
341
210
342
210
343
210
344
210
  0
DIMSTYLE
105
215
100
AcDbSymbolTableRecord
100
AcDbDimStyleTableRecord
  2
DIMSTYLE_1
 70
0
  3

  4

 40
1.0
 41
3.5
 42
0.0
 43
0.38
 44
1.5
 45
0.0
 46
0.0
 47
0.2
 48
0.2
140
3.5
141
0.09
142
0.0
143
25.4
144
1.0
145
0.0
146
1.0
147
0.875
 71
0.0
 72
0.0
 73
0
 74
0
 75
0
 76
0
 77
1
 78
8
170
0
171
1
172
0
173
0
174
0
175
0
176
0
177
0
178
2
270
2
271
2
272
2
273
2
274
2
275
0
280
0
281
0
282
0
283
1
284
8
285
0
286
0
287
3
288
0
340
11
278
46
341
210
342
210
343
210
344
210
  0
DIMSTYLE
105
216
100
AcDbSymbolTableRecord
100
AcDbDimStyleTableRecord
  2
DIMSTYLE_2
 70
0
  3

  4

 40
1.0
 41
3.5
 42
0.0
 43
0.38
 44
1.5
 45
0.0
 46
0.0
 47
0.5
 48
0.5
140
3.5
141
0.09
142
0.0
143
25.4
144
1.0
145
0.0
146
1.0
147
0.875
 71
0.0
 72
0.0
 73
0
 74
0
 75
0
 76
0
 77
1
 78
8
170
0
171
1
172
0
173
0
174
0
175
0
176
0
177
0
178
2
270
2
271
2
272
2
273
2
274
2
275
0
280
0
281
0
282
0
283
1
284
8
285
0
286
0
287
3
288
0
340
11
278
46
341
210
342
210
343
210
344
210
  0
DIMSTYLE
105
217
100
AcDbSymbolTableRecord
100
AcDbDimStyleTableRecord
  2
DIMSTYLE_3
 70
0
  3

  4

 40
1.0
 41
3.5
 42
0.0
 43
0.38
 44
1.5
 45
0.0
 46
0.0
 47
0.3
 48
0.3
140
3.5
141
0.09
142
0.0
143
25.4
144
1.0
145
0.0
146
1.0
147
0.875
 71
0.0
 72
0.0
 73
0
 74
0
 75
0
 76
0
 77
1
 78
8
170
0
171
1
172
0
173
0
174
0
175
0
176
0
177
0
178
2
270
2
271
2
272
2
273
2
274
2
275
0
280
0
281
0
282
0
283
1
284
8
285
0
286
0
287
3
288
0
340
11
278
46
341
210
342
210
343
210
344
210
  0
ENDTAB
  0
ENDSEC
  0
SECTION
  2
BLOCKS
  0
BLOCK
  5
20
100
AcDbEntity
  8
0
100
AcDbBlockBegin
  2
*Model_Space
 70
0
 10
0.0
 20
0.0
 30
0.0
  3
*Model_Space
  1

  0
ENDBLK
  5
21
100
AcDbEntity
  8
0
100
AcDbBlockEnd
  0
BLOCK
  5
1C
100
AcDbEntity
  8
0
100
AcDbBlockBegin
  2
*Paper_Space
 70
0
 10
0.0
 20
0.0
 30
0.0
  3
*Paper_Space
  1

  0
ENDBLK
  5
1D
100
AcDbEntity
  8
0
100
AcDbBlockEnd
  0
BLOCK
  5
218
100
AcDbEntity
  8
0
100
AcDbBlockBegin
  2
_FILLED
 70
64
 10
0.0
 20
0.0
  3
_FILLED
  1

  0
SOLID
  5
219
100
AcDbEntity
  8
0
  6
BYBLOCK
 62
0
100
AcDbTrace
 10
0.0
 20
0.0
 11
-1.0
 21
0.125
 12
-1.0
 22
-0.125
 13
-1.0
 23
-0.125
  0
ENDBLK
  5
21A
100
AcDbEntity
  8
0
  6
BYBLOCK
 62
0
100
AcDbBlockEnd
  0
BLOCK
  5
21B
100
AcDbEntity
  8
_03_2D_ZEICHNUNG_BEMASSUNGEN
100
AcDbBlockBegin
 62
7
  6
CONTINUOUS
  2
*D0
 70
65
 10
0.0
 20
0.0
  3
*D0
  1

  0
TEXT
  5
21C
100
AcDbEntity
  8
_03_2D_ZEICHNUNG_BEMASSUNGEN
100
AcDbText
 62
2
  6
CONTINUOUS
 10
-122.375
 20
93.375
  7
STANDARD
 40
3.5
  1
25
 50
90.0
 41
0.75
 72
1
 11
-122.375
 21
96.0
100
AcDbText
  0
LINE
  5
21D
100
AcDbEntity
  8
_03_2D_ZEICHNUNG_BEMASSUNGEN
100
AcDbLine
 62
7
  6
CONTINUOUS
 10
-112.5
 20
108.5
 11
-123.0
 21
108.5
  0
LINE
  5
21E
100
AcDbEntity
  8
_03_2D_ZEICHNUNG_BEMASSUNGEN
100
AcDbLine
 62
7
  6
CONTINUOUS
 10
-112.5
 20
83.5
 11
-123.0
 21
83.5
  0
LINE
  5
21F
100
AcDbEntity
  8
_03_2D_ZEICHNUNG_BEMASSUNGEN
100
AcDbLine
 62
7
  6
CONTINUOUS
 10
-121.5
 20
108.5
 11
-121.5
 21
114.5
  0
LINE
  5
220
100
AcDbEntity
  8
_03_2D_ZEICHNUNG_BEMASSUNGEN
100
AcDbLine
 62
7
  6
CONTINUOUS
 10
-121.5
 20
114.5
 11
-121.5
 21
96.0
  0
LINE
  5
221
100
AcDbEntity
  8
_03_2D_ZEICHNUNG_BEMASSUNGEN
100
AcDbLine
 62
7
  6
CONTINUOUS
 10
-121.5
 20
83.5
 11
-121.5
 21
77.5
  0
LINE
  5
222
100
AcDbEntity
  8
_03_2D_ZEICHNUNG_BEMASSUNGEN
100
AcDbLine
 62
7
  6
CONTINUOUS
 10
-121.5
 20
77.5
 11
-121.5
 21
96.0
  0
INSERT
  5
223
100
AcDbEntity
  8
_03_2D_ZEICHNUNG_BEMASSUNGEN
100
AcDbBlockReference
 62
7
  6
CONTINUOUS
  2
_FILLED
 10
-121.5
 20
108.5
 41
3.5
 42
3.5
 43
3.5
 50
270.0
  0
INSERT
  5
224
100
AcDbEntity
  8
_03_2D_ZEICHNUNG_BEMASSUNGEN
100
AcDbBlockReference
 62
7
  6
CONTINUOUS
  2
_FILLED
 10
-121.5
 20
83.5
 41
3.5
 42
3.5
 43
3.5
 50
90.0
  0
ENDBLK
  5
225
100
AcDbEntity
  8
0
  6
BYBLOCK
 62
0
100
AcDbBlockEnd
  0
BLOCK
  5
226
100
AcDbEntity
  8
_03_2D_ZEICHNUNG_BEMASSUNGEN
100
AcDbBlockBegin
 62
7
  6
CONTINUOUS
  2
*D1
 70
65
 10
0.0
 20
0.0
  3
*D1
  1

  0
TEXT
  5
227
100
AcDbEntity
  8
_03_2D_ZEICHNUNG_BEMASSUNGEN
100
AcDbText
 62
2
  6
CONTINUOUS
 10
-41.125
 20
118.375
  7
STANDARD
 40
3.5
  1
150
 41
0.6904761905
 72
1
 11
-37.5
 21
118.375
100
AcDbText
  0
LINE
  5
228
100
AcDbEntity
  8
_03_2D_ZEICHNUNG_BEMASSUNGEN
100
AcDbLine
 62
7
  6
CONTINUOUS
 10
37.5
 20
108.5
 11
37.5
 21
119.0
  0
LINE
  5
229
100
AcDbEntity
  8
_03_2D_ZEICHNUNG_BEMASSUNGEN
100
AcDbLine
 62
7
  6
CONTINUOUS
 10
-112.5
 20
108.5
 11
-112.5
 21
119.0
  0
LINE
  5
22A
100
AcDbEntity
  8
_03_2D_ZEICHNUNG_BEMASSUNGEN
100
AcDbLine
 62
7
  6
CONTINUOUS
 10
37.5
 20
117.5
 11
-37.5
 21
117.5
  0
LINE
  5
22B
100
AcDbEntity
  8
_03_2D_ZEICHNUNG_BEMASSUNGEN
100
AcDbLine
 62
7
  6
CONTINUOUS
 10
-112.5
 20
117.5
 11
-37.5
 21
117.5
  0
INSERT
  5
22C
100
AcDbEntity
  8
_03_2D_ZEICHNUNG_BEMASSUNGEN
100
AcDbBlockReference
 62
7
  6
CONTINUOUS
  2
_FILLED
 10
37.5
 20
117.5
 41
3.5
 42
3.5
 43
3.5
 50
360.0
  0
INSERT
  5
22D
100
AcDbEntity
  8
_03_2D_ZEICHNUNG_BEMASSUNGEN
100
AcDbBlockReference
 62
7
  6
CONTINUOUS
  2
_FILLED
 10
-112.5
 20
117.5
 41
3.5
 42
3.5
 43
3.5
 50
180.0
  0
ENDBLK
  5
22E
100
AcDbEntity
  8
0
  6
BYBLOCK
 62
0
100
AcDbBlockEnd
  0
BLOCK
  5
22F
100
AcDbEntity
  8
_03_2D_ZEICHNUNG_BEMASSUNGEN
100
AcDbBlockBegin
 62
7
  6
CONTINUOUS
  2
*D2
 70
65
 10
0.0
 20
0.0
  3
*D2
  1

  0
TEXT
  5
230
100
AcDbEntity
  8
_03_2D_ZEICHNUNG_BEMASSUNGEN
100
AcDbText
 62
2
  6
CONTINUOUS
 10
45.6640589628
 20
89.875
  7
STANDARD
 40
3.5
  1
32
 50
90.0
 41
0.75
 72
1
 11
45.6640589628
 21
92.5
100
AcDbText
  0
LINE
  5
231
100
AcDbEntity
  8
_03_2D_ZEICHNUNG_BEMASSUNGEN
100
AcDbLine
 62
7
  6
CONTINUOUS
 10
37.5
 20
76.5
 11
48.0390589628
 21
76.5
  0
LINE
  5
232
100
AcDbEntity
  8
_03_2D_ZEICHNUNG_BEMASSUNGEN
100
AcDbLine
 62
7
  6
CONTINUOUS
 10
-112.5
 20
108.5
 11
48.0390589628
 21
108.5
  0
LINE
  5
233
100
AcDbEntity
  8
_03_2D_ZEICHNUNG_BEMASSUNGEN
100
AcDbLine
 62
7
  6
CONTINUOUS
 10
46.5390589628
 20
76.5
 11
46.5390589628
 21
92.5
  0
LINE
  5
234
100
AcDbEntity
  8
_03_2D_ZEICHNUNG_BEMASSUNGEN
100
AcDbLine
 62
7
  6
CONTINUOUS
 10
46.5390589628
 20
108.5
 11
46.5390589628
 21
92.5
  0
INSERT
  5
235
100
AcDbEntity
  8
_03_2D_ZEICHNUNG_BEMASSUNGEN
100
AcDbBlockReference
 62
7
  6
CONTINUOUS
  2
_FILLED
 10
46.5390589628
 20
76.5
 41
3.5
 42
3.5
 43
3.5
 50
270.0
  0
INSERT
  5
236
100
AcDbEntity
  8
_03_2D_ZEICHNUNG_BEMASSUNGEN
100
AcDbBlockReference
 62
7
  6
CONTINUOUS
  2
_FILLED
 10
46.5390589628
 20
108.5
 41
3.5
 42
3.5
 43
3.5
 50
90.0
  0
ENDBLK
  5
237
100
AcDbEntity
  8
0
  6
BYBLOCK
 62
0
100
AcDbBlockEnd
  0
ENDSEC
  0
SECTION
  2
ENTITIES
  0
DIMENSION
  5
238
100
AcDbEntity
  8
_03_2D_ZEICHNUNG_BEMASSUNGEN
100
AcDbDimension
 62
7
  6
CONTINUOUS
  2
*D0
 10
-121.5
 20
83.5
 11
-121.5
 21
95.4999996948
 70
160
 71
2
 42
25.0
  3
DIMSTYLE_1
100
AcDbAlignedDimension
 13
-112.5
 23
108.5
 14
-112.5
 24
83.5
 50
270.0
100
AcDbRotatedDimension
  0
DIMENSION
  5
239
100
AcDbEntity
  8
_03_2D_ZEICHNUNG_BEMASSUNGEN
100
AcDbDimension
 62
7
  6
CONTINUOUS
  2
*D1
 10
-112.5
 20
117.5
 11
-37.9999992371
 21
117.5
 70
160
 71
2
 42
150.0
  3
DIMSTYLE_2
100
AcDbAlignedDimension
 13
37.5
 23
108.5
 14
-112.5
 24
108.5
 50
180.0
100
AcDbRotatedDimension
  0
DIMENSION
  5
23A
100
AcDbEntity
  8
_03_2D_ZEICHNUNG_BEMASSUNGEN
100
AcDbDimension
 62
7
  6
CONTINUOUS
  2
*D2
 10
46.5390589628
 20
108.5
 11
46.5390589628
 21
92.000000104
 70
160
 71
2
 42
32.0
  3
DIMSTYLE_3
100
AcDbAlignedDimension
 13
37.5
 23
76.5
 14
-112.5
 24
108.5
 50
90.0
100
AcDbRotatedDimension
  0
LINE
  5
23B
100
AcDbEntity
  8
_30_VOLUMEN
100
AcDbLine
 62
4
  6
CONTINUOUS
 10
-112.5
 20
84.0
 11
-112.5
 21
108.0
  0
LINE
  5
23C
100
AcDbEntity
  8
_30_VOLUMEN
100
AcDbLine
 62
4
  6
CONTINUOUS
 10
-112.0
 20
83.5
 11
-112.0
 21
108.5
  0
LINE
  5
23D
100
AcDbEntity
  8
_30_VOLUMEN
100
AcDbLine
 62
4
  6
CONTINUOUS
 10
-112.5
 20
108.0
 11
-112.0
 21
108.5
  0
LINE
  5
23E
100
AcDbEntity
  8
_30_VOLUMEN
100
AcDbLine
 62
4
  6
CONTINUOUS
 10
-112.5
 20
84.0
 11
-112.0
 21
83.5
  0
LINE
  5
23F
100
AcDbEntity
  8
_30_VOLUMEN
100
AcDbLine
 62
4
  6
CONTINUOUS
 10
-112.0
 20
83.5
 11
18.5
 21
83.5
  0
LINE
  5
240
100
AcDbEntity
  8
0
100
AcDbLine
 62
4
  6
CONTINUOUS
 10
20.5
 20
83.5
 11
18.5
 21
83.5
  0
LINE
  5
241
100
AcDbEntity
  8
_26_BEZUGSACHSEN
100
AcDbLine
 62
4
  6
CONTINUOUS
 10
36.6118708045
 20
83.9351020423
 11
36.7
 21
83.9351020423
  0
LINE
  5
242
100
AcDbEntity
  8
_30_VOLUMEN
100
AcDbLine
 62
4
  6
CONTINUOUS
 10
37.0667079129
 20
76.5042493236
 11
31.1551480231
 21
77.024382513
  0
LINE
  5
243
100
AcDbEntity
  8
_21_KURVEN
100
AcDbLine
 62
5
  6
CONTINUOUS
 10
37.0667079129
 20
76.5042493236
 11
31.1551480231
 21
77.024382513
  0
LINE
  5
244
100
AcDbEntity
  8
_30_VOLUMEN
100
AcDbLine
 62
4
  6
CONTINUOUS
 10
-112.0
 20
108.5
 11
18.5
 21
108.5
  0
LINE
  5
245
100
AcDbEntity
  8
0
100
AcDbLine
 62
4
  6
CONTINUOUS
 10
24.9
 20
108.5
 11
18.5
 21
108.5
  0
LINE
  5
246
100
AcDbEntity
  8
_30_VOLUMEN
100
AcDbLine
 62
4
  6
CONTINUOUS
 10
31.0889674681
 20
77.0422633054
 11
25.7404885356
 21
79.5643895294
  0
LINE
  5
247
100
AcDbEntity
  8
_21_KURVEN
100
AcDbLine
 62
5
  6
CONTINUOUS
 10
31.0889674681
 20
77.0422633054
 11
25.7404885356
 21
79.5643895294
  0
LINE
  5
248
100
AcDbEntity
  8
_26_BEZUGSACHSEN
100
AcDbLine
 62
4
  6
CONTINUOUS
 10
25.786563585
 20
80.4308916763
 11
20.5
 21
83.5
  0
LINE
  5
249
100
AcDbEntity
  8
_30_VOLUMEN
100
AcDbLine
 62
4
  6
CONTINUOUS
 10
25.6743575617
 20
79.6057159344
 11
25.7404885356
 21
79.5643895294
  0
LINE
  5
24A
100
AcDbEntity
  8
_30_VOLUMEN
100
AcDbLine
 62
4
  6
CONTINUOUS
 10
25.6735536087
 20
79.6046354279
 11
25.0146489689
 21
80.0974008823
  0
LINE
  5
24B
100
AcDbEntity
  8
_30_VOLUMEN
100
AcDbLine
 62
7
  6
CONTINUOUS
 10
25.5919472107
 20
80.1531627392
 11
24.9330425709
 21
80.6459281937
  0
LINE
  5
24C
100
AcDbEntity
  8
_30_VOLUMEN
100
AcDbLine
 62
7
  6
CONTINUOUS
 10
29.0707814486
 20
85.0417466918
 11
29.0681341241
 21
85.043726508
  0
LINE
  5
24D
100
AcDbEntity
  8
_30_VOLUMEN
100
AcDbLine
 62
7
  6
CONTINUOUS
 10
29.1201262113
 20
85.0905979251
 11
29.1180453134
 21
85.092154136
  0
LINE
  5
24E
100
AcDbEntity
  8
_26_BEZUGSACHSEN
100
AcDbLine
 62
4
  6
CONTINUOUS
 10
36.6077546591
 20
83.9381803243
 11
36.6118708045
 21
83.9351020423
  0
LINE
  5
24F
100
AcDbEntity
  8
_30_VOLUMEN
100
AcDbLine
 62
7
  6
CONTINUOUS
 10
34.0368689379
 20
88.5136212599
 11
34.03478804
 21
88.5151774708
  0
LINE
  5
250
100
AcDbEntity
  8
_30_VOLUMEN
100
AcDbLine
 62
4
  6
CONTINUOUS
 10
34.4989060632
 20
88.5080503485
 11
34.270213003
 21
88.6790797099
  0
LINE
  5
251
100
AcDbEntity
  8
_26_BEZUGSACHSEN
100
AcDbLine
 62
4
  6
CONTINUOUS
 10
29.0894764906
 20
85.0722645968
 11
34.4285499865
 21
88.7893135007
  0
LINE
  5
252
100
AcDbEntity
  8
_30_VOLUMEN
100
AcDbLine
 62
4
  6
CONTINUOUS
 10
29.1201262113
 20
85.0905979251
 11
34.0368689379
 21
88.5136212599
  0
LINE
  5
253
100
AcDbEntity
  8
_21_KURVEN
100
AcDbLine
 62
5
  6
CONTINUOUS
 10
29.1201262113
 20
85.0905979251
 11
34.0368689379
 21
88.5136212599
  0
LINE
  5
254
100
AcDbEntity
  8
0
100
AcDbLine
 62
4
  6
CONTINUOUS
 10
19.5717967697
 20
90.5846403531
 11
29.5170275101
 21
103.8829724899
  0
LINE
  5
255
100
AcDbEntity
  8
0
100
AcDbLine
 62
4
  6
CONTINUOUS
 10
18.5
 20
108.5
 11
18.5
 21
83.5
  0
LINE
  5
256
100
AcDbEntity
  8
0
100
AcDbLine
 62
4
  6
CONTINUOUS
 10
36.7
 20
96.7
 11
24.9
 21
108.5
  0
LINE
  5
257
100
AcDbEntity
  8
0
100
AcDbLine
 62
4
  6
CONTINUOUS
 10
19.5717967697
 20
108.5
 11
19.5717967697
 21
90.5846403531
  0
LINE
  5
258
100
AcDbEntity
  8
0
100
AcDbLine
 62
4
  6
CONTINUOUS
 10
19.5717967697
 20
90.5846403531
 11
19.3795157922
 21
83.5
  0
LINE
  5
259
100
AcDbEntity
  8
_30_VOLUMEN
100
AcDbLine
 62
4
  6
CONTINUOUS
 10
24.9330425709
 20
80.6459281937
 11
25.0742834914
 21
80.844405054
  0
LINE
  5
25A
100
AcDbEntity
  8
_26_BEZUGSACHSEN
100
AcDbLine
 62
4
  6
CONTINUOUS
 10
25.786563585
 20
80.4308916763
 11
29.0894764906
 21
85.0722645968
  0
LINE
  5
25B
100
AcDbEntity
  8
_30_VOLUMEN
100
AcDbLine
 62
4
  6
CONTINUOUS
 10
25.5919472107
 20
80.1531627392
 11
29.0707814486
 21
85.0417466918
  0
LINE
  5
25C
100
AcDbEntity
  8
_21_KURVEN
100
AcDbLine
 62
5
  6
CONTINUOUS
 10
25.5919472107
 20
80.1531627392
 11
29.0707814486
 21
85.0417466918
  0
LINE
  5
25D
100
AcDbEntity
  8
_21_KURVEN
100
AcDbLine
 62
1
  6
CENTER
 10
36.6196937921
 20
83.8955322657
 11
36.6130635495
 21
83.9083469337
  0
LINE
  5
25E
100
AcDbEntity
  8
_30_VOLUMEN
100
AcDbLine
 62
4
  6
CONTINUOUS
 10
34.6207765505
 20
88.3558599538
 11
37.0535022024
 21
82.9471428119
  0
LINE
  5
25F
100
AcDbEntity
  8
_21_KURVEN
100
AcDbLine
 62
5
  6
CONTINUOUS
 10
34.6207765505
 20
88.3558599538
 11
37.0535022024
 21
82.9471428119
  0
LINE
  5
260
100
AcDbEntity
  8
_26_BEZUGSACHSEN
100
AcDbLine
 62
4
  6
CONTINUOUS
 10
34.4285499865
 20
88.7893135007
 11
36.6118708045
 21
83.9351020423
  0
LINE
  5
261
100
AcDbEntity
  8
_30_VOLUMEN
100
AcDbLine
 62
4
  6
CONTINUOUS
 10
37.0703379947
 20
82.8804107861
 11
37.5020742007
 21
76.9352612273
  0
LINE
  5
262
100
AcDbEntity
  8
_21_KURVEN
100
AcDbLine
 62
5
  6
CONTINUOUS
 10
37.0703379947
 20
82.8804107861
 11
37.5020742007
 21
76.9352612273
  0
LINE
  5
263
100
AcDbEntity
  8
0
100
AcDbLine
 62
4
  6
CONTINUOUS
 10
36.7
 20
83.9351020423
 11
36.7
 21
96.7
  0
ARC
  5
264
100
AcDbEntity
  8
_30_VOLUMEN
100
AcDbCircle
 62
4
  6
CONTINUOUS
 10
31.7665499062
 20
82.1127623681
 40
1.8641208939
100
AcDbArc
 50
245.2823416787
 51
254.8873394284
  0
ARC
  5
265
100
AcDbEntity
  8
_30_VOLUMEN
100
AcDbCircle
 62
4
  6
CONTINUOUS
 10
31.8312255191
 20
82.188005308
 40
1.8470068555
100
AcDbArc
 50
31.2284308605
 51
41.6303603875
  0
ARC
  5
266
100
AcDbEntity
  8
_30_VOLUMEN
100
AcDbCircle
 62
4
  6
CONTINUOUS
 10
29.235725544
 20
84.9245668739
 40
0.2023104439
100
AcDbArc
 50
124.847614796
 51
144.526340364
  0
SPLINE
  5
267
100
AcDbEntity
  8
_30_VOLUMEN
100
AcDbSpline
 62
4
  6
CONTINUOUS
 70
0
 71
3
 72
8
 73
4
 74
0
 42
0.0000001
 43
0.0000001
 44
0.0000000001
 40
0.0
 40
0.0
 40
0.0
 40
0.0
 40
1.0
 40
1.0
 40
1.0
 40
1.0
 10
34.6207765505
 20
88.3558599538
 30
0.0
 10
34.5941214047
 20
88.4151227581
 30
0.0
 10
34.550718285
 20
88.4688325009
 30
0.0
 10
34.4988352172
 20
88.5079569697
 30
0.0
  0
SPLINE
  5
268
100
AcDbEntity
  8
_30_VOLUMEN
100
AcDbSpline
 62
4
  6
CONTINUOUS
 70
0
 71
3
 72
8
 73
4
 74
0
 42
0.0000001
 43
0.0000001
 44
0.0000000001
 40
0.0
 40
0.0
 40
0.0
 40
0.0
 40
1.0
 40
1.0
 40
1.0
 40
1.0
 10
37.0535022024
 20
82.9471428119
 30
0.0
 10
37.0629125294
 20
82.9262206841
 30
0.0
 10
37.0686763967
 20
82.9032915374
 30
0.0
 10
37.0703379947
 20
82.8804107861
 30
0.0
  0
SPLINE
  5
269
100
AcDbEntity
  8
_30_VOLUMEN
100
AcDbSpline
 62
4
  6
CONTINUOUS
 70
0
 71
3
 72
11
 73
7
 74
0
 42
0.0000001
 43
0.0000001
 44
0.0000000001
 40
0.0
 40
0.0
 40
0.0
 40
0.0
 40
0.2485787177
 40
0.4992240505
 40
0.7503437491
 40
1.0
 40
1.0
 40
1.0
 40
1.0
 10
37.0667079129
 20
76.5042493236
 30
0.0
 10
37.1236738174
 20
76.4992371343
 30
0.0
 10
37.2417050432
 20
76.5152221748
 30
0.0
 10
37.3921525577
 20
76.6101745241
 30
0.0
 10
37.4886655581
 20
76.7598782894
 30
0.0
 10
37.5062340884
 20
76.8779782055
 30
0.0
 10
37.5020742007
 20
76.9352612273
 30
0.0
  0
SPLINE
  5
26A
100
AcDbEntity
  8
_30_VOLUMEN
100
AcDbSpline
 62
4
  6
CONTINUOUS
 70
0
 71
3
 72
8
 73
4
 74
0
 42
0.0000001
 43
0.0000001
 44
0.0000000001
 40
0.0
 40
0.0
 40
0.0
 40
0.0
 40
1.0
 40
1.0
 40
1.0
 40
1.0
 10
31.1551480231
 20
77.024382513
 30
0.0
 10
31.1323847822
 20
77.0263853544
 30
0.0
 10
31.1096359039
 20
77.0325169075
 30
0.0
 10
31.0889674681
 20
77.0422633054
 30
0.0
  0
SPLINE
  5
26B
100
AcDbEntity
  8
_30_VOLUMEN
100
AcDbSpline
 62
4
  6
CONTINUOUS
 70
0
 71
3
 72
12
 73
8
 74
0
 42
0.0000001
 43
0.0000001
 44
0.0000000001
 40
0.0
 40
0.0
 40
0.0
 40
0.0
 40
0.1244782563
 40
0.2492884786
 40
0.4987492752
 40
0.7494463153
 40
1.0
 40
1.0
 40
1.0
 40
1.0
 10
31.2805403305
 20
80.3131120134
 30
0.0
 10
31.3992765213
 20
80.2810316361
 30
0.0
 10
31.6441988172
 20
80.2400860844
 30
0.0
 10
32.1392438723
 20
80.2568976068
 30
0.0
 10
32.740615439
 20
80.4603810795
 30
0.0
 10
33.3131549288
 20
80.9593837808
 30
0.0
 10
33.5433056287
 20
81.4144320811
 30
0.0
 10
33.6103351147
 20
81.652750501
 30
0.0
  0
SPLINE
  5
26C
100
AcDbEntity
  8
_30_VOLUMEN
100
AcDbSpline
 62
4
  6
CONTINUOUS
 70
0
 71
3
 72
9
 73
5
 74
0
 42
0.0000001
 43
0.0000001
 44
0.0000000001
 40
0.0
 40
0.0
 40
0.0
 40
0.0
 40
0.4986196845
 40
1.0
 40
1.0
 40
1.0
 40
1.0
 10
33.4106142016
 20
83.1455885753
 30
0.0
 10
33.5431102531
 20
82.9269341404
 30
0.0
 10
33.7190848692
 20
82.4276764654
 30
0.0
 10
33.6799410608
 20
81.9002293361
 30
0.0
 10
33.6103351147
 20
81.652750501
 30
0.0
  0
SPLINE
  5
26D
100
AcDbEntity
  8
_30_VOLUMEN
100
AcDbSpline
 62
4
  6
CONTINUOUS
 70
0
 71
3
 72
11
 73
7
 74
0
 42
0.0000001
 43
0.0000001
 44
0.0000000001
 40
0.0
 40
0.0
 40
0.0
 40
0.0
 40
0.2488877241
 40
0.497972742
 40
0.7489948545
 40
1.0
 40
1.0
 40
1.0
 40
1.0
 10
25.0147785752
 20
80.097585316
 30
0.0
 10
24.9743416812
 20
80.1280222933
 30
0.0
 10
24.9042389572
 20
80.2052306359
 30
0.0
 10
24.8522256548
 20
80.3525729602
 30
0.0
 10
24.8601547093
 20
80.5087201866
 30
0.0
 10
24.9034481424
 20
80.6043410301
 30
0.0
 10
24.9330425709
 20
80.6459281937
 30
0.0
  0
SPLINE
  5
26E
100
AcDbEntity
  8
_30_VOLUMEN
100
AcDbSpline
 62
4
  6
CONTINUOUS
 70
0
 71
3
 72
13
 73
9
 74
0
 42
0.0000001
 43
0.0000001
 44
0.0000000001
 40
0.0
 40
0.0
 40
0.0
 40
0.0
 40
0.2505827095
 40
0.5006949563
 40
0.6261180584
 40
0.7510606269
 40
0.8756504234
 40
1.0
 40
1.0
 40
1.0
 40
1.0
 10
30.583714695
 20
82.1821962978
 30
0.0
 10
30.6664359237
 20
82.4763055577
 30
0.0
 10
30.9787465332
 20
83.032497452
 30
0.0
 10
31.6452995329
 20
83.4650216576
 30
0.0
 10
32.2464393056
 20
83.5964001399
 30
0.0
 10
32.7081898012
 20
83.5841884892
 30
0.0
 10
33.1514933376
 20
83.460463642
 30
0.0
 10
33.4182192053
 20
83.3080800608
 30
0.0
 10
33.5395629474
 20
83.2171847186
 30
0.0
  0
SPLINE
  5
26F
100
AcDbEntity
  8
_30_VOLUMEN
100
AcDbSpline
 62
4
  6
CONTINUOUS
 70
0
 71
3
 72
11
 73
7
 74
0
 42
0.0000001
 43
0.0000001
 44
0.0000000001
 40
0.0
 40
0.0
 40
0.0
 40
0.0
 40
0.2511684833
 40
0.501993254
 40
0.7512703686
 40
1.0
 40
1.0
 40
1.0
 40
1.0
 10
30.583714695
 20
82.1821962978
 30
0.0
 10
30.5326878598
 20
82.0007741288
 30
0.0
 10
30.4848269118
 20
81.6206110917
 30
0.0
 10
30.5818992795
 20
81.0570426897
 30
0.0
 10
30.8415851966
 20
80.5492184901
 30
0.0
 10
31.1086497021
 20
80.2782957929
 30
0.0
 10
31.2580213642
 20
80.1664054876
 30
0.0
  0
SPLINE
  5
270
100
AcDbEntity
  8
_30_VOLUMEN
100
AcDbSpline
 62
4
  6
CONTINUOUS
 70
0
 71
3
 72
15
 73
11
 74
0
 42
0.0000001
 43
0.0000001
 44
0.0000000001
 40
0.0
 40
0.0
 40
0.0
 40
0.0
 40
0.1258879401
 40
0.2517476031
 40
0.3770770555
 40
0.5016813929
 40
0.6257907199
 40
0.7499287226
 40
0.8746020031
 40
1.0
 40
1.0
 40
1.0
 40
1.0
 10
34.5716130983
 20
81.091513647
 30
0.0
 10
34.4923676295
 20
80.8097621961
 30
0.0
 10
34.2207438549
 20
80.2717723815
 30
0.0
 10
33.5431372116
 20
79.6826150073
 30
0.0
 10
32.6947337988
 20
79.3934248784
 30
0.0
 10
31.8040306733
 20
79.451183144
 30
0.0
 10
31.0072865776
 20
79.8481263484
 30
0.0
 10
30.4277367678
 20
80.5241858189
 30
0.0
 10
30.1536377952
 20
81.3730749387
 30
0.0
 10
30.2024042976
 20
81.9700127948
 30
0.0
 10
30.2813413511
 20
82.2506676974
 30
0.0
  0
SPLINE
  5
271
100
AcDbEntity
  8
_30_VOLUMEN
100
AcDbSpline
 62
4
  6
CONTINUOUS
 70
0
 71
3
 72
11
 73
7
 74
0
 42
0.0000001
 43
0.0000001
 44
0.0000000001
 40
0.0
 40
0.0
 40
0.0
 40
0.0
 40
0.2487296314
 40
0.498006746
 40
0.7488315167
 40
1.0
 40
1.0
 40
1.0
 40
1.0
 10
33.5395629474
 20
83.2171847186
 30
0.0
 10
33.6889346095
 20
83.1052944133
 30
0.0
 10
33.955999115
 20
82.8343717161
 30
0.0
 10
34.2156850322
 20
82.3265475165
 30
0.0
 10
34.3127573999
 20
81.7629791145
 30
0.0
 10
34.2648964518
 20
81.3828160773
 30
0.0
 10
34.2138696166
 20
81.2013939083
 30
0.0
  0
SPLINE
  5
272
100
AcDbEntity
  8
_30_VOLUMEN
100
AcDbSpline
 62
4
  6
CONTINUOUS
 70
0
 71
3
 72
11
 73
7
 74
0
 42
0.0000001
 43
0.0000001
 44
0.0000000001
 40
0.0
 40
0.0
 40
0.0
 40
0.0
 40
0.2510051455
 40
0.502027258
 40
0.7511122759
 40
1.0
 40
1.0
 40
1.0
 40
1.0
 10
25.5919472107
 20
80.1531627392
 30
0.0
 10
25.5623527822
 20
80.1115755757
 30
0.0
 10
25.519059349
 20
80.0159547322
 30
0.0
 10
25.5111302945
 20
79.8598075058
 30
0.0
 10
25.563143597
 20
79.7124651815
 30
0.0
 10
25.633246321
 20
79.6352568389
 30
0.0
 10
25.673683215
 20
79.6048198616
 30
0.0
  0
SPLINE
  5
273
100
AcDbEntity
  8
_30_VOLUMEN
100
AcDbSpline
 62
4
  6
CONTINUOUS
 70
0
 71
3
 72
15
 73
11
 74
0
 42
0.0000001
 43
0.0000001
 44
0.0000000001
 40
0.0
 40
0.0
 40
0.0
 40
0.0
 40
0.1258879401
 40
0.2517476031
 40
0.3770770555
 40
0.5016813929
 40
0.6257907199
 40
0.7499287226
 40
0.8746020031
 40
1.0
 40
1.0
 40
1.0
 40
1.0
 10
30.2813413511
 20
82.2506676974
 30
0.0
 10
30.36058682
 20
82.5324191484
 30
0.0
 10
30.6322105945
 20
83.070408963
 30
0.0
 10
31.3098172378
 20
83.6595663371
 30
0.0
 10
32.1582206506
 20
83.948756466
 30
0.0
 10
33.0489237762
 20
83.8909982004
 30
0.0
 10
33.8456678718
 20
83.494054996
 30
0.0
 10
34.4252176817
 20
82.8179955255
 30
0.0
 10
34.6993166542
 20
81.9691064058
 30
0.0
 10
34.6505501518
 20
81.3721685496
 30
0.0
 10
34.5716130983
 20
81.091513647
 30
0.0
  0
SPLINE
  5
274
100
AcDbEntity
  8
_30_VOLUMEN
100
AcDbSpline
 62
4
  6
CONTINUOUS
 70
0
 71
3
 72
9
 73
5
 74
0
 42
0.0000001
 43
0.0000001
 44
0.0000000001
 40
0.0
 40
0.0
 40
0.0
 40
0.0
 40
0.4979043951
 40
1.0
 40
1.0
 40
1.0
 40
1.0
 10
34.4988352172
 20
88.5079569697
 30
0.0
 10
34.4344832349
 20
88.5564841141
 30
0.0
 10
34.2692631229
 20
88.6129026472
 30
0.0
 10
34.1035722678
 20
88.5600599424
 30
0.0
 10
34.0368689379
 20
88.5136212599
 30
0.0
  0
SPLINE
  5
275
100
AcDbEntity
  8
_30_VOLUMEN
100
AcDbSpline
 62
4
  6
CONTINUOUS
 70
0
 71
3
 72
13
 73
9
 74
0
 42
0.0000001
 43
0.0000001
 44
0.0000000001
 40
0.0
 40
0.0
 40
0.0
 40
0.0
 40
0.1243495766
 40
0.2489393731
 40
0.3738819416
 40
0.4993050437
 40
0.7494172905
 40
1.0
 40
1.0
 40
1.0
 40
1.0
 10
31.2580213642
 20
80.1664054876
 30
0.0
 10
31.3793651063
 20
80.0755101453
 30
0.0
 10
31.646090974
 20
79.9231265641
 30
0.0
 10
32.0893945104
 20
79.799401717
 30
0.0
 10
32.551145006
 20
79.7871900663
 30
0.0
 10
33.1522847788
 20
79.9185685486
 30
0.0
 10
33.8188377784
 20
80.3510927542
 30
0.0
 10
34.131148388
 20
80.9072846484
 30
0.0
 10
34.2138696166
 20
81.2013939083
 30
0.0
  0
SPLINE
  5
276
100
AcDbEntity
  8
_21_KURVEN
100
AcDbSpline
 62
5
  6
CONTINUOUS
 70
0
 71
3
 72
9
 73
5
 74
0
 42
0.0000001
 43
0.0000001
 44
0.0000000001
 40
0.0
 40
0.0
 40
0.0
 40
0.0
 40
0.5
 40
1.0
 40
1.0
 40
1.0
 40
1.0
 10
37.0667079129
 20
76.5042493236
 30
0.0
 10
37.1039744707
 20
76.5027450763
 30
0.0
 10
37.1830261727
 20
76.5037071018
 30
0.0
 10
37.2538736969
 20
76.5332862621
 30
0.0
 10
37.2895610854
 20
76.5502197205
 30
0.0
  0
SPLINE
  5
277
100
AcDbEntity
  8
_21_KURVEN
100
AcDbSpline
 62
5
  6
CONTINUOUS
 70
0
 71
3
 72
9
 73
5
 74
0
 42
0.0000001
 43
0.0000001
 44
0.0000000001
 40
0.0
 40
0.0
 40
0.0
 40
0.0
 40
0.5
 40
1.0
 40
1.0
 40
1.0
 40
1.0
 10
37.289561093
 20
76.5502197246
 30
0.0
 10
37.3218356004
 20
76.5695131722
 30
0.0
 10
37.3880286265
 20
76.6138781056
 30
0.0
 10
37.4316600803
 20
76.6774170104
 30
0.0
 10
37.452729062
 20
76.711472609
 30
0.0
  0
SPLINE
  5
278
100
AcDbEntity
  8
_21_KURVEN
100
AcDbSpline
 62
5
  6
CONTINUOUS
 70
0
 71
3
 72
9
 73
5
 74
0
 42
0.0000001
 43
0.0000001
 44
0.0000000001
 40
0.0
 40
0.0
 40
0.0
 40
0.0
 40
0.5
 40
1.0
 40
1.0
 40
1.0
 40
1.0
 10
37.4527290583
 20
76.7114726023
 30
0.0
 10
37.4693909013
 20
76.7452526736
 30
0.0
 10
37.5009205778
 20
76.8178069535
 30
0.0
 10
37.5030003652
 20
76.8965494544
 30
0.0
 10
37.5020742004
 20
76.9352612319
 30
0.0
  0
SPLINE
  5
279
100
AcDbEntity
  8
_21_KURVEN
100
AcDbSpline
 62
5
  6
CONTINUOUS
 70
0
 71
3
 72
8
 73
4
 74
0
 42
0.0000001
 43
0.0000001
 44
0.0000000001
 40
0.0
 40
0.0
 40
0.0
 40
0.0
 40
1.0
 40
1.0
 40
1.0
 40
1.0
 10
31.0889674681
 20
77.0422633054
 30
0.0
 10
31.0952165813
 20
77.0393837919
 30
0.0
 10
31.1024749475
 20
77.0363929967
 30
0.0
 10
31.1110779712
 20
77.0334470009
 30
0.0
  0
LINE
  5
27A
100
AcDbEntity
  8
_21_KURVEN
100
AcDbLine
 62
5
  6
CONTINUOUS
 10
31.1110779708
 20
77.033447001
 11
31.1226928976
 21
77.0300163481
  0
SPLINE
  5
27B
100
AcDbEntity
  8
_21_KURVEN
100
AcDbSpline
 62
5
  6
CONTINUOUS
 70
0
 71
3
 72
8
 73
4
 74
0
 42
0.0000001
 43
0.0000001
 44
0.0000000001
 40
0.0
 40
0.0
 40
0.0
 40
0.0
 40
1.0
 40
1.0
 40
1.0
 40
1.0
 10
31.122692898
 20
77.030016348
 30
0.0
 10
31.1320557387
 20
77.0276872246
 30
0.0
 10
31.1430450623
 20
77.0256366112
 30
0.0
 10
31.155148024
 20
77.0243825129
 30
0.0
  0
SPLINE
  5
27C
100
AcDbEntity
  8
_21_KURVEN
100
AcDbSpline
 62
5
  6
CONTINUOUS
 70
0
 71
3
 72
11
 73
7
 74
0
 42
0.0000001
 43
0.0000001
 44
0.0000000001
 40
0.0
 40
0.0
 40
0.0
 40
0.0
 40
0.25
 40
0.5
 40
0.75
 40
1.0
 40
1.0
 40
1.0
 40
1.0
 10
25.5919472107
 20
80.1531627392
 30
0.0
 10
25.5757842304
 20
80.1262669689
 30
0.0
 10
25.5445095457
 20
80.0718945716
 30
0.0
 10
25.5174023375
 20
79.9809377274
 30
0.0
 10
25.5158618068
 20
79.8863645131
 30
0.0
 10
25.5293671398
 20
79.825658033
 30
0.0
 10
25.5367107476
 20
79.7954372814
 30
0.0
  0
SPLINE
  5
27D
100
AcDbEntity
  8
_21_KURVEN
100
AcDbSpline
 62
5
  6
CONTINUOUS
 70
0
 71
3
 72
9
 73
5
 74
0
 42
0.0000001
 43
0.0000001
 44
0.0000000001
 40
0.0
 40
0.0
 40
0.0
 40
0.0
 40
0.5
 40
1.0
 40
1.0
 40
1.0
 40
1.0
 10
25.5367107443
 20
79.7954372912
 30
0.0
 10
25.5551588118
 20
79.7493113783
 30
0.0
 10
25.600908943
 20
79.654900363
 30
0.0
 10
25.6845710929
 20
79.596692747
 30
0.0
 10
25.7281499471
 20
79.5704771497
 30
0.0
  0
LINE
  5
27E
100
AcDbEntity
  8
_21_KURVEN
100
AcDbLine
 62
5
  6
CONTINUOUS
 10
25.7281499466
 20
79.57047715
 11
25.7404885355
 21
79.5643895295
  0
SPLINE
  5
27F
100
AcDbEntity
  8
_21_KURVEN
100
AcDbSpline
 62
1
  6
CENTER
 70
0
 71
3
 72
65
 73
61
 74
0
 42
0.0000001
 43
0.0000001
 44
0.0000000001
 40
0.0
 40
0.0
 40
0.0
 40
0.0
 40
0.03125
 40
0.0625
 40
0.09375
 40
0.109375
 40
0.125
 40
0.1328125
 40
0.140625
 40
0.15625
 40
0.171875
 40
0.1875
 40
0.21875
 40
0.25
 40
0.265625
 40
0.2734375
 40
0.28125
 40
0.28515625
 40
0.2890625
 40
0.296875
 40
0.3125
 40
0.34375
 40
0.375
 40
0.40625
 40
0.4140625
 40
0.421875
 40
0.4296875
 40
0.4375
 40
0.453125
 40
0.46875
 40
0.5
 40
0.53125
 40
0.546875
 40
0.5625
 40
0.5703125
 40
0.578125
 40
0.5859375
 40
0.59375
 40
0.625
 40
0.65625
 40
0.6875
 40
0.703125
 40
0.7109375
 40
0.71484375
 40
0.71875
 40
0.7265625
 40
0.734375
 40
0.75
 40
0.78125
 40
0.8125
 40
0.828125
 40
0.84375
 40
0.859375
 40
0.8671875
 40
0.875
 40
0.890625
 40
0.90625
 40
0.9375
 40
0.96875
 40
1.0
 40
1.0
 40
1.0
 40
1.0
 10
27.8911655641
 20
82.8964500879
 30
0.0
 10
27.8786707222
 20
82.8215572145
 30
0.0
 10
27.853675527
 20
82.6717716998
 30
0.0
 10
27.816215802
 20
82.4470920347
 30
0.0
 10
27.784902917
 20
82.2598630433
 30
0.0
 10
27.7600675491
 20
82.1100707959
 30
0.0
 10
27.7440563176
 20
82.0164712454
 30
0.0
 10
27.7323675011
 20
81.9415444187
 30
0.0
 10
27.7165893114
 20
81.866789854
 30
0.0
 10
27.7261366615
 20
81.7721136662
 30
0.0
 10
27.730751945
 20
81.6587906526
 30
0.0
 10
27.7392889597
 20
81.507591798
 30
0.0
 10
27.7491892941
 20
81.318633473
 30
0.0
 10
27.7591942352
 20
81.1296410541
 30
0.0
 10
27.7665176737
 20
80.9973897879
 30
0.0
 10
27.770122577
 20
80.9217534175
 30
0.0
 10
27.7737492527
 20
80.874630892
 30
0.0
 10
27.7734989061
 20
80.8365884319
 30
0.0
 10
27.7847564192
 20
80.7998035656
 30
0.0
 10
27.8024513634
 20
80.7352109133
 30
0.0
 10
27.8392638884
 20
80.6061804853
 30
0.0
 10
27.8911203454
 20
80.421775997
 30
0.0
 10
27.9536141028
 20
80.2004980734
 30
0.0
 10
28.0005658311
 20
80.0346076103
 30
0.0
 10
28.0316481717
 20
79.9238983368
 30
0.0
 10
28.0475998284
 20
79.8687523031
 30
0.0
 10
28.0619533019
 20
79.8127949836
 30
0.0
 10
28.1020411401
 20
79.7488190994
 30
0.0
 10
28.1449747277
 20
79.665206394
 30
0.0
 10
28.2176964653
 20
79.5334725561
 30
0.0
 10
28.307093497
 20
79.3680279782
 30
0.0
 10
28.397476093
 20
79.2031344091
 30
0.0
 10
28.4686209277
 20
79.0705189573
 30
0.0
 10
28.5154967726
 20
78.9891102868
 30
0.0
 10
28.5475029833
 20
78.9206161309
 30
0.0
 10
28.5865448431
 20
78.8784615803
 30
0.0
 10
28.62405714
 20
78.835369657
 30
0.0
 10
28.6998678372
 20
78.7496670874
 30
0.0
 10
28.8132640546
 20
78.6209243713
 30
0.0
 10
28.9645925553
 20
78.4493121249
 30
0.0
 10
29.0908230759
 20
78.3064886457
 30
0.0
 10
29.1788667977
 20
78.2061005256
 30
0.0
 10
29.2233327204
 20
78.1564749768
 30
0.0
 10
29.2480259478
 20
78.1272017417
 30
0.0
 10
29.2799072958
 20
78.1071234521
 30
0.0
 10
29.3172981853
 20
78.0788777954
 30
0.0
 10
29.3784964579
 20
78.0354407397
 30
0.0
 10
29.4849589713
 20
77.9586155945
 30
0.0
 10
29.6373383506
 20
77.8492258145
 30
0.0
 10
29.7897659346
 20
77.7399377491
 30
0.0
 10
29.911360251
 20
77.6519748397
 30
0.0
 10
30.003570318
 20
77.5875390004
 30
0.0
 10
30.0771758373
 20
77.5289431822
 30
0.0
 10
30.1493521357
 20
77.5021883798
 30
0.0
 10
30.219207145
 20
77.4719195052
 30
0.0
 10
30.3073207213
 20
77.4352866384
 30
0.0
 10
30.4478582074
 20
77.376001547
 30
0.0
 10
30.6236825757
 20
77.3021260602
 30
0.0
 10
30.8346061207
 20
77.2133760211
 30
0.0
 10
30.9752343311
 20
77.1542282722
 30
0.0
 10
31.0455468721
 20
77.1246520298
 30
0.0
  0
SPLINE
  5
280
100
AcDbEntity
  8
_21_KURVEN
100
AcDbSpline
 62
1
  6
CENTER
 70
0
 71
3
 72
15
 73
11
 74
0
 42
0.0000001
 43
0.0000001
 44
0.0000000001
 40
0.0
 40
0.0
 40
0.0
 40
0.0
 40
0.125
 40
0.1875
 40
0.25
 40
0.5
 40
0.75
 40
0.8125
 40
0.875
 40
1.0
 40
1.0
 40
1.0
 40
1.0
 10
31.0455468926
 20
77.1246520238
 30
0.0
 10
31.0494824191
 20
77.1235062807
 30
0.0
 10
31.0547813252
 20
77.1219563259
 30
0.0
 10
31.0642640681
 20
77.1192150803
 30
0.0
 10
31.0900882349
 20
77.1118515701
 30
0.0
 10
31.1234158857
 20
77.1024245437
 30
0.0
 10
31.1612703573
 20
77.0924021447
 30
0.0
 10
31.1828651707
 20
77.0866777943
 30
0.0
 10
31.2050842962
 20
77.0810196945
 30
0.0
 10
31.2235829028
 20
77.0763475615
 30
0.0
 10
31.2355076933
 20
77.0733280413
 30
0.0
  0
SPLINE
  5
281
100
AcDbEntity
  8
_21_KURVEN
100
AcDbSpline
 62
1
  6
CENTER
 70
0
 71
3
 72
63
 73
59
 74
0
 42
0.0000001
 43
0.0000001
 44
0.0000000001
 40
0.0
 40
0.0
 40
0.0
 40
0.0
 40
0.03125
 40
0.0625
 40
0.09375
 40
0.109375
 40
0.125
 40
0.1328125
 40
0.140625
 40
0.15625
 40
0.171875
 40
0.1875
 40
0.21875
 40
0.25
 40
0.265625
 40
0.2734375
 40
0.28125
 40
0.28515625
 40
0.2890625
 40
0.296875
 40
0.3125
 40
0.34375
 40
0.375
 40
0.40625
 40
0.421875
 40
0.4296875
 40
0.4375
 40
0.453125
 40
0.46875
 40
0.5
 40
0.53125
 40
0.546875
 40
0.5625
 40
0.5703125
 40
0.578125
 40
0.59375
 40
0.625
 40
0.65625
 40
0.6875
 40
0.703125
 40
0.7109375
 40
0.71484375
 40
0.71875
 40
0.7265625
 40
0.734375
 40
0.75
 40
0.78125
 40
0.8125
 40
0.828125
 40
0.84375
 40
0.859375
 40
0.8671875
 40
0.875
 40
0.890625
 40
0.90625
 40
0.9375
 40
0.96875
 40
1.0
 40
1.0
 40
1.0
 40
1.0
 10
31.2355076948
 20
77.073328041
 30
0.0
 10
31.3101516911
 20
77.0634387723
 30
0.0
 10
31.4594394878
 20
77.0436546925
 30
0.0
 10
31.6833723582
 20
77.0140118281
 30
0.0
 10
31.8699796555
 20
76.9892124462
 30
0.0
 10
32.0192731329
 20
76.9695891009
 30
0.0
 10
32.1125641714
 20
76.956832607
 30
0.0
 10
32.1872368161
 20
76.9477539391
 30
0.0
 10
32.2617641129
 20
76.9345626847
 30
0.0
 10
32.3559635759
 20
76.9475098571
 30
0.0
 10
32.4687595481
 20
76.9561660833
 30
0.0
 10
32.6192399902
 20
76.9701045898
 30
0.0
 10
32.8073054075
 20
76.9867521374
 30
0.0
 10
32.9954041005
 20
77.0035059379
 30
0.0
 10
33.1270279013
 20
77.015553377
 30
0.0
 10
33.2023091492
 20
77.0218575599
 30
0.0
 10
33.2492015924
 20
77.0271717065
 30
0.0
 10
33.2870786434
 20
77.0282703632
 30
0.0
 10
33.3236299778
 20
77.0408804365
 30
0.0
 10
33.3878261559
 20
77.0609410977
 30
0.0
 10
33.5160513219
 20
77.1024930038
 30
0.0
 10
33.6993412289
 20
77.1610591067
 30
0.0
 10
33.9191379939
 20
77.2318785868
 30
0.0
 10
34.102657578
 20
77.2901526491
 30
0.0
 10
34.2304406156
 20
77.3322667334
 30
0.0
 10
34.3045196753
 20
77.3542878774
 30
0.0
 10
34.3679780838
 20
77.3967755987
 30
0.0
 10
34.4509394108
 20
77.4428746002
 30
0.0
 10
34.5816336121
 20
77.5205680093
 30
0.0
 10
34.745777513
 20
77.6162148206
 30
0.0
 10
34.9093717191
 20
77.7128226735
 30
0.0
 10
35.040945432
 20
77.7889784162
 30
0.0
 10
35.1217079801
 20
77.8389215837
 30
0.0
 10
35.1896738854
 20
77.8735287646
 30
0.0
 10
35.2453931413
 20
77.9276486951
 30
0.0
 10
35.34504273
 20
78.0189490117
 30
0.0
 10
35.486265118
 20
78.1511720489
 30
0.0
 10
35.656282522
 20
78.3090217123
 30
0.0
 10
35.7976407871
 20
78.4408976848
 30
0.0
 10
35.8970288123
 20
78.5328661011
 30
0.0
 10
35.946151728
 20
78.579279627
 30
0.0
 10
35.975138526
 20
78.6051149205
 30
0.0
 10
35.9949247289
 20
78.6378421417
 30
0.0
 10
36.0228072114
 20
78.6763917712
 30
0.0
 10
36.0656621088
 20
78.7393874632
 30
0.0
 10
36.1414689814
 20
78.849021558
 30
0.0
 10
36.2494038113
 20
79.0059201926
 30
0.0
 10
36.3572370654
 20
79.1628636229
 30
0.0
 10
36.4440360125
 20
79.2880880583
 30
0.0
 10
36.5075991368
 20
79.382970434
 30
0.0
 10
36.5654668837
 20
79.4589632119
 30
0.0
 10
36.5916425479
 20
79.5323908083
 30
0.0
 10
36.6213317046
 20
79.6036121172
 30
0.0
 10
36.6572401226
 20
79.6933941914
 30
0.0
 10
36.7153659849
 20
79.8366232824
 30
0.0
 10
36.7877924734
 20
80.0158046011
 30
0.0
 10
36.8748036981
 20
80.2307597414
 30
0.0
 10
36.9327922406
 20
80.3740750621
 30
0.0
 10
36.9617888795
 20
80.4457312357
 30
0.0
  0
SPLINE
  5
282
100
AcDbEntity
  8
_21_KURVEN
100
AcDbSpline
 62
1
  6
CENTER
 70
0
 71
3
 72
23
 73
19
 74
0
 42
0.0000001
 43
0.0000001
 44
0.0000000001
 40
0.0
 40
0.0
 40
0.0
 40
0.0
 40
0.125
 40
0.15625
 40
0.1875
 40
0.25
 40
0.3125
 40
0.375
 40
0.4375
 40
0.5
 40
0.5625
 40
0.625
 40
0.6875
 40
0.75
 40
0.8125
 40
0.84375
 40
0.875
 40
1.0
 40
1.0
 40
1.0
 40
1.0
 10
36.9617888853
 20
80.4457312565
 30
0.0
 10
36.9847196717
 20
80.5424724951
 30
0.0
 10
37.0121505835
 20
80.66362365
 30
0.0
 10
37.0487653909
 20
80.8083312157
 30
0.0
 10
37.0652868078
 20
80.9062404094
 30
0.0
 10
37.0823993993
 20
81.0292090654
 30
0.0
 10
37.1074137595
 20
81.1762313921
 30
0.0
 10
37.1201738057
 20
81.3244824984
 30
0.0
 10
37.1281652884
 20
81.4730463533
 30
0.0
 10
37.142832055
 20
81.621474338
 30
0.0
 10
37.1355662495
 20
81.7701330547
 30
0.0
 10
37.1349789978
 20
81.9187871584
 30
0.0
 10
37.1296101031
 20
82.0672289821
 30
0.0
 10
37.1119321096
 20
82.2147004358
 30
0.0
 10
37.100953619
 20
82.3379646088
 30
0.0
 10
37.0893177663
 20
82.4361700245
 30
0.0
 10
37.0599300928
 20
82.5815719931
 30
0.0
 10
37.0385481499
 20
82.7032366947
 30
0.0
 10
37.0204481044
 20
82.8004096098
 30
0.0
  0
SPLINE
  5
283
100
AcDbEntity
  8
_21_KURVEN
100
AcDbSpline
 62
1
  6
CENTER
 70
0
 71
3
 72
15
 73
11
 74
0
 42
0.0000001
 43
0.0000001
 44
0.0000000001
 40
0.0
 40
0.0
 40
0.0
 40
0.0
 40
0.125
 40
0.1875
 40
0.25
 40
0.5
 40
0.75
 40
0.8125
 40
0.875
 40
1.0
 40
1.0
 40
1.0
 40
1.0
 10
37.0204481318
 20
82.8004094907
 30
0.0
 10
37.0195180588
 20
82.8044200673
 30
0.0
 10
37.0182720716
 20
82.8098237616
 30
0.0
 10
37.0160142659
 20
82.8194773698
 30
0.0
 10
37.0097779469
 20
82.845714735
 30
0.0
 10
37.0016640309
 20
82.8795366706
 30
0.0
 10
36.9918571986
 20
82.917601393
 30
0.0
 10
36.9862686351
 20
82.9393196745
 30
0.0
 10
36.9803186463
 20
82.9615470461
 30
0.0
 10
36.975331729
 20
82.980032764
 30
0.0
 10
36.9721236565
 20
82.9919532006
 30
0.0
  0
SPLINE
  5
284
100
AcDbEntity
  8
_21_KURVEN
100
AcDbSpline
 62
1
  6
CENTER
 70
0
 71
3
 72
13
 73
9
 74
0
 42
0.0000001
 43
0.0000001
 44
0.0000000001
 40
0.0
 40
0.0
 40
0.0
 40
0.0
 40
0.125
 40
0.1875
 40
0.25
 40
0.375
 40
0.5
 40
1.0
 40
1.0
 40
1.0
 40
1.0
 10
36.9721236561
 20
82.9919532021
 30
0.0
 10
36.9617531918
 20
83.0274920329
 30
0.0
 10
36.9465804106
 20
83.0802739434
 30
0.0
 10
36.9248183743
 20
83.1527551666
 30
0.0
 10
36.8983413575
 20
83.2323141996
 30
0.0
 10
36.8656950743
 20
83.3289063057
 30
0.0
 10
36.7808936729
 20
83.5609996192
 30
0.0
 10
36.6931645163
 20
83.7465260873
 30
0.0
 10
36.6196937883
 20
83.8955322731
 30
0.0
  0
LINE
  5
285
100
AcDbEntity
  8
_21_KURVEN
100
AcDbLine
 62
1
  6
CENTER
 10
36.6130635497
 20
83.9083469333
 11
36.5898466953
 21
83.952470613
  0
SPLINE
  5
286
100
AcDbEntity
  8
_21_KURVEN
100
AcDbSpline
 62
1
  6
CENTER
 70
0
 71
3
 72
15
 73
11
 74
0
 42
0.0000001
 43
0.0000001
 44
0.0000000001
 40
0.0
 40
0.0
 40
0.0
 40
0.0
 40
0.125
 40
0.25
 40
0.375
 40
0.5
 40
0.625
 40
0.75
 40
0.875
 40
1.0
 40
1.0
 40
1.0
 40
1.0
 10
36.5898466955
 20
83.9524706125
 30
0.0
 10
36.5879106445
 20
83.9560873834
 30
0.0
 10
36.5840092849
 20
83.9633884055
 30
0.0
 10
36.5783327912
 20
83.9739350563
 30
0.0
 10
36.5718899828
 20
83.9858148727
 30
0.0
 10
36.5563413897
 20
84.0142566728
 30
0.0
 10
36.5541431598
 20
84.0181808222
 30
0.0
 10
36.5427269005
 20
84.0386360208
 30
0.0
 10
36.5305419108
 20
84.0602884641
 30
0.0
 10
36.5226289458
 20
84.0741185461
 30
0.0
 10
36.5186461682
 20
84.0811091971
 30
0.0
  0
SPLINE
  5
287
100
AcDbEntity
  8
_21_KURVEN
100
AcDbSpline
 62
1
  6
CENTER
 70
0
 71
3
 72
73
 73
69
 74
0
 42
0.0000001
 43
0.0000001
 44
0.0000000001
 40
0.0
 40
0.0
 40
0.0
 40
0.0
 40
0.0625
 40
0.078125
 40
0.09375
 40
0.1015625
 40
0.109375
 40
0.1171875
 40
0.125
 40
0.140625
 40
0.15625
 40
0.171875
 40
0.1875
 40
0.203125
 40
0.2109375
 40
0.21875
 40
0.234375
 40
0.25
 40
0.28125
 40
0.3125
 40
0.3203125
 40
0.328125
 40
0.33203125
 40
0.3359375
 40
0.34375
 40
0.359375
 40
0.375
 40
0.390625
 40
0.40625
 40
0.421875
 40
0.4375
 40
0.4453125
 40
0.453125
 40
0.46875
 40
0.5
 40
0.53125
 40
0.546875
 40
0.5546875
 40
0.5625
 40
0.578125
 40
0.59375
 40
0.609375
 40
0.625
 40
0.640625
 40
0.65625
 40
0.6640625
 40
0.66796875
 40
0.671875
 40
0.6796875
 40
0.6875
 40
0.71875
 40
0.75
 40
0.765625
 40
0.78125
 40
0.7890625
 40
0.796875
 40
0.8125
 40
0.828125
 40
0.84375
 40
0.859375
 40
0.875
 40
0.8828125
 40
0.890625
 40
0.8984375
 40
0.90625
 40
0.921875
 40
0.9375
 40
1.0
 40
1.0
 40
1.0
 40
1.0
 10
36.5186461715
 20
84.0811091913
 30
0.0
 10
36.4167706267
 20
84.2232211229
 30
0.0
 10
36.2895518103
 20
84.4009731703
 30
0.0
 10
36.1365123865
 20
84.6139392288
 30
0.0
 10
36.0732484188
 20
84.7031236175
 30
0.0
 10
36.0214690278
 20
84.773428294
 30
0.0
 10
35.9858376595
 20
84.829016186
 30
0.0
 10
35.9379776999
 20
84.8736879569
 30
0.0
 10
35.8738501611
 20
84.9329696972
 30
0.0
 10
35.7937999572
 20
85.0071700001
 30
0.0
 10
35.6976868477
 20
85.0961602827
 30
0.0
 10
35.6016104461
 20
85.1851938848
 30
0.0
 10
35.5054400776
 20
85.2741042898
 30
0.0
 10
35.4255807368
 20
85.3485708512
 30
0.0
 10
35.3610619285
 20
85.4073067616
 30
0.0
 10
35.2988423565
 20
85.469092381
 30
0.0
 10
35.2046127889
 20
85.5244982609
 30
0.0
 10
35.0556281132
 20
85.6155085276
 30
0.0
 10
34.8688488903
 20
85.7285692936
 30
0.0
 10
34.7007162901
 20
85.8301954592
 30
0.0
 10
34.588954245
 20
85.8985114762
 30
0.0
 10
34.5418514955
 20
85.9260701179
 30
0.0
 10
34.5054212142
 20
85.9502357842
 30
0.0
 10
34.4644114443
 20
85.966651531
 30
0.0
 10
34.3905161743
 20
85.9917773647
 30
0.0
 10
34.2860646752
 20
86.0295569101
 30
0.0
 10
34.160244044
 20
86.0740744881
 30
0.0
 10
34.0345576664
 20
86.1188467762
 30
0.0
 10
33.9088131065
 20
86.1634181006
 30
0.0
 10
33.783167022
 20
86.2085385693
 30
0.0
 10
33.6781821858
 20
86.2444759489
 30
0.0
 10
33.5948165169
 20
86.2769425068
 30
0.0
 10
33.5072129967
 20
86.2840864955
 30
0.0
 10
33.355885291
 20
86.3084577232
 30
0.0
 10
33.1386366148
 20
86.33649699
 30
0.0
 10
32.9218844111
 20
86.3690352576
 30
0.0
 10
32.7698616438
 20
86.3871078841
 30
0.0
 10
32.6833503632
 20
86.4041496748
 30
0.0
 10
32.5955164415
 20
86.3961252244
 30
0.0
 10
32.4859667227
 20
86.3906936222
 30
0.0
 10
32.3544032884
 20
86.3821995869
 30
0.0
 10
32.222866648
 20
86.3742516649
 30
0.0
 10
32.0913266037
 20
86.3660954024
 30
0.0
 10
31.9597733807
 20
86.3582263885
 30
0.0
 10
31.8501924607
 20
86.3508849986
 30
0.0
 10
31.7733933742
 20
86.3472664989
 30
0.0
 10
31.729652625
 20
86.3428274227
 30
0.0
 10
31.6864557848
 20
86.3294588315
 30
0.0
 10
31.6322741066
 20
86.3157996491
 30
0.0
 10
31.5023883806
 20
86.2805112125
 30
0.0
 10
31.3075328022
 20
86.2285558611
 30
0.0
 10
31.0908960543
 20
86.1706614534
 30
0.0
 10
30.9179287638
 20
86.1237024449
 30
0.0
 10
30.8090342125
 20
86.0960448903
 30
0.0
 10
30.7312096402
 20
86.0538977646
 30
0.0
 10
30.6517622942
 20
86.0152475094
 30
0.0
 10
30.5530100791
 20
85.965734514
 30
0.0
 10
30.4342681374
 20
85.9068344605
 30
0.0
 10
30.3155921825
 20
85.8477925255
 30
0.0
 10
30.1968915637
 20
85.7888025753
 30
0.0
 10
30.0980016053
 20
85.7395892356
 30
0.0
 10
30.0188366333
 20
85.7003246864
 30
0.0
 10
29.9596055857
 20
85.6705909353
 30
0.0
 10
29.9077764979
 20
85.6260553819
 30
0.0
 10
29.8360858741
 20
85.5718442514
 30
0.0
 10
29.7473564955
 20
85.5023127887
 30
0.0
 10
29.5336760557
 20
85.3368969321
 30
0.0
 10
29.3557991087
 20
85.1986702668
 30
0.0
 10
29.2134367236
 20
85.0882105723
 30
0.0
  0
SPLINE
  5
288
100
AcDbEntity
  8
_21_KURVEN
100
AcDbSpline
 62
1
  6
CENTER
 70
0
 71
3
 72
15
 73
11
 74
0
 42
0.0000001
 43
0.0000001
 44
0.0000000001
 40
0.0
 40
0.0
 40
0.0
 40
0.0
 40
0.125
 40
0.1875
 40
0.25
 40
0.5
 40
0.75
 40
0.8125
 40
0.875
 40
1.0
 40
1.0
 40
1.0
 40
1.0
 10
29.2134366498
 20
85.0882105022
 30
0.0
 10
29.2104311963
 20
85.0853456686
 30
0.0
 10
29.2063782773
 20
85.0814919291
 30
0.0
 10
29.1991533401
 20
85.0745795665
 30
0.0
 10
29.1795654924
 20
85.0557057116
 30
0.0
 10
29.1543517575
 20
85.0313108024
 30
0.0
 10
29.1263041182
 20
85.0032684789
 30
0.0
 10
29.1102978683
 20
84.9872745478
 30
0.0
 10
29.0940287316
 20
84.970705276
 30
0.0
 10
29.0805170423
 20
84.9568916911
 30
0.0
 10
29.0718003243
 20
84.9479907747
 30
0.0
  0
SPLINE
  5
289
100
AcDbEntity
  8
_21_KURVEN
100
AcDbSpline
 62
1
  6
CENTER
 70
0
 71
3
 72
23
 73
19
 74
0
 42
0.0000001
 43
0.0000001
 44
0.0000000001
 40
0.0
 40
0.0
 40
0.0
 40
0.0
 40
0.125
 40
0.15625
 40
0.1875
 40
0.25
 40
0.3125
 40
0.375
 40
0.4375
 40
0.5
 40
0.5625
 40
0.625
 40
0.6875
 40
0.75
 40
0.8125
 40
0.84375
 40
0.875
 40
1.0
 40
1.0
 40
1.0
 40
1.0
 10
29.0718003233
 20
84.9479907736
 30
0.0
 10
29.0054556308
 20
84.8736333317
 30
0.0
 10
28.9234884826
 20
84.7798917211
 30
0.0
 10
28.8222367526
 20
84.6697862129
 30
0.0
 10
28.7609033904
 20
84.5912957686
 30
0.0
 10
28.6870339984
 20
84.4909559606
 30
0.0
 10
28.5947560171
 20
84.3731926291
 30
0.0
 10
28.512541182
 20
84.2484143494
 30
0.0
 10
28.4343216086
 20
84.1210524286
 30
0.0
 10
28.3503644098
 20
83.9970405224
 30
0.0
 10
28.285362451
 20
83.8622121988
 30
0.0
 10
28.2145570545
 20
83.7306195305
 30
0.0
 10
28.1480101688
 20
83.5969006584
 30
0.0
 10
28.0926290823
 20
83.4580828725
 30
0.0
 10
28.0430374282
 20
83.3438894766
 30
0.0
 10
28.0060390021
 20
83.2515127951
 30
0.0
 10
27.9618299351
 20
83.1088570048
 30
0.0
 10
27.9220493136
 20
82.9910424837
 30
0.0
 10
27.8911655308
 20
82.8964499695
 30
0.0
  0
SPLINE
  5
28A
100
AcDbEntity
  8
_21_KURVEN
100
AcDbSpline
 62
5
  6
CONTINUOUS
 70
0
 71
3
 72
8
 73
4
 74
0
 42
0.0000001
 43
0.0000001
 44
0.0000000001
 40
0.0
 40
0.0
 40
0.0
 40
0.0
 40
1.0
 40
1.0
 40
1.0
 40
1.0
 10
29.1201262113
 20
85.0905979251
 30
0.0
 10
29.1021760684
 20
85.0773514206
 30
0.0
 10
29.0851010037
 20
85.0606729902
 30
0.0
 10
29.0707814498
 20
85.0417466935
 30
0.0
  0
SPLINE
  5
28B
100
AcDbEntity
  8
_21_KURVEN
100
AcDbSpline
 62
5
  6
CONTINUOUS
 70
0
 71
3
 72
9
 73
5
 74
0
 42
0.0000001
 43
0.0000001
 44
0.0000000001
 40
0.0
 40
0.0
 40
0.0
 40
0.0
 40
0.5
 40
1.0
 40
1.0
 40
1.0
 40
1.0
 10
34.6207765505
 20
88.3558599538
 30
0.0
 10
34.5976001316
 20
88.3997261995
 30
0.0
 10
34.5422035803
 20
88.4886732
 30
0.0
 10
34.4528135381
 20
88.5376898557
 30
0.0
 10
34.4066782949
 20
88.5591466903
 30
0.0
  0
SPLINE
  5
28C
100
AcDbEntity
  8
_21_KURVEN
100
AcDbSpline
 62
5
  6
CONTINUOUS
 70
0
 71
3
 72
8
 73
4
 74
0
 42
0.0000001
 43
0.0000001
 44
0.0000000001
 40
0.0
 40
0.0
 40
0.0
 40
0.0
 40
1.0
 40
1.0
 40
1.0
 40
1.0
 10
34.4066782955
 20
88.55914669
 30
0.0
 10
34.3730120523
 20
88.5713174134
 30
0.0
 10
34.3380170439
 20
88.5797237579
 30
0.0
 10
34.2996100271
 20
88.5840578317
 30
0.0
  0
SPLINE
  5
28D
100
AcDbEntity
  8
_21_KURVEN
100
AcDbSpline
 62
5
  6
CONTINUOUS
 70
0
 71
3
 72
9
 73
5
 74
0
 42
0.0000001
 43
0.0000001
 44
0.0000000001
 40
0.0
 40
0.0
 40
0.0
 40
0.0
 40
0.5
 40
1.0
 40
1.0
 40
1.0
 40
1.0
 10
34.2996100262
 20
88.5840578318
 30
0.0
 10
34.2540467267
 20
88.5854166584
 30
0.0
 10
34.1618222367
 20
88.5828624076
 30
0.0
 10
34.077244115
 20
88.5383482509
 30
0.0
 10
34.0368689445
 20
88.5136212645
 30
0.0
  0
SPLINE
  5
28E
100
AcDbEntity
  8
_21_KURVEN
100
AcDbSpline
 62
5
  6
CONTINUOUS
 70
0
 71
3
 72
8
 73
4
 74
0
 42
0.0000001
 43
0.0000001
 44
0.0000000001
 40
0.0
 40
0.0
 40
0.0
 40
0.0
 40
1.0
 40
1.0
 40
1.0
 40
1.0
 10
37.0703379947
 20
82.8804107861
 30
0.0
 10
37.0697755045
 20
82.8873225379
 30
0.0
 10
37.0688170749
 20
82.8951692188
 30
0.0
 10
37.0671646236
 20
82.9041625693
 30
0.0
  0
LINE
  5
28F
100
AcDbEntity
  8
_21_KURVEN
100
AcDbLine
 62
5
  6
CONTINUOUS
 10
37.0671646237
 20
82.9041625688
 11
37.0644621449
 21
82.9160242209
  0
SPLINE
  5
290
100
AcDbEntity
  8
_21_KURVEN
100
AcDbSpline
 62
5
  6
CONTINUOUS
 70
0
 71
3
 72
8
 73
4
 74
0
 42
0.0000001
 43
0.0000001
 44
0.0000000001
 40
0.0
 40
0.0
 40
0.0
 40
0.0
 40
1.0
 40
1.0
 40
1.0
 40
1.0
 10
37.0644621448
 20
82.9160242212
 30
0.0
 10
37.0619073601
 20
82.9253622804
 30
0.0
 10
37.058319637
 20
82.9359723511
 30
0.0
 10
37.053502202
 20
82.9471428126
 30
0.0
  0
ENDSEC
  0
SECTION
  2
OBJECTS
  0
DICTIONARY
  5
C
100
AcDbDictionary
280
0
281
1
  3
ACAD_GROUP
350
D
  3
ACAD_MLINESTYLE
350
17
  3
ACAD_LAYOUT
350
1A
  3
ACAD_PLOTSETTINGS
350
19
  3
ACAD_PLOTSTYLENAME
350
E
  0
DICTIONARY
  5
D
102
{ACAD_REACTORS
330
C
102
}
100
AcDbDictionary
280
0
281
1
  0
ACDBDICTIONARYWDFLT
  5
E
102
{ACAD_REACTORS
330
C
102
}
100
AcDbDictionary
281
1
  3
Normal
350
F
100
AcDbDictionaryWithDefault
340
F
  0
DICTIONARY
  5
17
102
{ACAD_REACTORS
330
C
102
}
100
AcDbDictionary
280
0
281
1
  3
Standard
350
18
  0
DICTIONARY
  5
19
102
{ACAD_REACTORS
330
C
102
}
100
AcDbDictionary
281
1
  0
DICTIONARY
  5
1A
102
{ACAD_REACTORS
330
C
102
}
100
AcDbDictionary
281
1
  3
Model
350
291
  3
Layout1
350
292
  0
ACDBPLACEHOLDER
  5
F
102
{ACAD_REACTORS
330
E
102
}
  0
MLINESTYLE
  5
18
102
{ACAD_REACTORS
330
17
102
}
100
AcDbMlineStyle
  2
STANDARD
 70
0
  3

 62
256
 51
90.0
 52
90.0
 71
2
 49
0.5
 62
256
  6
BYLAYER
 49
-0.5
 62
256
  6
BYLAYER
  0
LAYOUT
  5
291
102
{ACAD_REACTORS
330
1A
102
}
100
AcDbPlotSettings
  1

  2
none_device
  4
ISO_A3_(420.00_x_297.00_MM)
  6

 40
0.0
 41
0.0
 42
0.0
 43
0.0
 44
420.0
 45
297.0
 46
0.0
 47
0.0
 48
0.0
 49
0.0
140
0.0
141
0.0
142
1.0
143
1.0
 70
1024
 72
1
 73
0
 74
0
  7

 75
0
147
1.0
148
0.0
149
0.0
100
AcDbLayout
  1
Model
 70
0
 71
0
 10
0.0
 20
0.0
 11
420.0
 21
297.0
 12
0.0
 22
0.0
 32
0.0
 14
0.0
 24
0.0
 34
0.0
 15
0.0
 25
0.0
 35
0.0
146
0.0
 13
0.0
 23
0.0
 33
0.0
 16
1.0
 26
0.0
 36
0.0
 17
0.0
 27
1.0
 37
0.0
 76
0
330
20E
345
0
346
0
  0
LAYOUT
  5
292
102
{ACAD_REACTORS
330
1A
102
}
100
AcDbPlotSettings
  1

  2
none_device
  4
ISO_A3_(420.00_x_297.00_MM)
  6

 40
0.0
 41
0.0
 42
0.0
 43
0.0
 44
420.0
 45
297.0
 46
0.0
 47
0.0
 48
0.0
 49
0.0
140
0.0
141
0.0
142
1.0
143
1.0
 70
0
 72
1
 73
0
 74
0
  7

 75
0
147
1.0
148
0.0
149
0.0
100
AcDbLayout
  1
Layout1
 70
0
 71
1
 10
0.0
 20
0.0
 11
420.0
 21
297.0
 12
0.0
 22
0.0
 32
0.0
 14
0.0
 24
0.0
 34
0.0
 15
0.0
 25
0.0
 35
0.0
146
0.0
 13
0.0
 23
0.0
 33
0.0
 16
1.0
 26
0.0
 36
0.0
 17
0.0
 27
1.0
 37
0.0
 76
0
330
20F
345
0
346
0
  0
ENDSEC
  0
EOF
