999
DXF file: 70556025.dxf
999
Pro/ENGINEER 2018400 by Parametric Technology Corporation
  0
SECTION
  2
HEADER
  9
$ACADVER
  1
AC1027
  9
$DWGCODEPAGE
  3
ANSI_1252
  9
$EXTMAX
 10
420.0
 20
297.0
 30
0.0
  9
$EXTMIN
 10
0.0
 20
0.0
 30
0.0
  9
$LIMMIN
 10
0.0
 20
0.0
  9
$LIMMAX
 10
420.0
 20
297.0
  9
$VIEWCTR
 10
210.0
 20
148.5
  9
$VIEWSIZE
 40
297.0
  9
$CLAYER
  8
0
  9
$LTSCALE
 40
23.1
  9
$CELTYPE
  6
BYLAYER
  9
$DIMSCALE
 40
1.0
  9
$DIMASZ
 40
3.5
  9
$DIMEXO
 40
0.0
  9
$DIMDLI
 40
15.96
  9
$DIMEXE
 40
1.5
  9
$DIMCEN
 40
3.78
  9
$DIMLFAC
 40
1.0
  9
$DIMBLK
  1
_FILLED
  9
$DIMALT
 70
0
  9
$DIMALTF
 40
0.0393700787
  9
$DIMTXT
 40
3.5
  9
$DIMTOL
 70
1
  9
$DIMLIM
 70
0
  9
$DIMTFAC
 40
1.0
  9
$DIMTP
 40
0.05
  9
$DIMTM
 40
0.05
  9
$DIMGAP
 40
0.625
  9
$DIMDSEP
 70
46
  9
$AUNITS
 70
0
  9
$PDMODE
 70
3
  9
$PDSIZE
 40
0.3125
  9
$HANDSEED
  5
29F
  9
$TILEMODE
 70
1
  9
$MEASUREMENT
 70
1
  9
$INSUNITS
 70
4
  0
ENDSEC
  0
SECTION
  2
CLASSES
  0
CLASS
  1
ACDBDICTIONARYWDFLT
  2
AcDbDictionaryWithDefault
  3
AutoCAD 2000
 90
0
 91
1
280
0
281
0
  0
CLASS
  1
ACDBPLACEHOLDER
  2
AcDbPlaceHolder
  3
AutoCAD 2000
 90
0
 91
1
280
0
281
0
  0
CLASS
  1
LAYOUT
  2
AcDbLayout
  3
AutoCAD 2000
 90
0
 91
0
280
0
281
0
  0
ENDSEC
  0
SECTION
  2
TABLES
  0
TABLE
  2
VPORT
  5
8
100
AcDbSymbolTable
 70
2
  0
VPORT
  5
1F4
100
AcDbSymbolTableRecord
100
AcDbViewportTableRecord
  2
*ACTIVE
 70
0
 10
0.0
 20
0.0
 11
1.0
 21
1.0
 12
210.0
 22
148.5
 13
0.0
 23
0.0
 14
1.0
 24
1.0
 15
0.0
 25
0.0
 16
0.0
 26
0.0
 36
1.0
 17
0.0
 27
0.0
 37
0.0
 40
297.0
 41
1.4141414141
 42
50.0
 43
0.0
 44
0.0
 50
0.0
 51
0.0
 71
0
 72
100
 73
1
 74
1
 75
0
 76
0
 77
0
 78
0
  0
ENDTAB
  0
TABLE
  2
LTYPE
  5
5
100
AcDbSymbolTable
 70
6
  0
LTYPE
  5
14
100
AcDbSymbolTableRecord
100
AcDbLinetypeTableRecord
  2
BYBLOCK
 70
0
  3

 72
65
 73
0
 40
0.0
  0
LTYPE
  5
15
100
AcDbSymbolTableRecord
100
AcDbLinetypeTableRecord
  2
BYLAYER
 70
0
  3

 72
65
 73
0
 40
0.0
  0
LTYPE
  5
16
100
AcDbSymbolTableRecord
100
AcDbLinetypeTableRecord
  2
CONTINUOUS
 70
64
  3
Solid line
 72
65
 73
0
 40
0.0
  0
LTYPE
  5
1F5
100
AcDbSymbolTableRecord
100
AcDbLinetypeTableRecord
  2
CENTER
 70
64
  3
____ _ ____ _ ____ _ ____ _ ____ _ ____ _ ____
 72
65
 73
4
 40
0.6
 49
0.375
 74
0
 49
-0.075
 74
0
 49
0.075
 74
0
 49
-0.075
 74
0
  0
LTYPE
  5
1F6
100
AcDbSymbolTableRecord
100
AcDbLinetypeTableRecord
  2
HIDDEN
 70
64
  3
- - - - - - - - - - - - - - - - - - - -
 72
65
 73
2
 40
0.2
 49
0.1
 74
0
 49
-0.1
 74
0
  0
LTYPE
  5
1F7
100
AcDbSymbolTableRecord
100
AcDbLinetypeTableRecord
  2
PHANTOM
 70
64
  3
_____ _ _ _____ _ _ _____ _ _ _____
 72
65
 73
6
 40
0.8
 49
0.45
 74
0
 49
-0.05
 74
0
 49
0.1
 74
0
 49
-0.05
 74
0
 49
0.1
 74
0
 49
-0.05
 74
0
  0
LTYPE
  5
1F8
100
AcDbSymbolTableRecord
100
AcDbLinetypeTableRecord
  2
DOT
 70
64
  3
. . . . . . . . . . . . . . . . . . . .
 72
65
 73
2
 40
0.2
 49
0.1
 74
0
 49
-0.1
 74
0
  0
LTYPE
  5
1F9
100
AcDbSymbolTableRecord
100
AcDbLinetypeTableRecord
  2
DASHED
 70
64
  3
- - - - - - - - - - - - - - - - - - - -
 72
65
 73
2
 40
0.2
 49
0.1
 74
0
 49
-0.1
 74
0
  0
ENDTAB
  0
TABLE
  2
LAYER
  5
2
100
AcDbSymbolTable
 70
36
  0
LAYER
  5
10
100
AcDbSymbolTableRecord
100
AcDbLayerTableRecord
  2
0
 70
0
 62
7
  6
CONTINUOUS
370
-3
390
F
  0
LAYER
  5
1FA
100
AcDbSymbolTableRecord
100
AcDbLayerTableRecord
  2
DEFAULT_1
 70
0
 62
7
  6
CENTER
370
-3
390
F
  0
LAYER
  5
1FB
100
AcDbSymbolTableRecord
100
AcDbLayerTableRecord
  2
DEFAULT_2
 70
0
 62
1
  6
HIDDEN
370
-3
390
F
  0
LAYER
  5
1FC
100
AcDbSymbolTableRecord
100
AcDbLayerTableRecord
  2
DEFAULT_3
 70
0
 62
7
  6
PHANTOM
370
-3
390
F
  0
LAYER
  5
1FD
100
AcDbSymbolTableRecord
100
AcDbLayerTableRecord
  2
BG_STARTBEZUEGE
 70
0
 62
7
  6
CONTINUOUS
370
-3
390
F
  0
LAYER
  5
1FE
100
AcDbSymbolTableRecord
100
AcDbLayerTableRecord
  2
HILFEN
 70
0
 62
7
  6
CONTINUOUS
370
-3
390
F
  0
LAYER
  5
1FF
100
AcDbSymbolTableRecord
100
AcDbLayerTableRecord
  2
PLATZIERUNG
 70
0
 62
7
  6
CONTINUOUS
370
-3
390
F
  0
LAYER
  5
200
100
AcDbSymbolTableRecord
100
AcDbLayerTableRecord
  2
T_STARTBEZUEGE
 70
0
 62
7
  6
CONTINUOUS
370
-3
390
F
  0
LAYER
  5
201
100
AcDbSymbolTableRecord
100
AcDbLayerTableRecord
  2
_03_2D_ZEICHNUNG_BEMASSUNGEN
 70
0
 62
7
  6
CONTINUOUS
370
-3
390
F
  0
LAYER
  5
202
100
AcDbSymbolTableRecord
100
AcDbLayerTableRecord
  2
_04_NOTIZEN
 70
0
 62
7
  6
CONTINUOUS
370
-3
390
F
  0
LAYER
  5
203
100
AcDbSymbolTableRecord
100
AcDbLayerTableRecord
  2
_05_2D_ELEMENTE
 70
0
 62
7
  6
CONTINUOUS
370
-3
390
F
  0
LAYER
  5
204
100
AcDbSymbolTableRecord
100
AcDbLayerTableRecord
  2
_07_EINRASTLINIEN
 70
0
 62
7
  6
CONTINUOUS
370
-3
390
F
  0
LAYER
  5
205
100
AcDbSymbolTableRecord
100
AcDbLayerTableRecord
  2
_21_KURVEN
 70
0
 62
7
  6
CONTINUOUS
370
-3
390
F
  0
LAYER
  5
206
100
AcDbSymbolTableRecord
100
AcDbLayerTableRecord
  2
_22_FLAECHEN
 70
0
 62
7
  6
CONTINUOUS
370
-3
390
F
  0
LAYER
  5
207
100
AcDbSymbolTableRecord
100
AcDbLayerTableRecord
  2
_26_BEZUGSACHSEN
 70
0
 62
7
  6
CONTINUOUS
370
-3
390
F
  0
LAYER
  5
208
100
AcDbSymbolTableRecord
100
AcDbLayerTableRecord
  2
_27_BEZUGSEBENEN
 70
0
 62
7
  6
CONTINUOUS
370
-3
390
F
  0
LAYER
  5
209
100
AcDbSymbolTableRecord
100
AcDbLayerTableRecord
  2
_28_BEZUGSPUNKTE
 70
0
 62
7
  6
CONTINUOUS
370
-3
390
F
  0
LAYER
  5
20A
100
AcDbSymbolTableRecord
100
AcDbLayerTableRecord
  2
_29_KOORDINATENSYSTEME
 70
0
 62
7
  6
CONTINUOUS
370
-3
390
F
  0
LAYER
  5
20B
100
AcDbSymbolTableRecord
100
AcDbLayerTableRecord
  2
_30_VOLUMEN
 70
0
 62
7
  6
CONTINUOUS
370
-3
390
F
  0
ENDTAB
  0
TABLE
  2
STYLE
  5
3
100
AcDbSymbolTable
 70
1
  0
STYLE
  5
11
100
AcDbSymbolTableRecord
100
AcDbTextStyleTableRecord
  2
STANDARD
 70
0
 40
0.0
 41
0.7
 50
0.0
 71
0
 42
0.2
  3
SIMPLEX.SHX
  4

  0
STYLE
  5
20C
100
AcDbSymbolTableRecord
100
AcDbTextStyleTableRecord
  2
TEXTSTYLE_1
 70
0
 40
0.0
 41
0.8
 50
0.0
 71
0
 42
0.2
  3
gdt
  4

  0
STYLE
  5
20D
100
AcDbSymbolTableRecord
100
AcDbTextStyleTableRecord
  2
TEXTSTYLE_2
 70
0
 40
0.0
 41
0.7
 50
0.0
 71
0
 42
0.2
  3
gdt
  4

  0
ENDTAB
  0
TABLE
  2
VIEW
  5
6
100
AcDbSymbolTable
 70
0
  0
ENDTAB
  0
TABLE
  2
UCS
  5
7
100
AcDbSymbolTable
 70
0
  0
ENDTAB
  0
TABLE
  2
APPID
  5
9
100
AcDbSymbolTable
 70
1
  0
APPID
  5
20E
100
AcDbSymbolTableRecord
100
AcDbRegAppTableRecord
  2
ACAD
 70
0
  0
ENDTAB
  0
TABLE
  2
BLOCK_RECORD
  5
1
100
AcDbSymbolTable
 70
0
  0
BLOCK_RECORD
  5
20F
100
AcDbSymbolTableRecord
100
AcDbBlockTableRecord
  2
*Model_Space
  0
BLOCK_RECORD
  5
210
100
AcDbSymbolTableRecord
100
AcDbBlockTableRecord
  2
*Paper_Space
  0
BLOCK_RECORD
  5
211
100
AcDbSymbolTableRecord
100
AcDbBlockTableRecord
  2
_FILLED
  0
BLOCK_RECORD
  5
212
100
AcDbSymbolTableRecord
100
AcDbBlockTableRecord
  2
*D0
  0
BLOCK_RECORD
  5
213
100
AcDbSymbolTableRecord
100
AcDbBlockTableRecord
  2
*D1
  0
BLOCK_RECORD
  5
214
100
AcDbSymbolTableRecord
100
AcDbBlockTableRecord
  2
*D2
  0
BLOCK_RECORD
  5
215
100
AcDbSymbolTableRecord
100
AcDbBlockTableRecord
  2
*D3
  0
ENDTAB
  0
TABLE
  2
DIMSTYLE
  5
A
100
AcDbSymbolTable
 70
1
100
AcDbDimStyleTable
 71
0
  0
DIMSTYLE
105
216
100
AcDbSymbolTableRecord
100
AcDbDimStyleTableRecord
  2
STANDARD
 70
0
  3

  4

 40
1.0
 41
3.5
 42
0.0
 43
0.38
 44
1.5
 45
0.0
 46
0.0
 47
0.05
 48
0.05
140
3.5
141
0.09
142
0.0
143
25.4
144
1.0
145
0.0
146
1.0
147
0.625
 71
1.0
 72
0.0
 73
0
 74
0
 75
0
 76
0
 77
1
 78
8
 79
2
170
0
171
1
172
0
173
0
174
0
175
0
176
0
177
0
178
2
270
2
179
2
271
2
272
2
273
2
274
2
275
0
280
0
281
0
282
0
283
1
284
8
285
0
286
0
287
3
288
0
340
11
278
46
341
211
342
211
343
211
344
211
  0
DIMSTYLE
105
217
100
AcDbSymbolTableRecord
100
AcDbDimStyleTableRecord
  2
DIMSTYLE_1
 70
0
  3

  4

 40
1.0
 41
3.5
 42
0.0
 43
0.38
 44
1.5
 45
0.0
 46
0.0
 47
0.2
 48
0.2
140
3.5
141
0.09
142
0.0
143
25.4
144
1.0
145
0.0
146
1.0
147
0.875
 71
0.0
 72
0.0
 73
0
 74
0
 75
0
 76
0
 77
1
 78
8
 79
2
170
0
171
1
172
0
173
0
174
0
175
0
176
0
177
0
178
2
270
2
179
2
271
2
272
2
273
2
274
2
275
0
280
0
281
0
282
0
283
1
284
8
285
0
286
0
287
3
288
0
340
11
278
46
341
211
342
211
343
211
344
211
  0
DIMSTYLE
105
218
100
AcDbSymbolTableRecord
100
AcDbDimStyleTableRecord
  2
DIMSTYLE_2
 70
0
  3

  4

 40
1.0
 41
3.5
 42
0.0
 43
0.38
 44
1.5
 45
0.0
 46
0.0
 47
0.5
 48
0.5
140
3.5
141
0.09
142
0.0
143
25.4
144
1.0
145
0.0
146
1.0
147
0.875
 71
0.0
 72
0.0
 73
0
 74
0
 75
0
 76
0
 77
1
 78
8
 79
2
170
0
171
1
172
0
173
0
174
0
175
0
176
0
177
0
178
2
270
2
179
2
271
2
272
2
273
2
274
2
275
0
280
0
281
0
282
0
283
1
284
8
285
0
286
0
287
3
288
0
340
11
278
46
341
211
342
211
343
211
344
211
  0
ENDTAB
  0
ENDSEC
  0
SECTION
  2
BLOCKS
  0
BLOCK
  5
20
100
AcDbEntity
  8
0
100
AcDbBlockBegin
  2
*Model_Space
 70
0
 10
0.0
 20
0.0
 30
0.0
  3
*Model_Space
  1

  0
ENDBLK
  5
21
100
AcDbEntity
  8
0
100
AcDbBlockEnd
  0
BLOCK
  5
1C
100
AcDbEntity
  8
0
100
AcDbBlockBegin
  2
*Paper_Space
 70
0
 10
0.0
 20
0.0
 30
0.0
  3
*Paper_Space
  1

  0
ENDBLK
  5
1D
100
AcDbEntity
  8
0
100
AcDbBlockEnd
  0
BLOCK
  5
219
100
AcDbEntity
  8
0
100
AcDbBlockBegin
  2
_FILLED
 70
64
 10
0.0
 20
0.0
  3
_FILLED
  1

  0
SOLID
  5
21A
100
AcDbEntity
  8
0
  6
BYBLOCK
 62
0
100
AcDbTrace
 10
0.0
 20
0.0
 11
-1.0
 21
0.125
 12
-1.0
 22
-0.125
 13
-1.0
 23
-0.125
  0
ENDBLK
  5
21B
100
AcDbEntity
  8
0
  6
BYBLOCK
 62
0
100
AcDbBlockEnd
  0
BLOCK
  5
21C
100
AcDbEntity
  8
_03_2D_ZEICHNUNG_BEMASSUNGEN
100
AcDbBlockBegin
 62
7
  6
CONTINUOUS
  2
*D0
 70
65
 10
0.0
 20
0.0
  3
*D0
  1

  0
TEXT
  5
21D
100
AcDbEntity
  8
_03_2D_ZEICHNUNG_BEMASSUNGEN
100
AcDbText
 62
2
  6
CONTINUOUS
 10
-9.875
 20
-4.9583333333
  7
TEXTSTYLE_2
 40
3.5
  1
n
 50
90.0
 41
1.0
 72
1
 11
-9.875
 21
-2.625
100
AcDbText
  0
TEXT
  5
21E
100
AcDbEntity
  8
_03_2D_ZEICHNUNG_BEMASSUNGEN
100
AcDbText
 62
2
  6
CONTINUOUS
 10
-9.875
 20
-0.2916666667
  7
STANDARD
 40
3.5
  1
25
 50
90.0
 41
0.75
 72
1
 11
-9.875
 21
2.3333333333
100
AcDbText
  0
LINE
  5
21F
100
AcDbEntity
  8
_03_2D_ZEICHNUNG_BEMASSUNGEN
100
AcDbLine
 62
7
  6
CONTINUOUS
 10
1.5
 20
12.5
 11
-10.5
 21
12.5
  0
LINE
  5
220
100
AcDbEntity
  8
_03_2D_ZEICHNUNG_BEMASSUNGEN
100
AcDbLine
 62
7
  6
CONTINUOUS
 10
1.5
 20
-12.5
 11
-10.5
 21
-12.5
  0
LINE
  5
221
100
AcDbEntity
  8
_03_2D_ZEICHNUNG_BEMASSUNGEN
100
AcDbLine
 62
7
  6
CONTINUOUS
 10
-9.0
 20
12.5
 11
-9.0
 21
0.0
  0
LINE
  5
222
100
AcDbEntity
  8
_03_2D_ZEICHNUNG_BEMASSUNGEN
100
AcDbLine
 62
7
  6
CONTINUOUS
 10
-9.0
 20
-12.5
 11
-9.0
 21
0.0
  0
INSERT
  5
223
100
AcDbEntity
  8
_03_2D_ZEICHNUNG_BEMASSUNGEN
100
AcDbBlockReference
 62
7
  6
CONTINUOUS
  2
_FILLED
 10
-9.0
 20
12.5
 41
3.5
 42
3.5
 43
3.5
 50
90.0
  0
INSERT
  5
224
100
AcDbEntity
  8
_03_2D_ZEICHNUNG_BEMASSUNGEN
100
AcDbBlockReference
 62
7
  6
CONTINUOUS
  2
_FILLED
 10
-9.0
 20
-12.5
 41
3.5
 42
3.5
 43
3.5
 50
270.0
  0
ENDBLK
  5
225
100
AcDbEntity
  8
0
  6
BYBLOCK
 62
0
100
AcDbBlockEnd
  0
BLOCK
  5
226
100
AcDbEntity
  8
_03_2D_ZEICHNUNG_BEMASSUNGEN
100
AcDbBlockBegin
 62
7
  6
CONTINUOUS
  2
*D1
 70
65
 10
0.0
 20
0.0
  3
*D1
  1

  0
TEXT
  5
227
100
AcDbEntity
  8
_03_2D_ZEICHNUNG_BEMASSUNGEN
100
AcDbText
 62
2
  6
CONTINUOUS
 10
151.4697745805
 20
35.9314065672
  7
STANDARD
 40
3.5
  1
300
 41
0.7619047619
 72
1
 11
155.4697745805
 21
35.9314065672
100
AcDbText
  0
LINE
  5
228
100
AcDbEntity
  8
_03_2D_ZEICHNUNG_BEMASSUNGEN
100
AcDbLine
 62
7
  6
CONTINUOUS
 10
300.0
 20
0.0
 11
300.0
 21
36.5564065672
  0
LINE
  5
229
100
AcDbEntity
  8
_03_2D_ZEICHNUNG_BEMASSUNGEN
100
AcDbLine
 62
7
  6
CONTINUOUS
 10
0.0
 20
0.0
 11
0.0
 21
36.5564065672
  0
LINE
  5
22A
100
AcDbEntity
  8
_03_2D_ZEICHNUNG_BEMASSUNGEN
100
AcDbLine
 62
7
  6
CONTINUOUS
 10
300.0
 20
35.0564065672
 11
150.0
 21
35.0564065672
  0
LINE
  5
22B
100
AcDbEntity
  8
_03_2D_ZEICHNUNG_BEMASSUNGEN
100
AcDbLine
 62
7
  6
CONTINUOUS
 10
0.0
 20
35.0564065672
 11
150.0
 21
35.0564065672
  0
INSERT
  5
22C
100
AcDbEntity
  8
_03_2D_ZEICHNUNG_BEMASSUNGEN
100
AcDbBlockReference
 62
7
  6
CONTINUOUS
  2
_FILLED
 10
300.0
 20
35.0564065672
 41
3.5
 42
3.5
 43
3.5
  0
INSERT
  5
22D
100
AcDbEntity
  8
_03_2D_ZEICHNUNG_BEMASSUNGEN
100
AcDbBlockReference
 62
7
  6
CONTINUOUS
  2
_FILLED
 10
0.0
 20
35.0564065672
 41
3.5
 42
3.5
 43
3.5
 50
180.0
  0
ENDBLK
  5
22E
100
AcDbEntity
  8
0
  6
BYBLOCK
 62
0
100
AcDbBlockEnd
  0
BLOCK
  5
22F
100
AcDbEntity
  8
_03_2D_ZEICHNUNG_BEMASSUNGEN
100
AcDbBlockBegin
 62
7
  6
CONTINUOUS
  2
*D2
 70
65
 10
0.0
 20
0.0
  3
*D2
  1

  0
TEXT
  5
230
100
AcDbEntity
  8
_03_2D_ZEICHNUNG_BEMASSUNGEN
100
AcDbText
 62
2
  6
CONTINUOUS
 10
286.0058872087
 20
26.9314065672
  7
STANDARD
 40
3.5
  1
22
 41
0.7857142857
 72
1
 11
288.7558872087
 21
26.9314065672
100
AcDbText
  0
LINE
  5
231
100
AcDbEntity
  8
_03_2D_ZEICHNUNG_BEMASSUNGEN
100
AcDbLine
 62
7
  6
CONTINUOUS
 10
300.0
 20
-14.6241001154
 11
300.0
 21
27.5564065672
  0
LINE
  5
232
100
AcDbEntity
  8
_03_2D_ZEICHNUNG_BEMASSUNGEN
100
AcDbLine
 62
7
  6
CONTINUOUS
 10
278.0
 20
-14.6241001154
 11
278.0
 21
27.5564065672
  0
LINE
  5
233
100
AcDbEntity
  8
_03_2D_ZEICHNUNG_BEMASSUNGEN
100
AcDbLine
 62
7
  6
CONTINUOUS
 10
300.0
 20
26.0564065672
 11
289.0
 21
26.0564065672
  0
LINE
  5
234
100
AcDbEntity
  8
_03_2D_ZEICHNUNG_BEMASSUNGEN
100
AcDbLine
 62
7
  6
CONTINUOUS
 10
278.0
 20
26.0564065672
 11
289.0
 21
26.0564065672
  0
INSERT
  5
235
100
AcDbEntity
  8
_03_2D_ZEICHNUNG_BEMASSUNGEN
100
AcDbBlockReference
 62
7
  6
CONTINUOUS
  2
_FILLED
 10
300.0
 20
26.0564065672
 41
3.5
 42
3.5
 43
3.5
  0
INSERT
  5
236
100
AcDbEntity
  8
_03_2D_ZEICHNUNG_BEMASSUNGEN
100
AcDbBlockReference
 62
7
  6
CONTINUOUS
  2
_FILLED
 10
278.0
 20
26.0564065672
 41
3.5
 42
3.5
 43
3.5
 50
180.0
  0
ENDBLK
  5
237
100
AcDbEntity
  8
0
  6
BYBLOCK
 62
0
100
AcDbBlockEnd
  0
BLOCK
  5
238
100
AcDbEntity
  8
_03_2D_ZEICHNUNG_BEMASSUNGEN
100
AcDbBlockBegin
 62
7
  6
CONTINUOUS
  2
*D3
 70
65
 10
0.0
 20
0.0
  3
*D3
  1

  0
TEXT
  5
239
100
AcDbEntity
  8
_03_2D_ZEICHNUNG_BEMASSUNGEN
100
AcDbText
 62
2
  6
CONTINUOUS
 10
308.2240788085
 20
6.125
  7
STANDARD
 40
3.5
  1
17
 50
90.0
 41
0.6785714286
 72
1
 11
308.2240788085
 21
8.5
100
AcDbText
  0
LINE
  5
23A
100
AcDbEntity
  8
_03_2D_ZEICHNUNG_BEMASSUNGEN
100
AcDbLine
 62
7
  6
CONTINUOUS
 10
304.234545691
 20
0.0
 11
310.5990788085
 21
0.0
  0
LINE
  5
23B
100
AcDbEntity
  8
_03_2D_ZEICHNUNG_BEMASSUNGEN
100
AcDbLine
 62
7
  6
CONTINUOUS
 10
300.0
 20
17.0
 11
310.5990788085
 21
17.0
  0
LINE
  5
23C
100
AcDbEntity
  8
_03_2D_ZEICHNUNG_BEMASSUNGEN
100
AcDbLine
 62
7
  6
CONTINUOUS
 10
309.0990788085
 20
0.0
 11
309.0990788085
 21
-6.0
  0
LINE
  5
23D
100
AcDbEntity
  8
_03_2D_ZEICHNUNG_BEMASSUNGEN
100
AcDbLine
 62
7
  6
CONTINUOUS
 10
309.0990788085
 20
-6.0
 11
309.0990788085
 21
8.5
  0
LINE
  5
23E
100
AcDbEntity
  8
_03_2D_ZEICHNUNG_BEMASSUNGEN
100
AcDbLine
 62
7
  6
CONTINUOUS
 10
309.0990788085
 20
17.0
 11
309.0990788085
 21
23.0
  0
LINE
  5
23F
100
AcDbEntity
  8
_03_2D_ZEICHNUNG_BEMASSUNGEN
100
AcDbLine
 62
7
  6
CONTINUOUS
 10
309.0990788085
 20
23.0
 11
309.0990788085
 21
8.5
  0
INSERT
  5
240
100
AcDbEntity
  8
_03_2D_ZEICHNUNG_BEMASSUNGEN
100
AcDbBlockReference
 62
7
  6
CONTINUOUS
  2
_FILLED
 10
309.0990788085
 20
0.0
 41
3.5
 42
3.5
 43
3.5
 50
90.0
  0
INSERT
  5
241
100
AcDbEntity
  8
_03_2D_ZEICHNUNG_BEMASSUNGEN
100
AcDbBlockReference
 62
7
  6
CONTINUOUS
  2
_FILLED
 10
309.0990788085
 20
17.0
 41
3.5
 42
3.5
 43
3.5
 50
270.0
  0
ENDBLK
  5
242
100
AcDbEntity
  8
0
  6
BYBLOCK
 62
0
100
AcDbBlockEnd
  0
ENDSEC
  0
SECTION
  2
ENTITIES
  0
DIMENSION
  5
243
100
AcDbEntity
  8
_03_2D_ZEICHNUNG_BEMASSUNGEN
100
AcDbDimension
 62
7
  6
CONTINUOUS
  2
*D0
 10
-9.0
 20
-12.5
 11
-9.0
 21
-0.0
 70
160
 71
2
 72
2
 41
0.9
 42
25.0
  1
%%c<>
  3
DIMSTYLE_1
100
AcDbAlignedDimension
 13
1.5
 23
12.5
 14
1.5
 24
-12.5
 50
270.0
100
AcDbRotatedDimension
  0
DIMENSION
  5
244
100
AcDbEntity
  8
_03_2D_ZEICHNUNG_BEMASSUNGEN
100
AcDbDimension
 62
7
  6
CONTINUOUS
  2
*D1
 10
0.0
 20
35.0564065672
 11
154.9697781372
 21
35.0564065672
 70
160
 71
2
 72
2
 41
0.9
 42
300.0
  3
DIMSTYLE_2
100
AcDbAlignedDimension
 13
300.0
 23
0.0
 14
0.0
 24
0.0
 50
180.0
100
AcDbRotatedDimension
  0
DIMENSION
  5
245
100
AcDbEntity
  8
_03_2D_ZEICHNUNG_BEMASSUNGEN
100
AcDbDimension
 62
7
  6
CONTINUOUS
  2
*D2
 10
278.0
 20
26.0564065672
 11
288.2558770752
 21
26.0564065672
 70
160
 71
2
 72
2
 41
0.9
 42
22.0
  3
DIMSTYLE_1
100
AcDbAlignedDimension
 13
300.0
 23
-14.6241001154
 14
278.0
 24
-14.6241001154
 50
180.0
100
AcDbRotatedDimension
  0
DIMENSION
  5
246
100
AcDbEntity
  8
_03_2D_ZEICHNUNG_BEMASSUNGEN
100
AcDbDimension
 62
7
  6
CONTINUOUS
  2
*D3
 10
309.0990788085
 20
17.0
 11
309.0990788085
 21
8.0000026124
 70
160
 71
2
 72
2
 41
0.9
 42
17.0
  3
DIMSTYLE_1
100
AcDbAlignedDimension
 13
304.234545691
 23
0.0
 14
300.0
 24
17.0
 50
90.0
100
AcDbRotatedDimension
  0
LINE
  5
247
100
AcDbEntity
  8
0
100
AcDbLine
 62
4
  6
CONTINUOUS
 10
0.0
 20
-10.9999733168
 11
-0.0
 21
10.999973963
  0
LINE
  5
248
100
AcDbEntity
  8
0
100
AcDbLine
 62
4
  6
CONTINUOUS
 10
1.5
 20
-12.5
 11
1.5
 21
-6.7823299831
  0
LINE
  5
249
100
AcDbEntity
  8
0
100
AcDbLine
 62
4
  6
CONTINUOUS
 10
1.5
 20
6.7823299831
 11
1.5
 21
12.5
  0
LINE
  5
24A
100
AcDbEntity
  8
_30_VOLUMEN
100
AcDbLine
 62
4
  6
CONTINUOUS
 10
-0.0
 20
11.0
 11
1.5
 21
12.5
  0
LINE
  5
24B
100
AcDbEntity
  8
_30_VOLUMEN
100
AcDbLine
 62
4
  6
CONTINUOUS
 10
0.0
 20
-11.0
 11
1.5
 21
-12.5
  0
LINE
  5
24C
100
AcDbEntity
  8
_30_VOLUMEN
100
AcDbLine
 62
4
  6
CONTINUOUS
 10
296.8464848091
 20
-8.7501055955
 11
278.0
 21
-11.6676955915
  0
LINE
  5
24D
100
AcDbEntity
  8
0
100
AcDbLine
 62
4
  6
CONTINUOUS
 10
278.0
 20
-11.6676955915
 11
272.6236406033
 21
-12.5
  0
LINE
  5
24E
100
AcDbEntity
  8
_30_VOLUMEN
100
AcDbLine
 62
4
  6
CONTINUOUS
 10
1.5
 20
-12.5
 11
272.6236406033
 21
-12.5
  0
LINE
  5
24F
100
AcDbEntity
  8
0
100
AcDbLine
 62
4
  6
CONTINUOUS
 10
1.5
 20
-6.7823299831
 11
278.0
 21
-6.7823299831
  0
LINE
  5
250
100
AcDbEntity
  8
_30_VOLUMEN
100
AcDbLine
 62
4
  6
CONTINUOUS
 10
298.3505148552
 20
4.6320740023
 11
287.1822921432
 21
3.9471392957
  0
LINE
  5
251
100
AcDbEntity
  8
_21_KURVEN
100
AcDbLine
 62
7
  6
CONTINUOUS
 10
298.3505148552
 20
4.6320740023
 11
287.1822921432
 21
3.9471392957
  0
LINE
  5
252
100
AcDbEntity
  8
_26_BEZUGSACHSEN
100
AcDbLine
 62
4
  6
CONTINUOUS
 10
298.0154761392
 20
4.6115264496
 11
286.237602829
 21
3.8892025483
  0
LINE
  5
253
100
AcDbEntity
  8
_26_BEZUGSACHSEN
100
AcDbLine
 62
7
  6
CENTER
 10
-3.0
 20
0.0
 11
304.234545691
 21
0.0
  0
LINE
  5
254
100
AcDbEntity
  8
_26_BEZUGSACHSEN
100
AcDbLine
 62
4
  6
CONTINUOUS
 10
281.8226340778
 20
14.8668598112
 11
287.2270210768
 21
15.1983048692
  0
LINE
  5
255
100
AcDbEntity
  8
_30_VOLUMEN
100
AcDbLine
 62
4
  6
CONTINUOUS
 10
287.9861667823
 20
16.3135351132
 11
299.1543894943
 21
16.9984698198
  0
LINE
  5
256
100
AcDbEntity
  8
_21_KURVEN
100
AcDbLine
 62
7
  6
CONTINUOUS
 10
287.9861667823
 20
16.3135351132
 11
299.1543894943
 21
16.9984698198
  0
LINE
  5
257
100
AcDbEntity
  8
_26_BEZUGSACHSEN
100
AcDbLine
 62
4
  6
CONTINUOUS
 10
1.5
 20
6.7823299831
 11
270.1031174387
 21
6.7823299831
  0
LINE
  5
258
100
AcDbEntity
  8
_30_VOLUMEN
100
AcDbLine
 62
4
  6
CONTINUOUS
 10
278.0
 20
12.25
 11
279.0
 21
12.25
  0
LINE
  5
259
100
AcDbEntity
  8
_30_VOLUMEN
100
AcDbLine
 62
4
  6
CONTINUOUS
 10
1.5
 20
12.5
 11
278.0
 21
12.5
  0
LINE
  5
25A
100
AcDbEntity
  8
_30_VOLUMEN
100
AcDbLine
 62
4
  6
CONTINUOUS
 10
279.0
 20
12.25
 11
280.8894562806
 21
14.1394562806
  0
LINE
  5
25B
100
AcDbEntity
  8
_28_BEZUGSPUNKTE
100
AcDbLine
 62
1
  6
CONTINUOUS
 10
300.15625
 20
17.15625
 11
299.84375
 21
16.84375
  0
LINE
  5
25C
100
AcDbEntity
  8
_28_BEZUGSPUNKTE
100
AcDbLine
 62
1
  6
CONTINUOUS
 10
300.15625
 20
16.84375
 11
299.84375
 21
17.15625
  0
LINE
  5
25D
100
AcDbEntity
  8
_26_BEZUGSACHSEN
100
AcDbLine
 62
4
  6
CONTINUOUS
 10
278.0
 20
12.4999224085
 11
278.0
 21
11.5934086941
  0
LINE
  5
25E
100
AcDbEntity
  8
_26_BEZUGSACHSEN
100
AcDbLine
 62
4
  6
CONTINUOUS
 10
278.0
 20
-6.3746220227
 11
278.0
 21
-6.7823299831
  0
LINE
  5
25F
100
AcDbEntity
  8
0
100
AcDbLine
 62
4
  6
CONTINUOUS
 10
278.0
 20
-6.7823299831
 11
278.0
 21
-11.6676955915
  0
LINE
  5
260
100
AcDbEntity
  8
_26_BEZUGSACHSEN
100
AcDbLine
 62
4
  6
CONTINUOUS
 10
279.0
 20
12.25
 11
279.0
 21
11.6742274943
  0
LINE
  5
261
100
AcDbEntity
  8
_30_VOLUMEN
100
AcDbLine
 62
4
  6
CONTINUOUS
 10
287.3129383753
 20
15.8341746324
 11
287.0594853704
 21
15.1880300902
  0
LINE
  5
262
100
AcDbEntity
  8
_30_VOLUMEN
100
AcDbLine
 62
7
  6
CONTINUOUS
 10
287.2646262509
 20
15.6281339771
 11
287.0927949001
 21
15.1900729267
  0
LINE
  5
263
100
AcDbEntity
  8
_26_BEZUGSACHSEN
100
AcDbLine
 62
7
  6
CONTINUOUS
 10
287.0321623812
 20
-8.9857171073
 11
280.2984866823
 21
13.1911085215
  0
LINE
  5
264
100
AcDbEntity
  8
_26_BEZUGSACHSEN
100
AcDbLine
 62
4
  6
CONTINUOUS
 10
287.2270210768
 20
15.1983048692
 11
286.237602829
 21
3.8892025483
  0
LINE
  5
265
100
AcDbEntity
  8
_30_VOLUMEN
100
AcDbLine
 62
4
  6
CONTINUOUS
 10
286.3177006659
 20
4.8047250136
 11
287.2646262509
 21
15.6281339771
  0
LINE
  5
266
100
AcDbEntity
  8
_21_KURVEN
100
AcDbLine
 62
7
  6
CONTINUOUS
 10
286.3177006659
 20
4.8047250136
 11
287.2646262509
 21
15.6281339771
  0
LINE
  5
267
100
AcDbEntity
  8
_26_BEZUGSACHSEN
100
AcDbLine
 62
4
  6
CONTINUOUS
 10
298.0154761392
 20
4.6115264496
 11
296.8464848091
 21
-8.7501055955
  0
LINE
  5
268
100
AcDbEntity
  8
_21_KURVEN
100
AcDbLine
 62
7
  6
CONTINUOUS
 10
300.0189809716
 20
16.1408841019
 11
299.0720553866
 21
5.3174751384
  0
LINE
  5
269
100
AcDbEntity
  8
_30_VOLUMEN
100
AcDbLine
 62
4
  6
CONTINUOUS
 10
300.0189809716
 20
16.1408841019
 11
299.0720553866
 21
5.3174751384
  0
LINE
  5
26A
100
AcDbEntity
  8
_30_VOLUMEN
100
AcDbLine
 62
7
  6
CONTINUOUS
 10
298.3505148552
 20
4.6320740023
 11
297.9216107726
 21
3.5386404004
  0
LINE
  5
26B
100
AcDbEntity
  8
_30_VOLUMEN
100
AcDbLine
 62
4
  6
CONTINUOUS
 10
299.0237432622
 20
5.1114344831
 11
298.5429655923
 21
3.8857561071
  0
ARC
  5
26C
100
AcDbEntity
  8
_30_VOLUMEN
100
AcDbCircle
 62
4
  6
CONTINUOUS
 10
368.2733259479
 20
-65.2937114582
 40
117.8958833508
100
AcDbArc
 50
137.1620764202
 51
138.2629533613
  0
ARC
  5
26D
100
AcDbEntity
  8
_26_BEZUGSACHSEN
100
AcDbCircle
 62
4
  6
CONTINUOUS
 10
281.4821389162
 20
-25.2652562472
 40
37.022783157
100
AcDbArc
 50
93.8441961331
 51
95.3968712103
  0
ARC
  5
26E
100
AcDbEntity
  8
_30_VOLUMEN
100
AcDbCircle
 62
4
  6
CONTINUOUS
 10
292.8223832043
 20
9.1821589992
 40
2.4317319903
100
AcDbArc
 50
348.4842024298
 51
5.232069678
  0
ARC
  5
26F
100
AcDbEntity
  8
_30_VOLUMEN
100
AcDbCircle
 62
4
  6
CONTINUOUS
 10
292.5200304007
 20
9.3096309852
 40
2.4014502147
100
AcDbArc
 50
139.1993343303
 51
148.6910872612
  0
ARC
  5
270
100
AcDbEntity
  8
_30_VOLUMEN
100
AcDbCircle
 62
4
  6
CONTINUOUS
 10
293.2477666689
 20
9.9830271777
 40
2.3405754663
100
AcDbArc
 50
304.4007567349
 51
306.1406554851
  0
SPLINE
  5
271
100
AcDbEntity
  8
_30_VOLUMEN
100
AcDbSpline
 62
4
  6
CONTINUOUS
 70
0
 71
3
 72
11
 73
7
 74
0
 42
0.0000001
 43
0.0000001
 44
0.0000000001
 40
0.0
 40
0.0
 40
0.0
 40
0.0
 40
0.245385471
 40
0.4949080941
 40
0.7475119595
 40
1.0
 40
1.0
 40
1.0
 40
1.0
 10
300.0189809716
 20
16.1408841019
 30
0.0
 10
300.0287388912
 20
16.2524176335
 30
0.0
 10
299.9961840252
 20
16.4848883485
 30
0.0
 10
299.803398396
 20
16.7786707969
 30
0.0
 10
299.5052054098
 20
16.969741072
 30
0.0
 10
299.269373646
 20
17.0055216702
 30
0.0
 10
299.1543894943
 20
16.9984698198
 30
0.0
  0
SPLINE
  5
272
100
AcDbEntity
  8
_30_VOLUMEN
100
AcDbSpline
 62
4
  6
CONTINUOUS
 70
0
 71
3
 72
10
 73
6
 74
0
 42
0.0000001
 43
0.0000001
 44
0.0000000001
 40
0.0
 40
0.0
 40
0.0
 40
0.0
 40
0.5020488653
 40
0.7514987338
 40
1.0
 40
1.0
 40
1.0
 40
1.0
 10
287.9861667823
 20
16.3135351132
 30
0.0
 10
287.8415816304
 20
16.3046678662
 30
0.0
 10
287.6225932709
 20
16.229107209
 30
0.0
 10
287.4117611698
 20
16.0278547396
 30
0.0
 10
287.3393161992
 20
15.9008513039
 30
0.0
 10
287.3131675557
 20
15.8340890808
 30
0.0
  0
SPLINE
  5
273
100
AcDbEntity
  8
_30_VOLUMEN
100
AcDbSpline
 62
4
  6
CONTINUOUS
 70
0
 71
3
 72
8
 73
4
 74
0
 42
0.0000001
 43
0.0000001
 44
0.0000000001
 40
0.0
 40
0.0
 40
0.0
 40
0.0
 40
1.0
 40
1.0
 40
1.0
 40
1.0
 10
299.0235140818
 20
5.1115200347
 30
0.0
 10
299.0492368785
 20
5.1771949941
 30
0.0
 10
299.0659080562
 20
5.2472108311
 30
0.0
 10
299.0720553866
 20
5.3174751384
 30
0.0
  0
SPLINE
  5
274
100
AcDbEntity
  8
_30_VOLUMEN
100
AcDbSpline
 62
4
  6
CONTINUOUS
 70
0
 71
3
 72
10
 73
6
 74
0
 42
0.0000001
 43
0.0000001
 44
0.0000000001
 40
0.0
 40
0.0
 40
0.0
 40
0.0
 40
0.2485369189
 40
0.4978684604
 40
1.0
 40
1.0
 40
1.0
 40
1.0
 10
298.5427364118
 20
3.8858416587
 30
0.0
 10
298.5178162983
 20
3.822216095
 30
0.0
 10
298.4497638894
 20
3.7009287548
 30
0.0
 10
298.2530065465
 20
3.5052476421
 30
0.0
 10
298.048441032
 20
3.4257574976
 30
0.0
 10
297.911283633
 20
3.4100491494
 30
0.0
  0
SPLINE
  5
275
100
AcDbEntity
  8
_30_VOLUMEN
100
AcDbSpline
 62
4
  6
CONTINUOUS
 70
0
 71
3
 72
9
 73
5
 74
0
 42
0.0000001
 43
0.0000001
 44
0.0000000001
 40
0.0
 40
0.0
 40
0.0
 40
0.0
 40
0.5050078969
 40
1.0
 40
1.0
 40
1.0
 40
1.0
 10
290.4469645885
 20
9.949059826
 30
0.0
 10
290.4309994494
 20
10.1212642081
 30
0.0
 10
290.4382571547
 20
10.4671385093
 30
0.0
 10
290.5260190957
 20
10.8018350415
 30
0.0
 10
290.5879194742
 20
10.9596417786
 30
0.0
  0
SPLINE
  5
276
100
AcDbEntity
  8
_30_VOLUMEN
100
AcDbSpline
 62
4
  6
CONTINUOUS
 70
0
 71
3
 72
15
 73
11
 74
0
 42
0.0000001
 43
0.0000001
 44
0.0000000001
 40
0.0
 40
0.0
 40
0.0
 40
0.0
 40
0.1228220997
 40
0.2470135005
 40
0.3725857012
 40
0.4991005714
 40
0.6257961554
 40
0.7517972405
 40
0.8767129341
 40
1.0
 40
1.0
 40
1.0
 40
1.0
 10
290.7021626926
 20
10.8788091553
 30
0.0
 10
290.8626325554
 20
11.064639029
 30
0.0
 10
291.2453598664
 20
11.3906247756
 30
0.0
 10
291.9393512302
 20
11.6885632622
 30
0.0
 10
292.6972214626
 20
11.7753098088
 30
0.0
 10
293.4533730314
 20
11.6437925149
 30
0.0
 10
294.1430393596
 20
11.3053409994
 30
0.0
 10
294.708330987
 20
10.7893220557
 30
0.0
 10
295.0986494754
 20
10.1391685856
 30
0.0
 10
295.2212319376
 20
9.6493123098
 30
0.0
 10
295.2439834165
 20
9.4039086001
 30
0.0
  0
SPLINE
  5
277
100
AcDbEntity
  8
_30_VOLUMEN
100
AcDbSpline
 62
4
  6
CONTINUOUS
 70
0
 71
3
 72
9
 73
5
 74
0
 42
0.0000001
 43
0.0000001
 44
0.0000000001
 40
0.0
 40
0.0
 40
0.0
 40
0.0
 40
0.4912770262
 40
1.0
 40
1.0
 40
1.0
 40
1.0
 10
295.391582
 20
9.0753842756
 30
0.0
 10
295.3164278219
 20
8.8837887487
 30
0.0
 10
295.1056701141
 20
8.5144126193
 30
0.0
 10
294.8002711582
 20
8.2185382026
 30
0.0
 10
294.6281667757
 20
8.0928448959
 30
0.0
  0
SPLINE
  5
278
100
AcDbEntity
  8
_30_VOLUMEN
100
AcDbSpline
 62
4
  6
CONTINUOUS
 70
0
 71
3
 72
15
 73
11
 74
0
 42
0.0000001
 43
0.0000001
 44
0.0000000001
 40
0.0
 40
0.0
 40
0.0
 40
0.0
 40
0.1190262338
 40
0.2437518768
 40
0.3727764091
 40
0.5038583531
 40
0.6342927112
 40
0.7613934486
 40
0.8836630853
 40
1.0
 40
1.0
 40
1.0
 40
1.0
 10
294.5701400831
 20
8.0518042318
 30
0.0
 10
294.3933658151
 20
7.9307560001
 30
0.0
 10
293.9953436973
 20
7.7320689946
 30
0.0
 10
293.3308156506
 20
7.596682084
 30
0.0
 10
292.6315357704
 20
7.6353662869
 30
0.0
 10
291.9546299404
 20
7.851269673
 30
0.0
 10
291.3559992883
 20
8.2274756331
 30
0.0
 10
290.8822518271
 20
8.7310020792
 30
0.0
 10
290.5661152021
 20
9.3165971481
 30
0.0
 10
290.4662958341
 20
9.7405476925
 30
0.0
 10
290.4469645885
 20
9.949059826
 30
0.0
  0
SPLINE
  5
279
100
AcDbEntity
  8
_30_VOLUMEN
100
AcDbSpline
 62
4
  6
CONTINUOUS
 70
0
 71
3
 72
15
 73
11
 74
0
 42
0.0000001
 43
0.0000001
 44
0.0000000001
 40
0.0
 40
0.0
 40
0.0
 40
0.0
 40
0.1236219502
 40
0.2483203482
 40
0.3738865454
 40
0.4999410585
 40
0.6259938673
 40
0.7515510542
 40
0.8762308505
 40
1.0
 40
1.0
 40
1.0
 40
1.0
 10
294.7516150099
 20
7.929319332
 30
0.0
 10
294.5554206446
 20
7.8175184867
 30
0.0
 10
294.1339227521
 20
7.6376922306
 30
0.0
 10
293.4562104153
 20
7.5168077416
 30
0.0
 10
292.7638579727
 20
7.5476856698
 30
0.0
 10
292.0926098386
 20
7.7294712733
 30
0.0
 10
291.4769024143
 20
8.05261619
 30
0.0
 10
290.9478097859
 20
8.5001540384
 30
0.0
 10
290.532879492
 20
9.0497859549
 30
0.0
 10
290.3460454702
 20
9.4684989203
 30
0.0
 10
290.2782250286
 20
9.6841689267
 30
0.0
  0
SPLINE
  5
27A
100
AcDbEntity
  8
_30_VOLUMEN
100
AcDbSpline
 62
7
  6
CONTINUOUS
 70
0
 71
3
 72
9
 73
5
 74
0
 42
0.0000001
 43
0.0000001
 44
0.0000000001
 40
0.0
 40
0.0
 40
0.0
 40
0.0
 40
0.4997450349
 40
1.0
 40
1.0
 40
1.0
 40
1.0
 10
295.5461710047
 20
10.1742954455
 30
0.0
 10
295.5633509641
 20
9.9889876775
 30
0.0
 10
295.5539505424
 20
9.6129926166
 30
0.0
 10
295.4594488001
 20
9.248874717
 30
0.0
 10
295.3915857246
 20
9.0753828184
 30
0.0
  0
SPLINE
  5
27B
100
AcDbEntity
  8
_30_VOLUMEN
100
AcDbSpline
 62
4
  6
CONTINUOUS
 70
0
 71
3
 72
11
 73
7
 74
0
 42
0.0000001
 43
0.0000001
 44
0.0000000001
 40
0.0
 40
0.0
 40
0.0
 40
0.0
 40
0.2497853234
 40
0.4991338016
 40
0.7486029536
 40
1.0
 40
1.0
 40
1.0
 40
1.0
 10
296.0923268154
 20
10.5717130507
 30
0.0
 10
296.1162663919
 20
10.3134941926
 30
0.0
 10
296.0915988936
 20
9.7878987175
 30
0.0
 10
295.8381762919
 20
9.0425521321
 30
0.0
 10
295.385358944
 20
8.3963928013
 30
0.0
 10
294.9744627578
 20
8.0651211653
 30
0.0
 10
294.7510783053
 20
7.9301392349
 30
0.0
  0
SPLINE
  5
27C
100
AcDbEntity
  8
_30_VOLUMEN
100
AcDbSpline
 62
7
  6
CONTINUOUS
 70
0
 71
3
 72
19
 73
15
 74
0
 42
0.0000001
 43
0.0000001
 44
0.0000000001
 40
0.0
 40
0.0
 40
0.0
 40
0.0
 40
0.1235127147
 40
0.1862849508
 40
0.2493427731
 40
0.312669935
 40
0.3762153363
 40
0.4398866582
 40
0.5035039731
 40
0.6296754362
 40
0.7543726214
 40
0.816331252
 40
0.8778981414
 40
1.0
 40
1.0
 40
1.0
 40
1.0
 10
295.5461710047
 20
10.1742954455
 30
0.0
 10
295.5202970121
 20
10.4533794477
 30
0.0
 10
295.4055590336
 20
10.8712673824
 30
0.0
 10
295.1256591485
 20
11.3650099073
 30
0.0
 10
294.853092722
 20
11.6993821958
 30
0.0
 10
294.5289225783
 20
11.9862293815
 30
0.0
 10
294.1610712671
 20
12.2171148481
 30
0.0
 10
293.7603235348
 20
12.3862370613
 30
0.0
 10
293.199598082
 20
12.5232960683
 30
0.0
 10
292.472221368
 20
12.5205251364
 30
0.0
 10
291.7886148919
 20
12.2821259384
 30
0.0
 10
291.3180875617
 20
11.9678606759
 30
0.0
 10
290.9126824664
 20
11.5824610022
 30
0.0
 10
290.6888509253
 20
11.2176839319
 30
0.0
 10
290.5879157497
 20
10.9596432358
 30
0.0
  0
SPLINE
  5
27D
100
AcDbEntity
  8
_30_VOLUMEN
100
AcDbSpline
 62
4
  6
CONTINUOUS
 70
0
 71
3
 72
15
 73
11
 74
0
 42
0.0000001
 43
0.0000001
 44
0.0000000001
 40
0.0
 40
0.0
 40
0.0
 40
0.0
 40
0.1243302299
 40
0.2505466457
 40
0.3779278271
 40
0.5050935484
 40
0.6307843469
 40
0.7545809513
 40
0.8771787388
 40
1.0
 40
1.0
 40
1.0
 40
1.0
 10
296.0923268154
 20
10.5717130507
 30
0.0
 10
296.0573881946
 20
10.9485706262
 30
0.0
 10
295.8291479166
 20
11.7012694055
 30
0.0
 10
295.0826865593
 20
12.6123887608
 30
0.0
 10
294.0447426832
 20
13.1882389451
 30
0.0
 10
292.8695286497
 20
13.3425625858
 30
0.0
 10
291.7307037231
 20
13.0508111299
 30
0.0
 10
290.8011652971
 20
12.3508141535
 30
0.0
 10
290.2278448002
 20
11.3485796235
 30
0.0
 10
290.1451978679
 20
10.58138271
 30
0.0
 10
290.1797124463
 20
10.2090989722
 30
0.0
  0
SPLINE
  5
27E
100
AcDbEntity
  8
_30_VOLUMEN
100
AcDbSpline
 62
4
  6
CONTINUOUS
 70
0
 71
3
 72
15
 73
11
 74
0
 42
0.0000001
 43
0.0000001
 44
0.0000000001
 40
0.0
 40
0.0
 40
0.0
 40
0.0
 40
0.1228364312
 40
0.2454173924
 40
0.3692175148
 40
0.4949064832
 40
0.622070116
 40
0.7494549984
 40
0.8756544553
 40
1.0
 40
1.0
 40
1.0
 40
1.0
 10
290.1561246895
 20
10.2880686849
 30
0.0
 10
290.1209536942
 20
10.6674327156
 30
0.0
 10
290.2050863475
 20
11.4491578151
 30
0.0
 10
290.789480185
 20
12.4701810206
 30
0.0
 10
291.7364525164
 20
13.1834689775
 30
0.0
 10
292.8968236359
 20
13.4806287226
 30
0.0
 10
294.0942562439
 20
13.3234959706
 30
0.0
 10
295.1516950852
 20
12.7366837431
 30
0.0
 10
295.9124680083
 20
11.8085284164
 30
0.0
 10
296.1449538576
 20
11.0415651582
 30
0.0
 10
296.180556948
 20
10.6575404306
 30
0.0
  0
SPLINE
  5
27F
100
AcDbEntity
  8
_30_VOLUMEN
100
AcDbSpline
 62
4
  6
CONTINUOUS
 70
0
 71
3
 72
8
 73
4
 74
0
 42
0.0000001
 43
0.0000001
 44
0.0000000001
 40
0.0
 40
0.0
 40
0.0
 40
0.0
 40
1.0
 40
1.0
 40
1.0
 40
1.0
 10
287.3131675557
 20
15.8340890808
 30
0.0
 10
287.287444759
 20
15.7684141214
 30
0.0
 10
287.2707735813
 20
15.6983982844
 30
0.0
 10
287.2646262509
 20
15.6281339771
 30
0.0
  0
SPLINE
  5
280
100
AcDbEntity
  8
_30_VOLUMEN
100
AcDbSpline
 62
4
  6
CONTINUOUS
 70
0
 71
3
 72
11
 73
7
 74
0
 42
0.0000001
 43
0.0000001
 44
0.0000000001
 40
0.0
 40
0.0
 40
0.0
 40
0.0
 40
0.245385471
 40
0.4949080941
 40
0.7475119595
 40
1.0
 40
1.0
 40
1.0
 40
1.0
 10
286.3177006659
 20
4.8047250136
 30
0.0
 10
286.3079427463
 20
4.693191482
 30
0.0
 10
286.3404976123
 20
4.460720767
 30
0.0
 10
286.5332832415
 20
4.1669383186
 30
0.0
 10
286.8314762277
 20
3.9758680435
 30
0.0
 10
287.0673079915
 20
3.9400874452
 30
0.0
 10
287.1822921432
 20
3.9471392957
 30
0.0
  0
SPLINE
  5
281
100
AcDbEntity
  8
_30_VOLUMEN
100
AcDbSpline
 62
4
  6
CONTINUOUS
 70
0
 71
3
 72
10
 73
6
 74
0
 42
0.0000001
 43
0.0000001
 44
0.0000000001
 40
0.0
 40
0.0
 40
0.0
 40
0.0
 40
0.5020488653
 40
0.7514987338
 40
1.0
 40
1.0
 40
1.0
 40
1.0
 10
298.3505148552
 20
4.6320740023
 30
0.0
 10
298.4951000071
 20
4.6409412492
 30
0.0
 10
298.7140883666
 20
4.7165019065
 30
0.0
 10
298.9249204677
 20
4.9177543759
 30
0.0
 10
298.9973654383
 20
5.0447578116
 30
0.0
 10
299.0235140818
 20
5.1115200347
 30
0.0
  0
SPLINE
  5
282
100
AcDbEntity
  8
_30_VOLUMEN
100
AcDbSpline
 62
4
  6
CONTINUOUS
 70
0
 71
3
 72
9
 73
5
 74
0
 42
0.0000001
 43
0.0000001
 44
0.0000000001
 40
0.0
 40
0.0
 40
0.0
 40
0.0
 40
0.2514428342
 40
1.0
 40
1.0
 40
1.0
 40
1.0
 10
290.2782250286
 20
9.6841689267
 30
0.0
 10
290.2627178627
 20
9.7334819437
 30
0.0
 10
290.2061710865
 20
9.9311714652
 30
0.0
 10
290.1703314143
 20
10.1348310429
 30
0.0
 10
290.1561246895
 20
10.2880686849
 30
0.0
  0
SPLINE
  5
283
100
AcDbEntity
  8
_30_VOLUMEN
100
AcDbSpline
 62
4
  6
CONTINUOUS
 70
0
 71
3
 72
11
 73
7
 74
0
 42
0.0000001
 43
0.0000001
 44
0.0000000001
 40
0.0
 40
0.0
 40
0.0
 40
0.0
 40
0.2498415024
 40
0.4989742394
 40
0.7484780741
 40
1.0
 40
1.0
 40
1.0
 40
1.0
 10
296.180556948
 20
10.6575404306
 30
0.0
 10
296.2055056255
 20
10.3884371326
 30
0.0
 10
296.1784334954
 20
9.8406509339
 30
0.0
 10
295.9064090983
 20
9.0663687256
 30
0.0
 10
295.4236021967
 20
8.4006448594
 30
0.0
 10
294.988003161
 20
8.0640245009
 30
0.0
 10
294.7516150099
 20
7.929319332
 30
0.0
  0
SPLINE
  5
284
100
AcDbEntity
  8
_21_KURVEN
100
AcDbSpline
 62
7
  6
CONTINUOUS
 70
0
 71
3
 72
37
 73
33
 74
0
 42
0.0000001
 43
0.0000001
 44
0.0000000001
 40
0.0
 40
0.0
 40
0.0
 40
0.0
 40
0.0625
 40
0.09375
 40
0.125
 40
0.15625
 40
0.1875
 40
0.21875
 40
0.25
 40
0.28125
 40
0.3125
 40
0.34375
 40
0.375
 40
0.40625
 40
0.4375
 40
0.46875
 40
0.5
 40
0.53125
 40
0.5625
 40
0.59375
 40
0.625
 40
0.65625
 40
0.6875
 40
0.71875
 40
0.75
 40
0.78125
 40
0.8125
 40
0.84375
 40
0.875
 40
0.90625
 40
0.9375
 40
1.0
 40
1.0
 40
1.0
 40
1.0
 10
286.3177006659
 20
4.8047250136
 30
0.0
 10
286.3183786739
 20
4.7768964898
 30
0.0
 10
286.3189639257
 20
4.7351390454
 30
0.0
 10
286.3214713019
 20
4.679521088
 30
0.0
 10
286.3190342328
 20
4.6376610319
 30
0.0
 10
286.3330040485
 20
4.5963580106
 30
0.0
 10
286.3423096452
 20
4.5547953452
 30
0.0
 10
286.3538652329
 20
4.5137142212
 30
0.0
 10
286.3610850758
 20
4.4709665757
 30
0.0
 10
286.3833979071
 20
4.4344034746
 30
0.0
 10
286.4014083853
 20
4.3960536229
 30
0.0
 10
286.4215352876
 20
4.3586662293
 30
0.0
 10
286.4374988468
 20
4.3192157536
 30
0.0
 10
286.4679993541
 20
4.2870551483
 30
0.0
 10
286.4944129163
 20
4.2527298725
 30
0.0
 10
286.5226373107
 20
4.219773408
 30
0.0
 10
286.5477053217
 20
4.183506369
 30
0.0
 10
286.5835880339
 20
4.1591128167
 30
0.0
 10
286.6163983176
 20
4.1313128063
 30
0.0
 10
286.6506836143
 20
4.1052651419
 30
0.0
 10
286.6821412874
 20
4.0756145513
 30
0.0
 10
286.7234344422
 20
4.0586233193
 30
0.0
 10
286.7620125679
 20
4.0379673125
 30
0.0
 10
286.8016153281
 20
4.019311046
 30
0.0
 10
286.8398345796
 20
3.9963205933
 30
0.0
 10
286.8825632314
 20
3.988667145
 30
0.0
 10
286.9240250771
 20
3.9766278297
 30
0.0
 10
286.9660447468
 20
3.9667949779
 30
0.0
 10
287.0070999265
 20
3.9525221393
 30
0.0
 10
287.0514552422
 20
3.9538027843
 30
0.0
 10
287.1094377207
 20
3.9500529483
 30
0.0
 10
287.1531851167
 20
3.9484684779
 30
0.0
 10
287.1822921502
 20
3.9471392961
 30
0.0
  0
SPLINE
  5
285
100
AcDbEntity
  8
_21_KURVEN
100
AcDbSpline
 62
7
  6
CONTINUOUS
 70
0
 71
3
 72
9
 73
5
 74
0
 42
0.0000001
 43
0.0000001
 44
0.0000000001
 40
0.0
 40
0.0
 40
0.0
 40
0.0
 40
0.5
 40
1.0
 40
1.0
 40
1.0
 40
1.0
 10
287.9861667823
 20
16.3135351132
 30
0.0
 10
287.9255632977
 20
16.3075316581
 30
0.0
 10
287.804094947
 20
16.2907612986
 30
0.0
 10
287.6944286698
 20
16.2391465472
 30
0.0
 10
287.6386856948
 20
16.2100401324
 30
0.0
  0
SPLINE
  5
286
100
AcDbEntity
  8
_21_KURVEN
100
AcDbSpline
 62
7
  6
CONTINUOUS
 70
0
 71
3
 72
9
 73
5
 74
0
 42
0.0000001
 43
0.0000001
 44
0.0000000001
 40
0.0
 40
0.0
 40
0.0
 40
0.0
 40
0.5
 40
1.0
 40
1.0
 40
1.0
 40
1.0
 10
287.6386856928
 20
16.2100401313
 30
0.0
 10
287.5992914045
 20
16.1857924389
 30
0.0
 10
287.5226469478
 20
16.1357236526
 30
0.0
 10
287.4573227593
 20
16.0651271352
 30
0.0
 10
287.4268591752
 20
16.0297952708
 30
0.0
  0
SPLINE
  5
287
100
AcDbEntity
  8
_21_KURVEN
100
AcDbSpline
 62
7
  6
CONTINUOUS
 70
0
 71
3
 72
8
 73
4
 74
0
 42
0.0000001
 43
0.0000001
 44
0.0000000001
 40
0.0
 40
0.0
 40
0.0
 40
0.0
 40
1.0
 40
1.0
 40
1.0
 40
1.0
 10
287.4268591821
 20
16.0297952793
 30
0.0
 10
287.4101118752
 20
16.008713653
 30
0.0
 10
287.3944118064
 20
15.9870190449
 30
0.0
 10
287.37951342
 20
15.9643216426
 30
0.0
  0
SPLINE
  5
288
100
AcDbEntity
  8
_21_KURVEN
100
AcDbSpline
 62
7
  6
CONTINUOUS
 70
0
 71
3
 72
8
 73
4
 74
0
 42
0.0000001
 43
0.0000001
 44
0.0000000001
 40
0.0
 40
0.0
 40
0.0
 40
0.0
 40
1.0
 40
1.0
 40
1.0
 40
1.0
 10
287.3795134212
 20
15.9643216446
 30
0.0
 10
287.3540121027
 20
15.9232285115
 30
0.0
 10
287.3324504944
 20
15.8814907763
 30
0.0
 10
287.3129383752
 20
15.8341746323
 30
0.0
  0
SPLINE
  5
289
100
AcDbEntity
  8
_21_KURVEN
100
AcDbSpline
 62
7
  6
CONTINUOUS
 70
0
 71
3
 72
9
 73
5
 74
0
 42
0.0000001
 43
0.0000001
 44
0.0000000001
 40
0.0
 40
0.0
 40
0.0
 40
0.0
 40
0.5
 40
1.0
 40
1.0
 40
1.0
 40
1.0
 10
287.3129383753
 20
15.8341746324
 30
0.0
 10
287.3027104923
 20
15.8064852221
 30
0.0
 10
287.2826689733
 20
15.7493652413
 30
0.0
 10
287.2717000346
 20
15.6842967941
 30
0.0
 10
287.2671579622
 20
15.6524644907
 30
0.0
  0
LINE
  5
28A
100
AcDbEntity
  8
_21_KURVEN
100
AcDbLine
 62
7
  6
CONTINUOUS
 10
287.2671579626
 20
15.6524644938
 11
287.2646262509
 21
15.6281339767
  0
SPLINE
  5
28B
100
AcDbEntity
  8
_21_KURVEN
100
AcDbSpline
 62
7
  6
CONTINUOUS
 70
0
 71
3
 72
9
 73
5
 74
0
 42
0.0000001
 43
0.0000001
 44
0.0000000001
 40
0.0
 40
0.0
 40
0.0
 40
0.0
 40
0.5
 40
1.0
 40
1.0
 40
1.0
 40
1.0
 10
300.0189809716
 20
16.1408841019
 30
0.0
 10
300.0217374398
 20
16.1946817574
 30
0.0
 10
300.0229974963
 20
16.3100302296
 30
0.0
 10
299.9919192633
 20
16.4166787611
 30
0.0
 10
299.9734571967
 20
16.4726048792
 30
0.0
  0
SPLINE
  5
28C
100
AcDbEntity
  8
_21_KURVEN
100
AcDbSpline
 62
7
  6
CONTINUOUS
 70
0
 71
3
 72
21
 73
17
 74
0
 42
0.0000001
 43
0.0000001
 44
0.0000000001
 40
0.0
 40
0.0
 40
0.0
 40
0.0
 40
0.125
 40
0.1875
 40
0.25
 40
0.3125
 40
0.375
 40
0.4375
 40
0.5
 40
0.5625
 40
0.625
 40
0.6875
 40
0.75
 40
0.8125
 40
0.875
 40
1.0
 40
1.0
 40
1.0
 40
1.0
 10
299.9734571999
 20
16.4726048707
 30
0.0
 10
299.9618041042
 20
16.4981124278
 30
0.0
 10
299.9448771834
 20
16.5365299084
 30
0.0
 10
299.9200970652
 20
16.5871286358
 30
0.0
 10
299.8950483073
 20
16.6229647876
 30
0.0
 10
299.8729778807
 20
16.6602161168
 30
0.0
 10
299.8454577983
 20
16.6939196303
 30
0.0
 10
299.8162146456
 20
16.726084558
 30
0.0
 10
299.7890417484
 20
16.7607943095
 30
0.0
 10
299.7553108994
 20
16.7868633513
 30
0.0
 10
299.7236266697
 20
16.815497829
 30
0.0
 10
299.6903139145
 20
16.8425112727
 30
0.0
 10
299.65233775
 20
16.8651476412
 30
0.0
 10
299.6163819648
 20
16.8903217943
 30
0.0
 10
299.5638834404
 20
16.9161885809
 30
0.0
 10
299.5237069075
 20
16.9340869472
 30
0.0
 10
299.4971009167
 20
16.9463529077
 30
0.0
  0
SPLINE
  5
28D
100
AcDbEntity
  8
_21_KURVEN
100
AcDbSpline
 62
7
  6
CONTINUOUS
 70
0
 71
3
 72
9
 73
5
 74
0
 42
0.0000001
 43
0.0000001
 44
0.0000000001
 40
0.0
 40
0.0
 40
0.0
 40
0.0
 40
0.5
 40
1.0
 40
1.0
 40
1.0
 40
1.0
 10
299.4971009284
 20
16.9463529033
 30
0.0
 10
299.4442426747
 20
16.9643384075
 30
0.0
 10
299.3312093263
 20
16.9985207172
 30
0.0
 10
299.2137056824
 20
16.9999469407
 30
0.0
 10
299.1543894853
 20
16.9984698192
 30
0.0
  0
SPLINE
  5
28E
100
AcDbEntity
  8
_21_KURVEN
100
AcDbSpline
 62
1
  6
CENTER
 70
0
 71
3
 72
163
 73
159
 74
0
 42
0.0000001
 43
0.0000001
 44
0.0000000001
 40
0.0
 40
0.0
 40
0.0
 40
0.0
 40
0.015625
 40
0.03125
 40
0.0390625
 40
0.046875
 40
0.0546875
 40
0.05859375
 40
0.060546875
 40
0.0625
 40
0.064453125
 40
0.06640625
 40
0.0703125
 40
0.078125
 40
0.09375
 40
0.109375
 40
0.1171875
 40
0.12109375
 40
0.123046875
 40
0.125
 40
0.126953125
 40
0.12890625
 40
0.1328125
 40
0.140625
 40
0.15625
 40
0.171875
 40
0.1796875
 40
0.18359375
 40
0.185546875
 40
0.1875
 40
0.189453125
 40
0.19140625
 40
0.1953125
 40
0.203125
 40
0.21875
 40
0.234375
 40
0.2421875
 40
0.24609375
 40
0.248046875
 40
0.25
 40
0.251953125
 40
0.25390625
 40
0.2578125
 40
0.265625
 40
0.28125
 40
0.296875
 40
0.3046875
 40
0.30859375
 40
0.310546875
 40
0.3125
 40
0.314453125
 40
0.31640625
 40
0.3203125
 40
0.328125
 40
0.34375
 40
0.359375
 40
0.3671875
 40
0.37109375
 40
0.373046875
 40
0.375
 40
0.376953125
 40
0.37890625
 40
0.3828125
 40
0.390625
 40
0.40625
 40
0.421875
 40
0.4296875
 40
0.43359375
 40
0.435546875
 40
0.4375
 40
0.439453125
 40
0.44140625
 40
0.4453125
 40
0.453125
 40
0.46875
 40
0.484375
 40
0.4921875
 40
0.49609375
 40
0.498046875
 40
0.5
 40
0.501953125
 40
0.50390625
 40
0.5078125
 40
0.515625
 40
0.53125
 40
0.546875
 40
0.5546875
 40
0.55859375
 40
0.560546875
 40
0.5625
 40
0.564453125
 40
0.56640625
 40
0.5703125
 40
0.578125
 40
0.59375
 40
0.609375
 40
0.6171875
 40
0.62109375
 40
0.623046875
 40
0.625
 40
0.626953125
 40
0.62890625
 40
0.6328125
 40
0.640625
 40
0.65625
 40
0.671875
 40
0.6796875
 40
0.68359375
 40
0.685546875
 40
0.6875
 40
0.689453125
 40
0.69140625
 40
0.6953125
 40
0.703125
 40
0.71875
 40
0.734375
 40
0.7421875
 40
0.74609375
 40
0.748046875
 40
0.75
 40
0.751953125
 40
0.75390625
 40
0.7578125
 40
0.765625
 40
0.78125
 40
0.796875
 40
0.8046875
 40
0.80859375
 40
0.810546875
 40
0.8125
 40
0.814453125
 40
0.81640625
 40
0.8203125
 40
0.828125
 40
0.84375
 40
0.859375
 40
0.8671875
 40
0.87109375
 40
0.873046875
 40
0.875
 40
0.876953125
 40
0.87890625
 40
0.8828125
 40
0.890625
 40
0.90625
 40
0.921875
 40
0.9296875
 40
0.93359375
 40
0.935546875
 40
0.9375
 40
0.939453125
 40
0.94140625
 40
0.9453125
 40
0.953125
 40
0.9609375
 40
0.96875
 40
0.984375
 40
1.0
 40
1.0
 40
1.0
 40
1.0
 10
299.4603054309
 20
10.8586837658
 30
0.0
 10
299.4411301955
 20
10.957191227
 30
0.0
 10
299.4027755603
 20
11.1542050724
 30
0.0
 10
299.3548530878
 20
11.4004777647
 30
0.0
 10
299.3164713848
 20
11.5974846086
 30
0.0
 10
299.2878037897
 20
11.74527044
 30
0.0
 10
299.2635367385
 20
11.8683276837
 30
0.0
 10
299.2472903954
 20
11.954659317
 30
0.0
 10
299.2368503998
 20
12.0036925703
 30
0.0
 10
299.232277918
 20
12.041310104
 30
0.0
 10
299.2152535624
 20
12.0757068171
 30
0.0
 10
299.1968974536
 20
12.1226924919
 30
0.0
 10
299.1627539858
 20
12.2043946936
 30
0.0
 10
299.0959094604
 20
12.3681740455
 30
0.0
 10
298.9995982078
 20
12.6019177283
 30
0.0
 10
298.9038158014
 20
12.8358545036
 30
0.0
 10
298.8362308912
 20
12.9993635258
 30
0.0
 10
298.8031054526
 20
13.0814374309
 30
0.0
 10
298.7831099203
 20
13.1278245185
 30
0.0
 10
298.7711228255
 20
13.1640604391
 30
0.0
 10
298.7476308681
 20
13.1947700835
 30
0.0
 10
298.7203209889
 20
13.2376437711
 30
0.0
 10
298.6706620472
 20
13.311775993
 30
0.0
 10
298.572677165
 20
13.460681865
 30
0.0
 10
298.4319396268
 20
13.6730307625
 30
0.0
 10
298.2916995791
 20
13.8856529991
 30
0.0
 10
298.1930182101
 20
14.0341761963
 30
0.0
 10
298.1443169378
 20
14.108834596
 30
0.0
 10
298.1154648378
 20
14.1508609323
 30
0.0
 10
298.0967114781
 20
14.1841741319
 30
0.0
 10
298.0669266579
 20
14.2106313451
 30
0.0
 10
298.031061161
 20
14.2482989217
 30
0.0
 10
297.9665068874
 20
14.3131045633
 30
0.0
 10
297.8386743054
 20
14.4435129697
 30
0.0
 10
297.6553460811
 20
14.6293360233
 30
0.0
 10
297.4724284467
 20
14.8155394264
 30
0.0
 10
297.3440210388
 20
14.9454153436
 30
0.0
 10
297.2802571508
 20
15.0109531579
 30
0.0
 10
297.2431188251
 20
15.0474416512
 30
0.0
 10
297.2172448741
 20
15.077521693
 30
0.0
 10
297.1838026591
 20
15.0972278906
 30
0.0
 10
297.1418527345
 20
15.1271210742
 30
0.0
 10
297.0672124883
 20
15.1777509393
 30
0.0
 10
296.9188081338
 20
15.2802133139
 30
0.0
 10
296.7063086063
 20
15.4258980757
 30
0.0
 10
296.4941134717
 20
15.5720523221
 30
0.0
 10
296.3452829671
 20
15.6738574183
 30
0.0
 10
296.2712286772
 20
15.7253910411
 30
0.0
 10
296.2283351347
 20
15.7538288226
 30
0.0
 10
296.1977922619
 20
15.7780068607
 30
0.0
 10
296.1610286556
 20
15.7912910922
 30
0.0
 10
296.1141802038
 20
15.8128030128
 30
0.0
 10
296.031186236
 20
15.8486812711
 30
0.0
 10
295.8659175536
 20
15.9217010584
 30
0.0
 10
295.6294211347
 20
16.0252875923
 30
0.0
 10
295.3931479146
 20
16.1293776884
 30
0.0
 10
295.2275667539
 20
16.2016924885
 30
0.0
 10
295.1450024438
 20
16.2385401043
 30
0.0
 10
295.0974620758
 20
16.2584909816
 30
0.0
 10
295.0628244378
 20
16.2765716445
 30
0.0
 10
295.0242966288
 20
16.2827347393
 30
0.0
 10
294.9742830457
 20
16.2951088822
 30
0.0
 10
294.8861281703
 20
16.3148299466
 30
0.0
 10
294.7102683273
 20
16.3556537158
 30
0.0
 10
294.4587899425
 20
16.4131803871
 30
0.0
 10
294.2074547412
 20
16.4712473584
 30
0.0
 10
294.0313944411
 20
16.5113147076
 30
0.0
 10
293.9435151942
 20
16.5320758496
 30
0.0
 10
293.8930577419
 20
16.5427750624
 30
0.0
 10
293.8558937569
 20
16.5540845148
 30
0.0
 10
293.8161337248
 20
16.5528359447
 30
0.0
 10
293.7640257834
 20
16.5555512464
 30
0.0
 10
293.6724159853
 20
16.5582654534
 30
0.0
 10
293.4894936642
 20
16.5651493948
 30
0.0
 10
293.2280331375
 20
16.5741509103
 30
0.0
 10
292.966578073
 20
16.5837107385
 30
0.0
 10
292.7836481048
 20
16.5898130423
 30
0.0
 10
292.6920488215
 20
16.593602001
 30
0.0
 10
292.6399239472
 20
16.5945865337
 30
0.0
 10
292.6002159428
 20
16.5986558909
 30
0.0
 10
292.5628565465
 20
16.5899917108
 30
0.0
 10
292.5122248488
 20
16.5828807452
 30
0.0
 10
292.424000526
 20
16.5683705526
 30
0.0
 10
292.2472787423
 20
16.5408255103
 30
0.0
 10
291.9949822461
 20
16.5006353841
 30
0.0
 10
291.7425532339
 20
16.4609953442
 30
0.0
 10
291.5660169725
 20
16.4326801812
 30
0.0
 10
291.4775375566
 20
16.4192289045
 30
0.0
 10
291.4273166582
 20
16.4104126717
 30
0.0
 10
291.3886950482
 20
16.4069880628
 30
0.0
 10
291.353727799
 20
16.3913780858
 30
0.0
 10
291.3058301965
 20
16.3748148623
 30
0.0
 10
291.2226024665
 20
16.3438521791
 30
0.0
 10
291.0557217819
 20
16.2833384014
 30
0.0
 10
290.8175765903
 20
16.1960881994
 30
0.0
 10
290.5792182047
 20
16.1093570499
 30
0.0
 10
290.4126359918
 20
16.0481165986
 30
0.0
 10
290.3289978633
 20
16.0181530916
 30
0.0
 10
290.2817611624
 20
15.9999808053
 30
0.0
 10
290.2447632397
 20
15.9893148034
 30
0.0
 10
290.2137686471
 20
15.9673210911
 30
0.0
 10
290.1703486388
 20
15.9419470843
 30
0.0
 10
290.0953377602
 20
15.8957046592
 30
0.0
 10
289.9446192673
 20
15.8045323152
 30
0.0
 10
289.729712663
 20
15.6735384165
 30
0.0
 10
289.5145110604
 20
15.5430352783
 30
0.0
 10
289.3642055652
 20
15.4511758696
 30
0.0
 10
289.2886268147
 20
15.4058781585
 30
0.0
 10
289.2461213013
 20
15.3789827941
 30
0.0
 10
289.2123168494
 20
15.3616635754
 30
0.0
 10
289.1858724929
 20
15.3334406174
 30
0.0
 10
289.1480462324
 20
15.2996130574
 30
0.0
 10
289.0830446871
 20
15.238645884
 30
0.0
 10
288.9521860418
 20
15.117972841
 30
0.0
 10
288.7657532432
 20
14.9448798527
 30
0.0
 10
288.5789175794
 20
14.7721960882
 30
0.0
 10
288.4486229453
 20
14.6509501319
 30
0.0
 10
288.3828458845
 20
14.5907707143
 30
0.0
 10
288.3462685061
 20
14.5556745606
 30
0.0
 10
288.3159868587
 20
14.531349459
 30
0.0
 10
288.2965949087
 20
14.4993902603
 30
0.0
 10
288.2669407999
 20
14.4594406527
 30
0.0
 10
288.2168130122
 20
14.3882902765
 30
0.0
 10
288.1152950235
 20
14.2468733296
 30
0.0
 10
287.9709934242
 20
14.0443511462
 30
0.0
 10
287.8262000263
 20
13.8421374176
 30
0.0
 10
287.7253705556
 20
13.700288634
 30
0.0
 10
287.6742960557
 20
13.6297320332
 30
0.0
 10
287.6461665225
 20
13.5888262158
 30
0.0
 10
287.6220901907
 20
13.5598050491
 30
0.0
 10
287.6094026389
 20
13.5244449766
 30
0.0
 10
287.5885136516
 20
13.4795091206
 30
0.0
 10
287.553805835
 20
13.3998430159
 30
0.0
 10
287.4830695898
 20
13.2412438234
 30
0.0
 10
287.382777849
 20
13.0142668706
 30
0.0
 10
287.2819614075
 20
12.7875204064
 30
0.0
 10
287.2119597434
 20
12.6285985297
 30
0.0
 10
287.1762418779
 20
12.5493761158
 30
0.0
 10
287.1569794628
 20
12.5037257447
 30
0.0
 10
287.1392941368
 20
12.4705610774
 30
0.0
 10
287.1339889726
 20
12.4332941764
 30
0.0
 10
287.122597391
 20
12.3850357689
 30
0.0
 10
287.1046708645
 20
12.2999180397
 30
0.0
 10
287.0673825707
 20
12.1301571052
 30
0.0
 10
287.0149371216
 20
11.8873770855
 30
0.0
 10
286.9619312965
 20
11.644750807
 30
0.0
 10
286.925427529
 20
11.4747746348
 30
0.0
 10
286.9064222788
 20
11.3899528575
 30
0.0
 10
286.8967678626
 20
11.3412178521
 30
0.0
 10
286.8861251177
 20
11.3054153364
 30
0.0
 10
286.8884872405
 20
11.2667505766
 30
0.0
 10
286.887100494
 20
11.2161959463
 30
0.0
 10
286.886787208
 20
11.1272601781
 30
0.0
 10
286.8852346811
 20
11.000452275
 30
0.0
 10
286.8838446272
 20
10.8481786934
 30
0.0
 10
286.8818259514
 20
10.6451836257
 30
0.0
 10
286.8793596903
 20
10.3914272274
 30
0.0
 10
286.8773692845
 20
10.1884259378
 30
0.0
 10
286.8763762562
 20
10.0869248143
 30
0.0
  0
SPLINE
  5
28F
100
AcDbEntity
  8
_21_KURVEN
100
AcDbSpline
 62
1
  6
CENTER
 70
0
 71
3
 72
163
 73
159
 74
0
 42
0.0000001
 43
0.0000001
 44
0.0000000001
 40
0.0
 40
0.0
 40
0.0
 40
0.0
 40
0.015625
 40
0.03125
 40
0.0390625
 40
0.046875
 40
0.0546875
 40
0.05859375
 40
0.060546875
 40
0.0625
 40
0.064453125
 40
0.06640625
 40
0.0703125
 40
0.078125
 40
0.09375
 40
0.109375
 40
0.1171875
 40
0.12109375
 40
0.123046875
 40
0.125
 40
0.126953125
 40
0.12890625
 40
0.1328125
 40
0.140625
 40
0.15625
 40
0.171875
 40
0.1796875
 40
0.18359375
 40
0.185546875
 40
0.1875
 40
0.189453125
 40
0.19140625
 40
0.1953125
 40
0.203125
 40
0.21875
 40
0.234375
 40
0.2421875
 40
0.24609375
 40
0.248046875
 40
0.25
 40
0.251953125
 40
0.25390625
 40
0.2578125
 40
0.265625
 40
0.28125
 40
0.296875
 40
0.3046875
 40
0.30859375
 40
0.310546875
 40
0.3125
 40
0.314453125
 40
0.31640625
 40
0.3203125
 40
0.328125
 40
0.34375
 40
0.359375
 40
0.3671875
 40
0.37109375
 40
0.373046875
 40
0.375
 40
0.376953125
 40
0.37890625
 40
0.3828125
 40
0.390625
 40
0.40625
 40
0.421875
 40
0.4296875
 40
0.43359375
 40
0.435546875
 40
0.4375
 40
0.439453125
 40
0.44140625
 40
0.4453125
 40
0.453125
 40
0.46875
 40
0.484375
 40
0.4921875
 40
0.49609375
 40
0.498046875
 40
0.5
 40
0.501953125
 40
0.50390625
 40
0.5078125
 40
0.515625
 40
0.53125
 40
0.546875
 40
0.5546875
 40
0.55859375
 40
0.560546875
 40
0.5625
 40
0.564453125
 40
0.56640625
 40
0.5703125
 40
0.578125
 40
0.59375
 40
0.609375
 40
0.6171875
 40
0.62109375
 40
0.623046875
 40
0.625
 40
0.626953125
 40
0.62890625
 40
0.6328125
 40
0.640625
 40
0.65625
 40
0.671875
 40
0.6796875
 40
0.68359375
 40
0.685546875
 40
0.6875
 40
0.689453125
 40
0.69140625
 40
0.6953125
 40
0.703125
 40
0.71875
 40
0.734375
 40
0.7421875
 40
0.74609375
 40
0.748046875
 40
0.75
 40
0.751953125
 40
0.75390625
 40
0.7578125
 40
0.765625
 40
0.78125
 40
0.796875
 40
0.8046875
 40
0.80859375
 40
0.810546875
 40
0.8125
 40
0.814453125
 40
0.81640625
 40
0.8203125
 40
0.828125
 40
0.84375
 40
0.859375
 40
0.8671875
 40
0.87109375
 40
0.873046875
 40
0.875
 40
0.876953125
 40
0.87890625
 40
0.8828125
 40
0.890625
 40
0.90625
 40
0.921875
 40
0.9296875
 40
0.93359375
 40
0.935546875
 40
0.9375
 40
0.939453125
 40
0.94140625
 40
0.9453125
 40
0.953125
 40
0.9609375
 40
0.96875
 40
0.984375
 40
1.0
 40
1.0
 40
1.0
 40
1.0
 10
286.8763762066
 20
10.0869253497
 30
0.0
 10
286.895551442
 20
9.9884178884
 30
0.0
 10
286.9339060772
 20
9.7914040431
 30
0.0
 10
286.9818285497
 20
9.5451313508
 30
0.0
 10
287.0202102527
 20
9.3481245069
 30
0.0
 10
287.0488778478
 20
9.2003386754
 30
0.0
 10
287.073144899
 20
9.0772814318
 30
0.0
 10
287.0893912421
 20
8.9909497985
 30
0.0
 10
287.0998312377
 20
8.9419165452
 30
0.0
 10
287.1044037195
 20
8.9042990115
 30
0.0
 10
287.1214280751
 20
8.8699022984
 30
0.0
 10
287.1397841839
 20
8.8229166236
 30
0.0
 10
287.1739276517
 20
8.7412144218
 30
0.0
 10
287.2407721771
 20
8.5774350699
 30
0.0
 10
287.3370834297
 20
8.3436913872
 30
0.0
 10
287.4328658361
 20
8.1097546119
 30
0.0
 10
287.5004507463
 20
7.9462455897
 30
0.0
 10
287.5335761849
 20
7.8641716846
 30
0.0
 10
287.5535717172
 20
7.817784597
 30
0.0
 10
287.565558812
 20
7.7815486764
 30
0.0
 10
287.5890507694
 20
7.750839032
 30
0.0
 10
287.6163606486
 20
7.7079653444
 30
0.0
 10
287.6660195903
 20
7.6338331225
 30
0.0
 10
287.7640044725
 20
7.4849272505
 30
0.0
 10
287.9047420107
 20
7.272578353
 30
0.0
 10
288.0449820584
 20
7.0599561164
 30
0.0
 10
288.1436634274
 20
6.9114329192
 30
0.0
 10
288.1923646997
 20
6.8367745195
 30
0.0
 10
288.2212167997
 20
6.7947481832
 30
0.0
 10
288.2399701593
 20
6.7614349835
 30
0.0
 10
288.2697549796
 20
6.7349777704
 30
0.0
 10
288.3056204765
 20
6.6973101938
 30
0.0
 10
288.3701747501
 20
6.6325045521
 30
0.0
 10
288.4980073321
 20
6.5020961458
 30
0.0
 10
288.6813355564
 20
6.3162730921
 30
0.0
 10
288.8642531908
 20
6.130069689
 30
0.0
 10
288.9926605987
 20
6.0001937719
 30
0.0
 10
289.0564244867
 20
5.9346559575
 30
0.0
 10
289.0935628124
 20
5.8981674643
 30
0.0
 10
289.1194367634
 20
5.8680874225
 30
0.0
 10
289.1528789784
 20
5.8483812249
 30
0.0
 10
289.194828903
 20
5.8184880413
 30
0.0
 10
289.2694691492
 20
5.7678581762
 30
0.0
 10
289.4178735037
 20
5.6653958016
 30
0.0
 10
289.6303730312
 20
5.5197110398
 30
0.0
 10
289.8425681658
 20
5.3735567934
 30
0.0
 10
289.9913986704
 20
5.2717516972
 30
0.0
 10
290.0654529603
 20
5.2202180744
 30
0.0
 10
290.1083465028
 20
5.1917802929
 30
0.0
 10
290.1388893756
 20
5.1676022547
 30
0.0
 10
290.1756529819
 20
5.1543180233
 30
0.0
 10
290.2225014337
 20
5.1328061027
 30
0.0
 10
290.3054954015
 20
5.0969278444
 30
0.0
 10
290.4707640839
 20
5.023908057
 30
0.0
 10
290.7072605028
 20
4.9203215232
 30
0.0
 10
290.9435337229
 20
4.816231427
 30
0.0
 10
291.1091148835
 20
4.743916627
 30
0.0
 10
291.1916791937
 20
4.7070690112
 30
0.0
 10
291.2392195617
 20
4.6871181339
 30
0.0
 10
291.2738571997
 20
4.6690374709
 30
0.0
 10
291.3123850087
 20
4.6628743762
 30
0.0
 10
291.3623985918
 20
4.6505002333
 30
0.0
 10
291.4505534672
 20
4.6307791689
 30
0.0
 10
291.6264133102
 20
4.5899553997
 30
0.0
 10
291.877891695
 20
4.5324287284
 30
0.0
 10
292.1292268963
 20
4.4743617571
 30
0.0
 10
292.3052871964
 20
4.4342944079
 30
0.0
 10
292.3931664433
 20
4.4135332659
 30
0.0
 10
292.4436238956
 20
4.4028340531
 30
0.0
 10
292.4807878806
 20
4.3915246007
 30
0.0
 10
292.5205479127
 20
4.3927731708
 30
0.0
 10
292.5726558541
 20
4.3900578691
 30
0.0
 10
292.6642656522
 20
4.3873436621
 30
0.0
 10
292.8471879733
 20
4.3804597207
 30
0.0
 10
293.1086485
 20
4.3714582051
 30
0.0
 10
293.3701035645
 20
4.361898377
 30
0.0
 10
293.5530335327
 20
4.3557960732
 30
0.0
 10
293.644632816
 20
4.3520071145
 30
0.0
 10
293.6967576903
 20
4.3510225818
 30
0.0
 10
293.7364656947
 20
4.3469532246
 30
0.0
 10
293.773825091
 20
4.3556174047
 30
0.0
 10
293.8244567886
 20
4.3627283703
 30
0.0
 10
293.9126811115
 20
4.3772385629
 30
0.0
 10
294.0894028951
 20
4.4047836051
 30
0.0
 10
294.3416993914
 20
4.4449737313
 30
0.0
 10
294.5941284036
 20
4.4846137713
 30
0.0
 10
294.770664665
 20
4.5129289343
 30
0.0
 10
294.8591440809
 20
4.5263802109
 30
0.0
 10
294.9093649793
 20
4.5351964437
 30
0.0
 10
294.9479865893
 20
4.5386210527
 30
0.0
 10
294.9829538385
 20
4.5542310297
 30
0.0
 10
295.030851441
 20
4.5707942532
 30
0.0
 10
295.114079171
 20
4.6017569363
 30
0.0
 10
295.2809598556
 20
4.662270714
 30
0.0
 10
295.5191050471
 20
4.7495209161
 30
0.0
 10
295.7574634328
 20
4.8362520656
 30
0.0
 10
295.9240456457
 20
4.8974925168
 30
0.0
 10
296.0076837742
 20
4.9274560239
 30
0.0
 10
296.0549204751
 20
4.9456283102
 30
0.0
 10
296.0919183978
 20
4.956294312
 30
0.0
 10
296.1229129904
 20
4.9782880243
 30
0.0
 10
296.1663329987
 20
5.0036620312
 30
0.0
 10
296.2413438773
 20
5.0499044563
 30
0.0
 10
296.3920623702
 20
5.1410768003
 30
0.0
 10
296.6069689745
 20
5.272070699
 30
0.0
 10
296.8221705771
 20
5.4025738372
 30
0.0
 10
296.9724760723
 20
5.4944332458
 30
0.0
 10
297.0480548228
 20
5.539730957
 30
0.0
 10
297.0905603362
 20
5.5666263214
 30
0.0
 10
297.1243647881
 20
5.5839455401
 30
0.0
 10
297.1508091446
 20
5.612168498
 30
0.0
 10
297.1886354051
 20
5.6459960581
 30
0.0
 10
297.2536369504
 20
5.7069632314
 30
0.0
 10
297.3844955957
 20
5.8276362745
 30
0.0
 10
297.5709283943
 20
6.0007292628
 30
0.0
 10
297.7577640581
 20
6.1734130272
 30
0.0
 10
297.8880586922
 20
6.2946589836
 30
0.0
 10
297.953835753
 20
6.3548384012
 30
0.0
 10
297.9904131314
 20
6.3899345549
 30
0.0
 10
298.0206947788
 20
6.4142596565
 30
0.0
 10
298.0400867287
 20
6.4462188552
 30
0.0
 10
298.0697408376
 20
6.4861684628
 30
0.0
 10
298.1198686253
 20
6.557318839
 30
0.0
 10
298.221386614
 20
6.6987357859
 30
0.0
 10
298.3656882133
 20
6.9012579693
 30
0.0
 10
298.5104816112
 20
7.1034716979
 30
0.0
 10
298.6113110819
 20
7.2453204815
 30
0.0
 10
298.6623855818
 20
7.3158770823
 30
0.0
 10
298.690515115
 20
7.3567828997
 30
0.0
 10
298.7145914468
 20
7.3858040663
 30
0.0
 10
298.7272789986
 20
7.4211641389
 30
0.0
 10
298.7481679859
 20
7.4660999948
 30
0.0
 10
298.7828758025
 20
7.5457660995
 30
0.0
 10
298.8536120477
 20
7.7043652921
 30
0.0
 10
298.9539037885
 20
7.9313422449
 30
0.0
 10
299.05472023
 20
8.1580887091
 30
0.0
 10
299.1247218941
 20
8.3170105858
 30
0.0
 10
299.1604397596
 20
8.3962329997
 30
0.0
 10
299.1797021747
 20
8.4418833707
 30
0.0
 10
299.1973875007
 20
8.4750480381
 30
0.0
 10
299.2026926649
 20
8.512314939
 30
0.0
 10
299.2140842465
 20
8.5605733466
 30
0.0
 10
299.232010773
 20
8.6456910758
 30
0.0
 10
299.2692990668
 20
8.8154520102
 30
0.0
 10
299.3217445159
 20
9.05823203
 30
0.0
 10
299.374750341
 20
9.3008583085
 30
0.0
 10
299.4112541085
 20
9.4708344807
 30
0.0
 10
299.4302593587
 20
9.5556562579
 30
0.0
 10
299.4399137749
 20
9.6043912633
 30
0.0
 10
299.4505565198
 20
9.6401937791
 30
0.0
 10
299.448194397
 20
9.6788585389
 30
0.0
 10
299.4495811435
 20
9.7294131692
 30
0.0
 10
299.4498944295
 20
9.8183489374
 30
0.0
 10
299.4514469564
 20
9.9451568404
 30
0.0
 10
299.4528370103
 20
10.0974304221
 30
0.0
 10
299.4548556861
 20
10.3004254898
 30
0.0
 10
299.4573219472
 20
10.554181888
 30
0.0
 10
299.459312353
 20
10.7571831777
 30
0.0
 10
299.4603053813
 20
10.8586843012
 30
0.0
  0
SPLINE
  5
290
100
AcDbEntity
  8
_21_KURVEN
100
AcDbSpline
 62
7
  6
CONTINUOUS
 70
0
 71
3
 72
21
 73
17
 74
0
 42
0.0000001
 43
0.0000001
 44
0.0000000001
 40
0.0
 40
0.0
 40
0.0
 40
0.0
 40
0.125
 40
0.1875
 40
0.25
 40
0.3125
 40
0.375
 40
0.4375
 40
0.5
 40
0.5625
 40
0.625
 40
0.6875
 40
0.75
 40
0.8125
 40
0.875
 40
1.0
 40
1.0
 40
1.0
 40
1.0
 10
298.3505148552
 20
4.6320740023
 30
0.0
 10
298.3772444557
 20
4.6355079404
 30
0.0
 10
298.4174538142
 20
4.6401810107
 30
0.0
 10
298.4706064618
 20
4.6483231189
 30
0.0
 10
298.5091440367
 20
4.6601676727
 30
0.0
 10
298.5482661965
 20
4.6691373464
 30
0.0
 10
298.5863769271
 20
4.683868568
 30
0.0
 10
298.6237767177
 20
4.700534903
 30
0.0
 10
298.6629456613
 20
4.7147524492
 30
0.0
 10
298.6957489328
 20
4.7368300371
 30
0.0
 10
298.7304625275
 20
4.7565331018
 30
0.0
 10
298.7639005017
 20
4.7778742175
 30
0.0
 10
298.7939516702
 20
4.8038250772
 30
0.0
 10
298.8256677525
 20
4.8272737599
 30
0.0
 10
298.8635920626
 20
4.8657372887
 30
0.0
 10
298.891221831
 20
4.8959675605
 30
0.0
 10
298.9098224464
 20
4.915813825
 30
0.0
  0
SPLINE
  5
291
100
AcDbEntity
  8
_21_KURVEN
100
AcDbSpline
 62
7
  6
CONTINUOUS
 70
0
 71
3
 72
9
 73
5
 74
0
 42
0.0000001
 43
0.0000001
 44
0.0000000001
 40
0.0
 40
0.0
 40
0.0
 40
0.0
 40
0.5
 40
1.0
 40
1.0
 40
1.0
 40
1.0
 10
298.9098224554
 20
4.9158138362
 30
0.0
 10
298.9327763433
 20
4.9456922434
 30
0.0
 10
298.9772666162
 20
5.0067701872
 30
0.0
 10
299.0084898157
 20
5.0753871682
 30
0.0
 10
299.0237432589
 20
5.1114344748
 30
0.0
  0
SPLINE
  5
292
100
AcDbEntity
  8
_21_KURVEN
100
AcDbSpline
 62
7
  6
CONTINUOUS
 70
0
 71
3
 72
9
 73
5
 74
0
 42
0.0000001
 43
0.0000001
 44
0.0000000001
 40
0.0
 40
0.0
 40
0.0
 40
0.0
 40
0.5
 40
1.0
 40
1.0
 40
1.0
 40
1.0
 10
299.0237432622
 20
5.1114344831
 30
0.0
 10
299.0339711452
 20
5.1391238934
 30
0.0
 10
299.0540126642
 20
5.1962438742
 30
0.0
 10
299.0649816029
 20
5.2613123214
 30
0.0
 10
299.0695236753
 20
5.2931446248
 30
0.0
  0
LINE
  5
293
100
AcDbEntity
  8
_21_KURVEN
100
AcDbLine
 62
7
  6
CONTINUOUS
 10
299.0695236749
 20
5.2931446217
 11
299.0720553866
 21
5.3174751388
  0
SPLINE
  5
294
100
AcDbEntity
  8
_30_VOLUMEN
100
AcDbSpline
 62
4
  6
CONTINUOUS
 70
0
 71
3
 72
9
 73
5
 74
0
 42
0.0000001
 43
0.0000001
 44
0.0000000001
 40
0.0
 40
0.0
 40
0.0
 40
0.0
 40
0.4680820893
 40
1.0
 40
1.0
 40
1.0
 40
1.0
 10
280.889457387
 20
14.1394563017
 30
0.0
 10
281.020157489
 20
14.2701650995
 30
0.0
 10
281.3223163838
 20
14.5263780127
 30
0.0
 10
281.6466879018
 20
14.7521209001
 30
0.0
 10
281.8226340778
 20
14.8668598112
 30
0.0
  0
SPLINE
  5
295
100
AcDbEntity
  8
_26_BEZUGSACHSEN
100
AcDbSpline
 62
4
  6
CONTINUOUS
 70
0
 71
3
 72
9
 73
5
 74
0
 42
0.0000001
 43
0.0000001
 44
0.0000000001
 40
0.0
 40
0.0
 40
0.0
 40
0.0
 40
0.2478214028
 40
1.0
 40
1.0
 40
1.0
 40
1.0
 10
279.0
 20
11.6742274943
 30
0.0
 10
279.1042702419
 20
11.8020450906
 30
0.0
 10
279.5285954849
 20
12.3148920238
 30
0.0
 10
279.9654012382
 20
12.8173236688
 30
0.0
 10
280.2984866823
 20
13.1911085215
 30
0.0
  0
SPLINE
  5
296
100
AcDbEntity
  8
0
100
AcDbSpline
 62
4
  6
CONTINUOUS
 70
0
 71
3
 72
9
 73
5
 74
0
 42
0.0000001
 43
0.0000001
 44
0.0000000001
 40
0.0
 40
0.0
 40
0.0
 40
0.0
 40
0.2501354764
 40
1.0
 40
1.0
 40
1.0
 40
1.0
 10
0.0
 20
-3.2787192622
 30
0.0
 10
0.0908715157
 20
-3.5835903393
 30
0.0
 10
0.4967361299
 20
-4.7898072598
 30
0.0
 10
1.0451784662
 20
-5.9440827751
 30
0.0
 10
1.5
 20
-6.7823299831
 30
0.0
  0
SPLINE
  5
297
100
AcDbEntity
  8
0
100
AcDbSpline
 62
4
  6
CONTINUOUS
 70
0
 71
3
 72
9
 73
5
 74
0
 42
0.0000001
 43
0.0000001
 44
0.0000000001
 40
0.0
 40
0.0
 40
0.0
 40
0.0
 40
0.7498649348
 40
1.0
 40
1.0
 40
1.0
 40
1.0
 10
1.5
 20
6.7823299831
 30
0.0
 10
1.0451782156
 20
5.9440823131
 30
0.0
 10
0.4967355935
 20
4.7898068915
 30
0.0
 10
0.0908713666
 20
3.5835898388
 30
0.0
 10
-0.0
 20
3.2787192622
 30
0.0
  0
SPLINE
  5
298
100
AcDbEntity
  8
_26_BEZUGSACHSEN
100
AcDbSpline
 62
4
  6
CONTINUOUS
 70
0
 71
3
 72
11
 73
7
 74
0
 42
0.0000001
 43
0.0000001
 44
0.0000000001
 40
0.0
 40
0.0
 40
0.0
 40
0.0
 40
0.254739054
 40
0.5062628766
 40
0.754306878
 40
1.0
 40
1.0
 40
1.0
 40
1.0
 10
287.0321623812
 20
-8.9857171073
 30
0.0
 10
286.2336377401
 20
-8.9234191134
 30
0.0
 10
284.6509138644
 20
-8.7322779249
 30
0.0
 10
282.3297519737
 20
-8.2260072631
 30
0.0
 10
280.1045747532
 20
-7.4747580135
 30
0.0
 10
278.7056020538
 20
-6.7880542119
 30
0.0
 10
278.0390481799
 20
-6.3975726472
 30
0.0
  0
LINE
  5
299
100
AcDbEntity
  8
_26_BEZUGSACHSEN
100
AcDbLine
 62
4
  6
CONTINUOUS
 10
278.0390481799
 20
-6.3975726472
 11
278.0
 21
-6.3746220227
  0
SPLINE
  5
29A
100
AcDbEntity
  8
_26_BEZUGSACHSEN
100
AcDbSpline
 62
4
  6
CONTINUOUS
 70
0
 71
3
 72
17
 73
13
 74
0
 42
0.0000001
 43
0.0000001
 44
0.0000000001
 40
0.0
 40
0.0
 40
0.0
 40
0.0
 40
0.1213482748
 40
0.179148198
 40
0.2357073122
 40
0.2917961676
 40
0.3482254779
 40
0.4645514343
 40
0.5881734871
 40
0.7194314314
 40
0.857214103
 40
1.0
 40
1.0
 40
1.0
 40
1.0
 10
270.1031174387
 20
6.7823299831
 30
0.0
 10
270.1386499435
 20
7.2002610831
 30
0.0
 10
270.2501470411
 20
7.8166299027
 30
0.0
 10
270.5480963637
 20
8.5771418642
 30
0.0
 10
270.8378709306
 20
9.0924692797
 30
0.0
 10
271.1956846553
 20
9.5570677956
 30
0.0
 10
271.7626987473
 20
10.1119024551
 30
0.0
 10
272.6291658388
 20
10.6769800117
 30
0.0
 10
273.8230370766
 20
11.1601843513
 30
0.0
 10
275.1390318407
 20
11.5025756011
 30
0.0
 10
276.5437937562
 20
11.7395049614
 30
0.0
 10
277.5083611981
 20
11.8440865712
 30
0.0
 10
278.0
 20
11.8873393388
 30
0.0
  0
ELLIPSE
  5
29B
100
AcDbEntity
  8
_26_BEZUGSACHSEN
100
AcDbEllipse
 62
4
  6
CONTINUOUS
 10
343.3392266241
 20
0.0
 30
0.0
 11
120.6620296071
 21
-3.2012862038
 31
0.0
 40
0.097995271
 41
-2.0536951139
 42
-2.0019919675
  0
ELLIPSE
  5
29C
100
AcDbEntity
  8
_26_BEZUGSACHSEN
100
AcDbEllipse
 62
4
  6
CONTINUOUS
 10
267.1248970851
 20
68.3801417201
 30
0.0
 11
-26.3759659464
 21
86.8671471174
 31
0.0
 40
0.2203050327
 41
-3.9931957171
 42
-3.7444654939
  0
ENDSEC
  0
SECTION
  2
OBJECTS
  0
DICTIONARY
  5
C
100
AcDbDictionary
280
0
281
1
  3
ACAD_GROUP
350
D
  3
ACAD_MLINESTYLE
350
17
  3
ACAD_LAYOUT
350
1A
  3
ACAD_PLOTSETTINGS
350
19
  3
ACAD_PLOTSTYLENAME
350
E
  0
DICTIONARY
  5
D
102
{ACAD_REACTORS
330
C
102
}
100
AcDbDictionary
280
0
281
1
  0
ACDBDICTIONARYWDFLT
  5
E
102
{ACAD_REACTORS
330
C
102
}
100
AcDbDictionary
281
1
  3
Normal
350
F
100
AcDbDictionaryWithDefault
340
F
  0
DICTIONARY
  5
17
102
{ACAD_REACTORS
330
C
102
}
100
AcDbDictionary
280
0
281
1
  3
Standard
350
18
  0
DICTIONARY
  5
19
102
{ACAD_REACTORS
330
C
102
}
100
AcDbDictionary
281
1
  0
DICTIONARY
  5
1A
102
{ACAD_REACTORS
330
C
102
}
100
AcDbDictionary
281
1
  3
Model
350
29D
  3
Layout1
350
29E
  0
ACDBPLACEHOLDER
  5
F
102
{ACAD_REACTORS
330
E
102
}
  0
MLINESTYLE
  5
18
102
{ACAD_REACTORS
330
17
102
}
100
AcDbMlineStyle
  2
STANDARD
 70
0
  3

 62
256
 51
90.0
 52
90.0
 71
2
 49
0.5
 62
256
  6
BYLAYER
 49
-0.5
 62
256
  6
BYLAYER
  0
LAYOUT
  5
29D
102
{ACAD_REACTORS
330
1A
102
}
100
AcDbPlotSettings
  1

  2
none_device
  4
ISO_A3_(420.00_x_297.00_MM)
  6

 40
0.0
 41
0.0
 42
0.0
 43
0.0
 44
420.0
 45
297.0
 46
0.0
 47
0.0
 48
0.0
 49
0.0
140
0.0
141
0.0
142
1.0
143
1.0
 70
1024
 72
1
 73
0
 74
0
  7

 75
0
147
1.0
148
0.0
149
0.0
100
AcDbLayout
  1
Model
 70
0
 71
0
 10
0.0
 20
0.0
 11
420.0
 21
297.0
 12
0.0
 22
0.0
 32
0.0
 14
0.0
 24
0.0
 34
0.0
 15
0.0
 25
0.0
 35
0.0
146
0.0
 13
0.0
 23
0.0
 33
0.0
 16
1.0
 26
0.0
 36
0.0
 17
0.0
 27
1.0
 37
0.0
 76
0
330
20F
345
0
346
0
  0
LAYOUT
  5
29E
102
{ACAD_REACTORS
330
1A
102
}
100
AcDbPlotSettings
  1

  2
none_device
  4
ISO_A3_(420.00_x_297.00_MM)
  6

 40
0.0
 41
0.0
 42
0.0
 43
0.0
 44
420.0
 45
297.0
 46
0.0
 47
0.0
 48
0.0
 49
0.0
140
0.0
141
0.0
142
1.0
143
1.0
 70
0
 72
1
 73
0
 74
0
  7

 75
0
147
1.0
148
0.0
149
0.0
100
AcDbLayout
  1
Layout1
 70
0
 71
1
 10
0.0
 20
0.0
 11
420.0
 21
297.0
 12
0.0
 22
0.0
 32
0.0
 14
0.0
 24
0.0
 34
0.0
 15
0.0
 25
0.0
 35
0.0
146
0.0
 13
0.0
 23
0.0
 33
0.0
 16
1.0
 26
0.0
 36
0.0
 17
0.0
 27
1.0
 37
0.0
 76
0
330
210
345
0
346
0
  0
ENDSEC
  0
EOF
