999
DXF file: 70556050.dxf
999
Pro/ENGINEER 2017380 by Parametric Technology Corporation
  0
SECTION
  2
HEADER
  9
$ACADVER
  1
AC1027
  9
$DWGCODEPAGE
  3
ANSI_1252
  9
$EXTMAX
 10
420.0
 20
297.0
 30
0.0
  9
$EXTMIN
 10
0.0
 20
0.0
 30
0.0
  9
$LIMMIN
 10
0.0
 20
0.0
  9
$LIMMAX
 10
420.0
 20
297.0
  9
$VIEWCTR
 10
210.0
 20
148.5
  9
$VIEWSIZE
 40
297.0
  9
$CLAYER
  8
0
  9
$LTSCALE
 40
23.1
  9
$CELTYPE
  6
BYLAYER
  9
$DIMSCALE
 40
1.0
  9
$DIMASZ
 40
3.5
  9
$DIMEXO
 40
0.0
  9
$DIMDLI
 40
15.96
  9
$DIMEXE
 40
1.5
  9
$DIMCEN
 40
3.78
  9
$DIMLFAC
 40
1.0
  9
$DIMBLK
  1
_FILLED
  9
$DIMALT
 70
0
  9
$DIMALTF
 40
25.4
  9
$DIMTXT
 40
3.5
  9
$DIMTOL
 70
1
  9
$DIMLIM
 70
0
  9
$DIMTFAC
 40
1.0
  9
$DIMTP
 40
0.05
  9
$DIMTM
 40
0.05
  9
$DIMGAP
 40
0.625
  9
$DIMDSEP
 70
46
  9
$AUNITS
 70
0
  9
$PDMODE
 70
3
  9
$PDSIZE
 40
0.3125
  9
$HANDSEED
  5
2A1
  9
$TILEMODE
 70
1
  9
$MEASUREMENT
 70
1
  9
$INSUNITS
 70
4
  0
ENDSEC
  0
SECTION
  2
CLASSES
  0
CLASS
  1
ACDBDICTIONARYWDFLT
  2
AcDbDictionaryWithDefault
  3
AutoCAD 2000
 90
0
 91
1
280
0
281
0
  0
CLASS
  1
ACDBPLACEHOLDER
  2
AcDbPlaceHolder
  3
AutoCAD 2000
 90
0
 91
1
280
0
281
0
  0
CLASS
  1
LAYOUT
  2
AcDbLayout
  3
AutoCAD 2000
 90
0
 91
0
280
0
281
0
  0
ENDSEC
  0
SECTION
  2
TABLES
  0
TABLE
  2
VPORT
  5
8
100
AcDbSymbolTable
 70
2
  0
VPORT
  5
1F4
100
AcDbSymbolTableRecord
100
AcDbViewportTableRecord
  2
*ACTIVE
 70
0
 10
0.0
 20
0.0
 11
1.0
 21
1.0
 12
210.0
 22
148.5
 13
0.0
 23
0.0
 14
1.0
 24
1.0
 15
0.0
 25
0.0
 16
0.0
 26
0.0
 36
1.0
 17
0.0
 27
0.0
 37
0.0
 40
297.0
 41
1.4141414141
 42
50.0
 43
0.0
 44
0.0
 50
0.0
 51
0.0
 71
0
 72
100
 73
1
 74
1
 75
0
 76
0
 77
0
 78
0
  0
ENDTAB
  0
TABLE
  2
LTYPE
  5
5
100
AcDbSymbolTable
 70
6
  0
LTYPE
  5
14
100
AcDbSymbolTableRecord
100
AcDbLinetypeTableRecord
  2
BYBLOCK
 70
0
  3

 72
65
 73
0
 40
0.0
  0
LTYPE
  5
15
100
AcDbSymbolTableRecord
100
AcDbLinetypeTableRecord
  2
BYLAYER
 70
0
  3

 72
65
 73
0
 40
0.0
  0
LTYPE
  5
16
100
AcDbSymbolTableRecord
100
AcDbLinetypeTableRecord
  2
CONTINUOUS
 70
64
  3
Solid line
 72
65
 73
0
 40
0.0
  0
LTYPE
  5
1F5
100
AcDbSymbolTableRecord
100
AcDbLinetypeTableRecord
  2
CENTER
 70
64
  3
____ _ ____ _ ____ _ ____ _ ____ _ ____ _ ____
 72
65
 73
4
 40
0.6
 49
0.375
 74
0
 49
-0.075
 74
0
 49
0.075
 74
0
 49
-0.075
 74
0
  0
LTYPE
  5
1F6
100
AcDbSymbolTableRecord
100
AcDbLinetypeTableRecord
  2
HIDDEN
 70
64
  3
- - - - - - - - - - - - - - - - - - - -
 72
65
 73
2
 40
0.2
 49
0.1
 74
0
 49
-0.1
 74
0
  0
LTYPE
  5
1F7
100
AcDbSymbolTableRecord
100
AcDbLinetypeTableRecord
  2
PHANTOM
 70
64
  3
_____ _ _ _____ _ _ _____ _ _ _____
 72
65
 73
6
 40
0.8
 49
0.45
 74
0
 49
-0.05
 74
0
 49
0.1
 74
0
 49
-0.05
 74
0
 49
0.1
 74
0
 49
-0.05
 74
0
  0
LTYPE
  5
1F8
100
AcDbSymbolTableRecord
100
AcDbLinetypeTableRecord
  2
DOT
 70
64
  3
. . . . . . . . . . . . . . . . . . . .
 72
65
 73
2
 40
0.2
 49
0.1
 74
0
 49
-0.1
 74
0
  0
LTYPE
  5
1F9
100
AcDbSymbolTableRecord
100
AcDbLinetypeTableRecord
  2
DASHED
 70
64
  3
- - - - - - - - - - - - - - - - - - - -
 72
65
 73
2
 40
0.2
 49
0.1
 74
0
 49
-0.1
 74
0
  0
ENDTAB
  0
TABLE
  2
LAYER
  5
2
100
AcDbSymbolTable
 70
36
  0
LAYER
  5
10
100
AcDbSymbolTableRecord
100
AcDbLayerTableRecord
  2
0
 70
0
 62
7
  6
CONTINUOUS
370
-3
390
F
  0
LAYER
  5
1FA
100
AcDbSymbolTableRecord
100
AcDbLayerTableRecord
  2
DEFAULT_1
 70
0
 62
7
  6
CENTER
370
-3
390
F
  0
LAYER
  5
1FB
100
AcDbSymbolTableRecord
100
AcDbLayerTableRecord
  2
DEFAULT_2
 70
0
 62
1
  6
HIDDEN
370
-3
390
F
  0
LAYER
  5
1FC
100
AcDbSymbolTableRecord
100
AcDbLayerTableRecord
  2
DEFAULT_3
 70
0
 62
7
  6
PHANTOM
370
-3
390
F
  0
LAYER
  5
1FD
100
AcDbSymbolTableRecord
100
AcDbLayerTableRecord
  2
BG_STARTBEZUEGE
 70
0
 62
7
  6
CONTINUOUS
370
-3
390
F
  0
LAYER
  5
1FE
100
AcDbSymbolTableRecord
100
AcDbLayerTableRecord
  2
HILFEN
 70
0
 62
7
  6
CONTINUOUS
370
-3
390
F
  0
LAYER
  5
1FF
100
AcDbSymbolTableRecord
100
AcDbLayerTableRecord
  2
PLATZIERUNG
 70
0
 62
7
  6
CONTINUOUS
370
-3
390
F
  0
LAYER
  5
200
100
AcDbSymbolTableRecord
100
AcDbLayerTableRecord
  2
T_STARTBEZUEGE
 70
0
 62
7
  6
CONTINUOUS
370
-3
390
F
  0
LAYER
  5
201
100
AcDbSymbolTableRecord
100
AcDbLayerTableRecord
  2
_03_2D_ZEICHNUNG_BEMASSUNGEN
 70
0
 62
7
  6
CONTINUOUS
370
-3
390
F
  0
LAYER
  5
202
100
AcDbSymbolTableRecord
100
AcDbLayerTableRecord
  2
_04_NOTIZEN
 70
0
 62
7
  6
CONTINUOUS
370
-3
390
F
  0
LAYER
  5
203
100
AcDbSymbolTableRecord
100
AcDbLayerTableRecord
  2
_05_2D_ELEMENTE
 70
0
 62
7
  6
CONTINUOUS
370
-3
390
F
  0
LAYER
  5
204
100
AcDbSymbolTableRecord
100
AcDbLayerTableRecord
  2
_07_EINRASTLINIEN
 70
0
 62
7
  6
CONTINUOUS
370
-3
390
F
  0
LAYER
  5
205
100
AcDbSymbolTableRecord
100
AcDbLayerTableRecord
  2
_21_KURVEN
 70
0
 62
7
  6
CONTINUOUS
370
-3
390
F
  0
LAYER
  5
206
100
AcDbSymbolTableRecord
100
AcDbLayerTableRecord
  2
_22_FLAECHEN
 70
0
 62
7
  6
CONTINUOUS
370
-3
390
F
  0
LAYER
  5
207
100
AcDbSymbolTableRecord
100
AcDbLayerTableRecord
  2
_26_BEZUGSACHSEN
 70
0
 62
7
  6
CONTINUOUS
370
-3
390
F
  0
LAYER
  5
208
100
AcDbSymbolTableRecord
100
AcDbLayerTableRecord
  2
_27_BEZUGSEBENEN
 70
0
 62
7
  6
CONTINUOUS
370
-3
390
F
  0
LAYER
  5
209
100
AcDbSymbolTableRecord
100
AcDbLayerTableRecord
  2
_28_BEZUGSPUNKTE
 70
0
 62
7
  6
CONTINUOUS
370
-3
390
F
  0
LAYER
  5
20A
100
AcDbSymbolTableRecord
100
AcDbLayerTableRecord
  2
_29_KOORDINATENSYSTEME
 70
0
 62
7
  6
CONTINUOUS
370
-3
390
F
  0
LAYER
  5
20B
100
AcDbSymbolTableRecord
100
AcDbLayerTableRecord
  2
_30_VOLUMEN
 70
0
 62
7
  6
CONTINUOUS
370
-3
390
F
  0
ENDTAB
  0
TABLE
  2
STYLE
  5
3
100
AcDbSymbolTable
 70
1
  0
STYLE
  5
11
100
AcDbSymbolTableRecord
100
AcDbTextStyleTableRecord
  2
STANDARD
 70
0
 40
0.0
 41
0.7
 50
0.0
 71
0
 42
0.2
  3
SIMPLEX.SHX
  4

  0
STYLE
  5
20C
100
AcDbSymbolTableRecord
100
AcDbTextStyleTableRecord
  2
TEXTSTYLE_1
 70
0
 40
0.0
 41
0.8
 50
0.0
 71
0
 42
0.2
  3
gdt
  4

  0
STYLE
  5
20D
100
AcDbSymbolTableRecord
100
AcDbTextStyleTableRecord
  2
TEXTSTYLE_2
 70
0
 40
0.0
 41
0.7
 50
0.0
 71
0
 42
0.2
  3
gdt
  4

  0
ENDTAB
  0
TABLE
  2
VIEW
  5
6
100
AcDbSymbolTable
 70
0
  0
ENDTAB
  0
TABLE
  2
UCS
  5
7
100
AcDbSymbolTable
 70
0
  0
ENDTAB
  0
TABLE
  2
APPID
  5
9
100
AcDbSymbolTable
 70
1
  0
APPID
  5
20E
100
AcDbSymbolTableRecord
100
AcDbRegAppTableRecord
  2
ACAD
 70
0
  0
ENDTAB
  0
TABLE
  2
BLOCK_RECORD
  5
1
100
AcDbSymbolTable
 70
0
  0
BLOCK_RECORD
  5
20F
100
AcDbSymbolTableRecord
100
AcDbBlockTableRecord
  2
*Model_Space
  0
BLOCK_RECORD
  5
210
100
AcDbSymbolTableRecord
100
AcDbBlockTableRecord
  2
*Paper_Space
  0
BLOCK_RECORD
  5
211
100
AcDbSymbolTableRecord
100
AcDbBlockTableRecord
  2
_FILLED
  0
BLOCK_RECORD
  5
212
100
AcDbSymbolTableRecord
100
AcDbBlockTableRecord
  2
*D0
  0
BLOCK_RECORD
  5
213
100
AcDbSymbolTableRecord
100
AcDbBlockTableRecord
  2
*D1
  0
BLOCK_RECORD
  5
214
100
AcDbSymbolTableRecord
100
AcDbBlockTableRecord
  2
*D2
  0
BLOCK_RECORD
  5
215
100
AcDbSymbolTableRecord
100
AcDbBlockTableRecord
  2
*D3
  0
ENDTAB
  0
TABLE
  2
DIMSTYLE
  5
A
100
AcDbSymbolTable
 70
1
100
AcDbDimStyleTable
 71
0
  0
DIMSTYLE
105
216
100
AcDbSymbolTableRecord
100
AcDbDimStyleTableRecord
  2
STANDARD
 70
0
  3

  4

 40
1.0
 41
3.5
 42
0.0
 43
0.38
 44
1.5
 45
0.0
 46
0.0
 47
0.05
 48
0.05
140
3.5
141
0.09
142
0.0
143
25.4
144
1.0
145
0.0
146
1.0
147
0.625
 71
1.0
 72
0.0
 73
0
 74
0
 75
0
 76
0
 77
1
 78
8
 79
2
170
0
171
1
172
0
173
0
174
0
175
0
176
0
177
0
178
2
270
2
179
2
271
2
272
2
273
2
274
2
275
0
280
0
281
0
282
0
283
1
284
8
285
0
286
0
287
3
288
0
340
11
278
46
341
211
342
211
343
211
344
211
  0
DIMSTYLE
105
217
100
AcDbSymbolTableRecord
100
AcDbDimStyleTableRecord
  2
DIMSTYLE_1
 70
0
  3

  4

 40
1.0
 41
3.5
 42
0.0
 43
0.38
 44
1.5
 45
0.0
 46
0.0
 47
0.3
 48
0.3
140
3.5
141
0.09
142
0.0
143
25.4
144
1.0
145
0.0
146
1.0
147
0.875
 71
0.0
 72
0.0
 73
0
 74
0
 75
0
 76
0
 77
1
 78
8
 79
2
170
0
171
1
172
0
173
0
174
0
175
0
176
0
177
0
178
2
270
2
179
2
271
2
272
2
273
2
274
2
275
0
280
0
281
0
282
0
283
1
284
8
285
0
286
0
287
3
288
0
340
11
278
46
341
211
342
211
343
211
344
211
  0
DIMSTYLE
105
218
100
AcDbSymbolTableRecord
100
AcDbDimStyleTableRecord
  2
DIMSTYLE_2
 70
0
  3

  4

 40
1.0
 41
3.5
 42
0.0
 43
0.38
 44
1.5
 45
0.0
 46
0.0
 47
0.8
 48
0.8
140
3.5
141
0.09
142
0.0
143
25.4
144
1.0
145
0.0
146
1.0
147
0.875
 71
0.0
 72
0.0
 73
0
 74
0
 75
0
 76
0
 77
1
 78
8
 79
2
170
0
171
1
172
0
173
0
174
0
175
0
176
0
177
0
178
2
270
2
179
2
271
2
272
2
273
2
274
2
275
0
280
0
281
0
282
0
283
1
284
8
285
0
286
0
287
3
288
0
340
11
278
46
341
211
342
211
343
211
344
211
  0
ENDTAB
  0
ENDSEC
  0
SECTION
  2
BLOCKS
  0
BLOCK
  5
20
100
AcDbEntity
  8
0
100
AcDbBlockBegin
  2
*Model_Space
 70
0
 10
0.0
 20
0.0
 30
0.0
  3
*Model_Space
  1

  0
ENDBLK
  5
21
100
AcDbEntity
  8
0
100
AcDbBlockEnd
  0
BLOCK
  5
1C
100
AcDbEntity
  8
0
100
AcDbBlockBegin
  2
*Paper_Space
 70
0
 10
0.0
 20
0.0
 30
0.0
  3
*Paper_Space
  1

  0
ENDBLK
  5
1D
100
AcDbEntity
  8
0
100
AcDbBlockEnd
  0
BLOCK
  5
219
100
AcDbEntity
  8
0
100
AcDbBlockBegin
  2
_FILLED
 70
64
 10
0.0
 20
0.0
  3
_FILLED
  1

  0
SOLID
  5
21A
100
AcDbEntity
  8
0
  6
BYBLOCK
 62
0
100
AcDbTrace
 10
0.0
 20
0.0
 11
-1.0
 21
0.125
 12
-1.0
 22
-0.125
 13
-1.0
 23
-0.125
  0
ENDBLK
  5
21B
100
AcDbEntity
  8
0
  6
BYBLOCK
 62
0
100
AcDbBlockEnd
  0
BLOCK
  5
21C
100
AcDbEntity
  8
_03_2D_ZEICHNUNG_BEMASSUNGEN
100
AcDbBlockBegin
 62
7
  6
CONTINUOUS
  2
*D0
 70
65
 10
0.0
 20
0.0
  3
*D0
  1

  0
TEXT
  5
21D
100
AcDbEntity
  8
_03_2D_ZEICHNUNG_BEMASSUNGEN
100
AcDbText
 62
2
  6
CONTINUOUS
 10
-9.875
 20
-4.9583333333
  7
TEXTSTYLE_2
 40
3.5
  1
n
 50
90.0
 41
1.0
 72
1
 11
-9.875
 21
-2.625
100
AcDbText
  0
TEXT
  5
21E
100
AcDbEntity
  8
_03_2D_ZEICHNUNG_BEMASSUNGEN
100
AcDbText
 62
2
  6
CONTINUOUS
 10
-9.875
 20
-0.2916666667
  7
STANDARD
 40
3.5
  1
50
 50
90.0
 41
0.75
 72
1
 11
-9.875
 21
2.3333333333
100
AcDbText
  0
LINE
  5
21F
100
AcDbEntity
  8
_03_2D_ZEICHNUNG_BEMASSUNGEN
100
AcDbLine
 62
7
  6
CONTINUOUS
 10
1.5
 20
25.0
 11
-10.5
 21
25.0
  0
LINE
  5
220
100
AcDbEntity
  8
_03_2D_ZEICHNUNG_BEMASSUNGEN
100
AcDbLine
 62
7
  6
CONTINUOUS
 10
1.5
 20
-25.0
 11
-10.5
 21
-25.0
  0
LINE
  5
221
100
AcDbEntity
  8
_03_2D_ZEICHNUNG_BEMASSUNGEN
100
AcDbLine
 62
7
  6
CONTINUOUS
 10
-9.0
 20
25.0
 11
-9.0
 21
0.0
  0
LINE
  5
222
100
AcDbEntity
  8
_03_2D_ZEICHNUNG_BEMASSUNGEN
100
AcDbLine
 62
7
  6
CONTINUOUS
 10
-9.0
 20
-25.0
 11
-9.0
 21
0.0
  0
INSERT
  5
223
100
AcDbEntity
  8
_03_2D_ZEICHNUNG_BEMASSUNGEN
100
AcDbBlockReference
 62
7
  6
CONTINUOUS
  2
_FILLED
 10
-9.0
 20
25.0
 41
3.5
 42
3.5
 43
3.5
 50
90.0
  0
INSERT
  5
224
100
AcDbEntity
  8
_03_2D_ZEICHNUNG_BEMASSUNGEN
100
AcDbBlockReference
 62
7
  6
CONTINUOUS
  2
_FILLED
 10
-9.0
 20
-25.0
 41
3.5
 42
3.5
 43
3.5
 50
270.0
  0
ENDBLK
  5
225
100
AcDbEntity
  8
0
  6
BYBLOCK
 62
0
100
AcDbBlockEnd
  0
BLOCK
  5
226
100
AcDbEntity
  8
_03_2D_ZEICHNUNG_BEMASSUNGEN
100
AcDbBlockBegin
 62
7
  6
CONTINUOUS
  2
*D1
 70
65
 10
0.0
 20
0.0
  3
*D1
  1

  0
TEXT
  5
227
100
AcDbEntity
  8
_03_2D_ZEICHNUNG_BEMASSUNGEN
100
AcDbText
 62
2
  6
CONTINUOUS
 10
229.2046618707
 20
53.970775099
  7
STANDARD
 40
3.5
  1
450
 41
0.7619047619
 72
1
 11
233.2046618707
 21
53.970775099
100
AcDbText
  0
LINE
  5
228
100
AcDbEntity
  8
_03_2D_ZEICHNUNG_BEMASSUNGEN
100
AcDbLine
 62
7
  6
CONTINUOUS
 10
450.0
 20
0.0
 11
450.0
 21
54.595775099
  0
LINE
  5
229
100
AcDbEntity
  8
_03_2D_ZEICHNUNG_BEMASSUNGEN
100
AcDbLine
 62
7
  6
CONTINUOUS
 10
0.0
 20
0.0
 11
0.0
 21
54.595775099
  0
LINE
  5
22A
100
AcDbEntity
  8
_03_2D_ZEICHNUNG_BEMASSUNGEN
100
AcDbLine
 62
7
  6
CONTINUOUS
 10
450.0
 20
53.095775099
 11
225.0
 21
53.095775099
  0
LINE
  5
22B
100
AcDbEntity
  8
_03_2D_ZEICHNUNG_BEMASSUNGEN
100
AcDbLine
 62
7
  6
CONTINUOUS
 10
0.0
 20
53.095775099
 11
225.0
 21
53.095775099
  0
INSERT
  5
22C
100
AcDbEntity
  8
_03_2D_ZEICHNUNG_BEMASSUNGEN
100
AcDbBlockReference
 62
7
  6
CONTINUOUS
  2
_FILLED
 10
450.0
 20
53.095775099
 41
3.5
 42
3.5
 43
3.5
  0
INSERT
  5
22D
100
AcDbEntity
  8
_03_2D_ZEICHNUNG_BEMASSUNGEN
100
AcDbBlockReference
 62
7
  6
CONTINUOUS
  2
_FILLED
 10
0.0
 20
53.095775099
 41
3.5
 42
3.5
 43
3.5
 50
180.0
  0
ENDBLK
  5
22E
100
AcDbEntity
  8
0
  6
BYBLOCK
 62
0
100
AcDbBlockEnd
  0
BLOCK
  5
22F
100
AcDbEntity
  8
_03_2D_ZEICHNUNG_BEMASSUNGEN
100
AcDbBlockBegin
 62
7
  6
CONTINUOUS
  2
*D2
 70
65
 10
0.0
 20
0.0
  3
*D2
  1

  0
TEXT
  5
230
100
AcDbEntity
  8
_03_2D_ZEICHNUNG_BEMASSUNGEN
100
AcDbText
 62
2
  6
CONTINUOUS
 10
431.906022885
 20
44.970775099
  7
STANDARD
 40
3.5
  1
31
 41
0.6428571429
 72
1
 11
434.156022885
 21
44.970775099
100
AcDbText
  0
LINE
  5
231
100
AcDbEntity
  8
_03_2D_ZEICHNUNG_BEMASSUNGEN
100
AcDbLine
 62
7
  6
CONTINUOUS
 10
450.0
 20
-29.3502734936
 11
450.0
 21
45.595775099
  0
LINE
  5
232
100
AcDbEntity
  8
_03_2D_ZEICHNUNG_BEMASSUNGEN
100
AcDbLine
 62
7
  6
CONTINUOUS
 10
419.0
 20
-29.3502734936
 11
419.0
 21
45.595775099
  0
LINE
  5
233
100
AcDbEntity
  8
_03_2D_ZEICHNUNG_BEMASSUNGEN
100
AcDbLine
 62
7
  6
CONTINUOUS
 10
450.0
 20
44.095775099
 11
434.5
 21
44.095775099
  0
LINE
  5
234
100
AcDbEntity
  8
_03_2D_ZEICHNUNG_BEMASSUNGEN
100
AcDbLine
 62
7
  6
CONTINUOUS
 10
419.0
 20
44.095775099
 11
434.5
 21
44.095775099
  0
INSERT
  5
235
100
AcDbEntity
  8
_03_2D_ZEICHNUNG_BEMASSUNGEN
100
AcDbBlockReference
 62
7
  6
CONTINUOUS
  2
_FILLED
 10
450.0
 20
44.095775099
 41
3.5
 42
3.5
 43
3.5
  0
INSERT
  5
236
100
AcDbEntity
  8
_03_2D_ZEICHNUNG_BEMASSUNGEN
100
AcDbBlockReference
 62
7
  6
CONTINUOUS
  2
_FILLED
 10
419.0
 20
44.095775099
 41
3.5
 42
3.5
 43
3.5
 50
180.0
  0
ENDBLK
  5
237
100
AcDbEntity
  8
0
  6
BYBLOCK
 62
0
100
AcDbBlockEnd
  0
BLOCK
  5
238
100
AcDbEntity
  8
_03_2D_ZEICHNUNG_BEMASSUNGEN
100
AcDbBlockBegin
 62
7
  6
CONTINUOUS
  2
*D3
 70
65
 10
0.0
 20
0.0
  3
*D3
  1

  0
TEXT
  5
239
100
AcDbEntity
  8
_03_2D_ZEICHNUNG_BEMASSUNGEN
100
AcDbText
 62
2
  6
CONTINUOUS
 10
458.264989494
 20
15.0
  7
STANDARD
 40
3.5
  1
35
 50
90.0
 41
0.7142857143
 72
1
 11
458.264989494
 21
17.5
100
AcDbText
  0
LINE
  5
23A
100
AcDbEntity
  8
_03_2D_ZEICHNUNG_BEMASSUNGEN
100
AcDbLine
 62
7
  6
CONTINUOUS
 10
454.5314828517
 20
0.0
 11
460.639989494
 21
0.0
  0
LINE
  5
23B
100
AcDbEntity
  8
_03_2D_ZEICHNUNG_BEMASSUNGEN
100
AcDbLine
 62
7
  6
CONTINUOUS
 10
450.0
 20
35.0
 11
460.639989494
 21
35.0
  0
LINE
  5
23C
100
AcDbEntity
  8
_03_2D_ZEICHNUNG_BEMASSUNGEN
100
AcDbLine
 62
7
  6
CONTINUOUS
 10
459.139989494
 20
0.0
 11
459.139989494
 21
-6.0
  0
LINE
  5
23D
100
AcDbEntity
  8
_03_2D_ZEICHNUNG_BEMASSUNGEN
100
AcDbLine
 62
7
  6
CONTINUOUS
 10
459.139989494
 20
-6.0
 11
459.139989494
 21
17.5
  0
LINE
  5
23E
100
AcDbEntity
  8
_03_2D_ZEICHNUNG_BEMASSUNGEN
100
AcDbLine
 62
7
  6
CONTINUOUS
 10
459.139989494
 20
35.0
 11
459.139989494
 21
41.0
  0
LINE
  5
23F
100
AcDbEntity
  8
_03_2D_ZEICHNUNG_BEMASSUNGEN
100
AcDbLine
 62
7
  6
CONTINUOUS
 10
459.139989494
 20
41.0
 11
459.139989494
 21
17.5
  0
INSERT
  5
240
100
AcDbEntity
  8
_03_2D_ZEICHNUNG_BEMASSUNGEN
100
AcDbBlockReference
 62
7
  6
CONTINUOUS
  2
_FILLED
 10
459.139989494
 20
0.0
 41
3.5
 42
3.5
 43
3.5
 50
90.0
  0
INSERT
  5
241
100
AcDbEntity
  8
_03_2D_ZEICHNUNG_BEMASSUNGEN
100
AcDbBlockReference
 62
7
  6
CONTINUOUS
  2
_FILLED
 10
459.139989494
 20
35.0
 41
3.5
 42
3.5
 43
3.5
 50
270.0
  0
ENDBLK
  5
242
100
AcDbEntity
  8
0
  6
BYBLOCK
 62
0
100
AcDbBlockEnd
  0
ENDSEC
  0
SECTION
  2
ENTITIES
  0
DIMENSION
  5
243
100
AcDbEntity
  8
_03_2D_ZEICHNUNG_BEMASSUNGEN
100
AcDbDimension
 62
7
  6
CONTINUOUS
  2
*D0
 10
-9.0
 20
-25.0
 11
-9.0
 21
-0.0
 70
160
 71
2
 42
50.0
  1
%%c<>
  3
DIMSTYLE_1
100
AcDbAlignedDimension
 13
1.5
 23
25.0
 14
1.5
 24
-25.0
 50
270.0
100
AcDbRotatedDimension
  0
DIMENSION
  5
244
100
AcDbEntity
  8
_03_2D_ZEICHNUNG_BEMASSUNGEN
100
AcDbDimension
 62
7
  6
CONTINUOUS
  2
*D1
 10
0.0
 20
53.095775099
 11
232.7046606445
 21
53.095775099
 70
160
 71
2
 42
450.0
  3
DIMSTYLE_2
100
AcDbAlignedDimension
 13
450.0
 23
0.0
 14
0.0
 24
0.0
 50
180.0
100
AcDbRotatedDimension
  0
DIMENSION
  5
245
100
AcDbEntity
  8
_03_2D_ZEICHNUNG_BEMASSUNGEN
100
AcDbDimension
 62
7
  6
CONTINUOUS
  2
*D2
 10
419.0
 20
44.095775099
 11
433.6560241699
 21
44.095775099
 70
160
 71
2
 42
31.0
  3
DIMSTYLE_1
100
AcDbAlignedDimension
 13
450.0
 23
-29.3502734936
 14
419.0
 24
-29.3502734936
 50
180.0
100
AcDbRotatedDimension
  0
DIMENSION
  5
246
100
AcDbEntity
  8
_03_2D_ZEICHNUNG_BEMASSUNGEN
100
AcDbDimension
 62
7
  6
CONTINUOUS
  2
*D3
 10
459.139989494
 20
35.0
 11
459.139989494
 21
17.0000239338
 70
160
 71
2
 42
35.0
  3
DIMSTYLE_1
100
AcDbAlignedDimension
 13
454.5314828517
 23
0.0
 14
450.0
 24
35.0
 50
90.0
100
AcDbRotatedDimension
  0
LINE
  5
247
100
AcDbEntity
  8
0
100
AcDbLine
 62
4
  6
CONTINUOUS
 10
-0.0
 20
8.2613558209
 11
0.0
 21
-8.2613558209
  0
LINE
  5
248
100
AcDbEntity
  8
_30_VOLUMEN
100
AcDbLine
 62
4
  6
CONTINUOUS
 10
0.0
 20
-23.499999078
 11
0.0
 21
-8.2613558209
  0
LINE
  5
249
100
AcDbEntity
  8
_30_VOLUMEN
100
AcDbLine
 62
4
  6
CONTINUOUS
 10
-0.0
 20
8.2613558209
 11
-0.0
 21
23.5
  0
LINE
  5
24A
100
AcDbEntity
  8
_30_VOLUMEN
100
AcDbLine
 62
4
  6
CONTINUOUS
 10
1.5
 20
-25.0
 11
1.5
 21
-11.874342087
  0
LINE
  5
24B
100
AcDbEntity
  8
_30_VOLUMEN
100
AcDbLine
 62
4
  6
CONTINUOUS
 10
1.5
 20
11.874342087
 11
1.5
 21
23.5
  0
LINE
  5
24C
100
AcDbEntity
  8
_30_VOLUMEN
100
AcDbLine
 62
4
  6
CONTINUOUS
 10
0.0
 20
-23.5
 11
1.5
 21
-25.0
  0
LINE
  5
24D
100
AcDbEntity
  8
_30_VOLUMEN
100
AcDbLine
 62
4
  6
CONTINUOUS
 10
1.5
 20
-25.0
 11
416.9301110419
 21
-25.0
  0
LINE
  5
24E
100
AcDbEntity
  8
_26_BEZUGSACHSEN
100
AcDbLine
 62
4
  6
CONTINUOUS
 10
1.5
 20
-11.874342087
 11
397.78104974
 21
-11.874342087
  0
LINE
  5
24F
100
AcDbEntity
  8
_30_VOLUMEN
100
AcDbLine
 62
4
  6
CONTINUOUS
 10
447.7612099435
 20
19.2401389162
 11
434.2090613208
 21
18.2963541082
  0
LINE
  5
250
100
AcDbEntity
  8
_21_KURVEN
100
AcDbLine
 62
7
  6
CONTINUOUS
 10
447.7612099435
 20
19.2401389162
 11
434.2090613208
 21
18.2963541082
  0
LINE
  5
251
100
AcDbEntity
  8
_26_BEZUGSACHSEN
100
AcDbLine
 62
4
  6
CONTINUOUS
 10
447.5700590567
 20
19.2268269826
 11
432.7920943244
 21
18.1976751487
  0
LINE
  5
252
100
AcDbEntity
  8
_26_BEZUGSACHSEN
100
AcDbLine
 62
7
  6
CENTER
 10
-3.0
 20
0.0
 11
454.5314828517
 21
0.0
  0
LINE
  5
253
100
AcDbEntity
  8
_30_VOLUMEN
100
AcDbLine
 62
4
  6
CONTINUOUS
 10
427.9781474278
 20
31.7281474278
 11
433.8421809777
 21
32.3331019683
  0
LINE
  5
254
100
AcDbEntity
  8
_30_VOLUMEN
100
AcDbLine
 62
4
  6
CONTINUOUS
 10
435.1708738749
 20
34.0533113315
 11
448.7230224976
 21
34.9970961395
  0
LINE
  5
255
100
AcDbEntity
  8
_21_KURVEN
100
AcDbLine
 62
7
  6
CONTINUOUS
 10
435.1708738749
 20
34.0533113315
 11
448.7230224976
 21
34.9970961395
  0
LINE
  5
256
100
AcDbEntity
  8
_26_BEZUGSACHSEN
100
AcDbLine
 62
4
  6
CONTINUOUS
 10
1.5
 20
11.874342087
 11
387.6884756135
 21
11.874342087
  0
LINE
  5
257
100
AcDbEntity
  8
_30_VOLUMEN
100
AcDbLine
 62
4
  6
CONTINUOUS
 10
-0.0
 20
23.5
 11
419.0
 21
23.5
  0
LINE
  5
258
100
AcDbEntity
  8
_30_VOLUMEN
100
AcDbLine
 62
4
  6
CONTINUOUS
 10
419.0
 20
24.75
 11
421.0
 21
24.75
  0
LINE
  5
259
100
AcDbEntity
  8
_30_VOLUMEN
100
AcDbLine
 62
4
  6
CONTINUOUS
 10
421.0
 20
24.75
 11
427.9781474278
 21
31.7281474278
  0
LINE
  5
25A
100
AcDbEntity
  8
_28_BEZUGSPUNKTE
100
AcDbLine
 62
1
  6
CONTINUOUS
 10
450.15625
 20
35.15625
 11
449.84375
 21
34.84375
  0
LINE
  5
25B
100
AcDbEntity
  8
_30_VOLUMEN
100
AcDbLine
 62
4
  6
CONTINUOUS
 10
445.6648359808
 20
-2.5499724236
 11
423.6406089664
 21
-19.7571844248
  0
LINE
  5
25C
100
AcDbEntity
  8
_26_BEZUGSACHSEN
100
AcDbLine
 62
4
  6
CONTINUOUS
 10
423.6406089664
 20
-19.7571844248
 11
419.0
 21
-23.3828255085
  0
LINE
  5
25D
100
AcDbEntity
  8
0
100
AcDbLine
 62
4
  6
CONTINUOUS
 10
419.0
 20
-23.3828255085
 11
416.9301110419
 21
-25.0
  0
LINE
  5
25E
100
AcDbEntity
  8
_30_VOLUMEN
100
AcDbLine
 62
4
  6
CONTINUOUS
 10
434.2453189849
 20
33.4886692138
 11
433.5915394766
 21
32.3918631104
  0
LINE
  5
25F
100
AcDbEntity
  8
_30_VOLUMEN
100
AcDbLine
 62
7
  6
CONTINUOUS
 10
434.0869067832
 20
32.9974492757
 11
433.6809935242
 21
32.3164732978
  0
LINE
  5
260
100
AcDbEntity
  8
_28_BEZUGSPUNKTE
100
AcDbLine
 62
1
  6
CONTINUOUS
 10
450.15625
 20
34.84375
 11
449.84375
 21
35.15625
  0
LINE
  5
261
100
AcDbEntity
  8
_30_VOLUMEN
100
AcDbLine
 62
4
  6
CONTINUOUS
 10
419.0
 20
24.7499679059
 11
419.0
 21
23.5
  0
LINE
  5
262
100
AcDbEntity
  8
_26_BEZUGSACHSEN
100
AcDbLine
 62
4
  6
CONTINUOUS
 10
419.0
 20
-20.8089495131
 11
419.0
 21
-23.3828255085
  0
LINE
  5
263
100
AcDbEntity
  8
_30_VOLUMEN
100
AcDbLine
 62
4
  6
CONTINUOUS
 10
421.0
 20
24.75
 11
421.0
 21
24.2513138581
  0
LINE
  5
264
100
AcDbEntity
  8
_30_VOLUMEN
100
AcDbLine
 62
7
  6
CONTINUOUS
 10
447.7612099435
 20
19.2401389162
 11
447.5385417005
 21
18.8665819526
  0
LINE
  5
265
100
AcDbEntity
  8
_30_VOLUMEN
100
AcDbLine
 62
4
  6
CONTINUOUS
 10
448.6867648334
 20
19.8047810339
 11
448.0329853252
 21
18.7079749304
  0
LINE
  5
266
100
AcDbEntity
  8
_30_VOLUMEN
100
AcDbLine
 62
7
  6
CONTINUOUS
 10
423.6406089664
 20
-19.7571844248
 11
411.1445650527
 21
23.5
  0
LINE
  5
267
100
AcDbEntity
  8
_30_VOLUMEN
100
AcDbLine
 62
4
  6
CONTINUOUS
 10
427.9781474278
 20
31.7281474278
 11
427.9781474278
 21
31.5939412371
  0
LINE
  5
268
100
AcDbEntity
  8
_26_BEZUGSACHSEN
100
AcDbLine
 62
4
  6
CONTINUOUS
 10
434.0241175367
 20
32.2797649036
 11
432.7920943244
 21
18.1976751487
  0
LINE
  5
269
100
AcDbEntity
  8
_30_VOLUMEN
100
AcDbLine
 62
4
  6
CONTINUOUS
 10
432.914660451
 20
19.5986123868
 11
434.0869067832
 21
32.9974492757
  0
LINE
  5
26A
100
AcDbEntity
  8
_21_KURVEN
100
AcDbLine
 62
7
  6
CONTINUOUS
 10
432.914660451
 20
19.5986123868
 11
434.0869067832
 21
32.9974492757
  0
LINE
  5
26B
100
AcDbEntity
  8
_26_BEZUGSACHSEN
100
AcDbLine
 62
4
  6
CONTINUOUS
 10
447.5700590567
 20
19.2268269826
 11
445.6648359808
 21
-2.5499724236
  0
LINE
  5
26C
100
AcDbEntity
  8
_21_KURVEN
100
AcDbLine
 62
7
  6
CONTINUOUS
 10
450.0174233673
 20
33.6948378609
 11
448.8451770351
 21
20.296000972
  0
LINE
  5
26D
100
AcDbEntity
  8
_30_VOLUMEN
100
AcDbLine
 62
4
  6
CONTINUOUS
 10
450.0174233673
 20
33.6948378609
 11
448.8451770351
 21
20.296000972
  0
ARC
  5
26E
100
AcDbEntity
  8
_26_BEZUGSACHSEN
100
AcDbCircle
 62
4
  6
CONTINUOUS
 10
633.3581881756
 20
-1751.9687915495
 40
1795.3487078901
100
AcDbArc
 50
96.3745816735
 51
96.5687669657
  0
ARC
  5
26F
100
AcDbEntity
  8
_26_BEZUGSACHSEN
100
AcDbCircle
 62
4
  6
CONTINUOUS
 10
427.7719498935
 20
47.3474381798
 40
68.7185585434
100
AcDbArc
 50
262.6661624084
 51
265.0955475274
  0
ARC
  5
270
100
AcDbEntity
  8
_30_VOLUMEN
100
AcDbCircle
 62
4
  6
CONTINUOUS
 10
441.5368194538
 20
26.7655253567
 40
3.6992049421
100
AcDbArc
 50
208.9950098833
 51
269.4095171386
  0
ARC
  5
271
100
AcDbEntity
  8
_30_VOLUMEN
100
AcDbCircle
 62
4
  6
CONTINUOUS
 10
441.4657660702
 20
26.7222957714
 40
3.6160922784
100
AcDbArc
 50
185.1785909178
 51
208.9416241049
  0
ARC
  5
272
100
AcDbEntity
  8
_30_VOLUMEN
100
AcDbCircle
 62
4
  6
CONTINUOUS
 10
440.8723400277
 20
25.4946368154
 40
3.0979289914
100
AcDbArc
 50
345.8844455743
 51
5.0809286561
  0
ARC
  5
273
100
AcDbEntity
  8
_30_VOLUMEN
100
AcDbCircle
 62
4
  6
CONTINUOUS
 10
440.7256096335
 20
25.5931100053
 40
3.0791462014
100
AcDbArc
 50
132.5648616293
 51
134.2495955459
  0
ARC
  5
274
100
AcDbEntity
  8
_30_VOLUMEN
100
AcDbCircle
 62
7
  6
CONTINUOUS
 10
441.370492606
 20
26.2847730978
 40
3.0717293452
100
AcDbArc
 50
329.2817959307
 51
5.1480682128
  0
ARC
  5
275
100
AcDbEntity
  8
_30_VOLUMEN
100
AcDbCircle
 62
4
  6
CONTINUOUS
 10
440.7194794417
 20
25.5992448649
 40
3.070474203
100
AcDbArc
 50
134.2475376398
 51
140.8128907371
  0
ARC
  5
276
100
AcDbEntity
  8
_30_VOLUMEN
100
AcDbCircle
 62
4
  6
CONTINUOUS
 10
440.9254565071
 20
25.4837712037
 40
3.0437790051
100
AcDbArc
 50
337.3833454112
 51
344.8603762819
  0
ARC
  5
277
100
AcDbEntity
  8
_30_VOLUMEN
100
AcDbCircle
 62
4
  6
CONTINUOUS
 10
440.9382911102
 20
25.4797162692
 40
3.0303308785
100
AcDbArc
 50
344.8710052123
 51
345.8539288802
  0
ARC
  5
278
100
AcDbEntity
  8
_30_VOLUMEN
100
AcDbCircle
 62
4
  6
CONTINUOUS
 10
447.0376782564
 20
19.3025377392
 40
1.1593687363
100
AcDbArc
 50
292.6436367757
 51
329.1473645242
  0
ARC
  5
279
100
AcDbEntity
  8
_30_VOLUMEN
100
AcDbCircle
 62
4
  6
CONTINUOUS
 10
434.5751185379
 20
31.8051857853
 40
1.1452566918
100
AcDbArc
 50
149.1851416342
 51
154.2640769585
  0
SPLINE
  5
27A
100
AcDbEntity
  8
_30_VOLUMEN
100
AcDbSpline
 62
4
  6
CONTINUOUS
 70
0
 71
3
 72
11
 73
7
 74
0
 42
0.0000001
 43
0.0000001
 44
0.0000000001
 40
0.0
 40
0.0
 40
0.0
 40
0.0
 40
0.248067276
 40
0.4982621487
 40
0.7495106448
 40
1.0
 40
1.0
 40
1.0
 40
1.0
 10
450.0174233673
 20
33.6948378609
 30
0.0
 10
450.0323230238
 20
33.8651417133
 30
0.0
 10
449.9848626304
 20
34.2184608795
 30
0.0
 10
449.6974547844
 20
34.6663572388
 30
0.0
 10
449.2498423112
 20
34.956822369
 30
0.0
 10
448.8952289635
 20
35.0090887653
 30
0.0
 10
448.7230224976
 20
34.9970961395
 30
0.0
  0
SPLINE
  5
27B
100
AcDbEntity
  8
_30_VOLUMEN
100
AcDbSpline
 62
4
  6
CONTINUOUS
 70
0
 71
3
 72
9
 73
5
 74
0
 42
0.0000001
 43
0.0000001
 44
0.0000000001
 40
0.0
 40
0.0
 40
0.0
 40
0.0
 40
0.5020664949
 40
1.0
 40
1.0
 40
1.0
 40
1.0
 10
435.1708738749
 20
34.0533113315
 30
0.0
 10
434.9844702216
 20
34.0403299999
 30
0.0
 10
434.6135395626
 20
33.9247358014
 30
0.0
 10
434.340243307
 20
33.6478279317
 30
0.0
 10
434.2453205842
 20
33.4886674946
 30
0.0
  0
SPLINE
  5
27C
100
AcDbEntity
  8
_30_VOLUMEN
100
AcDbSpline
 62
4
  6
CONTINUOUS
 70
0
 71
3
 72
8
 73
4
 74
0
 42
0.0000001
 43
0.0000001
 44
0.0000000001
 40
0.0
 40
0.0
 40
0.0
 40
0.0
 40
1.0
 40
1.0
 40
1.0
 40
1.0
 10
448.6867632341
 20
19.8047827531
 30
0.0
 10
448.7748869888
 20
19.9525431093
 30
0.0
 10
448.830182468
 20
20.1246122853
 30
0.0
 10
448.8451770351
 20
20.296000972
 30
0.0
  0
SPLINE
  5
27D
100
AcDbEntity
  8
_30_VOLUMEN
100
AcDbSpline
 62
4
  6
CONTINUOUS
 70
0
 71
3
 72
9
 73
5
 74
0
 42
0.0000001
 43
0.0000001
 44
0.0000000001
 40
0.0
 40
0.0
 40
0.0
 40
0.0
 40
0.5034274581
 40
1.0
 40
1.0
 40
1.0
 40
1.0
 10
438.1528027016
 20
26.1779149834
 30
0.0
 10
438.1251058452
 20
26.4882858795
 30
0.0
 10
438.1652506692
 20
27.1174099575
 30
0.0
 10
438.3993734648
 20
27.7029517637
 30
0.0
 10
438.5567470702
 20
27.9669678866
 30
0.0
  0
SPLINE
  5
27E
100
AcDbEntity
  8
_30_VOLUMEN
100
AcDbSpline
 62
4
  6
CONTINUOUS
 70
0
 71
3
 72
15
 73
11
 74
0
 42
0.0000001
 43
0.0000001
 44
0.0000000001
 40
0.0
 40
0.0
 40
0.0
 40
0.0
 40
0.1237212755
 40
0.2480845091
 40
0.3731577666
 40
0.4987795541
 40
0.6246328415
 40
0.7502894061
 40
0.875548864
 40
1.0
 40
1.0
 40
1.0
 40
1.0
 10
438.6427999852
 20
27.8609383274
 30
0.0
 10
438.8566423976
 20
28.0573345421
 30
0.0
 10
439.3447588622
 20
28.3914085902
 30
0.0
 10
440.1873297737
 20
28.6678874737
 30
0.0
 10
441.0783387636
 20
28.7020313235
 30
0.0
 10
441.9479944688
 20
28.4910073046
 30
0.0
 10
442.7289958195
 20
28.0516109622
 30
0.0
 10
443.3618983191
 20
27.418080343
 30
0.0
 10
443.7962139629
 20
26.6392576515
 30
0.0
 10
443.9321365642
 20
26.0598994658
 30
0.0
 10
443.958096015
 20
25.7689979322
 30
0.0
  0
SPLINE
  5
27F
100
AcDbEntity
  8
_30_VOLUMEN
100
AcDbSpline
 62
4
  6
CONTINUOUS
 70
0
 71
3
 72
15
 73
11
 74
0
 42
0.0000001
 43
0.0000001
 44
0.0000000001
 40
0.0
 40
0.0
 40
0.0
 40
0.0
 40
0.1194875899
 40
0.2404081748
 40
0.3633994649
 40
0.4888627158
 40
0.6163187069
 40
0.7448133406
 40
0.8731100105
 40
1.0
 40
1.0
 40
1.0
 40
1.0
 10
444.0112477342
 20
24.7156723745
 30
0.0
 10
443.8739647358
 20
24.4853610408
 30
0.0
 10
443.5316634341
 20
24.0580942394
 30
0.0
 10
442.8605792904
 20
23.5778319031
 30
0.0
 10
442.0718607486
 20
23.2913771663
 30
0.0
 10
441.2210912171
 20
23.2226957171
 30
0.0
 10
440.3699620439
 20
23.3818743898
 30
0.0
 10
439.5837160011
 20
23.7596709139
 30
0.0
 10
438.9236211258
 20
24.3271414991
 30
0.0
 10
438.5973852637
 20
24.8073885135
 30
0.0
 10
438.4702655887
 20
25.0621703132
 30
0.0
  0
SPLINE
  5
280
100
AcDbEntity
  8
_30_VOLUMEN
100
AcDbSpline
 62
4
  6
CONTINUOUS
 70
0
 71
3
 72
9
 73
5
 74
0
 42
0.0000001
 43
0.0000001
 44
0.0000000001
 40
0.0
 40
0.0
 40
0.0
 40
0.0
 40
0.2533420378
 40
1.0
 40
1.0
 40
1.0
 40
1.0
 10
438.4702655887
 20
25.0621703132
 30
0.0
 10
438.4263873954
 20
25.1501139384
 30
0.0
 10
438.2694171873
 20
25.5050986906
 30
0.0
 10
438.1785490776
 20
25.8894011653
 30
0.0
 10
438.1528027016
 20
26.1779149834
 30
0.0
  0
SPLINE
  5
281
100
AcDbEntity
  8
_30_VOLUMEN
100
AcDbSpline
 62
4
  6
CONTINUOUS
 70
0
 71
3
 72
15
 73
11
 74
0
 42
0.0000001
 43
0.0000001
 44
0.0000000001
 40
0.0
 40
0.0
 40
0.0
 40
0.0
 40
0.1249161301
 40
0.2497574602
 40
0.3742085005
 40
0.4986317809
 40
0.6233084018
 40
0.7483645986
 40
0.8739145364
 40
1.0
 40
1.0
 40
1.0
 40
1.0
 10
444.9787971709
 20
26.8383791146
 30
0.0
 10
445.000142407
 20
26.599184459
 30
0.0
 10
444.9928883753
 20
26.1150595942
 30
0.0
 10
444.8340775112
 20
25.408311787
 30
0.0
 10
444.5313809652
 20
24.7507849706
 30
0.0
 10
444.098709787
 20
24.1711213049
 30
0.0
 10
443.5547214262
 20
23.6925451872
 30
0.0
 10
442.9213256252
 20
23.3362979059
 30
0.0
 10
442.2263281663
 20
23.1160460389
 30
0.0
 10
441.7410807697
 20
23.0669144282
 30
0.0
 10
441.498687656
 20
23.0667710173
 30
0.0
  0
SPLINE
  5
282
100
AcDbEntity
  8
_30_VOLUMEN
100
AcDbSpline
 62
7
  6
CONTINUOUS
 70
0
 71
3
 72
17
 73
13
 74
0
 42
0.0000001
 43
0.0000001
 44
0.0000000001
 40
0.0
 40
0.0
 40
0.0
 40
0.0
 40
0.124582596
 40
0.1874781031
 40
0.2504555565
 40
0.3762943101
 40
0.5021874603
 40
0.5651790521
 40
0.6280028905
 40
0.7526847591
 40
0.8766025744
 40
1.0
 40
1.0
 40
1.0
 40
1.0
 10
444.4298310163
 20
26.5603990424
 30
0.0
 10
444.4005856434
 20
26.8881226094
 30
0.0
 10
444.2757455172
 20
27.3783568774
 30
0.0
 10
443.9677705554
 20
27.9659017433
 30
0.0
 10
443.5697470033
 20
28.5014815522
 30
0.0
 10
442.9227859849
 20
29.0453755265
 30
0.0
 10
442.1409153686
 20
29.3669618446
 30
0.0
 10
441.4819498994
 20
29.4710689092
 30
0.0
 10
440.818115798
 20
29.4729156018
 30
0.0
 10
440.0031440994
 20
29.2796288032
 30
0.0
 10
439.1525970587
 20
28.7571411304
 30
0.0
 10
438.7236294774
 20
28.246893489
 30
0.0
 10
438.5567671423
 20
27.9669559222
 30
0.0
  0
SPLINE
  5
283
100
AcDbEntity
  8
_30_VOLUMEN
100
AcDbSpline
 62
4
  6
CONTINUOUS
 70
0
 71
3
 72
22
 73
18
 74
0
 42
0.0000001
 43
0.0000001
 44
0.0000000001
 40
0.0
 40
0.0
 40
0.0
 40
0.0
 40
0.0623703388
 40
0.1251596728
 40
0.1880895002
 40
0.2511625042
 40
0.3143431399
 40
0.3775044247
 40
0.4405592788
 40
0.5034256014
 40
0.566055645
 40
0.6284355503
 40
0.690586247
 40
0.7525731216
 40
0.814451204
 40
0.8763663459
 40
1.0
 40
1.0
 40
1.0
 40
1.0
 10
444.9787971709
 20
26.8383791146
 30
0.0
 10
444.9582796506
 20
27.0682983905
 30
0.0
 10
444.870568398
 20
27.5267117073
 30
0.0
 10
444.6088708812
 20
28.1763020007
 30
0.0
 10
444.2241156037
 20
28.7649364676
 30
0.0
 10
443.7326404718
 20
29.2696406928
 30
0.0
 10
443.1531671596
 20
29.6718370665
 30
0.0
 10
442.5074890258
 20
29.9555990808
 30
0.0
 10
441.8206097498
 20
30.1106911986
 30
0.0
 10
441.1186552351
 20
30.1300558462
 30
0.0
 10
440.4285272608
 20
30.0142411993
 30
0.0
 10
439.7769353145
 20
29.7662008881
 30
0.0
 10
439.1886808498
 20
29.3963351458
 30
0.0
 10
438.6868956242
 20
28.9183839747
 30
0.0
 10
438.2904953742
 20
28.3505696628
 30
0.0
 10
437.9236575276
 20
27.5067521142
 30
0.0
 10
437.8467230385
 20
26.8002845648
 30
0.0
 10
437.8873939096
 20
26.3445268959
 30
0.0
  0
SPLINE
  5
284
100
AcDbEntity
  8
_30_VOLUMEN
100
AcDbSpline
 62
4
  6
CONTINUOUS
 70
0
 71
3
 72
23
 73
19
 74
0
 42
0.0000001
 43
0.0000001
 44
0.0000000001
 40
0.0
 40
0.0
 40
0.0
 40
0.0
 40
0.0621222691
 40
0.1241698193
 40
0.186034716
 40
0.2478872743
 40
0.3098339303
 40
0.371948699
 40
0.4342877579
 40
0.4968805896
 40
0.5597103509
 40
0.6227235139
 40
0.6858482731
 40
0.7489879604
 40
0.8120349523
 40
0.8749136318
 40
0.9376392222
 40
1.0
 40
1.0
 40
1.0
 40
1.0
 10
437.8644339762
 20
26.3959056453
 30
0.0
 10
437.8436630285
 20
26.6286648276
 30
0.0
 10
437.8484844737
 20
27.099332996
 30
0.0
 10
437.9940123581
 20
27.7883712355
 30
0.0
 10
438.2738397256
 20
28.433914464
 30
0.0
 10
438.6765468946
 20
29.0102188233
 30
0.0
 10
439.1861947854
 20
29.495918555
 30
0.0
 10
439.7837219766
 20
29.8716453179
 30
0.0
 10
440.4456867686
 20
30.1232507784
 30
0.0
 10
441.1466192559
 20
30.2414691513
 30
0.0
 10
441.8596455235
 20
30.2212154442
 30
0.0
 10
442.5574039825
 20
30.0640414261
 30
0.0
 10
443.2132673145
 20
29.7757452249
 30
0.0
 10
443.8018431765
 20
29.3671028901
 30
0.0
 10
444.3011295957
 20
28.8544905392
 30
0.0
 10
444.6917568852
 20
28.256580353
 30
0.0
 10
444.9579050825
 20
27.5969079801
 30
0.0
 10
445.0467991476
 20
27.1311974275
 30
0.0
 10
445.0676498421
 20
26.8975446025
 30
0.0
  0
SPLINE
  5
285
100
AcDbEntity
  8
_30_VOLUMEN
100
AcDbSpline
 62
4
  6
CONTINUOUS
 70
0
 71
3
 72
8
 73
4
 74
0
 42
0.0000001
 43
0.0000001
 44
0.0000000001
 40
0.0
 40
0.0
 40
0.0
 40
0.0
 40
1.0
 40
1.0
 40
1.0
 40
1.0
 10
434.2453205842
 20
33.4886674946
 30
0.0
 10
434.1571968296
 20
33.3409071384
 30
0.0
 10
434.1019013504
 20
33.1688379625
 30
0.0
 10
434.0869067832
 20
32.9974492757
 30
0.0
  0
SPLINE
  5
286
100
AcDbEntity
  8
_30_VOLUMEN
100
AcDbSpline
 62
4
  6
CONTINUOUS
 70
0
 71
3
 72
11
 73
7
 74
0
 42
0.0000001
 43
0.0000001
 44
0.0000000001
 40
0.0
 40
0.0
 40
0.0
 40
0.0
 40
0.248067276
 40
0.4982621487
 40
0.7495106448
 40
1.0
 40
1.0
 40
1.0
 40
1.0
 10
432.914660451
 20
19.5986123868
 30
0.0
 10
432.8997607946
 20
19.4283085344
 30
0.0
 10
432.947221188
 20
19.0749893682
 30
0.0
 10
433.234629034
 20
18.627093009
 30
0.0
 10
433.6822415071
 20
18.3366278787
 30
0.0
 10
434.0368548549
 20
18.2843614825
 30
0.0
 10
434.2090613208
 20
18.2963541082
 30
0.0
  0
SPLINE
  5
287
100
AcDbEntity
  8
_30_VOLUMEN
100
AcDbSpline
 62
4
  6
CONTINUOUS
 70
0
 71
3
 72
9
 73
5
 74
0
 42
0.0000001
 43
0.0000001
 44
0.0000000001
 40
0.0
 40
0.0
 40
0.0
 40
0.0
 40
0.5020664949
 40
1.0
 40
1.0
 40
1.0
 40
1.0
 10
447.7612099435
 20
19.2401389162
 30
0.0
 10
447.9476135967
 20
19.2531202479
 30
0.0
 10
448.3185442557
 20
19.3687144463
 30
0.0
 10
448.5918405113
 20
19.645622316
 30
0.0
 10
448.6867632341
 20
19.8047827531
 30
0.0
  0
SPLINE
  5
288
100
AcDbEntity
  8
_30_VOLUMEN
100
AcDbSpline
 62
4
  6
CONTINUOUS
 70
0
 71
3
 72
15
 73
11
 74
0
 42
0.0000001
 43
0.0000001
 44
0.0000000001
 40
0.0
 40
0.0
 40
0.0
 40
0.0
 40
0.1249640035
 40
0.2497410268
 40
0.3741632827
 40
0.4986082443
 40
0.6232778437
 40
0.7483412738
 40
0.8739079838
 40
1.0
 40
1.0
 40
1.0
 40
1.0
 10
445.0676498421
 20
26.8975446025
 30
0.0
 10
445.089465225
 20
26.6530814825
 30
0.0
 10
445.0819850495
 20
26.1584527445
 30
0.0
 10
444.9180819439
 20
25.4368060045
 30
0.0
 10
444.6069662184
 20
24.7660486876
 30
0.0
 10
444.1625233976
 20
24.1755606161
 30
0.0
 10
443.6038948189
 20
23.689804191
 30
0.0
 10
442.9545394616
 20
23.3296483443
 30
0.0
 10
442.2425465254
 20
23.1105799677
 30
0.0
 10
441.7463364318
 20
23.0642630999
 30
0.0
 10
441.4986970672
 20
23.0665619006
 30
0.0
  0
SPLINE
  5
289
100
AcDbEntity
  8
_21_KURVEN
100
AcDbSpline
 62
7
  6
CONTINUOUS
 70
0
 71
3
 72
51
 73
47
 74
0
 42
0.0000001
 43
0.0000001
 44
0.0000000001
 40
0.0
 40
0.0
 40
0.0
 40
0.0
 40
0.0625
 40
0.09375
 40
0.109375
 40
0.125
 40
0.140625
 40
0.15625
 40
0.1875
 40
0.21875
 40
0.234375
 40
0.25
 40
0.265625
 40
0.28125
 40
0.3125
 40
0.34375
 40
0.359375
 40
0.375
 40
0.390625
 40
0.40625
 40
0.4375
 40
0.46875
 40
0.484375
 40
0.5
 40
0.515625
 40
0.53125
 40
0.5625
 40
0.59375
 40
0.609375
 40
0.625
 40
0.640625
 40
0.65625
 40
0.6875
 40
0.71875
 40
0.734375
 40
0.75
 40
0.765625
 40
0.78125
 40
0.8125
 40
0.84375
 40
0.859375
 40
0.875
 40
0.890625
 40
0.90625
 40
0.9375
 40
1.0
 40
1.0
 40
1.0
 40
1.0
 10
432.914660451
 20
19.5986123868
 30
0.0
 10
432.9156031939
 20
19.5560622411
 30
0.0
 10
432.9172457862
 20
19.4922461669
 30
0.0
 10
432.9183624706
 20
19.4177620751
 30
0.0
 10
432.9201429664
 20
19.3752454588
 30
0.0
 10
432.9182796452
 20
19.3432299752
 30
0.0
 10
432.9286399009
 20
19.3117037161
 30
0.0
 10
432.9381661981
 20
19.2694905256
 30
0.0
 10
432.9516704541
 20
19.2168373147
 30
0.0
 10
432.9641483937
 20
19.1639537176
 30
0.0
 10
432.9753167973
 20
19.122109145
 30
0.0
 10
432.9807507338
 20
19.089477032
 30
0.0
 10
432.9973611094
 20
19.0616085007
 30
0.0
 10
433.0155873235
 20
19.0227778033
 30
0.0
 10
433.039836144
 20
18.9748753942
 30
0.0
 10
433.0631219445
 20
18.9265199539
 30
0.0
 10
433.0828889906
 20
18.8884141066
 30
0.0
 10
433.09487687
 20
18.8583710252
 30
0.0
 10
433.117645167
 20
18.8338934748
 30
0.0
 10
433.1442245199
 20
18.799298635
 30
0.0
 10
433.1788354908
 20
18.756827052
 30
0.0
 10
433.2126223128
 20
18.7137152343
 30
0.0
 10
433.2405203039
 20
18.68014477
 30
0.0
 10
433.2593326862
 20
18.6525940929
 30
0.0
 10
433.2861552456
 20
18.6340752368
 30
0.0
 10
433.3191091348
 20
18.6062135034
 30
0.0
 10
433.3613474785
 20
18.5725812239
 30
0.0
 10
433.4029137977
 20
18.5381318019
 30
0.0
 10
433.4369429259
 20
18.5115774964
 30
0.0
 10
433.4605397684
 20
18.4891363564
 30
0.0
 10
433.4914485893
 20
18.476294244
 30
0.0
 10
433.530100799
 20
18.4558002834
 30
0.0
 10
433.5793327512
 20
18.4314688443
 30
0.0
 10
433.6280973827
 20
18.4062072884
 30
0.0
 10
433.6674973054
 20
18.3872015148
 30
0.0
 10
433.6961629875
 20
18.3698948415
 30
0.0
 10
433.7281716005
 20
18.3641958046
 30
0.0
 10
433.7696781189
 20
18.3525238967
 30
0.0
 10
433.8219911818
 20
18.339463862
 30
0.0
 10
433.8740491252
 20
18.3253759163
 30
0.0
 10
433.915963835
 20
18.315348666
 30
0.0
 10
433.9467478737
 20
18.3047156561
 30
0.0
 10
433.9800057094
 20
18.3059113816
 30
0.0
 10
434.0234863587
 20
18.3033785223
 30
0.0
 10
434.0999820879
 20
18.3008806247
 30
0.0
 10
434.1654111383
 20
18.2980762761
 30
0.0
 10
434.2090613313
 20
18.2963541089
 30
0.0
  0
SPLINE
  5
28A
100
AcDbEntity
  8
_21_KURVEN
100
AcDbSpline
 62
7
  6
CONTINUOUS
 70
0
 71
3
 72
21
 73
17
 74
0
 42
0.0000001
 43
0.0000001
 44
0.0000000001
 40
0.0
 40
0.0
 40
0.0
 40
0.0
 40
0.125
 40
0.1875
 40
0.25
 40
0.3125
 40
0.375
 40
0.4375
 40
0.5
 40
0.5625
 40
0.625
 40
0.6875
 40
0.75
 40
0.8125
 40
0.875
 40
1.0
 40
1.0
 40
1.0
 40
1.0
 10
435.1708738749
 20
34.0533113315
 30
0.0
 10
435.1338267247
 20
34.0483925769
 30
0.0
 10
435.0781146491
 20
34.0416368591
 30
0.0
 10
435.0043972827
 20
34.0301395785
 30
0.0
 10
434.9506930224
 20
34.014027613
 30
0.0
 10
434.8963655376
 20
34.0016902017
 30
0.0
 10
434.8429471863
 20
33.9817435787
 30
0.0
 10
434.7903404742
 20
33.959245443
 30
0.0
 10
434.7354905464
 20
33.9399556674
 30
0.0
 10
434.688801842
 20
33.910383964
 30
0.0
 10
434.6396796128
 20
33.8839253299
 30
0.0
 10
434.5921302592
 20
33.8552963466
 30
0.0
 10
434.5486293435
 20
33.8205131733
 30
0.0
 10
434.5031746318
 20
33.7890720745
 30
0.0
 10
434.4475906776
 20
33.737531799
 30
0.0
 10
434.4068326613
 20
33.6970289022
 30
0.0
 10
434.379453995
 20
33.6704375688
 30
0.0
  0
SPLINE
  5
28B
100
AcDbEntity
  8
_21_KURVEN
100
AcDbSpline
 62
7
  6
CONTINUOUS
 70
0
 71
3
 72
9
 73
5
 74
0
 42
0.0000001
 43
0.0000001
 44
0.0000000001
 40
0.0
 40
0.0
 40
0.0
 40
0.0
 40
0.5
 40
1.0
 40
1.0
 40
1.0
 40
1.0
 10
434.3794540031
 20
33.6704375779
 30
0.0
 10
434.355148066
 20
33.6426051821
 30
0.0
 10
434.3073780909
 20
33.5860956845
 30
0.0
 10
434.2672391903
 20
33.5239786019
 30
0.0
 10
434.2453189842
 20
33.4886692127
 30
0.0
  0
SPLINE
  5
28C
100
AcDbEntity
  8
_21_KURVEN
100
AcDbSpline
 62
7
  6
CONTINUOUS
 70
0
 71
3
 72
9
 73
5
 74
0
 42
0.0000001
 43
0.0000001
 44
0.0000000001
 40
0.0
 40
0.0
 40
0.0
 40
0.0
 40
0.5
 40
1.0
 40
1.0
 40
1.0
 40
1.0
 10
434.2453189849
 20
33.4886692138
 30
0.0
 10
434.2289157236
 20
33.4602366943
 30
0.0
 10
434.1928791103
 20
33.3956540553
 30
0.0
 10
434.1653755421
 20
33.3269640433
 30
0.0
 10
434.1508510354
 20
33.2887315805
 30
0.0
  0
SPLINE
  5
28D
100
AcDbEntity
  8
_21_KURVEN
100
AcDbSpline
 62
7
  6
CONTINUOUS
 70
0
 71
3
 72
9
 73
5
 74
0
 42
0.0000001
 43
0.0000001
 44
0.0000000001
 40
0.0
 40
0.0
 40
0.0
 40
0.0
 40
0.5
 40
1.0
 40
1.0
 40
1.0
 40
1.0
 10
434.150851037
 20
33.2887315849
 30
0.0
 10
434.1351627579
 20
33.2420155262
 30
0.0
 10
434.1057246438
 20
33.1476865704
 30
0.0
 10
434.0926477035
 20
33.0495351148
 30
0.0
 10
434.0869067829
 20
32.9974492717
 30
0.0
  0
SPLINE
  5
28E
100
AcDbEntity
  8
_21_KURVEN
100
AcDbSpline
 62
7
  6
CONTINUOUS
 70
0
 71
3
 72
10
 73
6
 74
0
 42
0.0000001
 43
0.0000001
 44
0.0000000001
 40
0.0
 40
0.0
 40
0.0
 40
0.0
 40
0.25
 40
0.5
 40
1.0
 40
1.0
 40
1.0
 40
1.0
 10
450.0174233673
 20
33.6948378609
 30
0.0
 10
450.0195620301
 20
33.7359881846
 30
0.0
 10
450.0231247943
 20
33.819235557
 30
0.0
 10
450.0117912393
 20
33.9954455525
 30
0.0
 10
449.9775716133
 20
34.1163141827
 30
0.0
 10
449.9500317748
 20
34.2016434693
 30
0.0
  0
SPLINE
  5
28F
100
AcDbEntity
  8
_21_KURVEN
100
AcDbSpline
 62
7
  6
CONTINUOUS
 70
0
 71
3
 72
21
 73
17
 74
0
 42
0.0000001
 43
0.0000001
 44
0.0000000001
 40
0.0
 40
0.0
 40
0.0
 40
0.0
 40
0.125
 40
0.1875
 40
0.25
 40
0.3125
 40
0.375
 40
0.4375
 40
0.5
 40
0.5625
 40
0.625
 40
0.6875
 40
0.75
 40
0.8125
 40
0.875
 40
1.0
 40
1.0
 40
1.0
 40
1.0
 10
449.9500317795
 20
34.2016434563
 30
0.0
 10
449.9326227947
 20
34.240527131
 30
0.0
 10
449.9073386879
 20
34.2990973276
 30
0.0
 10
449.8703090642
 20
34.3762121847
 30
0.0
 10
449.8328372298
 20
34.4307481842
 30
0.0
 10
449.7998359635
 20
34.4874801474
 30
0.0
 10
449.7586520416
 20
34.5387283993
 30
0.0
 10
449.7148798205
 20
34.5876053532
 30
0.0
 10
449.6742192749
 20
34.6403961203
 30
0.0
 10
449.6237003264
 20
34.6799029328
 30
0.0
 10
449.5762576595
 20
34.7233548276
 30
0.0
 10
449.526368269
 20
34.7643103477
 30
0.0
 10
449.4694732
 20
34.7985223807
 30
0.0
 10
449.4156149853
 20
34.8366369297
 30
0.0
 10
449.3369483809
 20
34.8756342259
 30
0.0
 10
449.276740657
 20
34.9025770918
 30
0.0
 10
449.2368705679
 20
34.9210512483
 30
0.0
  0
SPLINE
  5
290
100
AcDbEntity
  8
_21_KURVEN
100
AcDbSpline
 62
7
  6
CONTINUOUS
 70
0
 71
3
 72
9
 73
5
 74
0
 42
0.0000001
 43
0.0000001
 44
0.0000000001
 40
0.0
 40
0.0
 40
0.0
 40
0.0
 40
0.5
 40
1.0
 40
1.0
 40
1.0
 40
1.0
 10
449.2368705855
 20
34.9210512417
 30
0.0
 10
449.1576434828
 20
34.9479920769
 30
0.0
 10
448.9882109661
 20
34.9990602848
 30
0.0
 10
448.8119868203
 20
34.9999878426
 30
0.0
 10
448.723022484
 20
34.9970961386
 30
0.0
  0
SPLINE
  5
291
100
AcDbEntity
  8
_21_KURVEN
100
AcDbSpline
 62
1
  6
CENTER
 70
0
 71
3
 72
191
 73
187
 74
0
 42
0.0000001
 43
0.0000001
 44
0.0000000001
 40
0.0
 40
0.0
 40
0.0
 40
0.0
 40
0.015625
 40
0.03125
 40
0.0390625
 40
0.046875
 40
0.0546875
 40
0.05859375
 40
0.060546875
 40
0.0625
 40
0.064453125
 40
0.06640625
 40
0.0703125
 40
0.078125
 40
0.0859375
 40
0.09375
 40
0.1015625
 40
0.109375
 40
0.1171875
 40
0.12109375
 40
0.123046875
 40
0.125
 40
0.126953125
 40
0.12890625
 40
0.1328125
 40
0.140625
 40
0.1484375
 40
0.15625
 40
0.1640625
 40
0.171875
 40
0.1796875
 40
0.18359375
 40
0.185546875
 40
0.1875
 40
0.189453125
 40
0.19140625
 40
0.1953125
 40
0.203125
 40
0.2109375
 40
0.21875
 40
0.2265625
 40
0.234375
 40
0.2421875
 40
0.24609375
 40
0.248046875
 40
0.25
 40
0.251953125
 40
0.25390625
 40
0.2578125
 40
0.265625
 40
0.2734375
 40
0.28125
 40
0.2890625
 40
0.296875
 40
0.3046875
 40
0.30859375
 40
0.310546875
 40
0.3125
 40
0.314453125
 40
0.31640625
 40
0.3203125
 40
0.328125
 40
0.3359375
 40
0.34375
 40
0.3515625
 40
0.359375
 40
0.3671875
 40
0.37109375
 40
0.373046875
 40
0.375
 40
0.376953125
 40
0.37890625
 40
0.3828125
 40
0.390625
 40
0.3984375
 40
0.40625
 40
0.4140625
 40
0.421875
 40
0.4296875
 40
0.43359375
 40
0.435546875
 40
0.4375
 40
0.439453125
 40
0.44140625
 40
0.4453125
 40
0.453125
 40
0.4609375
 40
0.46875
 40
0.4765625
 40
0.484375
 40
0.4921875
 40
0.49609375
 40
0.498046875
 40
0.5
 40
0.501953125
 40
0.50390625
 40
0.5078125
 40
0.515625
 40
0.5234375
 40
0.53125
 40
0.5390625
 40
0.546875
 40
0.5546875
 40
0.55859375
 40
0.560546875
 40
0.5625
 40
0.564453125
 40
0.56640625
 40
0.5703125
 40
0.578125
 40
0.5859375
 40
0.59375
 40
0.6015625
 40
0.609375
 40
0.6171875
 40
0.62109375
 40
0.623046875
 40
0.625
 40
0.626953125
 40
0.62890625
 40
0.6328125
 40
0.640625
 40
0.6484375
 40
0.65625
 40
0.6640625
 40
0.671875
 40
0.6796875
 40
0.68359375
 40
0.685546875
 40
0.6875
 40
0.689453125
 40
0.69140625
 40
0.6953125
 40
0.703125
 40
0.7109375
 40
0.71875
 40
0.7265625
 40
0.734375
 40
0.7421875
 40
0.74609375
 40
0.748046875
 40
0.75
 40
0.751953125
 40
0.75390625
 40
0.7578125
 40
0.765625
 40
0.7734375
 40
0.78125
 40
0.7890625
 40
0.796875
 40
0.8046875
 40
0.80859375
 40
0.810546875
 40
0.8125
 40
0.814453125
 40
0.81640625
 40
0.8203125
 40
0.828125
 40
0.8359375
 40
0.84375
 40
0.8515625
 40
0.859375
 40
0.8671875
 40
0.87109375
 40
0.873046875
 40
0.875
 40
0.876953125
 40
0.87890625
 40
0.8828125
 40
0.890625
 40
0.8984375
 40
0.90625
 40
0.9140625
 40
0.921875
 40
0.9296875
 40
0.93359375
 40
0.935546875
 40
0.9375
 40
0.939453125
 40
0.94140625
 40
0.9453125
 40
0.953125
 40
0.9609375
 40
0.96875
 40
0.984375
 40
1.0
 40
1.0
 40
1.0
 40
1.0
 10
449.32814891
 20
27.1942499004
 30
0.0
 10
449.3044097008
 20
27.3195771889
 30
0.0
 10
449.2569260769
 20
27.5702303567
 30
0.0
 10
449.1975975737
 20
27.8835538628
 30
0.0
 10
449.1500801152
 20
28.1341978702
 30
0.0
 10
449.1145903732
 20
28.3222210404
 30
0.0
 10
449.0845438553
 20
28.4787792991
 30
0.0
 10
449.0644370279
 20
28.5886207127
 30
0.0
 10
449.0515019576
 20
28.650995894
 30
0.0
 10
449.0458725229
 20
28.6988796929
 30
0.0
 10
449.0246783437
 20
28.7425495105
 30
0.0
 10
449.0018486051
 20
28.8022458221
 30
0.0
 10
448.9593669158
 20
28.906029477
 30
0.0
 10
448.9000020977
 20
29.0546502506
 30
0.0
 10
448.8281944802
 20
29.2328402769
 30
0.0
 10
448.7565489106
 20
29.4110764563
 30
0.0
 10
448.6848249853
 20
29.5892829254
 30
0.0
 10
448.613252435
 20
29.7675620824
 30
0.0
 10
448.5531693562
 20
29.9159105122
 30
0.0
 10
448.5119674769
 20
30.0201794343
 30
0.0
 10
448.4870874305
 20
30.079098328
 30
0.0
 10
448.4721910914
 20
30.1251561062
 30
0.0
 10
448.4429080274
 20
30.1640711264
 30
0.0
 10
448.408882202
 20
30.2184492994
 30
0.0
 10
448.3469988149
 20
30.3124502202
 30
0.0
 10
448.2598171522
 20
30.4473446198
 30
0.0
 10
448.1546723529
 20
30.6089559686
 30
0.0
 10
448.0496776882
 20
30.7706432484
 30
0.0
 10
447.9446092892
 20
30.9322887352
 30
0.0
 10
447.8396856928
 20
31.0940254629
 30
0.0
 10
447.7518281326
 20
31.2285367602
 30
0.0
 10
447.6911490719
 20
31.3232202996
 30
0.0
 10
447.6551938665
 20
31.3765048899
 30
0.0
 10
447.6318371944
 20
31.4187790201
 30
0.0
 10
447.5946823226
 20
31.4522205451
 30
0.0
 10
447.5499554671
 20
31.4998901648
 30
0.0
 10
447.4694409465
 20
31.5818764611
 30
0.0
 10
447.3555931816
 20
31.6997509048
 30
0.0
 10
447.2184713331
 20
31.8408758838
 30
0.0
 10
447.0814908411
 20
31.9820964156
 30
0.0
 10
446.9444494538
 20
32.1232590894
 30
0.0
 10
446.8075102909
 20
32.2645576423
 30
0.0
 10
446.6931043201
 20
32.3819017212
 30
0.0
 10
446.6135844211
 20
32.4648330312
 30
0.0
 10
446.5672641411
 20
32.5109887005
 30
0.0
 10
446.5350037212
 20
32.5490805604
 30
0.0
 10
446.4932643097
 20
32.5738888136
 30
0.0
 10
446.4409181449
 20
32.6115999645
 30
0.0
 10
446.3477717965
 20
32.6754355632
 30
0.0
 10
446.2155114441
 20
32.767758714
 30
0.0
 10
446.0564521749
 20
32.8780598544
 30
0.0
 10
445.8974909159
 20
32.9885004559
 30
0.0
 10
445.7384844626
 20
33.0988698535
 30
0.0
 10
445.5795607761
 20
33.2093846054
 30
0.0
 10
445.4468861431
 20
33.3010550543
 30
0.0
 10
445.3544779675
 20
33.3660536491
 30
0.0
 10
445.3009492197
 20
33.4019016328
 30
0.0
 10
445.2628422962
 20
33.4324328946
 30
0.0
 10
445.2169388614
 20
33.4490300954
 30
0.0
 10
445.1584537958
 20
33.4760200628
 30
0.0
 10
445.0548378218
 20
33.5209878724
 30
0.0
 10
444.9074777598
 20
33.5864123692
 30
0.0
 10
444.7303606965
 20
33.6644111798
 30
0.0
 10
444.5533231757
 20
33.7425567026
 30
0.0
 10
444.3762524739
 20
33.820625962
 30
0.0
 10
444.1992349536
 20
33.8988535629
 30
0.0
 10
444.0515707327
 20
33.9635789784
 30
0.0
 10
443.9484967146
 20
34.0097924237
 30
0.0
 10
443.8891434135
 20
34.0347868318
 30
0.0
 10
443.8459068995
 20
34.0575137044
 30
0.0
 10
443.7977834693
 20
34.0650229484
 30
0.0
 10
443.7353235092
 20
34.0803433635
 30
0.0
 10
443.6252243438
 20
34.1046808478
 30
0.0
 10
443.4683552526
 20
34.1407425636
 30
0.0
 10
443.2799336699
 20
34.1834591183
 30
0.0
 10
443.0915620912
 20
34.2263354805
 30
0.0
 10
442.9031691695
 20
34.2691301168
 30
0.0
 10
442.7148116157
 20
34.312091849
 30
0.0
 10
442.5577468807
 20
34.3474044114
 30
0.0
 10
442.447996317
 20
34.3730767509
 30
0.0
 10
442.3849778827
 20
34.3862586734
 30
0.0
 10
442.3385698935
 20
34.4003366311
 30
0.0
 10
442.2888904712
 20
34.3983925186
 30
0.0
 10
442.223792353
 20
34.4013890567
 30
0.0
 10
442.1093389902
 20
34.4040290183
 30
0.0
 10
441.9461120698
 20
34.4091626422
 30
0.0
 10
441.7501211379
 20
34.4147361441
 30
0.0
 10
441.5541601017
 20
34.4204774328
 30
0.0
 10
441.35819811
 20
34.4261344212
 30
0.0
 10
441.1622100448
 20
34.4319608241
 30
0.0
 10
440.998974365
 20
34.436321695
 30
0.0
 10
440.8845366099
 20
34.440338562
 30
0.0
 10
440.8194134876
 20
34.4411292414
 30
0.0
 10
440.7698108695
 20
34.4459607683
 30
0.0
 10
440.7231144165
 20
34.4345905623
 30
0.0
 10
440.6598387735
 20
34.4250816439
 30
0.0
 10
440.5495787299
 20
34.4058078614
 30
0.0
 10
440.3918172218
 20
34.3796513744
 30
0.0
 10
440.2026101655
 20
34.3476703342
 30
0.0
 10
440.0133715516
 20
34.3158583361
 30
0.0
 10
439.8241524145
 20
34.2839634251
 30
0.0
 10
439.634886928
 20
34.2522311239
 30
0.0
 10
439.4773039566
 20
34.2253146011
 30
0.0
 10
439.3667257931
 20
34.2073950641
 30
0.0
 10
439.3039597912
 20
34.1957165891
 30
0.0
 10
439.2556978961
 20
34.1910105145
 30
0.0
 10
439.2119748156
 20
34.1708126833
 30
0.0
 10
439.1520941812
 20
34.1492859496
 30
0.0
 10
439.0480407548
 20
34.109096381
 30
0.0
 10
438.8990069746
 20
34.052999818
 30
0.0
 10
438.7203332391
 20
33.9851167675
 30
0.0
 10
438.5416099457
 20
33.9173950464
 30
0.0
 10
438.3629180831
 20
33.8495951828
 30
0.0
 10
438.1841500554
 20
33.7819465598
 30
0.0
 10
438.0354043902
 20
33.7251336905
 30
0.0
 10
437.9308375952
 20
33.6862204495
 30
0.0
 10
437.8717793982
 20
33.6626489868
 30
0.0
 10
437.8255300728
 20
33.64873186
 30
0.0
 10
437.7867563292
 20
33.6204365145
 30
0.0
 10
437.732450432
 20
33.5877246802
 30
0.0
 10
437.638630086
 20
33.5281421599
 30
0.0
 10
437.5039653526
 20
33.4442467278
 30
0.0
 10
437.3426417941
 20
33.34304571
 30
0.0
 10
437.1812388174
 20
33.2419947632
 30
0.0
 10
437.0198793916
 20
33.1408700315
 30
0.0
 10
436.8584251808
 20
33.0398903681
 30
0.0
 10
436.7241596626
 20
32.9553185753
 30
0.0
 10
436.6296279876
 20
32.8969412068
 30
0.0
 10
436.5764616685
 20
32.8622986701
 30
0.0
 10
436.5341875329
 20
32.8399337785
 30
0.0
 10
436.5010850919
 20
32.8037428632
 30
0.0
 10
436.4537493059
 20
32.7603109885
 30
0.0
 10
436.3724023285
 20
32.6820581615
 30
0.0
 10
436.2554123688
 20
32.5714437584
 30
0.0
 10
436.1153611833
 20
32.4382009015
 30
0.0
 10
435.9752109203
 20
32.305099778
 30
0.0
 10
435.8351202011
 20
32.1719372938
 30
0.0
 10
435.6948903842
 20
32.038878519
 30
0.0
 10
435.5784462428
 20
31.9277016428
 30
0.0
 10
435.4961267164
 20
31.8504510406
 30
0.0
 10
435.4503489936
 20
31.8054135609
 30
0.0
 10
435.4124607182
 20
31.7741545119
 30
0.0
 10
435.3881613726
 20
31.7332663591
 30
0.0
 10
435.351022265
 20
31.6821075669
 30
0.0
 10
435.2882373643
 20
31.5910147236
 30
0.0
 10
435.1973892523
 20
31.461700714
 30
0.0
 10
435.0888693364
 20
31.3061715528
 30
0.0
 10
434.9802067812
 20
31.1507419923
 30
0.0
 10
434.8716169645
 20
30.995266379
 30
0.0
 10
434.7628788331
 20
30.8398753763
 30
0.0
 10
434.6726974907
 20
30.7101392158
 30
0.0
 10
434.6087245277
 20
30.6197985687
 30
0.0
 10
434.5734887444
 20
30.5674347274
 30
0.0
 10
434.5433430413
 20
30.530248071
 30
0.0
 10
434.5274127027
 20
30.4850868234
 30
0.0
 10
434.501213763
 20
30.4276534573
 30
0.0
 10
434.4576759702
 20
30.3258490147
 30
0.0
 10
434.394270439
 20
30.1810919977
 30
0.0
 10
434.3187046822
 20
30.0070920564
 30
0.0
 10
434.2429892977
 20
29.8331735571
 30
0.0
 10
434.1673515438
 20
29.659220811
 30
0.0
 10
434.0915528949
 20
29.4853236101
 30
0.0
 10
434.0288589788
 20
29.3402526642
 30
0.0
 10
433.9840532173
 20
29.2390075858
 30
0.0
 10
433.9598856151
 20
29.1806780954
 30
0.0
 10
433.9377157059
 20
29.1382694334
 30
0.0
 10
433.9310047821
 20
29.0907445281
 30
0.0
 10
433.9166646057
 20
29.0291625933
 30
0.0
 10
433.8940817655
 20
28.9205627006
 30
0.0
 10
433.8605061642
 20
28.765854927
 30
0.0
 10
433.8207817826
 20
28.5800185203
 30
0.0
 10
433.7808950827
 20
28.3942345387
 30
0.0
 10
433.7410913159
 20
28.2084279353
 30
0.0
 10
433.7011181352
 20
28.0226593938
 30
0.0
 10
433.6683027534
 20
27.8677442543
 30
0.0
 10
433.6443653402
 20
27.75951385
 30
0.0
 10
433.6321952451
 20
27.6973399796
 30
0.0
 10
433.6188185781
 20
27.6516332968
 30
0.0
 10
433.6216840802
 20
27.6023956969
 30
0.0
 10
433.6198392991
 20
27.5379771871
 30
0.0
 10
433.6192505711
 20
27.4246709588
 30
0.0
 10
433.6170294942
 20
27.2631049272
 30
0.0
 10
433.6149549188
 20
27.0690972722
 30
0.0
 10
433.6119824068
 20
26.8104652711
 30
0.0
 10
433.6083380603
 20
26.4871597711
 30
0.0
 10
433.6054008556
 20
26.2285200945
 30
0.0
 10
433.6039349691
 20
26.0991996657
 30
0.0
  0
SPLINE
  5
292
100
AcDbEntity
  8
_21_KURVEN
100
AcDbSpline
 62
1
  6
CENTER
 70
0
 71
3
 72
191
 73
187
 74
0
 42
0.0000001
 43
0.0000001
 44
0.0000000001
 40
0.0
 40
0.0
 40
0.0
 40
0.0
 40
0.015625
 40
0.03125
 40
0.0390625
 40
0.046875
 40
0.0546875
 40
0.05859375
 40
0.060546875
 40
0.0625
 40
0.064453125
 40
0.06640625
 40
0.0703125
 40
0.078125
 40
0.0859375
 40
0.09375
 40
0.1015625
 40
0.109375
 40
0.1171875
 40
0.12109375
 40
0.123046875
 40
0.125
 40
0.126953125
 40
0.12890625
 40
0.1328125
 40
0.140625
 40
0.1484375
 40
0.15625
 40
0.1640625
 40
0.171875
 40
0.1796875
 40
0.18359375
 40
0.185546875
 40
0.1875
 40
0.189453125
 40
0.19140625
 40
0.1953125
 40
0.203125
 40
0.2109375
 40
0.21875
 40
0.2265625
 40
0.234375
 40
0.2421875
 40
0.24609375
 40
0.248046875
 40
0.25
 40
0.251953125
 40
0.25390625
 40
0.2578125
 40
0.265625
 40
0.2734375
 40
0.28125
 40
0.2890625
 40
0.296875
 40
0.3046875
 40
0.30859375
 40
0.310546875
 40
0.3125
 40
0.314453125
 40
0.31640625
 40
0.3203125
 40
0.328125
 40
0.3359375
 40
0.34375
 40
0.3515625
 40
0.359375
 40
0.3671875
 40
0.37109375
 40
0.373046875
 40
0.375
 40
0.376953125
 40
0.37890625
 40
0.3828125
 40
0.390625
 40
0.3984375
 40
0.40625
 40
0.4140625
 40
0.421875
 40
0.4296875
 40
0.43359375
 40
0.435546875
 40
0.4375
 40
0.439453125
 40
0.44140625
 40
0.4453125
 40
0.453125
 40
0.4609375
 40
0.46875
 40
0.4765625
 40
0.484375
 40
0.4921875
 40
0.49609375
 40
0.498046875
 40
0.5
 40
0.501953125
 40
0.50390625
 40
0.5078125
 40
0.515625
 40
0.5234375
 40
0.53125
 40
0.5390625
 40
0.546875
 40
0.5546875
 40
0.55859375
 40
0.560546875
 40
0.5625
 40
0.564453125
 40
0.56640625
 40
0.5703125
 40
0.578125
 40
0.5859375
 40
0.59375
 40
0.6015625
 40
0.609375
 40
0.6171875
 40
0.62109375
 40
0.623046875
 40
0.625
 40
0.626953125
 40
0.62890625
 40
0.6328125
 40
0.640625
 40
0.6484375
 40
0.65625
 40
0.6640625
 40
0.671875
 40
0.6796875
 40
0.68359375
 40
0.685546875
 40
0.6875
 40
0.689453125
 40
0.69140625
 40
0.6953125
 40
0.703125
 40
0.7109375
 40
0.71875
 40
0.7265625
 40
0.734375
 40
0.7421875
 40
0.74609375
 40
0.748046875
 40
0.75
 40
0.751953125
 40
0.75390625
 40
0.7578125
 40
0.765625
 40
0.7734375
 40
0.78125
 40
0.7890625
 40
0.796875
 40
0.8046875
 40
0.80859375
 40
0.810546875
 40
0.8125
 40
0.814453125
 40
0.81640625
 40
0.8203125
 40
0.828125
 40
0.8359375
 40
0.84375
 40
0.8515625
 40
0.859375
 40
0.8671875
 40
0.87109375
 40
0.873046875
 40
0.875
 40
0.876953125
 40
0.87890625
 40
0.8828125
 40
0.890625
 40
0.8984375
 40
0.90625
 40
0.9140625
 40
0.921875
 40
0.9296875
 40
0.93359375
 40
0.935546875
 40
0.9375
 40
0.939453125
 40
0.94140625
 40
0.9453125
 40
0.953125
 40
0.9609375
 40
0.96875
 40
0.984375
 40
1.0
 40
1.0
 40
1.0
 40
1.0
 10
433.6039349083
 20
26.0992003473
 30
0.0
 10
433.6276741176
 20
25.9738730588
 30
0.0
 10
433.6751577414
 20
25.723219891
 30
0.0
 10
433.7344862446
 20
25.4098963849
 30
0.0
 10
433.7820037031
 20
25.1592523775
 30
0.0
 10
433.8174934452
 20
24.9712292073
 30
0.0
 10
433.847539963
 20
24.8146709486
 30
0.0
 10
433.8676467905
 20
24.7048295351
 30
0.0
 10
433.8805818607
 20
24.6424543537
 30
0.0
 10
433.8862112955
 20
24.5945705549
 30
0.0
 10
433.9074054746
 20
24.5509007372
 30
0.0
 10
433.9302352133
 20
24.4912044256
 30
0.0
 10
433.9727169025
 20
24.3874207707
 30
0.0
 10
434.0320817206
 20
24.2387999971
 30
0.0
 10
434.1038893381
 20
24.0606099708
 30
0.0
 10
434.1755349077
 20
23.8823737914
 30
0.0
 10
434.247258833
 20
23.7041673223
 30
0.0
 10
434.3188313833
 20
23.5258881653
 30
0.0
 10
434.3789144621
 20
23.3775397355
 30
0.0
 10
434.4201163415
 20
23.2732708134
 30
0.0
 10
434.4449963878
 20
23.2143519197
 30
0.0
 10
434.4598927269
 20
23.1682941415
 30
0.0
 10
434.489175791
 20
23.1293791214
 30
0.0
 10
434.5232016164
 20
23.0750009483
 30
0.0
 10
434.5850850034
 20
22.9810000275
 30
0.0
 10
434.6722666661
 20
22.8461056279
 30
0.0
 10
434.7774114654
 20
22.6844942791
 30
0.0
 10
434.8824061301
 20
22.5228069993
 30
0.0
 10
434.9874745291
 20
22.3611615126
 30
0.0
 10
435.0923981256
 20
22.1994247848
 30
0.0
 10
435.1802556858
 20
22.0649134875
 30
0.0
 10
435.2409347464
 20
21.9702299482
 30
0.0
 10
435.2768899518
 20
21.9169453578
 30
0.0
 10
435.3002466239
 20
21.8746712276
 30
0.0
 10
435.3374014958
 20
21.8412297026
 30
0.0
 10
435.3821283513
 20
21.7935600829
 30
0.0
 10
435.4626428719
 20
21.7115737866
 30
0.0
 10
435.5764906367
 20
21.5936993429
 30
0.0
 10
435.7136124852
 20
21.4525743639
 30
0.0
 10
435.8505929773
 20
21.3113538321
 30
0.0
 10
435.9876343645
 20
21.1701911583
 30
0.0
 10
436.1245735274
 20
21.0288926054
 30
0.0
 10
436.2389794983
 20
20.9115485265
 30
0.0
 10
436.3184993972
 20
20.8286172165
 30
0.0
 10
436.3648196772
 20
20.7824615473
 30
0.0
 10
436.3970800971
 20
20.7443696873
 30
0.0
 10
436.4388195086
 20
20.7195614341
 30
0.0
 10
436.4911656735
 20
20.6818502832
 30
0.0
 10
436.5843120219
 20
20.6180146845
 30
0.0
 10
436.7165723742
 20
20.5256915337
 30
0.0
 10
436.8756316434
 20
20.4153903933
 30
0.0
 10
437.0345929025
 20
20.3049497919
 30
0.0
 10
437.1935993558
 20
20.1945803942
 30
0.0
 10
437.3525230422
 20
20.0840656424
 30
0.0
 10
437.4851976752
 20
19.9923951934
 30
0.0
 10
437.5776058508
 20
19.9273965986
 30
0.0
 10
437.6311345986
 20
19.8915486149
 30
0.0
 10
437.6692415221
 20
19.8610173531
 30
0.0
 10
437.7151449569
 20
19.8444201523
 30
0.0
 10
437.7736300225
 20
19.817430185
 30
0.0
 10
437.8772459966
 20
19.7724623754
 30
0.0
 10
438.0246060586
 20
19.7070378785
 30
0.0
 10
438.2017231218
 20
19.629039068
 30
0.0
 10
438.3787606426
 20
19.5508935451
 30
0.0
 10
438.5558313444
 20
19.4728242857
 30
0.0
 10
438.7328488647
 20
19.3945966849
 30
0.0
 10
438.8805130857
 20
19.3298712693
 30
0.0
 10
438.9835871038
 20
19.283657824
 30
0.0
 10
439.0429404049
 20
19.2586634159
 30
0.0
 10
439.0861769189
 20
19.2359365434
 30
0.0
 10
439.1343003491
 20
19.2284272993
 30
0.0
 10
439.1967603091
 20
19.2131068843
 30
0.0
 10
439.3068594746
 20
19.1887693999
 30
0.0
 10
439.4637285657
 20
19.1527076841
 30
0.0
 10
439.6521501485
 20
19.1099911295
 30
0.0
 10
439.8405217272
 20
19.0671147673
 30
0.0
 10
440.0289146488
 20
19.0243201309
 30
0.0
 10
440.2172722027
 20
18.9813583987
 30
0.0
 10
440.3743369377
 20
18.9460458364
 30
0.0
 10
440.4840875013
 20
18.9203734968
 30
0.0
 10
440.5471059357
 20
18.9071915743
 30
0.0
 10
440.5935139249
 20
18.8931136167
 30
0.0
 10
440.6431933472
 20
18.8950577292
 30
0.0
 10
440.7082914653
 20
18.892061191
 30
0.0
 10
440.8227448281
 20
18.8894212295
 30
0.0
 10
440.9859717486
 20
18.8842876055
 30
0.0
 10
441.1819626804
 20
18.8787141036
 30
0.0
 10
441.3779237166
 20
18.8729728149
 30
0.0
 10
441.5738857083
 20
18.8673158265
 30
0.0
 10
441.7698737735
 20
18.8614894236
 30
0.0
 10
441.9331094534
 20
18.8571285527
 30
0.0
 10
442.0475472085
 20
18.8531116857
 30
0.0
 10
442.1126703308
 20
18.8523210063
 30
0.0
 10
442.1622729489
 20
18.8474894794
 30
0.0
 10
442.2089694018
 20
18.8588596854
 30
0.0
 10
442.2722450448
 20
18.8683686038
 30
0.0
 10
442.3825050884
 20
18.8876423863
 30
0.0
 10
442.5402665965
 20
18.9137988734
 30
0.0
 10
442.7294736528
 20
18.9457799136
 30
0.0
 10
442.9187122667
 20
18.9775919116
 30
0.0
 10
443.1079314038
 20
19.0094868226
 30
0.0
 10
443.2971968903
 20
19.0412191238
 30
0.0
 10
443.4547798618
 20
19.0681356466
 30
0.0
 10
443.5653580253
 20
19.0860551837
 30
0.0
 10
443.6281240272
 20
19.0977336586
 30
0.0
 10
443.6763859222
 20
19.1024397332
 30
0.0
 10
443.7201090027
 20
19.1226375644
 30
0.0
 10
443.7799896372
 20
19.1441642981
 30
0.0
 10
443.8840430636
 20
19.1843538667
 30
0.0
 10
444.0330768438
 20
19.2404504297
 30
0.0
 10
444.2117505793
 20
19.3083334802
 30
0.0
 10
444.3904738726
 20
19.3760552013
 30
0.0
 10
444.5691657353
 20
19.443855065
 30
0.0
 10
444.7479337629
 20
19.5115036879
 30
0.0
 10
444.8966794281
 20
19.5683165573
 30
0.0
 10
445.0012462231
 20
19.6072297982
 30
0.0
 10
445.0603044201
 20
19.630801261
 30
0.0
 10
445.1065537455
 20
19.6447183878
 30
0.0
 10
445.1453274891
 20
19.6730137332
 30
0.0
 10
445.1996333863
 20
19.7057255675
 30
0.0
 10
445.2934537323
 20
19.7653080879
 30
0.0
 10
445.4281184658
 20
19.8492035199
 30
0.0
 10
445.5894420243
 20
19.9504045378
 30
0.0
 10
445.7508450009
 20
20.0514554846
 30
0.0
 10
445.9122044268
 20
20.1525802162
 30
0.0
 10
446.0736586375
 20
20.2535598796
 30
0.0
 10
446.2079241557
 20
20.3381316724
 30
0.0
 10
446.3024558307
 20
20.3965090409
 30
0.0
 10
446.3556221498
 20
20.4311515777
 30
0.0
 10
446.3978962854
 20
20.4535164693
 30
0.0
 10
446.4309987264
 20
20.4897073845
 30
0.0
 10
446.4783345125
 20
20.5331392593
 30
0.0
 10
446.5596814898
 20
20.6113920862
 30
0.0
 10
446.6766714496
 20
20.7220064893
 30
0.0
 10
446.8167226351
 20
20.8552493463
 30
0.0
 10
446.9568728981
 20
20.9883504697
 30
0.0
 10
447.0969636172
 20
21.1215129539
 30
0.0
 10
447.2371934342
 20
21.2545717287
 30
0.0
 10
447.3536375756
 20
21.3657486049
 30
0.0
 10
447.435957102
 20
21.4429992071
 30
0.0
 10
447.4817348248
 20
21.4880366868
 30
0.0
 10
447.5196231001
 20
21.5192957359
 30
0.0
 10
447.5439224457
 20
21.5601838886
 30
0.0
 10
447.5810615533
 20
21.6113426808
 30
0.0
 10
447.643846454
 20
21.7024355242
 30
0.0
 10
447.734694566
 20
21.8317495337
 30
0.0
 10
447.843214482
 20
21.9872786949
 30
0.0
 10
447.9518770371
 20
22.1427082554
 30
0.0
 10
448.0604668538
 20
22.2981838688
 30
0.0
 10
448.1692049853
 20
22.4535748714
 30
0.0
 10
448.2593863277
 20
22.5833110319
 30
0.0
 10
448.3233592906
 20
22.673651679
 30
0.0
 10
448.358595074
 20
22.7260155203
 30
0.0
 10
448.388740777
 20
22.7632021768
 30
0.0
 10
448.4046711156
 20
22.8083634243
 30
0.0
 10
448.4308700554
 20
22.8657967905
 30
0.0
 10
448.4744078482
 20
22.9676012331
 30
0.0
 10
448.5378133794
 20
23.11235825
 30
0.0
 10
448.6133791361
 20
23.2863581913
 30
0.0
 10
448.6890945207
 20
23.4602766906
 30
0.0
 10
448.7647322745
 20
23.6342294367
 30
0.0
 10
448.8405309235
 20
23.8081266376
 30
0.0
 10
448.9032248396
 20
23.9531975835
 30
0.0
 10
448.9480306011
 20
24.0544426619
 30
0.0
 10
448.9721982032
 20
24.1127721523
 30
0.0
 10
448.9943681124
 20
24.1551808144
 30
0.0
 10
449.0010790363
 20
24.2027057196
 30
0.0
 10
449.0154192126
 20
24.2642876544
 30
0.0
 10
449.0380020528
 20
24.3728875471
 30
0.0
 10
449.0715776541
 20
24.5275953207
 30
0.0
 10
449.1113020358
 20
24.7134317274
 30
0.0
 10
449.1511887356
 20
24.8992157091
 30
0.0
 10
449.1909925024
 20
25.0850223124
 30
0.0
 10
449.2309656832
 20
25.2707908539
 30
0.0
 10
449.2637810649
 20
25.4257059935
 30
0.0
 10
449.2877184782
 20
25.5339363977
 30
0.0
 10
449.2998885733
 20
25.5961102681
 30
0.0
 10
449.3132652402
 20
25.641816951
 30
0.0
 10
449.3103997381
 20
25.6910545508
 30
0.0
 10
449.3122445192
 20
25.7554730606
 30
0.0
 10
449.3128332472
 20
25.8687792889
 30
0.0
 10
449.3150543241
 20
26.0303453205
 30
0.0
 10
449.3171288995
 20
26.2243529755
 30
0.0
 10
449.3201014115
 20
26.4829849766
 30
0.0
 10
449.323745758
 20
26.8062904766
 30
0.0
 10
449.3266829628
 20
27.0649301533
 30
0.0
 10
449.3281488492
 20
27.194250582
 30
0.0
  0
SPLINE
  5
293
100
AcDbEntity
  8
_21_KURVEN
100
AcDbSpline
 62
7
  6
CONTINUOUS
 70
0
 71
3
 72
21
 73
17
 74
0
 42
0.0000001
 43
0.0000001
 44
0.0000000001
 40
0.0
 40
0.0
 40
0.0
 40
0.0
 40
0.125
 40
0.1875
 40
0.25
 40
0.3125
 40
0.375
 40
0.4375
 40
0.5
 40
0.5625
 40
0.625
 40
0.6875
 40
0.75
 40
0.8125
 40
0.875
 40
1.0
 40
1.0
 40
1.0
 40
1.0
 10
447.7612099435
 20
19.2401389162
 30
0.0
 10
447.7982570937
 20
19.2450576709
 30
0.0
 10
447.8539691692
 20
19.2518133886
 30
0.0
 10
447.9276865356
 20
19.2633106692
 30
0.0
 10
447.9813907959
 20
19.2794226347
 30
0.0
 10
448.0357182807
 20
19.291760046
 30
0.0
 10
448.089136632
 20
19.311706669
 30
0.0
 10
448.1417433442
 20
19.3342048047
 30
0.0
 10
448.1965932719
 20
19.3534945803
 30
0.0
 10
448.2432819764
 20
19.3830662837
 30
0.0
 10
448.2924042056
 20
19.4095249178
 30
0.0
 10
448.3399535591
 20
19.4381539011
 30
0.0
 10
448.3834544749
 20
19.4729370744
 30
0.0
 10
448.4289091865
 20
19.5043781732
 30
0.0
 10
448.4844931408
 20
19.5559184487
 30
0.0
 10
448.5252511571
 20
19.5964213455
 30
0.0
 10
448.5526298234
 20
19.6230126789
 30
0.0
  0
SPLINE
  5
294
100
AcDbEntity
  8
_21_KURVEN
100
AcDbSpline
 62
7
  6
CONTINUOUS
 70
0
 71
3
 72
9
 73
5
 74
0
 42
0.0000001
 43
0.0000001
 44
0.0000000001
 40
0.0
 40
0.0
 40
0.0
 40
0.0
 40
0.5
 40
1.0
 40
1.0
 40
1.0
 40
1.0
 10
448.5526298152
 20
19.6230126699
 30
0.0
 10
448.5769357524
 20
19.6508450656
 30
0.0
 10
448.6247057275
 20
19.7073545632
 30
0.0
 10
448.664844628
 20
19.7694716458
 30
0.0
 10
448.6867648341
 20
19.8047810351
 30
0.0
  0
SPLINE
  5
295
100
AcDbEntity
  8
_21_KURVEN
100
AcDbSpline
 62
7
  6
CONTINUOUS
 70
0
 71
3
 72
9
 73
5
 74
0
 42
0.0000001
 43
0.0000001
 44
0.0000000001
 40
0.0
 40
0.0
 40
0.0
 40
0.0
 40
0.5
 40
1.0
 40
1.0
 40
1.0
 40
1.0
 10
448.6867648334
 20
19.8047810339
 30
0.0
 10
448.7031680947
 20
19.8332135534
 30
0.0
 10
448.739204708
 20
19.8977961924
 30
0.0
 10
448.7667082762
 20
19.9664862044
 30
0.0
 10
448.781232783
 20
20.0047186672
 30
0.0
  0
SPLINE
  5
296
100
AcDbEntity
  8
_21_KURVEN
100
AcDbSpline
 62
7
  6
CONTINUOUS
 70
0
 71
3
 72
9
 73
5
 74
0
 42
0.0000001
 43
0.0000001
 44
0.0000000001
 40
0.0
 40
0.0
 40
0.0
 40
0.0
 40
0.5
 40
1.0
 40
1.0
 40
1.0
 40
1.0
 10
448.7812327814
 20
20.0047186628
 30
0.0
 10
448.7969210604
 20
20.0514347216
 30
0.0
 10
448.8263591746
 20
20.1457636774
 30
0.0
 10
448.8394361148
 20
20.2439151329
 30
0.0
 10
448.8451770355
 20
20.2960009761
 30
0.0
  0
SPLINE
  5
297
100
AcDbEntity
  8
_30_VOLUMEN
100
AcDbSpline
 62
4
  6
CONTINUOUS
 70
0
 71
3
 72
17
 73
13
 74
0
 42
0.0000001
 43
0.0000001
 44
0.0000000001
 40
0.0
 40
0.0
 40
0.0
 40
0.0
 40
0.1299143112
 40
0.2515556559
 40
0.3101443799
 40
0.3679178737
 40
0.425533141
 40
0.4836231254
 40
0.6030468733
 40
0.7288332299
 40
0.8613874087
 40
1.0
 40
1.0
 40
1.0
 40
1.0
 10
387.6884756135
 20
11.874342087
 30
0.0
 10
387.7182362314
 20
12.7180783853
 30
0.0
 10
387.8923609539
 20
14.3521396626
 30
0.0
 10
388.496930522
 20
16.293420141
 30
0.0
 10
389.2183412095
 20
17.6657072194
 30
0.0
 10
389.8669028034
 20
18.5955084999
 30
0.0
 10
390.624701306
 20
19.4341106953
 30
0.0
 10
391.7800166027
 20
20.4390430565
 30
0.0
 10
393.4739012466
 20
21.4744021993
 30
0.0
 10
395.7607876365
 20
22.3876328083
 30
0.0
 10
398.257155765
 20
23.0542564645
 30
0.0
 10
399.9931357252
 20
23.3660384987
 30
0.0
 10
400.8839065575
 20
23.5
 30
0.0
  0
SPLINE
  5
298
100
AcDbEntity
  8
0
100
AcDbSpline
 62
4
  6
CONTINUOUS
 70
0
 71
3
 72
8
 73
4
 74
0
 42
0.0000001
 43
0.0000001
 44
0.0000000001
 40
0.0
 40
0.0
 40
0.0
 40
0.0
 40
1.0
 40
1.0
 40
1.0
 40
1.0
 10
0.0
 20
-8.2613558209
 30
0.0
 10
0.4324709825
 20
-9.4915495456
 30
0.0
 10
0.9405365624
 20
-10.6964590652
 30
0.0
 10
1.5
 20
-11.874342087
 30
0.0
  0
SPLINE
  5
299
100
AcDbEntity
  8
0
100
AcDbSpline
 62
4
  6
CONTINUOUS
 70
0
 71
3
 72
8
 73
4
 74
0
 42
0.0000001
 43
0.0000001
 44
0.0000000001
 40
0.0
 40
0.0
 40
0.0
 40
0.0
 40
1.0
 40
1.0
 40
1.0
 40
1.0
 10
1.5
 20
11.874342087
 30
0.0
 10
0.9405365624
 20
10.6964590652
 30
0.0
 10
0.4324709825
 20
9.4915495456
 30
0.0
 10
-0.0
 20
8.2613558209
 30
0.0
  0
SPLINE
  5
29A
100
AcDbEntity
  8
_26_BEZUGSACHSEN
100
AcDbSpline
 62
4
  6
CONTINUOUS
 70
0
 71
3
 72
13
 73
9
 74
0
 42
0.0000001
 43
0.0000001
 44
0.0000000001
 40
0.0
 40
0.0
 40
0.0
 40
0.0
 40
0.2577517478
 40
0.5081149677
 40
0.6311984269
 40
0.7536298475
 40
0.8762597317
 40
1.0
 40
1.0
 40
1.0
 40
1.0
 10
419.0
 20
-21.0703609948
 30
0.0
 10
416.993662411
 20
-20.8105380392
 30
0.0
 10
413.0583661214
 20
-20.1139630938
 30
0.0
 10
408.3107551831
 20
-18.6279411676
 30
0.0
 10
404.7707636991
 20
-16.9983430313
 30
0.0
 10
402.2668956135
 20
-15.5466191123
 30
0.0
 10
399.9170709657
 20
-13.8479016289
 30
0.0
 10
398.4718969022
 20
-12.5570061451
 30
0.0
 10
397.78104974
 20
-11.874342087
 30
0.0
  0
SPLINE
  5
29B
100
AcDbEntity
  8
_30_VOLUMEN
100
AcDbSpline
 62
4
  6
CONTINUOUS
 70
0
 71
3
 72
9
 73
5
 74
0
 42
0.0000001
 43
0.0000001
 44
0.0000000001
 40
0.0
 40
0.0
 40
0.0
 40
0.0
 40
0.5000261877
 40
1.0
 40
1.0
 40
1.0
 40
1.0
 10
427.9781474278
 20
31.5939412371
 30
0.0
 10
426.8024723582
 20
30.3821550674
 30
0.0
 10
424.4607401833
 20
27.94947487
 30
0.0
 10
422.146503795
 20
25.4904948332
 30
0.0
 10
421.0
 20
24.2513138581
 30
0.0
  0
ELLIPSE
  5
29C
100
AcDbEntity
  8
_26_BEZUGSACHSEN
100
AcDbEllipse
 62
4
  6
CONTINUOUS
 10
430.5528212352
 20
0.3419373771
 30
0.0
 11
3.3394281896
 21
31.9911898506
 31
0.0
 40
0.0859063961
 41
-0.0494906088
 42
0.0180219679
  0
ELLIPSE
  5
29D
100
AcDbEntity
  8
_30_VOLUMEN
100
AcDbEllipse
 62
4
  6
CONTINUOUS
 10
508.7173705151
 20
0.0
 30
0.0
 11
239.1127773018
 21
-4.3428961933
 31
0.0
 40
0.1019016888
 41
1.9482619386
 42
1.9572691337
  0
ELLIPSE
  5
29E
100
AcDbEntity
  8
_26_BEZUGSACHSEN
100
AcDbEllipse
 62
4
  6
CONTINUOUS
 10
369.1606494546
 20
189.9996731361
 30
0.0
 11
-79.938345811
 21
276.7201997083
 31
0.0
 40
0.1388719729
 41
-4.0538344861
 42
-3.9357157187
  0
ENDSEC
  0
SECTION
  2
OBJECTS
  0
DICTIONARY
  5
C
100
AcDbDictionary
280
0
281
1
  3
ACAD_GROUP
350
D
  3
ACAD_MLINESTYLE
350
17
  3
ACAD_LAYOUT
350
1A
  3
ACAD_PLOTSETTINGS
350
19
  3
ACAD_PLOTSTYLENAME
350
E
  0
DICTIONARY
  5
D
102
{ACAD_REACTORS
330
C
102
}
100
AcDbDictionary
280
0
281
1
  0
ACDBDICTIONARYWDFLT
  5
E
102
{ACAD_REACTORS
330
C
102
}
100
AcDbDictionary
281
1
  3
Normal
350
F
100
AcDbDictionaryWithDefault
340
F
  0
DICTIONARY
  5
17
102
{ACAD_REACTORS
330
C
102
}
100
AcDbDictionary
280
0
281
1
  3
Standard
350
18
  0
DICTIONARY
  5
19
102
{ACAD_REACTORS
330
C
102
}
100
AcDbDictionary
281
1
  0
DICTIONARY
  5
1A
102
{ACAD_REACTORS
330
C
102
}
100
AcDbDictionary
281
1
  3
Model
350
29F
  3
Layout1
350
2A0
  0
ACDBPLACEHOLDER
  5
F
102
{ACAD_REACTORS
330
E
102
}
  0
MLINESTYLE
  5
18
102
{ACAD_REACTORS
330
17
102
}
100
AcDbMlineStyle
  2
STANDARD
 70
0
  3

 62
256
 51
90.0
 52
90.0
 71
2
 49
0.5
 62
256
  6
BYLAYER
 49
-0.5
 62
256
  6
BYLAYER
  0
LAYOUT
  5
29F
102
{ACAD_REACTORS
330
1A
102
}
100
AcDbPlotSettings
  1

  2
none_device
  4
ISO_A3_(420.00_x_297.00_MM)
  6

 40
0.0
 41
0.0
 42
0.0
 43
0.0
 44
420.0
 45
297.0
 46
0.0
 47
0.0
 48
0.0
 49
0.0
140
0.0
141
0.0
142
1.0
143
1.0
 70
1024
 72
1
 73
0
 74
0
  7

 75
0
147
1.0
148
0.0
149
0.0
100
AcDbLayout
  1
Model
 70
0
 71
0
 10
0.0
 20
0.0
 11
420.0
 21
297.0
 12
0.0
 22
0.0
 32
0.0
 14
0.0
 24
0.0
 34
0.0
 15
0.0
 25
0.0
 35
0.0
146
0.0
 13
0.0
 23
0.0
 33
0.0
 16
1.0
 26
0.0
 36
0.0
 17
0.0
 27
1.0
 37
0.0
 76
0
330
20F
345
0
346
0
  0
LAYOUT
  5
2A0
102
{ACAD_REACTORS
330
1A
102
}
100
AcDbPlotSettings
  1

  2
none_device
  4
ISO_A3_(420.00_x_297.00_MM)
  6

 40
0.0
 41
0.0
 42
0.0
 43
0.0
 44
420.0
 45
297.0
 46
0.0
 47
0.0
 48
0.0
 49
0.0
140
0.0
141
0.0
142
1.0
143
1.0
 70
0
 72
1
 73
0
 74
0
  7

 75
0
147
1.0
148
0.0
149
0.0
100
AcDbLayout
  1
Layout1
 70
0
 71
1
 10
0.0
 20
0.0
 11
420.0
 21
297.0
 12
0.0
 22
0.0
 32
0.0
 14
0.0
 24
0.0
 34
0.0
 15
0.0
 25
0.0
 35
0.0
146
0.0
 13
0.0
 23
0.0
 33
0.0
 16
1.0
 26
0.0
 36
0.0
 17
0.0
 27
1.0
 37
0.0
 76
0
330
210
345
0
346
0
  0
ENDSEC
  0
EOF
