999
DXF file: 70556720.dxf
999
Pro/ENGINEER 2017380 by Parametric Technology Corporation
  0
SECTION
  2
HEADER
  9
$ACADVER
  1
AC1027
  9
$DWGCODEPAGE
  3
ANSI_1252
  9
$EXTMAX
 10
420.0
 20
297.0
 30
0.0
  9
$EXTMIN
 10
0.0
 20
0.0
 30
0.0
  9
$LIMMIN
 10
0.0
 20
0.0
  9
$LIMMAX
 10
420.0
 20
297.0
  9
$VIEWCTR
 10
210.0
 20
148.5
  9
$VIEWSIZE
 40
297.0
  9
$CLAYER
  8
0
  9
$LTSCALE
 40
23.1
  9
$CELTYPE
  6
BYLAYER
  9
$DIMSCALE
 40
1.0
  9
$DIMASZ
 40
3.5
  9
$DIMEXO
 40
0.0
  9
$DIMDLI
 40
15.96
  9
$DIMEXE
 40
1.5
  9
$DIMCEN
 40
3.78
  9
$DIMLFAC
 40
1.0
  9
$DIMBLK
  1
_FILLED
  9
$DIMALT
 70
0
  9
$DIMALTF
 40
25.4
  9
$DIMTXT
 40
3.5
  9
$DIMTOL
 70
1
  9
$DIMLIM
 70
0
  9
$DIMTFAC
 40
1.0
  9
$DIMTP
 40
0.05
  9
$DIMTM
 40
0.05
  9
$DIMGAP
 40
0.625
  9
$DIMDSEP
 70
46
  9
$AUNITS
 70
0
  9
$PDMODE
 70
3
  9
$PDSIZE
 40
0.3125
  9
$HANDSEED
  5
2B2
  9
$TILEMODE
 70
1
  9
$MEASUREMENT
 70
1
  9
$INSUNITS
 70
4
  0
ENDSEC
  0
SECTION
  2
CLASSES
  0
CLASS
  1
ACDBDICTIONARYWDFLT
  2
AcDbDictionaryWithDefault
  3
AutoCAD 2000
 90
0
 91
1
280
0
281
0
  0
CLASS
  1
ACDBPLACEHOLDER
  2
AcDbPlaceHolder
  3
AutoCAD 2000
 90
0
 91
1
280
0
281
0
  0
CLASS
  1
LAYOUT
  2
AcDbLayout
  3
AutoCAD 2000
 90
0
 91
0
280
0
281
0
  0
ENDSEC
  0
SECTION
  2
TABLES
  0
TABLE
  2
VPORT
  5
8
100
AcDbSymbolTable
 70
2
  0
VPORT
  5
1F4
100
AcDbSymbolTableRecord
100
AcDbViewportTableRecord
  2
*ACTIVE
 70
0
 10
0.0
 20
0.0
 11
1.0
 21
1.0
 12
210.0
 22
148.5
 13
0.0
 23
0.0
 14
1.0
 24
1.0
 15
0.0
 25
0.0
 16
0.0
 26
0.0
 36
1.0
 17
0.0
 27
0.0
 37
0.0
 40
297.0
 41
1.4141414141
 42
50.0
 43
0.0
 44
0.0
 50
0.0
 51
0.0
 71
0
 72
100
 73
1
 74
1
 75
0
 76
0
 77
0
 78
0
  0
ENDTAB
  0
TABLE
  2
LTYPE
  5
5
100
AcDbSymbolTable
 70
6
  0
LTYPE
  5
14
100
AcDbSymbolTableRecord
100
AcDbLinetypeTableRecord
  2
BYBLOCK
 70
0
  3

 72
65
 73
0
 40
0.0
  0
LTYPE
  5
15
100
AcDbSymbolTableRecord
100
AcDbLinetypeTableRecord
  2
BYLAYER
 70
0
  3

 72
65
 73
0
 40
0.0
  0
LTYPE
  5
16
100
AcDbSymbolTableRecord
100
AcDbLinetypeTableRecord
  2
CONTINUOUS
 70
64
  3
Solid line
 72
65
 73
0
 40
0.0
  0
LTYPE
  5
1F5
100
AcDbSymbolTableRecord
100
AcDbLinetypeTableRecord
  2
CENTER
 70
64
  3
____ _ ____ _ ____ _ ____ _ ____ _ ____ _ ____
 72
65
 73
4
 40
0.6
 49
0.375
 74
0
 49
-0.075
 74
0
 49
0.075
 74
0
 49
-0.075
 74
0
  0
LTYPE
  5
1F6
100
AcDbSymbolTableRecord
100
AcDbLinetypeTableRecord
  2
HIDDEN
 70
64
  3
- - - - - - - - - - - - - - - - - - - -
 72
65
 73
2
 40
0.2
 49
0.1
 74
0
 49
-0.1
 74
0
  0
LTYPE
  5
1F7
100
AcDbSymbolTableRecord
100
AcDbLinetypeTableRecord
  2
PHANTOM
 70
64
  3
_____ _ _ _____ _ _ _____ _ _ _____
 72
65
 73
6
 40
0.8
 49
0.45
 74
0
 49
-0.05
 74
0
 49
0.1
 74
0
 49
-0.05
 74
0
 49
0.1
 74
0
 49
-0.05
 74
0
  0
LTYPE
  5
1F8
100
AcDbSymbolTableRecord
100
AcDbLinetypeTableRecord
  2
DOT
 70
64
  3
. . . . . . . . . . . . . . . . . . . .
 72
65
 73
2
 40
0.2
 49
0.1
 74
0
 49
-0.1
 74
0
  0
LTYPE
  5
1F9
100
AcDbSymbolTableRecord
100
AcDbLinetypeTableRecord
  2
DASHED
 70
64
  3
- - - - - - - - - - - - - - - - - - - -
 72
65
 73
2
 40
0.2
 49
0.1
 74
0
 49
-0.1
 74
0
  0
ENDTAB
  0
TABLE
  2
LAYER
  5
2
100
AcDbSymbolTable
 70
36
  0
LAYER
  5
10
100
AcDbSymbolTableRecord
100
AcDbLayerTableRecord
  2
0
 70
0
 62
7
  6
CONTINUOUS
370
-3
390
F
  0
LAYER
  5
1FA
100
AcDbSymbolTableRecord
100
AcDbLayerTableRecord
  2
DEFAULT_1
 70
0
 62
7
  6
CENTER
370
-3
390
F
  0
LAYER
  5
1FB
100
AcDbSymbolTableRecord
100
AcDbLayerTableRecord
  2
DEFAULT_2
 70
0
 62
1
  6
HIDDEN
370
-3
390
F
  0
LAYER
  5
1FC
100
AcDbSymbolTableRecord
100
AcDbLayerTableRecord
  2
DEFAULT_3
 70
0
 62
7
  6
PHANTOM
370
-3
390
F
  0
LAYER
  5
1FD
100
AcDbSymbolTableRecord
100
AcDbLayerTableRecord
  2
BG_STARTBEZUEGE
 70
0
 62
7
  6
CONTINUOUS
370
-3
390
F
  0
LAYER
  5
1FE
100
AcDbSymbolTableRecord
100
AcDbLayerTableRecord
  2
HILFEN
 70
0
 62
7
  6
CONTINUOUS
370
-3
390
F
  0
LAYER
  5
1FF
100
AcDbSymbolTableRecord
100
AcDbLayerTableRecord
  2
PLATZIERUNG
 70
0
 62
7
  6
CONTINUOUS
370
-3
390
F
  0
LAYER
  5
200
100
AcDbSymbolTableRecord
100
AcDbLayerTableRecord
  2
T_STARTBEZUEGE
 70
0
 62
7
  6
CONTINUOUS
370
-3
390
F
  0
LAYER
  5
201
100
AcDbSymbolTableRecord
100
AcDbLayerTableRecord
  2
_03_2D_ZEICHNUNG_BEMASSUNGEN
 70
0
 62
7
  6
CONTINUOUS
370
-3
390
F
  0
LAYER
  5
202
100
AcDbSymbolTableRecord
100
AcDbLayerTableRecord
  2
_04_NOTIZEN
 70
0
 62
7
  6
CONTINUOUS
370
-3
390
F
  0
LAYER
  5
203
100
AcDbSymbolTableRecord
100
AcDbLayerTableRecord
  2
_05_2D_ELEMENTE
 70
0
 62
7
  6
CONTINUOUS
370
-3
390
F
  0
LAYER
  5
204
100
AcDbSymbolTableRecord
100
AcDbLayerTableRecord
  2
_07_EINRASTLINIEN
 70
0
 62
7
  6
CONTINUOUS
370
-3
390
F
  0
LAYER
  5
205
100
AcDbSymbolTableRecord
100
AcDbLayerTableRecord
  2
_21_KURVEN
 70
0
 62
7
  6
CONTINUOUS
370
-3
390
F
  0
LAYER
  5
206
100
AcDbSymbolTableRecord
100
AcDbLayerTableRecord
  2
_22_FLAECHEN
 70
0
 62
7
  6
CONTINUOUS
370
-3
390
F
  0
LAYER
  5
207
100
AcDbSymbolTableRecord
100
AcDbLayerTableRecord
  2
_26_BEZUGSACHSEN
 70
0
 62
7
  6
CONTINUOUS
370
-3
390
F
  0
LAYER
  5
208
100
AcDbSymbolTableRecord
100
AcDbLayerTableRecord
  2
_27_BEZUGSEBENEN
 70
0
 62
7
  6
CONTINUOUS
370
-3
390
F
  0
LAYER
  5
209
100
AcDbSymbolTableRecord
100
AcDbLayerTableRecord
  2
_28_BEZUGSPUNKTE
 70
0
 62
7
  6
CONTINUOUS
370
-3
390
F
  0
LAYER
  5
20A
100
AcDbSymbolTableRecord
100
AcDbLayerTableRecord
  2
_29_KOORDINATENSYSTEME
 70
0
 62
7
  6
CONTINUOUS
370
-3
390
F
  0
LAYER
  5
20B
100
AcDbSymbolTableRecord
100
AcDbLayerTableRecord
  2
_30_VOLUMEN
 70
0
 62
7
  6
CONTINUOUS
370
-3
390
F
  0
ENDTAB
  0
TABLE
  2
STYLE
  5
3
100
AcDbSymbolTable
 70
1
  0
STYLE
  5
11
100
AcDbSymbolTableRecord
100
AcDbTextStyleTableRecord
  2
STANDARD
 70
0
 40
0.0
 41
0.7
 50
0.0
 71
0
 42
0.2
  3
SIMPLEX.SHX
  4

  0
STYLE
  5
20C
100
AcDbSymbolTableRecord
100
AcDbTextStyleTableRecord
  2
TEXTSTYLE_1
 70
0
 40
0.0
 41
0.8
 50
0.0
 71
0
 42
0.2
  3
gdt
  4

  0
STYLE
  5
20D
100
AcDbSymbolTableRecord
100
AcDbTextStyleTableRecord
  2
TEXTSTYLE_2
 70
0
 40
0.0
 41
0.7
 50
0.0
 71
0
 42
0.2
  3
gdt
  4

  0
ENDTAB
  0
TABLE
  2
VIEW
  5
6
100
AcDbSymbolTable
 70
0
  0
ENDTAB
  0
TABLE
  2
UCS
  5
7
100
AcDbSymbolTable
 70
0
  0
ENDTAB
  0
TABLE
  2
APPID
  5
9
100
AcDbSymbolTable
 70
1
  0
APPID
  5
20E
100
AcDbSymbolTableRecord
100
AcDbRegAppTableRecord
  2
ACAD
 70
0
  0
ENDTAB
  0
TABLE
  2
BLOCK_RECORD
  5
1
100
AcDbSymbolTable
 70
0
  0
BLOCK_RECORD
  5
20F
100
AcDbSymbolTableRecord
100
AcDbBlockTableRecord
  2
*Model_Space
  0
BLOCK_RECORD
  5
210
100
AcDbSymbolTableRecord
100
AcDbBlockTableRecord
  2
*Paper_Space
  0
BLOCK_RECORD
  5
211
100
AcDbSymbolTableRecord
100
AcDbBlockTableRecord
  2
_FILLED
  0
BLOCK_RECORD
  5
212
100
AcDbSymbolTableRecord
100
AcDbBlockTableRecord
  2
*D0
  0
BLOCK_RECORD
  5
213
100
AcDbSymbolTableRecord
100
AcDbBlockTableRecord
  2
*D1
  0
BLOCK_RECORD
  5
214
100
AcDbSymbolTableRecord
100
AcDbBlockTableRecord
  2
*D2
  0
BLOCK_RECORD
  5
215
100
AcDbSymbolTableRecord
100
AcDbBlockTableRecord
  2
*D3
  0
ENDTAB
  0
TABLE
  2
DIMSTYLE
  5
A
100
AcDbSymbolTable
 70
1
100
AcDbDimStyleTable
 71
0
  0
DIMSTYLE
105
216
100
AcDbSymbolTableRecord
100
AcDbDimStyleTableRecord
  2
STANDARD
 70
0
  3

  4

 40
1.0
 41
3.5
 42
0.0
 43
0.38
 44
1.5
 45
0.0
 46
0.0
 47
0.05
 48
0.05
140
3.5
141
0.09
142
0.0
143
25.4
144
1.0
145
0.0
146
1.0
147
0.625
 71
1.0
 72
0.0
 73
0
 74
0
 75
0
 76
0
 77
1
 78
8
 79
2
170
0
171
1
172
0
173
0
174
0
175
0
176
0
177
0
178
2
270
2
179
2
271
2
272
2
273
2
274
2
275
0
280
0
281
0
282
0
283
1
284
8
285
0
286
0
287
3
288
0
340
11
278
46
341
211
342
211
343
211
344
211
  0
DIMSTYLE
105
217
100
AcDbSymbolTableRecord
100
AcDbDimStyleTableRecord
  2
DIMSTYLE_1
 70
0
  3

  4

 40
1.0
 41
3.5
 42
0.0
 43
0.38
 44
1.5
 45
0.0
 46
0.0
 47
0.2
 48
0.2
140
3.5
141
0.09
142
0.0
143
25.4
144
1.0
145
0.0
146
1.0
147
0.875
 71
0.0
 72
0.0
 73
0
 74
0
 75
0
 76
0
 77
1
 78
8
 79
2
170
0
171
1
172
0
173
0
174
0
175
0
176
0
177
0
178
2
270
2
179
2
271
2
272
2
273
2
274
2
275
0
280
0
281
0
282
0
283
1
284
8
285
0
286
0
287
3
288
0
340
11
278
46
341
211
342
211
343
211
344
211
  0
DIMSTYLE
105
218
100
AcDbSymbolTableRecord
100
AcDbDimStyleTableRecord
  2
DIMSTYLE_2
 70
0
  3

  4

 40
1.0
 41
3.5
 42
0.0
 43
0.38
 44
1.5
 45
0.0
 46
0.0
 47
0.5
 48
0.5
140
3.5
141
0.09
142
0.0
143
25.4
144
1.0
145
0.0
146
1.0
147
0.875
 71
0.0
 72
0.0
 73
0
 74
0
 75
0
 76
0
 77
1
 78
8
 79
2
170
0
171
1
172
0
173
0
174
0
175
0
176
0
177
0
178
2
270
2
179
2
271
2
272
2
273
2
274
2
275
0
280
0
281
0
282
0
283
1
284
8
285
0
286
0
287
3
288
0
340
11
278
46
341
211
342
211
343
211
344
211
  0
DIMSTYLE
105
219
100
AcDbSymbolTableRecord
100
AcDbDimStyleTableRecord
  2
DIMSTYLE_3
 70
0
  3

  4

 40
1.0
 41
3.5
 42
0.0
 43
0.38
 44
1.5
 45
0.0
 46
0.0
 47
0.3
 48
0.3
140
3.5
141
0.09
142
0.0
143
25.4
144
1.0
145
0.0
146
1.0
147
0.875
 71
0.0
 72
0.0
 73
0
 74
0
 75
0
 76
0
 77
1
 78
8
 79
2
170
0
171
1
172
0
173
0
174
0
175
0
176
0
177
0
178
2
270
2
179
2
271
2
272
2
273
2
274
2
275
0
280
0
281
0
282
0
283
1
284
8
285
0
286
0
287
3
288
0
340
11
278
46
341
211
342
211
343
211
344
211
  0
ENDTAB
  0
ENDSEC
  0
SECTION
  2
BLOCKS
  0
BLOCK
  5
20
100
AcDbEntity
  8
0
100
AcDbBlockBegin
  2
*Model_Space
 70
0
 10
0.0
 20
0.0
 30
0.0
  3
*Model_Space
  1

  0
ENDBLK
  5
21
100
AcDbEntity
  8
0
100
AcDbBlockEnd
  0
BLOCK
  5
1C
100
AcDbEntity
  8
0
100
AcDbBlockBegin
  2
*Paper_Space
 70
0
 10
0.0
 20
0.0
 30
0.0
  3
*Paper_Space
  1

  0
ENDBLK
  5
1D
100
AcDbEntity
  8
0
100
AcDbBlockEnd
  0
BLOCK
  5
21A
100
AcDbEntity
  8
0
100
AcDbBlockBegin
  2
_FILLED
 70
64
 10
0.0
 20
0.0
  3
_FILLED
  1

  0
SOLID
  5
21B
100
AcDbEntity
  8
0
  6
BYBLOCK
 62
0
100
AcDbTrace
 10
0.0
 20
0.0
 11
-1.0
 21
0.125
 12
-1.0
 22
-0.125
 13
-1.0
 23
-0.125
  0
ENDBLK
  5
21C
100
AcDbEntity
  8
0
  6
BYBLOCK
 62
0
100
AcDbBlockEnd
  0
BLOCK
  5
21D
100
AcDbEntity
  8
_03_2D_ZEICHNUNG_BEMASSUNGEN
100
AcDbBlockBegin
 62
7
  6
CONTINUOUS
  2
*D0
 70
65
 10
0.0
 20
0.0
  3
*D0
  1

  0
TEXT
  5
21E
100
AcDbEntity
  8
_03_2D_ZEICHNUNG_BEMASSUNGEN
100
AcDbText
 62
2
  6
CONTINUOUS
 10
-9.875
 20
-5.0833333333
  7
TEXTSTYLE_2
 40
3.5
  1
n
 50
90.0
 41
1.0
 72
1
 11
-9.875
 21
-2.75
100
AcDbText
  0
TEXT
  5
21F
100
AcDbEntity
  8
_03_2D_ZEICHNUNG_BEMASSUNGEN
100
AcDbText
 62
2
  6
CONTINUOUS
 10
-9.875
 20
-0.4166666667
  7
STANDARD
 40
3.5
  1
20
 50
90.0
 41
0.7857142857
 72
1
 11
-9.875
 21
2.3333333333
100
AcDbText
  0
LINE
  5
220
100
AcDbEntity
  8
_03_2D_ZEICHNUNG_BEMASSUNGEN
100
AcDbLine
 62
7
  6
CONTINUOUS
 10
1.5
 20
10.0
 11
-10.5
 21
10.0
  0
LINE
  5
221
100
AcDbEntity
  8
_03_2D_ZEICHNUNG_BEMASSUNGEN
100
AcDbLine
 62
7
  6
CONTINUOUS
 10
1.5
 20
-10.0
 11
-10.5
 21
-10.0
  0
LINE
  5
222
100
AcDbEntity
  8
_03_2D_ZEICHNUNG_BEMASSUNGEN
100
AcDbLine
 62
7
  6
CONTINUOUS
 10
-9.0
 20
10.0
 11
-9.0
 21
0.0
  0
LINE
  5
223
100
AcDbEntity
  8
_03_2D_ZEICHNUNG_BEMASSUNGEN
100
AcDbLine
 62
7
  6
CONTINUOUS
 10
-9.0
 20
-10.0
 11
-9.0
 21
0.0
  0
INSERT
  5
224
100
AcDbEntity
  8
_03_2D_ZEICHNUNG_BEMASSUNGEN
100
AcDbBlockReference
 62
7
  6
CONTINUOUS
  2
_FILLED
 10
-9.0
 20
10.0
 41
3.5
 42
3.5
 43
3.5
 50
90.0
  0
INSERT
  5
225
100
AcDbEntity
  8
_03_2D_ZEICHNUNG_BEMASSUNGEN
100
AcDbBlockReference
 62
7
  6
CONTINUOUS
  2
_FILLED
 10
-9.0
 20
-10.0
 41
3.5
 42
3.5
 43
3.5
 50
270.0
  0
ENDBLK
  5
226
100
AcDbEntity
  8
0
  6
BYBLOCK
 62
0
100
AcDbBlockEnd
  0
BLOCK
  5
227
100
AcDbEntity
  8
_03_2D_ZEICHNUNG_BEMASSUNGEN
100
AcDbBlockBegin
 62
7
  6
CONTINUOUS
  2
*D1
 70
65
 10
0.0
 20
0.0
  3
*D1
  1

  0
TEXT
  5
228
100
AcDbEntity
  8
_03_2D_ZEICHNUNG_BEMASSUNGEN
100
AcDbText
 62
2
  6
CONTINUOUS
 10
89.5318647483
 20
31.9533261505
  7
STANDARD
 40
3.5
  1
180
 41
0.7142857143
 72
1
 11
93.2818647483
 21
31.9533261505
100
AcDbText
  0
LINE
  5
229
100
AcDbEntity
  8
_03_2D_ZEICHNUNG_BEMASSUNGEN
100
AcDbLine
 62
7
  6
CONTINUOUS
 10
180.0
 20
0.0
 11
180.0
 21
32.5783261505
  0
LINE
  5
22A
100
AcDbEntity
  8
_03_2D_ZEICHNUNG_BEMASSUNGEN
100
AcDbLine
 62
7
  6
CONTINUOUS
 10
0.0
 20
0.0
 11
0.0
 21
32.5783261505
  0
LINE
  5
22B
100
AcDbEntity
  8
_03_2D_ZEICHNUNG_BEMASSUNGEN
100
AcDbLine
 62
7
  6
CONTINUOUS
 10
180.0
 20
31.0783261505
 11
90.0
 21
31.0783261505
  0
LINE
  5
22C
100
AcDbEntity
  8
_03_2D_ZEICHNUNG_BEMASSUNGEN
100
AcDbLine
 62
7
  6
CONTINUOUS
 10
0.0
 20
31.0783261505
 11
90.0
 21
31.0783261505
  0
INSERT
  5
22D
100
AcDbEntity
  8
_03_2D_ZEICHNUNG_BEMASSUNGEN
100
AcDbBlockReference
 62
7
  6
CONTINUOUS
  2
_FILLED
 10
180.0
 20
31.0783261505
 41
3.5
 42
3.5
 43
3.5
  0
INSERT
  5
22E
100
AcDbEntity
  8
_03_2D_ZEICHNUNG_BEMASSUNGEN
100
AcDbBlockReference
 62
7
  6
CONTINUOUS
  2
_FILLED
 10
0.0
 20
31.0783261505
 41
3.5
 42
3.5
 43
3.5
 50
180.0
  0
ENDBLK
  5
22F
100
AcDbEntity
  8
0
  6
BYBLOCK
 62
0
100
AcDbBlockEnd
  0
BLOCK
  5
230
100
AcDbEntity
  8
_03_2D_ZEICHNUNG_BEMASSUNGEN
100
AcDbBlockBegin
 62
7
  6
CONTINUOUS
  2
*D2
 70
65
 10
0.0
 20
0.0
  3
*D2
  1

  0
TEXT
  5
231
100
AcDbEntity
  8
_03_2D_ZEICHNUNG_BEMASSUNGEN
100
AcDbText
 62
2
  6
CONTINUOUS
 10
159.6116387412
 20
22.9533261505
  7
STANDARD
 40
3.5
  1
35
 41
0.7142857143
 72
1
 11
162.1116387412
 21
22.9533261505
100
AcDbText
  0
LINE
  5
232
100
AcDbEntity
  8
_03_2D_ZEICHNUNG_BEMASSUNGEN
100
AcDbLine
 62
7
  6
CONTINUOUS
 10
180.0
 20
-10.4941837975
 11
180.0
 21
23.5783261505
  0
LINE
  5
233
100
AcDbEntity
  8
_03_2D_ZEICHNUNG_BEMASSUNGEN
100
AcDbLine
 62
7
  6
CONTINUOUS
 10
145.0
 20
-10.4941837975
 11
145.0
 21
23.5783261505
  0
LINE
  5
234
100
AcDbEntity
  8
_03_2D_ZEICHNUNG_BEMASSUNGEN
100
AcDbLine
 62
7
  6
CONTINUOUS
 10
180.0
 20
22.0783261505
 11
162.5
 21
22.0783261505
  0
LINE
  5
235
100
AcDbEntity
  8
_03_2D_ZEICHNUNG_BEMASSUNGEN
100
AcDbLine
 62
7
  6
CONTINUOUS
 10
145.0
 20
22.0783261505
 11
162.5
 21
22.0783261505
  0
INSERT
  5
236
100
AcDbEntity
  8
_03_2D_ZEICHNUNG_BEMASSUNGEN
100
AcDbBlockReference
 62
7
  6
CONTINUOUS
  2
_FILLED
 10
180.0
 20
22.0783261505
 41
3.5
 42
3.5
 43
3.5
  0
INSERT
  5
237
100
AcDbEntity
  8
_03_2D_ZEICHNUNG_BEMASSUNGEN
100
AcDbBlockReference
 62
7
  6
CONTINUOUS
  2
_FILLED
 10
145.0
 20
22.0783261505
 41
3.5
 42
3.5
 43
3.5
 50
180.0
  0
ENDBLK
  5
238
100
AcDbEntity
  8
0
  6
BYBLOCK
 62
0
100
AcDbBlockEnd
  0
BLOCK
  5
239
100
AcDbEntity
  8
_03_2D_ZEICHNUNG_BEMASSUNGEN
100
AcDbBlockBegin
 62
7
  6
CONTINUOUS
  2
*D3
 70
65
 10
0.0
 20
0.0
  3
*D3
  1

  0
TEXT
  5
23A
100
AcDbEntity
  8
_03_2D_ZEICHNUNG_BEMASSUNGEN
100
AcDbText
 62
2
  6
CONTINUOUS
 10
188.2024397643
 20
4.25
  7
STANDARD
 40
3.5
  1
13
 50
90.0
 41
0.6428571429
 72
1
 11
188.2024397643
 21
6.5
100
AcDbText
  0
LINE
  5
23B
100
AcDbEntity
  8
_03_2D_ZEICHNUNG_BEMASSUNGEN
100
AcDbLine
 62
7
  6
CONTINUOUS
 10
184.1401215184
 20
0.0
 11
190.5774397643
 21
0.0
  0
LINE
  5
23C
100
AcDbEntity
  8
_03_2D_ZEICHNUNG_BEMASSUNGEN
100
AcDbLine
 62
7
  6
CONTINUOUS
 10
180.0
 20
13.0
 11
190.5774397643
 21
13.0
  0
LINE
  5
23D
100
AcDbEntity
  8
_03_2D_ZEICHNUNG_BEMASSUNGEN
100
AcDbLine
 62
7
  6
CONTINUOUS
 10
189.0774397643
 20
0.0
 11
189.0774397643
 21
-6.0
  0
LINE
  5
23E
100
AcDbEntity
  8
_03_2D_ZEICHNUNG_BEMASSUNGEN
100
AcDbLine
 62
7
  6
CONTINUOUS
 10
189.0774397643
 20
-6.0
 11
189.0774397643
 21
6.5
  0
LINE
  5
23F
100
AcDbEntity
  8
_03_2D_ZEICHNUNG_BEMASSUNGEN
100
AcDbLine
 62
7
  6
CONTINUOUS
 10
189.0774397643
 20
13.0
 11
189.0774397643
 21
19.0
  0
LINE
  5
240
100
AcDbEntity
  8
_03_2D_ZEICHNUNG_BEMASSUNGEN
100
AcDbLine
 62
7
  6
CONTINUOUS
 10
189.0774397643
 20
19.0
 11
189.0774397643
 21
6.5
  0
INSERT
  5
241
100
AcDbEntity
  8
_03_2D_ZEICHNUNG_BEMASSUNGEN
100
AcDbBlockReference
 62
7
  6
CONTINUOUS
  2
_FILLED
 10
189.0774397643
 20
0.0
 41
3.5
 42
3.5
 43
3.5
 50
90.0
  0
INSERT
  5
242
100
AcDbEntity
  8
_03_2D_ZEICHNUNG_BEMASSUNGEN
100
AcDbBlockReference
 62
7
  6
CONTINUOUS
  2
_FILLED
 10
189.0774397643
 20
13.0
 41
3.5
 42
3.5
 43
3.5
 50
270.0
  0
ENDBLK
  5
243
100
AcDbEntity
  8
0
  6
BYBLOCK
 62
0
100
AcDbBlockEnd
  0
ENDSEC
  0
SECTION
  2
ENTITIES
  0
DIMENSION
  5
244
100
AcDbEntity
  8
_03_2D_ZEICHNUNG_BEMASSUNGEN
100
AcDbDimension
 62
7
  6
CONTINUOUS
  2
*D0
 10
-9.0
 20
-10.0
 11
-9.0
 21
0.0
 70
160
 71
2
 42
20.0
  1
%%c<>
  3
DIMSTYLE_1
100
AcDbAlignedDimension
 13
1.5
 23
10.0
 14
1.5
 24
-10.0
 50
270.0
100
AcDbRotatedDimension
  0
DIMENSION
  5
245
100
AcDbEntity
  8
_03_2D_ZEICHNUNG_BEMASSUNGEN
100
AcDbDimension
 62
7
  6
CONTINUOUS
  2
*D1
 10
0.0
 20
31.0783261505
 11
92.7818650818
 21
31.0783261505
 70
160
 71
2
 42
180.0
  3
DIMSTYLE_2
100
AcDbAlignedDimension
 13
180.0
 23
0.0
 14
0.0
 24
0.0
 50
180.0
100
AcDbRotatedDimension
  0
DIMENSION
  5
246
100
AcDbEntity
  8
_03_2D_ZEICHNUNG_BEMASSUNGEN
100
AcDbDimension
 62
7
  6
CONTINUOUS
  2
*D2
 10
145.0
 20
22.0783261505
 11
161.6116369629
 21
22.0783261505
 70
160
 71
2
 42
35.0
  3
DIMSTYLE_3
100
AcDbAlignedDimension
 13
180.0
 23
-10.4941837975
 14
145.0
 24
-10.4941837975
 50
180.0
100
AcDbRotatedDimension
  0
DIMENSION
  5
247
100
AcDbEntity
  8
_03_2D_ZEICHNUNG_BEMASSUNGEN
100
AcDbDimension
 62
7
  6
CONTINUOUS
  2
*D3
 10
189.0774397643
 20
13.0
 11
189.0774397643
 21
6.0000007264
 70
160
 71
2
 42
13.0
  3
DIMSTYLE_1
100
AcDbAlignedDimension
 13
184.1401215184
 23
0.0
 14
180.0
 24
13.0
 50
90.0
100
AcDbRotatedDimension
  0
LINE
  5
248
100
AcDbEntity
  8
_30_VOLUMEN
100
AcDbLine
 62
4
  6
CONTINUOUS
 10
-0.0
 20
8.5
 11
0.0
 21
-8.5
  0
LINE
  5
249
100
AcDbEntity
  8
0
100
AcDbLine
 62
4
  6
CONTINUOUS
 10
1.5
 20
10.0
 11
1.5
 21
4.3588989435
  0
LINE
  5
24A
100
AcDbEntity
  8
0
100
AcDbLine
 62
4
  6
CONTINUOUS
 10
1.5
 20
-4.3588989435
 11
1.5
 21
-10.0
  0
LINE
  5
24B
100
AcDbEntity
  8
_30_VOLUMEN
100
AcDbLine
 62
4
  6
CONTINUOUS
 10
1.5
 20
10.0
 11
-0.0
 21
8.5
  0
LINE
  5
24C
100
AcDbEntity
  8
_30_VOLUMEN
100
AcDbLine
 62
4
  6
CONTINUOUS
 10
1.5
 20
-10.0
 11
0.0
 21
-8.5
  0
LINE
  5
24D
100
AcDbEntity
  8
_30_VOLUMEN
100
AcDbLine
 62
4
  6
CONTINUOUS
 10
1.5
 20
-10.0
 11
145.0
 21
-10.0
  0
LINE
  5
24E
100
AcDbEntity
  8
_30_VOLUMEN
100
AcDbLine
 62
4
  6
CONTINUOUS
 10
177.8350162069
 20
2.8845889583
 11
178.4416854623
 21
2.9370287587
  0
LINE
  5
24F
100
AcDbEntity
  8
_30_VOLUMEN
100
AcDbLine
 62
4
  6
CONTINUOUS
 10
178.8208829421
 20
3.5934705126
 11
174.6618660742
 21
3.2339698254
  0
LINE
  5
250
100
AcDbEntity
  8
_21_KURVEN
100
AcDbLine
 62
7
  6
CONTINUOUS
 10
178.8208829421
 20
3.5934705126
 11
174.6618660742
 21
3.2339698254
  0
LINE
  5
251
100
AcDbEntity
  8
_30_VOLUMEN
100
AcDbLine
 62
4
  6
CONTINUOUS
 10
145.0
 20
-9.75
 11
169.6576700471
 21
-9.75
  0
LINE
  5
252
100
AcDbEntity
  8
0
100
AcDbLine
 62
4
  6
CONTINUOUS
 10
1.5
 20
-4.3588989435
 11
145.0
 21
-4.3588989435
  0
LINE
  5
253
100
AcDbEntity
  8
_30_VOLUMEN
100
AcDbLine
 62
4
  6
CONTINUOUS
 10
145.0
 20
-3.75
 11
148.2961666618
 21
-3.75
  0
LINE
  5
254
100
AcDbEntity
  8
_30_VOLUMEN
100
AcDbLine
 62
4
  6
CONTINUOUS
 10
163.9834100338
 20
10.7334100338
 11
170.3336027903
 21
11.5131156631
  0
LINE
  5
255
100
AcDbEntity
  8
_26_BEZUGSACHSEN
100
AcDbLine
 62
7
  6
CENTER
 10
-3.0
 20
0.0
 11
184.1401215184
 21
0.0
  0
LINE
  5
256
100
AcDbEntity
  8
_30_VOLUMEN
100
AcDbLine
 62
4
  6
CONTINUOUS
 10
171.1976003158
 20
12.3107629294
 11
179.1368347859
 21
12.9970213261
  0
LINE
  5
257
100
AcDbEntity
  8
_21_KURVEN
100
AcDbLine
 62
7
  6
CONTINUOUS
 10
171.1976003158
 20
12.3107629294
 11
179.1368347859
 21
12.9970213261
  0
LINE
  5
258
100
AcDbEntity
  8
_30_VOLUMEN
100
AcDbLine
 62
4
  6
CONTINUOUS
 10
1.5
 20
4.3588989435
 11
140.0944521436
 21
4.3588989435
  0
LINE
  5
259
100
AcDbEntity
  8
_30_VOLUMEN
100
AcDbLine
 62
4
  6
CONTINUOUS
 10
145.0
 20
9.75
 11
163.0
 21
9.75
  0
LINE
  5
25A
100
AcDbEntity
  8
_30_VOLUMEN
100
AcDbLine
 62
4
  6
CONTINUOUS
 10
1.5
 20
10.0
 11
145.0
 21
10.0
  0
LINE
  5
25B
100
AcDbEntity
  8
_30_VOLUMEN
100
AcDbLine
 62
4
  6
CONTINUOUS
 10
163.7551954876
 20
4.7956114049
 11
165.1421729761
 21
4.6949029737
  0
LINE
  5
25C
100
AcDbEntity
  8
_30_VOLUMEN
100
AcDbLine
 62
4
  6
CONTINUOUS
 10
158.756517476
 20
0.8535006119
 11
161.4564633336
 21
1.7882393061
  0
LINE
  5
25D
100
AcDbEntity
  8
_30_VOLUMEN
100
AcDbLine
 62
7
  6
CONTINUOUS
 10
174.2272079363
 20
9.5547943435
 11
174.4798987115
 21
9.5203234587
  0
LINE
  5
25E
100
AcDbEntity
  8
_30_VOLUMEN
100
AcDbLine
 62
4
  6
CONTINUOUS
 10
174.2272079363
 20
9.5547943435
 11
163.7551954876
 21
4.7956114049
  0
LINE
  5
25F
100
AcDbEntity
  8
_30_VOLUMEN
100
AcDbLine
 62
4
  6
CONTINUOUS
 10
169.9596032032
 20
6.8842655109
 11
165.1421729761
 21
4.6949029737
  0
LINE
  5
260
100
AcDbEntity
  8
_30_VOLUMEN
100
AcDbLine
 62
4
  6
CONTINUOUS
 10
174.4798987115
 20
9.5203234587
 11
169.9596032032
 21
6.8842655109
  0
LINE
  5
261
100
AcDbEntity
  8
_30_VOLUMEN
100
AcDbLine
 62
4
  6
CONTINUOUS
 10
163.7551954876
 20
4.7956114049
 11
158.756517476
 21
0.8535006119
  0
LINE
  5
262
100
AcDbEntity
  8
_30_VOLUMEN
100
AcDbLine
 62
4
  6
CONTINUOUS
 10
163.0
 20
9.75
 11
163.9834100338
 21
10.7334100338
  0
LINE
  5
263
100
AcDbEntity
  8
_30_VOLUMEN
100
AcDbLine
 62
4
  6
CONTINUOUS
 10
165.1421729761
 20
4.6949029737
 11
161.4564633336
 21
1.7882393061
  0
LINE
  5
264
100
AcDbEntity
  8
_30_VOLUMEN
100
AcDbLine
 62
4
  6
CONTINUOUS
 10
158.756517476
 20
0.8535006119
 11
167.3918741534
 21
-7.8694825344
  0
LINE
  5
265
100
AcDbEntity
  8
0
100
AcDbLine
 62
4
  6
CONTINUOUS
 10
145.0
 20
-3.75
 11
145.0
 21
-4.3588989435
  0
LINE
  5
266
100
AcDbEntity
  8
_30_VOLUMEN
100
AcDbLine
 62
4
  6
CONTINUOUS
 10
145.0
 20
-9.9999980697
 11
145.0
 21
-4.3588989435
  0
LINE
  5
267
100
AcDbEntity
  8
_30_VOLUMEN
100
AcDbLine
 62
4
  6
CONTINUOUS
 10
145.0
 20
8.1287634354
 11
145.0
 21
9.9998453808
  0
LINE
  5
268
100
AcDbEntity
  8
_30_VOLUMEN
100
AcDbLine
 62
4
  6
CONTINUOUS
 10
161.4564633336
 20
1.7882393061
 11
167.9192220238
 21
-4.7400996195
  0
LINE
  5
269
100
AcDbEntity
  8
_28_BEZUGSPUNKTE
100
AcDbLine
 62
1
  6
CONTINUOUS
 10
180.15625
 20
13.15625
 11
179.84375
 21
12.84375
  0
LINE
  5
26A
100
AcDbEntity
  8
_30_VOLUMEN
100
AcDbLine
 62
4
  6
CONTINUOUS
 10
173.3074458943
 20
3.5024509013
 11
169.9596032032
 21
6.8842655109
  0
LINE
  5
26B
100
AcDbEntity
  8
_30_VOLUMEN
100
AcDbLine
 62
4
  6
CONTINUOUS
 10
170.5941258113
 20
11.9311310074
 11
170.3508867313
 21
11.5100514992
  0
LINE
  5
26C
100
AcDbEntity
  8
_30_VOLUMEN
100
AcDbLine
 62
7
  6
CONTINUOUS
 10
170.4940849747
 20
11.5991950547
 11
170.4288276449
 21
11.4862258546
  0
LINE
  5
26D
100
AcDbEntity
  8
_30_VOLUMEN
100
AcDbLine
 62
4
  6
CONTINUOUS
 10
176.4875707482
 20
7.492278759
 11
173.3074458943
 21
3.5024509013
  0
LINE
  5
26E
100
AcDbEntity
  8
_30_VOLUMEN
100
AcDbLine
 62
4
  6
CONTINUOUS
 10
167.9192220238
 20
-4.7400996195
 11
170.963038414
 21
-1.1850291482
  0
LINE
  5
26F
100
AcDbEntity
  8
_30_VOLUMEN
100
AcDbLine
 62
4
  6
CONTINUOUS
 10
167.3918741534
 20
-7.8694825344
 11
171.5199958821
 21
-3.0479815705
  0
LINE
  5
270
100
AcDbEntity
  8
_30_VOLUMEN
100
AcDbLine
 62
4
  6
CONTINUOUS
 10
177.4076700471
 20
-2.0
 11
169.6576688012
 21
-9.7500012459
  0
LINE
  5
271
100
AcDbEntity
  8
_30_VOLUMEN
100
AcDbLine
 62
4
  6
CONTINUOUS
 10
163.0
 20
9.75
 11
163.0
 21
9.3180369565
  0
LINE
  5
272
100
AcDbEntity
  8
_28_BEZUGSPUNKTE
100
AcDbLine
 62
1
  6
CONTINUOUS
 10
180.15625
 20
12.84375
 11
179.84375
 21
13.15625
  0
LINE
  5
273
100
AcDbEntity
  8
_30_VOLUMEN
100
AcDbLine
 62
4
  6
CONTINUOUS
 10
163.9834100338
 20
10.7334100338
 11
163.9834100338
 21
10.435390809
  0
LINE
  5
274
100
AcDbEntity
  8
_30_VOLUMEN
100
AcDbLine
 62
4
  6
CONTINUOUS
 10
167.3918741534
 20
-7.8694825344
 11
167.9192220238
 21
-4.7400996195
  0
LINE
  5
275
100
AcDbEntity
  8
_30_VOLUMEN
100
AcDbLine
 62
4
  6
CONTINUOUS
 10
170.963038414
 20
-1.1850291482
 11
173.3074458943
 21
3.5024509013
  0
LINE
  5
276
100
AcDbEntity
  8
_30_VOLUMEN
100
AcDbLine
 62
4
  6
CONTINUOUS
 10
171.5199958821
 20
-3.0479815705
 11
176.6162117402
 21
7.1415483484
  0
LINE
  5
277
100
AcDbEntity
  8
_30_VOLUMEN
100
AcDbLine
 62
7
  6
CONTINUOUS
 10
178.8208829421
 20
3.5934705126
 11
178.4416854623
 21
2.9370287587
  0
LINE
  5
278
100
AcDbEntity
  8
_30_VOLUMEN
100
AcDbLine
 62
4
  6
CONTINUOUS
 10
179.4243574466
 20
3.9731024346
 11
179.0451599668
 21
3.3166606807
  0
LINE
  5
279
100
AcDbEntity
  8
_30_VOLUMEN
100
AcDbLine
 62
4
  6
CONTINUOUS
 10
171.5199958821
 20
-3.0479815705
 11
170.963038414
 21
-1.1850291482
  0
LINE
  5
27A
100
AcDbEntity
  8
_30_VOLUMEN
100
AcDbLine
 62
4
  6
CONTINUOUS
 10
170.251309758
 20
7.74788026
 11
170.4940849747
 21
11.5991950547
  0
LINE
  5
27B
100
AcDbEntity
  8
_21_KURVEN
100
AcDbLine
 62
7
  6
CONTINUOUS
 10
170.251309758
 20
7.74788026
 11
170.4940849747
 21
11.5991950547
  0
LINE
  5
27C
100
AcDbEntity
  8
_21_KURVEN
100
AcDbLine
 62
7
  6
CONTINUOUS
 10
180.0188583481
 20
12.1490077551
 11
179.5243982832
 21
4.3050383872
  0
LINE
  5
27D
100
AcDbEntity
  8
_30_VOLUMEN
100
AcDbLine
 62
4
  6
CONTINUOUS
 10
180.0188583481
 20
12.1490077551
 11
179.5243982832
 21
4.3050383872
  0
LINE
  5
27E
100
AcDbEntity
  8
_26_BEZUGSACHSEN
100
AcDbLine
 62
4
  6
CONTINUOUS
 10
177.8899955447
 20
3.5130056648
 11
177.4076700471
 21
-2.0
  0
LINE
  5
27F
100
AcDbEntity
  8
_30_VOLUMEN
100
AcDbLine
 62
7
  6
CONTINUOUS
 10
176.6162117402
 20
7.1415483484
 11
176.4875707482
 21
7.492278759
  0
ARC
  5
280
100
AcDbEntity
  8
_30_VOLUMEN
100
AcDbCircle
 62
4
  6
CONTINUOUS
 10
204.8627507781
 20
454.9267207645
 40
464.1635461366
100
AcDbArc
 50
264.296627897
 51
265.3499254544
  0
ARC
  5
281
100
AcDbEntity
  8
_26_BEZUGSACHSEN
100
AcDbCircle
 62
4
  6
CONTINUOUS
 10
217.295519755
 20
-315.1939300409
 40
329.9645975557
100
AcDbArc
 50
98.2061877991
 51
99.2979888273
  0
ARC
  5
282
100
AcDbEntity
  8
_30_VOLUMEN
100
AcDbCircle
 62
4
  6
CONTINUOUS
 10
220.5004332144
 20
-40.2980406952
 40
75.9477121537
100
AcDbArc
 50
138.0867443746
 51
139.209688399
  0
ARC
  5
283
100
AcDbEntity
  8
_30_VOLUMEN
100
AcDbCircle
 62
7
  6
CONTINUOUS
 10
174.8339736291
 20
7.5450711709
 40
1.8554665006
100
AcDbArc
 50
347.2048530261
 51
351.2742989453
  0
ARC
  5
284
100
AcDbEntity
  8
_30_VOLUMEN
100
AcDbCircle
 62
4
  6
CONTINUOUS
 10
174.7213588644
 20
7.2401347821
 40
1.7985755541
100
AcDbArc
 50
340.5504419153
 51
346.7119291961
  0
ARC
  5
285
100
AcDbEntity
  8
_30_VOLUMEN
100
AcDbCircle
 62
4
  6
CONTINUOUS
 10
174.9610722021
 20
7.9324782197
 40
1.7807190587
100
AcDbArc
 50
100.2204645208
 51
107.238721696
  0
ARC
  5
286
100
AcDbEntity
  8
_30_VOLUMEN
100
AcDbCircle
 62
4
  6
CONTINUOUS
 10
174.743755011
 20
7.2329864419
 40
1.7750773565
100
AcDbArc
 50
336.0987584387
 51
340.52729936
  0
ARC
  5
287
100
AcDbEntity
  8
_30_VOLUMEN
100
AcDbCircle
 62
4
  6
CONTINUOUS
 10
174.9541667939
 20
7.9537828122
 40
1.7583250848
100
AcDbArc
 50
107.2295484632
 51
114.4210044993
  0
SPLINE
  5
288
100
AcDbEntity
  8
_30_VOLUMEN
100
AcDbSpline
 62
4
  6
CONTINUOUS
 70
0
 71
3
 72
11
 73
7
 74
0
 42
0.0000001
 43
0.0000001
 44
0.0000000001
 40
0.0
 40
0.0
 40
0.0
 40
0.0
 40
0.2473053508
 40
0.4976086668
 40
0.7493593324
 40
1.0
 40
1.0
 40
1.0
 40
1.0
 10
180.0188583481
 20
12.1490077551
 30
0.0
 10
180.0259921485
 20
12.2621762713
 30
0.0
 10
179.9883878997
 20
12.4960793691
 30
0.0
 10
179.7899543456
 20
12.7890771922
 30
0.0
 10
179.4880336673
 20
12.9761416509
 30
0.0
 10
179.2513302768
 20
13.0069181861
 30
0.0
 10
179.1368347859
 20
12.9970213261
 30
0.0
  0
SPLINE
  5
289
100
AcDbEntity
  8
_30_VOLUMEN
100
AcDbSpline
 62
4
  6
CONTINUOUS
 70
0
 71
3
 72
9
 73
5
 74
0
 42
0.0000001
 43
0.0000001
 44
0.0000000001
 40
0.0
 40
0.0
 40
0.0
 40
0.0
 40
0.5027494691
 40
1.0
 40
1.0
 40
1.0
 40
1.0
 10
171.1976003158
 20
12.3107629294
 30
0.0
 10
171.0750349775
 20
12.300168521
 30
0.0
 10
170.8324459505
 20
12.2208303518
 30
0.0
 10
170.6548145693
 20
12.0365924382
 30
0.0
 10
170.5941442006
 20
11.9311204212
 30
0.0
  0
SPLINE
  5
28A
100
AcDbEntity
  8
_30_VOLUMEN
100
AcDbSpline
 62
4
  6
CONTINUOUS
 70
0
 71
3
 72
8
 73
4
 74
0
 42
0.0000001
 43
0.0000001
 44
0.0000000001
 40
0.0
 40
0.0
 40
0.0
 40
0.0
 40
1.0
 40
1.0
 40
1.0
 40
1.0
 10
179.4243390573
 20
3.9731130208
 30
0.0
 10
179.4819593063
 20
4.0732825769
 30
0.0
 10
179.517128183
 20
4.189707651
 30
0.0
 10
179.5243982832
 20
4.3050383872
 30
0.0
  0
SPLINE
  5
28B
100
AcDbEntity
  8
_30_VOLUMEN
100
AcDbSpline
 62
4
  6
CONTINUOUS
 70
0
 71
3
 72
9
 73
5
 74
0
 42
0.0000001
 43
0.0000001
 44
0.0000000001
 40
0.0
 40
0.0
 40
0.0
 40
0.0
 40
0.4972505309
 40
1.0
 40
1.0
 40
1.0
 40
1.0
 10
179.0451415774
 20
3.3166712669
 30
0.0
 10
178.9844712088
 20
3.2111992499
 30
0.0
 10
178.8068398276
 20
3.0269613363
 30
0.0
 10
178.5642508006
 20
2.9476231671
 30
0.0
 10
178.4416854623
 20
2.9370287587
 30
0.0
  0
SPLINE
  5
28C
100
AcDbEntity
  8
_30_VOLUMEN
100
AcDbSpline
 62
4
  6
CONTINUOUS
 70
0
 71
3
 72
9
 73
5
 74
0
 42
0.0000001
 43
0.0000001
 44
0.0000000001
 40
0.0
 40
0.0
 40
0.0
 40
0.0
 40
0.246994448
 40
1.0
 40
1.0
 40
1.0
 40
1.0
 10
176.4479590632
 20
6.6342417593
 30
0.0
 10
176.4310646982
 20
6.604995345
 30
0.0
 10
176.3588968368
 20
6.4887958519
 30
0.0
 10
176.2719846746
 20
6.3818134332
 30
0.0
 10
176.2000415605
 20
6.3081452746
 30
0.0
  0
SPLINE
  5
28D
100
AcDbEntity
  8
_30_VOLUMEN
100
AcDbSpline
 62
7
  6
CONTINUOUS
 70
0
 71
3
 72
9
 73
5
 74
0
 42
0.0000001
 43
0.0000001
 44
0.0000000001
 40
0.0
 40
0.0
 40
0.0
 40
0.0
 40
0.250882628
 40
1.0
 40
1.0
 40
1.0
 40
1.0
 10
176.6433654012
 20
7.1341486116
 30
0.0
 10
176.6334012028
 20
7.090283804
 30
0.0
 10
176.5873815235
 20
6.9169389986
 30
0.0
 10
176.5152488025
 20
6.7504842309
 30
0.0
 10
176.4480231342
 20
6.6342047192
 30
0.0
  0
SPLINE
  5
28E
100
AcDbEntity
  8
_30_VOLUMEN
100
AcDbSpline
 62
4
  6
CONTINUOUS
 70
0
 71
3
 72
11
 73
7
 74
0
 42
0.0000001
 43
0.0000001
 44
0.0000000001
 40
0.0
 40
0.0
 40
0.0
 40
0.0
 40
0.250400123
 40
0.5001476832
 40
0.7493754713
 40
1.0
 40
1.0
 40
1.0
 40
1.0
 10
177.2486698579
 20
8.0829316725
 30
0.0
 10
177.2748474171
 20
7.8542249198
 30
0.0
 10
177.2552438284
 20
7.3860136191
 30
0.0
 10
177.0117232666
 20
6.7296183668
 30
0.0
 10
176.5745961776
 20
6.1821370352
 30
0.0
 10
176.1826939048
 20
5.9257072151
 30
0.0
 10
175.9729766376
 20
5.8302832378
 30
0.0
  0
SPLINE
  5
28F
100
AcDbEntity
  8
_30_VOLUMEN
100
AcDbSpline
 62
4
  6
CONTINUOUS
 70
0
 71
3
 72
16
 73
12
 74
0
 42
0.0000001
 43
0.0000001
 44
0.0000000001
 40
0.0
 40
0.0
 40
0.0
 40
0.0
 40
0.1245005427
 40
0.250384196
 40
0.3766960403
 40
0.5030601604
 40
0.6287175739
 40
0.7532772059
 40
0.8153521989
 40
0.8771787774
 40
1.0
 40
1.0
 40
1.0
 40
1.0
 10
177.2486698579
 20
8.0829316725
 30
0.0
 10
177.221340557
 20
8.3217009028
 30
0.0
 10
177.0868329937
 20
8.7959582907
 30
0.0
 10
176.6761138856
 20
9.4097486785
 30
0.0
 10
176.0936627544
 20
9.8705006635
 30
0.0
 10
175.3994735731
 20
10.1326682563
 30
0.0
 10
174.6617807317
 20
10.1699021696
 30
0.0
 10
174.0692262058
 20
10.008943298
 30
0.0
 10
173.6486485076
 20
9.774517451
 30
0.0
 10
173.2733016794
 20
9.4789164105
 30
0.0
 10
173.0508009155
 20
9.1897507937
 30
0.0
 10
172.9386646472
 20
8.9808597238
 30
0.0
  0
SPLINE
  5
290
100
AcDbEntity
  8
_30_VOLUMEN
100
AcDbSpline
 62
4
  6
CONTINUOUS
 70
0
 71
3
 72
16
 73
12
 74
0
 42
0.0000001
 43
0.0000001
 44
0.0000000001
 40
0.0
 40
0.0
 40
0.0
 40
0.0
 40
0.1228275935
 40
0.1846385119
 40
0.2466609535
 40
0.3711234803
 40
0.4967230388
 40
0.623084212
 40
0.7494869397
 40
0.8753523442
 40
1.0
 40
1.0
 40
1.0
 40
1.0
 10
172.8626501431
 20
8.9433846134
 30
0.0
 10
172.9657655629
 20
9.1697912973
 30
0.0
 10
173.1806908767
 20
9.4870998714
 30
0.0
 10
173.5566906416
 20
9.8186052438
 30
0.0
 10
173.9849034645
 20
10.0863346242
 30
0.0
 10
174.598950365
 20
10.2821749643
 30
0.0
 10
175.3742376478
 20
10.2699161083
 30
0.0
 10
176.1103708929
 20
10.014129048
 30
0.0
 10
176.7312370105
 20
9.5420643267
 30
0.0
 10
177.17089958
 20
8.9026108863
 30
0.0
 10
177.3137853997
 20
8.404631862
 30
0.0
 10
177.342495319
 20
8.1538005159
 30
0.0
  0
SPLINE
  5
291
100
AcDbEntity
  8
_30_VOLUMEN
100
AcDbSpline
 62
4
  6
CONTINUOUS
 70
0
 71
3
 72
8
 73
4
 74
0
 42
0.0000001
 43
0.0000001
 44
0.0000000001
 40
0.0
 40
0.0
 40
0.0
 40
0.0
 40
1.0
 40
1.0
 40
1.0
 40
1.0
 10
170.5941442006
 20
11.9311204212
 30
0.0
 10
170.5365239516
 20
11.8309508651
 30
0.0
 10
170.5013550749
 20
11.7145257909
 30
0.0
 10
170.4940849747
 20
11.5991950547
 30
0.0
  0
SPLINE
  5
292
100
AcDbEntity
  8
_30_VOLUMEN
100
AcDbSpline
 62
4
  6
CONTINUOUS
 70
0
 71
3
 72
9
 73
5
 74
0
 42
0.0000001
 43
0.0000001
 44
0.0000000001
 40
0.0
 40
0.0
 40
0.0
 40
0.0
 40
0.5027494691
 40
1.0
 40
1.0
 40
1.0
 40
1.0
 10
178.8208829421
 20
3.5934705126
 30
0.0
 10
178.9434482805
 20
3.604064921
 30
0.0
 10
179.1860373075
 20
3.6834030902
 30
0.0
 10
179.3636686886
 20
3.8676410037
 30
0.0
 10
179.4243390573
 20
3.9731130208
 30
0.0
  0
SPLINE
  5
293
100
AcDbEntity
  8
_30_VOLUMEN
100
AcDbSpline
 62
4
  6
CONTINUOUS
 70
0
 71
3
 72
11
 73
7
 74
0
 42
0.0000001
 43
0.0000001
 44
0.0000000001
 40
0.0
 40
0.0
 40
0.0
 40
0.0
 40
0.2505242459
 40
0.4999889965
 40
0.7492490653
 40
1.0
 40
1.0
 40
1.0
 40
1.0
 10
177.342495319
 20
8.1538005159
 30
0.0
 10
177.3700752577
 20
7.9128415258
 30
0.0
 10
177.347797036
 20
7.4194537541
 30
0.0
 10
177.0813062561
 20
6.731315286
 30
0.0
 10
176.6078037738
 20
6.1651383404
 30
0.0
 10
176.1868635303
 20
5.906715534
 30
0.0
 10
175.962420728
 20
5.8142286946
 30
0.0
  0
SPLINE
  5
294
100
AcDbEntity
  8
_21_KURVEN
100
AcDbSpline
 62
7
  6
CONTINUOUS
 70
0
 71
3
 72
9
 73
5
 74
0
 42
0.0000001
 43
0.0000001
 44
0.0000000001
 40
0.0
 40
0.0
 40
0.0
 40
0.0
 40
0.5
 40
1.0
 40
1.0
 40
1.0
 40
1.0
 10
171.1976003158
 20
12.3107629294
 30
0.0
 10
171.1373120106
 20
12.3032307023
 30
0.0
 10
171.0165855181
 20
12.2833347383
 30
0.0
 10
170.9084369727
 20
12.228424846
 30
0.0
 10
170.853532197
 20
12.1976062757
 30
0.0
  0
SPLINE
  5
295
100
AcDbEntity
  8
_21_KURVEN
100
AcDbSpline
 62
7
  6
CONTINUOUS
 70
0
 71
3
 72
8
 73
4
 74
0
 42
0.0000001
 43
0.0000001
 44
0.0000000001
 40
0.0
 40
0.0
 40
0.0
 40
0.0
 40
1.0
 40
1.0
 40
1.0
 40
1.0
 10
170.8535321951
 20
12.1976062745
 30
0.0
 10
170.8166962641
 20
12.1741752593
 30
0.0
 10
170.7831871968
 20
12.1495737048
 30
0.0
 10
170.7470214705
 20
12.1184646169
 30
0.0
  0
SPLINE
  5
296
100
AcDbEntity
  8
_21_KURVEN
100
AcDbSpline
 62
7
  6
CONTINUOUS
 70
0
 71
3
 72
9
 73
5
 74
0
 42
0.0000001
 43
0.0000001
 44
0.0000000001
 40
0.0
 40
0.0
 40
0.0
 40
0.0
 40
0.5
 40
1.0
 40
1.0
 40
1.0
 40
1.0
 10
170.7470214685
 20
12.1184646151
 30
0.0
 10
170.719203677
 20
12.0924941265
 30
0.0
 10
170.6608283534
 20
12.0351590095
 30
0.0
 10
170.6160960372
 20
11.9668361323
 30
0.0
 10
170.5943233844
 20
11.9314728264
 30
0.0
  0
SPLINE
  5
297
100
AcDbEntity
  8
_21_KURVEN
100
AcDbSpline
 62
7
  6
CONTINUOUS
 70
0
 71
3
 72
10
 73
6
 74
0
 42
0.0000001
 43
0.0000001
 44
0.0000000001
 40
0.0
 40
0.0
 40
0.0
 40
0.0
 40
0.25
 40
0.5
 40
1.0
 40
1.0
 40
1.0
 40
1.0
 10
170.594323388
 20
11.9314728327
 30
0.0
 10
170.5864828604
 20
11.9172153865
 30
0.0
 10
170.5713598529
 20
11.889521693
 30
0.0
 10
170.5416192335
 20
11.824954357
 30
0.0
 10
170.5277638207
 20
11.7803008151
 30
0.0
 10
170.5177141187
 20
11.7455385448
 30
0.0
  0
SPLINE
  5
298
100
AcDbEntity
  8
_21_KURVEN
100
AcDbSpline
 62
7
  6
CONTINUOUS
 70
0
 71
3
 72
8
 73
4
 74
0
 42
0.0000001
 43
0.0000001
 44
0.0000000001
 40
0.0
 40
0.0
 40
0.0
 40
0.0
 40
1.0
 40
1.0
 40
1.0
 40
1.0
 10
170.5177141184
 20
11.7455385436
 30
0.0
 10
170.5060156635
 20
11.6980355308
 30
0.0
 10
170.4982401581
 20
11.6510748389
 30
0.0
 10
170.4940849746
 20
11.5991950527
 30
0.0
  0
SPLINE
  5
299
100
AcDbEntity
  8
_21_KURVEN
100
AcDbSpline
 62
7
  6
CONTINUOUS
 70
0
 71
3
 72
9
 73
5
 74
0
 42
0.0000001
 43
0.0000001
 44
0.0000000001
 40
0.0
 40
0.0
 40
0.0
 40
0.0
 40
0.5
 40
1.0
 40
1.0
 40
1.0
 40
1.0
 10
180.0188583481
 20
12.1490077551
 30
0.0
 10
180.020356126
 20
12.2035693936
 30
0.0
 10
180.0189308777
 20
12.3204446081
 30
0.0
 10
179.9854633044
 20
12.427732809
 30
0.0
 10
179.9657545489
 20
12.4839425423
 30
0.0
  0
SPLINE
  5
29A
100
AcDbEntity
  8
_21_KURVEN
100
AcDbSpline
 62
7
  6
CONTINUOUS
 70
0
 71
3
 72
21
 73
17
 74
0
 42
0.0000001
 43
0.0000001
 44
0.0000000001
 40
0.0
 40
0.0
 40
0.0
 40
0.0
 40
0.125
 40
0.1875
 40
0.25
 40
0.3125
 40
0.375
 40
0.4375
 40
0.5
 40
0.5625
 40
0.625
 40
0.6875
 40
0.75
 40
0.8125
 40
0.875
 40
1.0
 40
1.0
 40
1.0
 40
1.0
 10
179.9657545523
 20
12.4839425337
 30
0.0
 10
179.9535422167
 20
12.5095020542
 30
0.0
 10
179.9357712043
 20
12.5480127383
 30
0.0
 10
179.9098865575
 20
12.5986747035
 30
0.0
 10
179.884077254
 20
12.6343761264
 30
0.0
 10
179.861204751
 20
12.6715823906
 30
0.0
 10
179.8329808642
 20
12.7050643406
 30
0.0
 10
179.8030746695
 20
12.7369464913
 30
0.0
 10
179.7751735686
 20
12.7714560465
 30
0.0
 10
179.7409344003
 20
12.797055783
 30
0.0
 10
179.708676279
 20
12.8253032376
 30
0.0
 10
179.6748320374
 20
12.8518696385
 30
0.0
 10
179.6364396589
 20
12.8738905297
 30
0.0
 10
179.6000028063
 20
12.8985305007
 30
0.0
 10
179.5470550474
 20
12.9234760494
 30
0.0
 10
179.506578827
 20
12.9406447877
 30
0.0
 10
179.4797647692
 20
12.9524329295
 30
0.0
  0
SPLINE
  5
29B
100
AcDbEntity
  8
_21_KURVEN
100
AcDbSpline
 62
7
  6
CONTINUOUS
 70
0
 71
3
 72
9
 73
5
 74
0
 42
0.0000001
 43
0.0000001
 44
0.0000000001
 40
0.0
 40
0.0
 40
0.0
 40
0.0
 40
0.5
 40
1.0
 40
1.0
 40
1.0
 40
1.0
 10
179.479764781
 20
12.9524329253
 30
0.0
 10
179.4266415615
 20
12.9693863246
 30
0.0
 10
179.3131410675
 20
13.0013060481
 30
0.0
 10
179.1959447542
 20
12.9999376741
 30
0.0
 10
179.1368347769
 20
12.9970213253
 30
0.0
  0
SPLINE
  5
29C
100
AcDbEntity
  8
_21_KURVEN
100
AcDbSpline
 62
1
  6
CENTER
 70
0
 71
3
 72
119
 73
115
 74
0
 42
0.0000001
 43
0.0000001
 44
0.0000000001
 40
0.0
 40
0.0
 40
0.0
 40
0.0
 40
0.015625
 40
0.03125
 40
0.046875
 40
0.0546875
 40
0.0625
 40
0.06640625
 40
0.0703125
 40
0.078125
 40
0.09375
 40
0.109375
 40
0.1171875
 40
0.125
 40
0.12890625
 40
0.1328125
 40
0.13671875
 40
0.140625
 40
0.1484375
 40
0.15625
 40
0.171875
 40
0.1875
 40
0.203125
 40
0.2109375
 40
0.21875
 40
0.234375
 40
0.25
 40
0.2578125
 40
0.26171875
 40
0.265625
 40
0.2734375
 40
0.28125
 40
0.296875
 40
0.3125
 40
0.3203125
 40
0.328125
 40
0.33203125
 40
0.333984375
 40
0.3359375
 40
0.33984375
 40
0.34375
 40
0.359375
 40
0.375
 40
0.3828125
 40
0.390625
 40
0.39453125
 40
0.3984375
 40
0.40625
 40
0.4140625
 40
0.421875
 40
0.4375
 40
0.453125
 40
0.4609375
 40
0.46875
 40
0.47265625
 40
0.4765625
 40
0.484375
 40
0.5
 40
0.515625
 40
0.5234375
 40
0.52734375
 40
0.53125
 40
0.5390625
 40
0.546875
 40
0.5625
 40
0.578125
 40
0.5859375
 40
0.59375
 40
0.6015625
 40
0.60546875
 40
0.609375
 40
0.6171875
 40
0.625
 40
0.640625
 40
0.65625
 40
0.66015625
 40
0.6640625
 40
0.666015625
 40
0.66796875
 40
0.671875
 40
0.6796875
 40
0.6875
 40
0.703125
 40
0.71875
 40
0.7265625
 40
0.734375
 40
0.73828125
 40
0.7421875
 40
0.75
 40
0.765625
 40
0.78125
 40
0.7890625
 40
0.796875
 40
0.8125
 40
0.828125
 40
0.84375
 40
0.8515625
 40
0.859375
 40
0.86328125
 40
0.8671875
 40
0.87109375
 40
0.875
 40
0.8828125
 40
0.890625
 40
0.90625
 40
0.921875
 40
0.9296875
 40
0.93359375
 40
0.9375
 40
0.9453125
 40
0.953125
 40
0.96875
 40
0.984375
 40
1.0
 40
1.0
 40
1.0
 40
1.0
 10
179.707812749
 20
8.358255864
 30
0.0
 10
179.6919683692
 20
8.4305329699
 30
0.0
 10
179.6602502369
 20
8.5750784837
 30
0.0
 10
179.612849275
 20
8.7919489421
 30
0.0
 10
179.5728344498
 20
8.97252211
 30
0.0
 10
179.541968128
 20
9.1173198643
 30
0.0
 10
179.5200698427
 20
9.2070465179
 30
0.0
 10
179.508521232
 20
9.2805956986
 30
0.0
 10
179.4751780185
 20
9.347691002
 30
0.0
 10
179.4243130178
 20
9.4673249886
 30
0.0
 10
179.3476945634
 20
9.637055169
 30
0.0
 10
179.2726344501
 20
9.8072641593
 30
0.0
 10
179.212009675
 20
9.9432226197
 30
0.0
 10
179.1747817311
 20
10.028479082
 30
0.0
 10
179.1435534498
 20
10.0960586159
 30
0.0
 10
179.1240724928
 20
10.1484507194
 30
0.0
 10
179.0895534832
 20
10.1943258287
 30
0.0
 10
179.0458528918
 20
10.2564996029
 30
0.0
 10
178.9904372426
 20
10.3338781295
 30
0.0
 10
178.9021781175
 20
10.4578374724
 30
0.0
 10
178.7919694989
 20
10.6129886626
 30
0.0
 10
178.658556905
 20
10.7979698852
 30
0.0
 10
178.5511001982
 20
10.9558522406
 30
0.0
 10
178.4375798784
 20
11.0545823641
 30
0.0
 10
178.3288657397
 20
11.158120297
 30
0.0
 10
178.1913704016
 20
11.2859538433
 30
0.0
 10
178.0542779957
 20
11.4141331073
 30
0.0
 10
177.9585890194
 20
11.5042447938
 30
0.0
 10
177.9033160827
 20
11.5549714108
 30
0.0
 10
177.8503122008
 20
11.6086140043
 30
0.0
 10
177.76778134
 20
11.6547546416
 30
0.0
 10
177.641024719
 20
11.7353792897
 30
0.0
 10
177.4807751146
 20
11.8338491445
 30
0.0
 10
177.3211248773
 20
11.9330632849
 30
0.0
 10
177.193409269
 20
12.0124970762
 30
0.0
 10
177.1132758763
 20
12.0616148555
 30
0.0
 10
177.0578348881
 20
12.0970931482
 30
0.0
 10
177.0251292874
 20
12.1156463652
 30
0.0
 10
176.9885617457
 20
12.1277194215
 30
0.0
 10
176.944172333
 20
12.1450255597
 30
0.0
 10
176.8365514269
 20
12.1847385221
 30
0.0
 10
176.6755746283
 20
12.2450566904
 30
0.0
 10
176.4965017759
 20
12.3117854943
 30
0.0
 10
176.3532620122
 20
12.3650692172
 30
0.0
 10
176.2637957357
 20
12.3987655361
 30
0.0
 10
176.192077503
 20
12.4248018403
 30
0.0
 10
176.1208932556
 20
12.4542059544
 30
0.0
 10
176.0280895711
 20
12.4668534616
 30
0.0
 10
175.9172210861
 20
12.485157739
 30
0.0
 10
175.769222884
 20
12.5084684088
 30
0.0
 10
175.5842869553
 20
12.5380013252
 30
0.0
 10
175.3993206754
 20
12.5673247164
 30
0.0
 10
175.2513710352
 20
12.5909706267
 30
0.0
 10
175.1588592264
 20
12.6053860897
 30
0.0
 10
175.082807191
 20
12.5997088551
 30
0.0
 10
175.0071111847
 20
12.5970339057
 30
0.0
 10
174.874479398
 20
12.5909455573
 30
0.0
 10
174.6850740993
 20
12.5830509506
 30
0.0
 10
174.4957060247
 20
12.5746245645
 30
0.0
 10
174.3630221244
 20
12.5692807072
 30
0.0
 10
174.2874080108
 20
12.5654358431
 30
0.0
 10
174.2110209594
 20
12.5645446233
 30
0.0
 10
174.1210776066
 20
12.5422673062
 30
0.0
 10
173.9773185783
 20
12.5060521098
 30
0.0
 10
173.79755548
 20
12.4610115855
 30
0.0
 10
173.6178617133
 20
12.4157715379
 30
0.0
 10
173.4739917545
 20
12.3798755786
 30
0.0
 10
173.3663925227
 20
12.3521850868
 30
0.0
 10
173.275763599
 20
12.3315480519
 30
0.0
 10
173.2103867877
 20
12.2969933858
 30
0.0
 10
173.1437656123
 20
12.2655897752
 30
0.0
 10
173.0609139652
 20
12.2252586439
 30
0.0
 10
172.9281211962
 20
12.1613170777
 30
0.0
 10
172.7621569481
 20
12.0812847635
 30
0.0
 10
172.6129518576
 20
12.0089731895
 30
0.0
 10
172.5131972195
 20
11.9612889704
 30
0.0
 10
172.4720618796
 20
11.9406265206
 30
0.0
 10
172.438152243
 20
11.9259498715
 30
0.0
 10
172.4079047913
 20
11.9044951997
 30
0.0
 10
172.3566725988
 20
11.863800878
 30
0.0
 10
172.2826014341
 20
11.8073045458
 30
0.0
 10
172.1645508707
 20
11.7160204442
 30
0.0
 10
172.0170421886
 20
11.6020364414
 30
0.0
 10
171.8687362929
 20
11.4886804042
 30
0.0
 10
171.7519612714
 20
11.3963915575
 30
0.0
 10
171.6747012521
 20
11.3424070879
 30
0.0
 10
171.6297208521
 20
11.2846674682
 30
0.0
 10
171.5818077129
 20
11.2294641312
 30
0.0
 10
171.4993051532
 20
11.1316933995
 30
0.0
 10
171.380909836
 20
10.9924946542
 30
0.0
 10
171.2620898584
 20
10.8536198367
 30
0.0
 10
171.1684806754
 20
10.7413635732
 30
0.0
 10
171.0694240243
 20
10.6334738055
 30
0.0
 10
170.984650722
 20
10.4673083887
 30
0.0
 10
170.8778602112
 20
10.2719770534
 30
0.0
 10
170.7899704107
 20
10.1082899829
 30
0.0
 10
170.7195443437
 20
9.9774930427
 30
0.0
 10
170.6752624725
 20
9.8958186433
 30
0.0
 10
170.6405029226
 20
9.8302640929
 30
0.0
 10
170.6125947667
 20
9.7816990599
 30
0.0
 10
170.6005438611
 20
9.7279482598
 30
0.0
 10
170.5789361412
 20
9.6580921613
 30
0.0
 10
170.5538322082
 20
9.5701491937
 30
0.0
 10
170.5125490196
 20
9.4298033802
 30
0.0
 10
170.4616988852
 20
9.2541404809
 30
0.0
 10
170.4092294648
 20
9.0789464428
 30
0.0
 10
170.3753736753
 20
8.9554874503
 30
0.0
 10
170.3515884875
 20
8.8862099377
 30
0.0
 10
170.3504207006
 20
8.8104596427
 30
0.0
 10
170.3412167171
 20
8.7179880695
 30
0.0
 10
170.3308187409
 20
8.5687948257
 30
0.0
 10
170.3163352892
 20
8.3827285381
 30
0.0
 10
170.2995952622
 20
8.159265801
 30
0.0
 10
170.2883133176
 20
8.0103255366
 30
0.0
 10
170.2826875861
 20
7.9358510427
 30
0.0
  0
SPLINE
  5
29D
100
AcDbEntity
  8
_21_KURVEN
100
AcDbSpline
 62
1
  6
CENTER
 70
0
 71
3
 72
16
 73
12
 74
0
 42
0.0000001
 43
0.0000001
 44
0.0000000001
 40
0.0
 40
0.0
 40
0.0
 40
0.0
 40
0.125
 40
0.1875
 40
0.25
 40
0.375
 40
0.4375
 40
0.5
 40
0.625
 40
0.75
 40
1.0
 40
1.0
 40
1.0
 40
1.0
 10
170.2826876005
 20
7.9358505504
 30
0.0
 10
170.2828137531
 20
7.9317840574
 30
0.0
 10
170.2829770797
 20
7.926299819
 30
0.0
 10
170.2832984574
 20
7.9165254962
 30
0.0
 10
170.2839518319
 20
7.8986932714
 30
0.0
 10
170.2845416959
 20
7.882876709
 30
0.0
 10
170.2852458064
 20
7.8670589642
 30
0.0
 10
170.2860381784
 20
7.8485647413
 30
0.0
 10
170.2862238742
 20
7.8455220265
 30
0.0
 10
170.2877762381
 20
7.8151184962
 30
0.0
 10
170.2895662071
 20
7.7858846164
 30
0.0
 10
170.2907959723
 20
7.766024264
 30
0.0
  0
SPLINE
  5
29E
100
AcDbEntity
  8
_21_KURVEN
100
AcDbSpline
 62
1
  6
CENTER
 70
0
 71
3
 72
15
 73
11
 74
0
 42
0.0000001
 43
0.0000001
 44
0.0000000001
 40
0.0
 40
0.0
 40
0.0
 40
0.0
 40
0.125
 40
0.25
 40
0.375
 40
0.5
 40
0.625
 40
0.75
 40
0.875
 40
1.0
 40
1.0
 40
1.0
 40
1.0
 10
174.7008843873
 20
3.3113044515
 30
0.0
 10
174.7050024766
 20
3.3109435977
 30
0.0
 10
174.7133117791
 20
3.3102095317
 30
0.0
 10
174.7253369898
 20
3.3091825837
 30
0.0
 10
174.7389084704
 20
3.3080658002
 30
0.0
 10
174.7714676196
 20
3.3054934186
 30
0.0
 10
174.7759871655
 20
3.3051819936
 30
0.0
 10
174.7995340366
 20
3.3035233106
 30
0.0
 10
174.8244915232
 20
3.3018512205
 30
0.0
 10
174.8404403568
 20
3.3008934349
 30
0.0
 10
174.8485009599
 20
3.3003949244
 30
0.0
  0
SPLINE
  5
29F
100
AcDbEntity
  8
_21_KURVEN
100
AcDbSpline
 62
1
  6
CENTER
 70
0
 71
3
 72
83
 73
79
 74
0
 42
0.0000001
 43
0.0000001
 44
0.0000000001
 40
0.0
 40
0.0
 40
0.0
 40
0.0
 40
0.03125
 40
0.0625
 40
0.078125
 40
0.09375
 40
0.109375
 40
0.1171875
 40
0.12109375
 40
0.125
 40
0.12890625
 40
0.1328125
 40
0.140625
 40
0.15625
 40
0.1875
 40
0.21875
 40
0.234375
 40
0.2421875
 40
0.24609375
 40
0.25
 40
0.25390625
 40
0.2578125
 40
0.265625
 40
0.28125
 40
0.3125
 40
0.34375
 40
0.359375
 40
0.3671875
 40
0.37109375
 40
0.375
 40
0.37890625
 40
0.3828125
 40
0.390625
 40
0.40625
 40
0.4375
 40
0.46875
 40
0.484375
 40
0.4921875
 40
0.49609375
 40
0.5
 40
0.50390625
 40
0.5078125
 40
0.515625
 40
0.53125
 40
0.5625
 40
0.59375
 40
0.609375
 40
0.6171875
 40
0.62109375
 40
0.625
 40
0.62890625
 40
0.6328125
 40
0.640625
 40
0.65625
 40
0.6875
 40
0.71875
 40
0.734375
 40
0.7421875
 40
0.74609375
 40
0.75
 40
0.75390625
 40
0.7578125
 40
0.765625
 40
0.78125
 40
0.8125
 40
0.84375
 40
0.859375
 40
0.8671875
 40
0.87109375
 40
0.875
 40
0.87890625
 40
0.8828125
 40
0.890625
 40
0.90625
 40
0.921875
 40
0.9375
 40
0.96875
 40
1.0
 40
1.0
 40
1.0
 40
1.0
 10
174.8485009588
 20
3.3003949245
 30
0.0
 10
174.9320264598
 20
3.3042826395
 30
0.0
 10
175.0990770512
 20
3.3120619266
 30
0.0
 10
175.3078923435
 20
3.3217667503
 30
0.0
 10
175.4749402657
 20
3.3295711081
 30
0.0
 10
175.6002379106
 20
3.3353144509
 30
0.0
 10
175.7046154002
 20
3.340450114
 30
0.0
 10
175.7777526732
 20
3.3433591281
 30
0.0
 10
175.8194313703
 20
3.346092473
 30
0.0
 10
175.8510116182
 20
3.3451253138
 30
0.0
 10
175.8813639809
 20
3.3556913007
 30
0.0
 10
175.9222620913
 20
3.3657566912
 30
0.0
 10
175.9936343004
 20
3.3852423282
 30
0.0
 10
176.136523989
 20
3.422877768
 30
0.0
 10
176.3405468494
 20
3.4774000968
 30
0.0
 10
176.5447140688
 20
3.5314372125
 30
0.0
 10
176.6874016548
 20
3.5697519508
 30
0.0
 10
176.7590517549
 20
3.5883035524
 30
0.0
 10
176.7995023524
 20
3.5998731038
 30
0.0
 10
176.8312297348
 20
3.6058174353
 30
0.0
 10
176.8576455387
 20
3.6222087767
 30
0.0
 10
176.8947192181
 20
3.6404201311
 30
0.0
 10
176.9587363027
 20
3.6739850245
 30
0.0
 10
177.0873865353
 20
3.739904314
 30
0.0
 10
177.2708169209
 20
3.8347645714
 30
0.0
 10
177.4544964961
 20
3.9291711622
 30
0.0
 10
177.5827978631
 20
3.9957255851
 30
0.0
 10
177.6472946378
 20
4.0284171699
 30
0.0
 10
177.6835958293
 20
4.0480348913
 30
0.0
 10
177.7123851646
 20
4.0601050569
 30
0.0
 10
177.7351977874
 20
4.0822793165
 30
0.0
 10
177.7676992301
 20
4.1083208468
 30
0.0
 10
177.8236068204
 20
4.1555327618
 30
0.0
 10
177.9361169985
 20
4.2487875304
 30
0.0
 10
178.0964311841
 20
4.3826620869
 30
0.0
 10
178.2570801262
 20
4.516149593
 30
0.0
 10
178.3691216452
 20
4.6099462323
 30
0.0
 10
178.4256736418
 20
4.6564130751
 30
0.0
 10
178.4571373391
 20
4.683654462
 30
0.0
 10
178.4831385181
 20
4.7021420654
 30
0.0
 10
178.4999519379
 20
4.7280589632
 30
0.0
 10
178.5255743943
 20
4.7600235975
 30
0.0
 10
178.5689229352
 20
4.8171670857
 30
0.0
 10
178.6566851525
 20
4.9305934786
 30
0.0
 10
178.7814486321
 20
5.0931197384
 30
0.0
 10
178.9066277488
 20
5.2553309821
 30
0.0
 10
178.993808074
 20
5.3691983974
 30
0.0
 10
179.0379567166
 20
5.4257354798
 30
0.0
 10
179.0622906976
 20
5.4586766638
 30
0.0
 10
179.0830630621
 20
5.481593034
 30
0.0
 10
179.0941948187
 20
5.5113503354
 30
0.0
 10
179.1123996792
 20
5.5486407399
 30
0.0
 10
179.1426938696
 20
5.6150086615
 30
0.0
 10
179.2044008144
 20
5.7469544256
 30
0.0
 10
179.2919048465
 20
5.9358792597
 30
0.0
 10
179.3798732652
 20
6.1245854649
 30
0.0
 10
179.4409300687
 20
6.2568373093
 30
0.0
 10
179.4721182034
 20
6.3227843704
 30
0.0
 10
179.4888834653
 20
6.3607525243
 30
0.0
 10
179.5044385045
 20
6.388427386
 30
0.0
 10
179.5085974374
 20
6.4191652032
 30
0.0
 10
179.5181174831
 20
6.4590806482
 30
0.0
 10
179.5329285159
 20
6.5294296007
 30
0.0
 10
179.5638714374
 20
6.6697730553
 30
0.0
 10
179.6073199728
 20
6.8704622861
 30
0.0
 10
179.6512751448
 20
7.0710323353
 30
0.0
 10
179.6815087751
 20
7.2115426443
 30
0.0
 10
179.6972950833
 20
7.2816621721
 30
0.0
 10
179.7052445556
 20
7.3219470802
 30
0.0
 10
179.7142292016
 20
7.3515496921
 30
0.0
 10
179.7116593184
 20
7.3834882776
 30
0.0
 10
179.7122631567
 20
7.4252582445
 30
0.0
 10
179.7114420589
 20
7.4987353234
 30
0.0
 10
179.7112508076
 20
7.6035040999
 30
0.0
 10
179.7106010754
 20
7.7293115896
 30
0.0
 10
179.7098816051
 20
7.8970252228
 30
0.0
 10
179.7089315497
 20
8.1066775179
 30
0.0
 10
179.7081869622
 20
8.274396229
 30
0.0
 10
179.7078127363
 20
8.3582559752
 30
0.0
  0
SPLINE
  5
2A0
100
AcDbEntity
  8
_21_KURVEN
100
AcDbSpline
 62
7
  6
CONTINUOUS
 70
0
 71
3
 72
10
 73
6
 74
0
 42
0.0000001
 43
0.0000001
 44
0.0000000001
 40
0.0
 40
0.0
 40
0.0
 40
0.0
 40
0.5
 40
0.75
 40
1.0
 40
1.0
 40
1.0
 40
1.0
 10
178.8208829421
 20
3.5934705126
 30
0.0
 10
178.9028942686
 20
3.6048735172
 30
0.0
 10
179.0239724543
 20
3.6283207585
 30
0.0
 10
179.1736435469
 20
3.7093288499
 30
0.0
 10
179.2386224385
 20
3.7596970238
 30
0.0
 10
179.2714617944
 20
3.7857688313
 30
0.0
  0
SPLINE
  5
2A1
100
AcDbEntity
  8
_21_KURVEN
100
AcDbSpline
 62
7
  6
CONTINUOUS
 70
0
 71
3
 72
9
 73
5
 74
0
 42
0.0000001
 43
0.0000001
 44
0.0000000001
 40
0.0
 40
0.0
 40
0.0
 40
0.0
 40
0.5
 40
1.0
 40
1.0
 40
1.0
 40
1.0
 10
179.2714617894
 20
3.7857688268
 30
0.0
 10
179.2992795809
 20
3.8117393154
 30
0.0
 10
179.3576549046
 20
3.8690744325
 30
0.0
 10
179.4023872207
 20
3.9373973096
 30
0.0
 10
179.4243574447
 20
3.9731024312
 30
0.0
  0
SPLINE
  5
2A2
100
AcDbEntity
  8
_21_KURVEN
100
AcDbSpline
 62
7
  6
CONTINUOUS
 70
0
 71
3
 72
10
 73
6
 74
0
 42
0.0000001
 43
0.0000001
 44
0.0000000001
 40
0.0
 40
0.0
 40
0.0
 40
0.0
 40
0.25
 40
0.5
 40
1.0
 40
1.0
 40
1.0
 40
1.0
 10
179.4243574466
 20
3.9731024346
 30
0.0
 10
179.432190518
 20
3.9873639904
 30
0.0
 10
179.4472990437
 20
4.015065613
 30
0.0
 10
179.4770059712
 20
4.0796486713
 30
0.0
 10
179.4908381705
 20
4.1243097236
 30
0.0
 10
179.5007691421
 20
4.1586949079
 30
0.0
  0
SPLINE
  5
2A3
100
AcDbEntity
  8
_21_KURVEN
100
AcDbSpline
 62
7
  6
CONTINUOUS
 70
0
 71
3
 72
8
 73
4
 74
0
 42
0.0000001
 43
0.0000001
 44
0.0000000001
 40
0.0
 40
0.0
 40
0.0
 40
0.0
 40
1.0
 40
1.0
 40
1.0
 40
1.0
 10
179.5007691395
 20
4.1586948983
 30
0.0
 10
179.5124675944
 20
4.2061979111
 30
0.0
 10
179.5202430998
 20
4.253158603
 30
0.0
 10
179.5243982834
 20
4.3050383892
 30
0.0
  0
SPLINE
  5
2A4
100
AcDbEntity
  8
_30_VOLUMEN
100
AcDbSpline
 62
4
  6
CONTINUOUS
 70
0
 71
3
 72
15
 73
11
 74
0
 42
0.0000001
 43
0.0000001
 44
0.0000000001
 40
0.0
 40
0.0
 40
0.0
 40
0.0
 40
0.1228638443
 40
0.2463428048
 40
0.3707829665
 40
0.4961945213
 40
0.6223158021
 40
0.7486702141
 40
0.874718271
 40
1.0
 40
1.0
 40
1.0
 40
1.0
 10
176.6162117402
 20
7.1415483484
 30
0.0
 10
176.6886858344
 20
7.28645527
 30
0.0
 10
176.7926529623
 20
7.5997837698
 30
0.0
 10
176.8095851031
 20
8.0947450103
 30
0.0
 10
176.6877899791
 20
8.5784482643
 30
0.0
 10
176.4368071786
 20
9.0132578515
 30
0.0
 10
176.0763794047
 20
9.366190002
 30
0.0
 10
175.6339922236
 20
9.6104368593
 30
0.0
 10
175.143839985
 20
9.7274117492
 30
0.0
 10
174.8076970074
 20
9.7142450039
 30
0.0
 10
174.6451080769
 20
9.6849413541
 30
0.0
  0
LINE
  5
2A5
100
AcDbEntity
  8
_30_VOLUMEN
100
AcDbLine
 62
4
  6
CONTINUOUS
 10
140.0944521436
 20
4.3588989435
 11
148.2961666618
 21
-3.75
  0
SPLINE
  5
2A6
100
AcDbEntity
  8
_30_VOLUMEN
100
AcDbSpline
 62
7
  6
CONTINUOUS
 70
0
 71
3
 72
10
 73
6
 74
0
 42
0.0000001
 43
0.0000001
 44
0.0000000001
 40
0.0
 40
0.0
 40
0.0
 40
0.0
 40
0.5001424513
 40
0.7501208013
 40
1.0
 40
1.0
 40
1.0
 40
1.0
 10
146.4488324828
 20
8.2981023804
 30
0.0
 10
148.5584928394
 20
5.8080666441
 30
0.0
 10
151.6915559691
 20
2.046701602
 30
0.0
 10
155.7665134431
 20
-3.0500263505
 30
0.0
 10
157.757069036
 20
-5.6343357203
 30
0.0
 10
158.7349606671
 20
-6.9390871728
 30
0.0
  0
SPLINE
  5
2A7
100
AcDbEntity
  8
_30_VOLUMEN
100
AcDbSpline
 62
4
  6
CONTINUOUS
 70
0
 71
3
 72
17
 73
13
 74
0
 42
0.0000001
 43
0.0000001
 44
0.0000000001
 40
0.0
 40
0.0
 40
0.0
 40
0.0
 40
0.1235516326
 40
0.1824654948
 40
0.2399139172
 40
0.2968078938
 40
0.3541936143
 40
0.4728331434
 40
0.5980899177
 40
0.7286854548
 40
0.863057887
 40
1.0
 40
1.0
 40
1.0
 40
1.0
 10
140.0944521436
 20
4.3588989435
 30
0.0
 10
140.0093943517
 20
4.6549685473
 30
0.0
 10
139.9266457329
 20
5.1097924706
 30
0.0
 10
139.9658892572
 20
5.7095305045
 30
0.0
 10
140.0763523654
 20
6.1302316237
 30
0.0
 10
140.2687642984
 20
6.5160615038
 30
0.0
 10
140.6265919584
 20
6.9776266569
 30
0.0
 10
141.2321003029
 20
7.4408982886
 30
0.0
 10
142.0816761111
 20
7.8366640934
 30
0.0
 10
143.012309631
 20
8.1271346642
 30
0.0
 10
143.9923671898
 20
8.3398442939
 30
0.0
 10
144.6614052057
 20
8.4421925864
 30
0.0
 10
145.0
 20
8.48611237
 30
0.0
  0
SPLINE
  5
2A8
100
AcDbEntity
  8
_30_VOLUMEN
100
AcDbSpline
 62
4
  6
CONTINUOUS
 70
0
 71
3
 72
9
 73
5
 74
0
 42
0.0000001
 43
0.0000001
 44
0.0000000001
 40
0.0
 40
0.0
 40
0.0
 40
0.0
 40
0.5001566604
 40
1.0
 40
1.0
 40
1.0
 40
1.0
 10
163.0
 20
9.3180369565
 30
0.0
 10
160.2374530001
 20
9.2062449037
 30
0.0
 10
154.715955735
 20
8.9335283453
 30
0.0
 10
149.2014690668
 20
8.5380626338
 30
0.0
 10
146.4488324828
 20
8.2981023804
 30
0.0
  0
SPLINE
  5
2A9
100
AcDbEntity
  8
_30_VOLUMEN
100
AcDbSpline
 62
4
  6
CONTINUOUS
 70
0
 71
3
 72
9
 73
5
 74
0
 42
0.0000001
 43
0.0000001
 44
0.0000000001
 40
0.0
 40
0.0
 40
0.0
 40
0.0
 40
0.2485386517
 40
1.0
 40
1.0
 40
1.0
 40
1.0
 10
145.0
 20
8.1287634354
 30
0.0
 10
145.1195072061
 20
8.1467948477
 30
0.0
 10
145.6010332757
 20
8.2147830443
 30
0.0
 10
146.0847998489
 20
8.266367603
 30
0.0
 10
146.4488412796
 20
8.2981028397
 30
0.0
  0
SPLINE
  5
2AA
100
AcDbEntity
  8
_30_VOLUMEN
100
AcDbSpline
 62
4
  6
CONTINUOUS
 70
0
 71
3
 72
11
 73
7
 74
0
 42
0.0000001
 43
0.0000001
 44
0.0000000001
 40
0.0
 40
0.0
 40
0.0
 40
0.0
 40
0.2524832426
 40
0.5025586819
 40
0.7511318181
 40
1.0
 40
1.0
 40
1.0
 40
1.0
 10
158.7349626029
 20
-6.9390872394
 30
0.0
 10
157.8146622341
 20
-6.8468948298
 30
0.0
 10
155.9897835177
 20
-6.5822474492
 30
0.0
 10
153.3119765331
 20
-5.9303222915
 30
0.0
 10
150.7289305691
 20
-5.0056069143
 30
0.0
 10
149.0894307634
 20
-4.199291531
 30
0.0
 10
148.2961666618
 20
-3.75
 30
0.0
  0
LINE
  5
2AB
100
AcDbEntity
  8
_26_BEZUGSACHSEN
100
AcDbLine
 62
4
  6
CONTINUOUS
 10
170.483631895
 20
11.4333704665
 11
170.1977503063
 21
11.3921011255
  0
SPLINE
  5
2AC
100
AcDbEntity
  8
0
100
AcDbSpline
 62
4
  6
CONTINUOUS
 70
0
 71
3
 72
13
 73
9
 74
0
 42
0.0000001
 43
0.0000001
 44
0.0000000001
 40
0.0
 40
0.0
 40
0.0
 40
0.0
 40
0.2498928221
 40
0.3749487733
 40
0.5000000565
 40
0.6250513238
 40
0.750107246
 40
1.0
 40
1.0
 40
1.0
 40
1.0
 10
1.5
 20
4.3588989435
 30
0.0
 10
1.2004174987
 20
3.6716095497
 30
0.0
 10
0.8213963274
 20
2.60413919
 30
0.0
 10
0.5474448536
 20
1.1263191648
 30
0.0
 10
0.4762779959
 20
-0.0000004644
 30
0.0
 10
0.5474449323
 20
-1.1263200031
 30
0.0
 10
0.8213965105
 20
-2.604139662
 30
0.0
 10
1.2004175804
 20
-3.671609737
 30
0.0
 10
1.5
 20
-4.3588989435
 30
0.0
  0
ELLIPSE
  5
2AD
100
AcDbEntity
  8
_26_BEZUGSACHSEN
100
AcDbEllipse
 62
4
  6
CONTINUOUS
 10
169.3684634177
 20
0.1203999264
 30
0.0
 11
0.9913640316
 21
11.3932095936
 31
0.0
 40
0.1037187039
 41
-0.1100678907
 42
0.0219914388
  0
ELLIPSE
  5
2AE
100
AcDbEntity
  8
_30_VOLUMEN
100
AcDbEllipse
 62
4
  6
CONTINUOUS
 10
202.5047455591
 20
0.0
 30
0.0
 11
81.1810270551
 21
-2.0554794205
 31
0.0
 40
0.1174026921
 41
-2.0135005714
 42
-1.9613367588
  0
ELLIPSE
  5
2AF
100
AcDbEntity
  8
_30_VOLUMEN
100
AcDbEllipse
 62
4
  6
CONTINUOUS
 10
175.3421406258
 20
8.3844653752
 30
0.0
 11
1.1664909557
 21
-0.8647935746
 31
0.0
 40
0.8245571926
 41
-0.0288582419
 42
2.8019011477
  0
ENDSEC
  0
SECTION
  2
OBJECTS
  0
DICTIONARY
  5
C
100
AcDbDictionary
280
0
281
1
  3
ACAD_GROUP
350
D
  3
ACAD_MLINESTYLE
350
17
  3
ACAD_LAYOUT
350
1A
  3
ACAD_PLOTSETTINGS
350
19
  3
ACAD_PLOTSTYLENAME
350
E
  0
DICTIONARY
  5
D
102
{ACAD_REACTORS
330
C
102
}
100
AcDbDictionary
280
0
281
1
  0
ACDBDICTIONARYWDFLT
  5
E
102
{ACAD_REACTORS
330
C
102
}
100
AcDbDictionary
281
1
  3
Normal
350
F
100
AcDbDictionaryWithDefault
340
F
  0
DICTIONARY
  5
17
102
{ACAD_REACTORS
330
C
102
}
100
AcDbDictionary
280
0
281
1
  3
Standard
350
18
  0
DICTIONARY
  5
19
102
{ACAD_REACTORS
330
C
102
}
100
AcDbDictionary
281
1
  0
DICTIONARY
  5
1A
102
{ACAD_REACTORS
330
C
102
}
100
AcDbDictionary
281
1
  3
Model
350
2B0
  3
Layout1
350
2B1
  0
ACDBPLACEHOLDER
  5
F
102
{ACAD_REACTORS
330
E
102
}
  0
MLINESTYLE
  5
18
102
{ACAD_REACTORS
330
17
102
}
100
AcDbMlineStyle
  2
STANDARD
 70
0
  3

 62
256
 51
90.0
 52
90.0
 71
2
 49
0.5
 62
256
  6
BYLAYER
 49
-0.5
 62
256
  6
BYLAYER
  0
LAYOUT
  5
2B0
102
{ACAD_REACTORS
330
1A
102
}
100
AcDbPlotSettings
  1

  2
none_device
  4
ISO_A3_(420.00_x_297.00_MM)
  6

 40
0.0
 41
0.0
 42
0.0
 43
0.0
 44
420.0
 45
297.0
 46
0.0
 47
0.0
 48
0.0
 49
0.0
140
0.0
141
0.0
142
1.0
143
1.0
 70
1024
 72
1
 73
0
 74
0
  7

 75
0
147
1.0
148
0.0
149
0.0
100
AcDbLayout
  1
Model
 70
0
 71
0
 10
0.0
 20
0.0
 11
420.0
 21
297.0
 12
0.0
 22
0.0
 32
0.0
 14
0.0
 24
0.0
 34
0.0
 15
0.0
 25
0.0
 35
0.0
146
0.0
 13
0.0
 23
0.0
 33
0.0
 16
1.0
 26
0.0
 36
0.0
 17
0.0
 27
1.0
 37
0.0
 76
0
330
20F
345
0
346
0
  0
LAYOUT
  5
2B1
102
{ACAD_REACTORS
330
1A
102
}
100
AcDbPlotSettings
  1

  2
none_device
  4
ISO_A3_(420.00_x_297.00_MM)
  6

 40
0.0
 41
0.0
 42
0.0
 43
0.0
 44
420.0
 45
297.0
 46
0.0
 47
0.0
 48
0.0
 49
0.0
140
0.0
141
0.0
142
1.0
143
1.0
 70
0
 72
1
 73
0
 74
0
  7

 75
0
147
1.0
148
0.0
149
0.0
100
AcDbLayout
  1
Layout1
 70
0
 71
1
 10
0.0
 20
0.0
 11
420.0
 21
297.0
 12
0.0
 22
0.0
 32
0.0
 14
0.0
 24
0.0
 34
0.0
 15
0.0
 25
0.0
 35
0.0
146
0.0
 13
0.0
 23
0.0
 33
0.0
 16
1.0
 26
0.0
 36
0.0
 17
0.0
 27
1.0
 37
0.0
 76
0
330
210
345
0
346
0
  0
ENDSEC
  0
EOF
