999
DXF file: 70556832.dxf
999
Pro/ENGINEER 2017380 by Parametric Technology Corporation
  0
SECTION
  2
HEADER
  9
$ACADVER
  1
AC1027
  9
$DWGCODEPAGE
  3
ANSI_1252
  9
$EXTMAX
 10
420.0
 20
297.0
 30
0.0
  9
$EXTMIN
 10
0.0
 20
0.0
 30
0.0
  9
$LIMMIN
 10
0.0
 20
0.0
  9
$LIMMAX
 10
420.0
 20
297.0
  9
$VIEWCTR
 10
210.0
 20
148.5
  9
$VIEWSIZE
 40
297.0
  9
$CLAYER
  8
0
  9
$LTSCALE
 40
23.1
  9
$CELTYPE
  6
BYLAYER
  9
$DIMSCALE
 40
1.0
  9
$DIMASZ
 40
3.5
  9
$DIMEXO
 40
0.0
  9
$DIMDLI
 40
15.96
  9
$DIMEXE
 40
1.5
  9
$DIMCEN
 40
3.78
  9
$DIMLFAC
 40
1.0
  9
$DIMBLK
  1
_FILLED
  9
$DIMALT
 70
0
  9
$DIMALTF
 40
25.4
  9
$DIMTXT
 40
3.5
  9
$DIMTOL
 70
1
  9
$DIMLIM
 70
0
  9
$DIMTFAC
 40
1.0
  9
$DIMTP
 40
0.05
  9
$DIMTM
 40
0.05
  9
$DIMGAP
 40
0.625
  9
$DIMDSEP
 70
46
  9
$AUNITS
 70
0
  9
$PDMODE
 70
3
  9
$PDSIZE
 40
0.3125
  9
$HANDSEED
  5
2AD
  9
$TILEMODE
 70
1
  9
$MEASUREMENT
 70
1
  9
$INSUNITS
 70
4
  0
ENDSEC
  0
SECTION
  2
CLASSES
  0
CLASS
  1
ACDBDICTIONARYWDFLT
  2
AcDbDictionaryWithDefault
  3
AutoCAD 2000
 90
0
 91
1
280
0
281
0
  0
CLASS
  1
ACDBPLACEHOLDER
  2
AcDbPlaceHolder
  3
AutoCAD 2000
 90
0
 91
1
280
0
281
0
  0
CLASS
  1
LAYOUT
  2
AcDbLayout
  3
AutoCAD 2000
 90
0
 91
0
280
0
281
0
  0
ENDSEC
  0
SECTION
  2
TABLES
  0
TABLE
  2
VPORT
  5
8
100
AcDbSymbolTable
 70
2
  0
VPORT
  5
1F4
100
AcDbSymbolTableRecord
100
AcDbViewportTableRecord
  2
*ACTIVE
 70
0
 10
0.0
 20
0.0
 11
1.0
 21
1.0
 12
210.0
 22
148.5
 13
0.0
 23
0.0
 14
1.0
 24
1.0
 15
0.0
 25
0.0
 16
0.0
 26
0.0
 36
1.0
 17
0.0
 27
0.0
 37
0.0
 40
297.0
 41
1.4141414141
 42
50.0
 43
0.0
 44
0.0
 50
0.0
 51
0.0
 71
0
 72
100
 73
1
 74
1
 75
0
 76
0
 77
0
 78
0
  0
ENDTAB
  0
TABLE
  2
LTYPE
  5
5
100
AcDbSymbolTable
 70
6
  0
LTYPE
  5
14
100
AcDbSymbolTableRecord
100
AcDbLinetypeTableRecord
  2
BYBLOCK
 70
0
  3

 72
65
 73
0
 40
0.0
  0
LTYPE
  5
15
100
AcDbSymbolTableRecord
100
AcDbLinetypeTableRecord
  2
BYLAYER
 70
0
  3

 72
65
 73
0
 40
0.0
  0
LTYPE
  5
16
100
AcDbSymbolTableRecord
100
AcDbLinetypeTableRecord
  2
CONTINUOUS
 70
64
  3
Solid line
 72
65
 73
0
 40
0.0
  0
LTYPE
  5
1F5
100
AcDbSymbolTableRecord
100
AcDbLinetypeTableRecord
  2
CENTER
 70
64
  3
____ _ ____ _ ____ _ ____ _ ____ _ ____ _ ____
 72
65
 73
4
 40
0.6
 49
0.375
 74
0
 49
-0.075
 74
0
 49
0.075
 74
0
 49
-0.075
 74
0
  0
LTYPE
  5
1F6
100
AcDbSymbolTableRecord
100
AcDbLinetypeTableRecord
  2
HIDDEN
 70
64
  3
- - - - - - - - - - - - - - - - - - - -
 72
65
 73
2
 40
0.2
 49
0.1
 74
0
 49
-0.1
 74
0
  0
LTYPE
  5
1F7
100
AcDbSymbolTableRecord
100
AcDbLinetypeTableRecord
  2
PHANTOM
 70
64
  3
_____ _ _ _____ _ _ _____ _ _ _____
 72
65
 73
6
 40
0.8
 49
0.45
 74
0
 49
-0.05
 74
0
 49
0.1
 74
0
 49
-0.05
 74
0
 49
0.1
 74
0
 49
-0.05
 74
0
  0
LTYPE
  5
1F8
100
AcDbSymbolTableRecord
100
AcDbLinetypeTableRecord
  2
DOT
 70
64
  3
. . . . . . . . . . . . . . . . . . . .
 72
65
 73
2
 40
0.2
 49
0.1
 74
0
 49
-0.1
 74
0
  0
LTYPE
  5
1F9
100
AcDbSymbolTableRecord
100
AcDbLinetypeTableRecord
  2
DASHED
 70
64
  3
- - - - - - - - - - - - - - - - - - - -
 72
65
 73
2
 40
0.2
 49
0.1
 74
0
 49
-0.1
 74
0
  0
ENDTAB
  0
TABLE
  2
LAYER
  5
2
100
AcDbSymbolTable
 70
36
  0
LAYER
  5
10
100
AcDbSymbolTableRecord
100
AcDbLayerTableRecord
  2
0
 70
0
 62
7
  6
CONTINUOUS
370
-3
390
F
  0
LAYER
  5
1FA
100
AcDbSymbolTableRecord
100
AcDbLayerTableRecord
  2
DEFAULT_1
 70
0
 62
7
  6
CENTER
370
-3
390
F
  0
LAYER
  5
1FB
100
AcDbSymbolTableRecord
100
AcDbLayerTableRecord
  2
DEFAULT_2
 70
0
 62
1
  6
HIDDEN
370
-3
390
F
  0
LAYER
  5
1FC
100
AcDbSymbolTableRecord
100
AcDbLayerTableRecord
  2
DEFAULT_3
 70
0
 62
7
  6
PHANTOM
370
-3
390
F
  0
LAYER
  5
1FD
100
AcDbSymbolTableRecord
100
AcDbLayerTableRecord
  2
BG_STARTBEZUEGE
 70
0
 62
7
  6
CONTINUOUS
370
-3
390
F
  0
LAYER
  5
1FE
100
AcDbSymbolTableRecord
100
AcDbLayerTableRecord
  2
HILFEN
 70
0
 62
7
  6
CONTINUOUS
370
-3
390
F
  0
LAYER
  5
1FF
100
AcDbSymbolTableRecord
100
AcDbLayerTableRecord
  2
PLATZIERUNG
 70
0
 62
7
  6
CONTINUOUS
370
-3
390
F
  0
LAYER
  5
200
100
AcDbSymbolTableRecord
100
AcDbLayerTableRecord
  2
T_STARTBEZUEGE
 70
0
 62
7
  6
CONTINUOUS
370
-3
390
F
  0
LAYER
  5
201
100
AcDbSymbolTableRecord
100
AcDbLayerTableRecord
  2
_03_2D_ZEICHNUNG_BEMASSUNGEN
 70
0
 62
7
  6
CONTINUOUS
370
-3
390
F
  0
LAYER
  5
202
100
AcDbSymbolTableRecord
100
AcDbLayerTableRecord
  2
_04_NOTIZEN
 70
0
 62
7
  6
CONTINUOUS
370
-3
390
F
  0
LAYER
  5
203
100
AcDbSymbolTableRecord
100
AcDbLayerTableRecord
  2
_05_2D_ELEMENTE
 70
0
 62
7
  6
CONTINUOUS
370
-3
390
F
  0
LAYER
  5
204
100
AcDbSymbolTableRecord
100
AcDbLayerTableRecord
  2
_07_EINRASTLINIEN
 70
0
 62
7
  6
CONTINUOUS
370
-3
390
F
  0
LAYER
  5
205
100
AcDbSymbolTableRecord
100
AcDbLayerTableRecord
  2
_21_KURVEN
 70
0
 62
7
  6
CONTINUOUS
370
-3
390
F
  0
LAYER
  5
206
100
AcDbSymbolTableRecord
100
AcDbLayerTableRecord
  2
_22_FLAECHEN
 70
0
 62
7
  6
CONTINUOUS
370
-3
390
F
  0
LAYER
  5
207
100
AcDbSymbolTableRecord
100
AcDbLayerTableRecord
  2
_26_BEZUGSACHSEN
 70
0
 62
7
  6
CONTINUOUS
370
-3
390
F
  0
LAYER
  5
208
100
AcDbSymbolTableRecord
100
AcDbLayerTableRecord
  2
_27_BEZUGSEBENEN
 70
0
 62
7
  6
CONTINUOUS
370
-3
390
F
  0
LAYER
  5
209
100
AcDbSymbolTableRecord
100
AcDbLayerTableRecord
  2
_28_BEZUGSPUNKTE
 70
0
 62
7
  6
CONTINUOUS
370
-3
390
F
  0
LAYER
  5
20A
100
AcDbSymbolTableRecord
100
AcDbLayerTableRecord
  2
_29_KOORDINATENSYSTEME
 70
0
 62
7
  6
CONTINUOUS
370
-3
390
F
  0
LAYER
  5
20B
100
AcDbSymbolTableRecord
100
AcDbLayerTableRecord
  2
_30_VOLUMEN
 70
0
 62
7
  6
CONTINUOUS
370
-3
390
F
  0
ENDTAB
  0
TABLE
  2
STYLE
  5
3
100
AcDbSymbolTable
 70
1
  0
STYLE
  5
11
100
AcDbSymbolTableRecord
100
AcDbTextStyleTableRecord
  2
STANDARD
 70
0
 40
0.0
 41
0.7
 50
0.0
 71
0
 42
0.2
  3
SIMPLEX.SHX
  4

  0
STYLE
  5
20C
100
AcDbSymbolTableRecord
100
AcDbTextStyleTableRecord
  2
TEXTSTYLE_1
 70
0
 40
0.0
 41
0.8
 50
0.0
 71
0
 42
0.2
  3
gdt
  4

  0
STYLE
  5
20D
100
AcDbSymbolTableRecord
100
AcDbTextStyleTableRecord
  2
TEXTSTYLE_2
 70
0
 40
0.0
 41
0.7
 50
0.0
 71
0
 42
0.2
  3
gdt
  4

  0
ENDTAB
  0
TABLE
  2
VIEW
  5
6
100
AcDbSymbolTable
 70
0
  0
ENDTAB
  0
TABLE
  2
UCS
  5
7
100
AcDbSymbolTable
 70
0
  0
ENDTAB
  0
TABLE
  2
APPID
  5
9
100
AcDbSymbolTable
 70
1
  0
APPID
  5
20E
100
AcDbSymbolTableRecord
100
AcDbRegAppTableRecord
  2
ACAD
 70
0
  0
ENDTAB
  0
TABLE
  2
BLOCK_RECORD
  5
1
100
AcDbSymbolTable
 70
0
  0
BLOCK_RECORD
  5
20F
100
AcDbSymbolTableRecord
100
AcDbBlockTableRecord
  2
*Model_Space
  0
BLOCK_RECORD
  5
210
100
AcDbSymbolTableRecord
100
AcDbBlockTableRecord
  2
*Paper_Space
  0
BLOCK_RECORD
  5
211
100
AcDbSymbolTableRecord
100
AcDbBlockTableRecord
  2
_FILLED
  0
BLOCK_RECORD
  5
212
100
AcDbSymbolTableRecord
100
AcDbBlockTableRecord
  2
*D0
  0
BLOCK_RECORD
  5
213
100
AcDbSymbolTableRecord
100
AcDbBlockTableRecord
  2
*D1
  0
BLOCK_RECORD
  5
214
100
AcDbSymbolTableRecord
100
AcDbBlockTableRecord
  2
*D2
  0
BLOCK_RECORD
  5
215
100
AcDbSymbolTableRecord
100
AcDbBlockTableRecord
  2
*D3
  0
ENDTAB
  0
TABLE
  2
DIMSTYLE
  5
A
100
AcDbSymbolTable
 70
1
100
AcDbDimStyleTable
 71
0
  0
DIMSTYLE
105
216
100
AcDbSymbolTableRecord
100
AcDbDimStyleTableRecord
  2
STANDARD
 70
0
  3

  4

 40
1.0
 41
3.5
 42
0.0
 43
0.38
 44
1.5
 45
0.0
 46
0.0
 47
0.05
 48
0.05
140
3.5
141
0.09
142
0.0
143
25.4
144
1.0
145
0.0
146
1.0
147
0.625
 71
1.0
 72
0.0
 73
0
 74
0
 75
0
 76
0
 77
1
 78
8
 79
2
170
0
171
1
172
0
173
0
174
0
175
0
176
0
177
0
178
2
270
2
179
2
271
2
272
2
273
2
274
2
275
0
280
0
281
0
282
0
283
1
284
8
285
0
286
0
287
3
288
0
340
11
278
46
341
211
342
211
343
211
344
211
  0
DIMSTYLE
105
217
100
AcDbSymbolTableRecord
100
AcDbDimStyleTableRecord
  2
DIMSTYLE_1
 70
0
  3

  4

 40
1.0
 41
3.5
 42
0.0
 43
0.38
 44
1.5
 45
0.0
 46
0.0
 47
0.3
 48
0.3
140
3.5
141
0.09
142
0.0
143
25.4
144
1.0
145
0.0
146
1.0
147
0.875
 71
0.0
 72
0.0
 73
0
 74
0
 75
0
 76
0
 77
1
 78
8
 79
2
170
0
171
1
172
0
173
0
174
0
175
0
176
0
177
0
178
2
270
2
179
2
271
2
272
2
273
2
274
2
275
0
280
0
281
0
282
0
283
1
284
8
285
0
286
0
287
3
288
0
340
11
278
46
341
211
342
211
343
211
344
211
  0
DIMSTYLE
105
218
100
AcDbSymbolTableRecord
100
AcDbDimStyleTableRecord
  2
DIMSTYLE_2
 70
0
  3

  4

 40
1.0
 41
3.5
 42
0.0
 43
0.38
 44
1.5
 45
0.0
 46
0.0
 47
0.5
 48
0.5
140
3.5
141
0.09
142
0.0
143
25.4
144
1.0
145
0.0
146
1.0
147
0.875
 71
0.0
 72
0.0
 73
0
 74
0
 75
0
 76
0
 77
1
 78
8
 79
2
170
0
171
1
172
0
173
0
174
0
175
0
176
0
177
0
178
2
270
2
179
2
271
2
272
2
273
2
274
2
275
0
280
0
281
0
282
0
283
1
284
8
285
0
286
0
287
3
288
0
340
11
278
46
341
211
342
211
343
211
344
211
  0
DIMSTYLE
105
219
100
AcDbSymbolTableRecord
100
AcDbDimStyleTableRecord
  2
DIMSTYLE_3
 70
0
  3

  4

 40
1.0
 41
3.5
 42
0.0
 43
0.38
 44
1.5
 45
0.0
 46
0.0
 47
0.2
 48
0.2
140
3.5
141
0.09
142
0.0
143
25.4
144
1.0
145
0.0
146
1.0
147
0.875
 71
0.0
 72
0.0
 73
0
 74
0
 75
0
 76
0
 77
1
 78
8
 79
2
170
0
171
1
172
0
173
0
174
0
175
0
176
0
177
0
178
2
270
2
179
2
271
2
272
2
273
2
274
2
275
0
280
0
281
0
282
0
283
1
284
8
285
0
286
0
287
3
288
0
340
11
278
46
341
211
342
211
343
211
344
211
  0
ENDTAB
  0
ENDSEC
  0
SECTION
  2
BLOCKS
  0
BLOCK
  5
20
100
AcDbEntity
  8
0
100
AcDbBlockBegin
  2
*Model_Space
 70
0
 10
0.0
 20
0.0
 30
0.0
  3
*Model_Space
  1

  0
ENDBLK
  5
21
100
AcDbEntity
  8
0
100
AcDbBlockEnd
  0
BLOCK
  5
1C
100
AcDbEntity
  8
0
100
AcDbBlockBegin
  2
*Paper_Space
 70
0
 10
0.0
 20
0.0
 30
0.0
  3
*Paper_Space
  1

  0
ENDBLK
  5
1D
100
AcDbEntity
  8
0
100
AcDbBlockEnd
  0
BLOCK
  5
21A
100
AcDbEntity
  8
0
100
AcDbBlockBegin
  2
_FILLED
 70
64
 10
0.0
 20
0.0
  3
_FILLED
  1

  0
SOLID
  5
21B
100
AcDbEntity
  8
0
  6
BYBLOCK
 62
0
100
AcDbTrace
 10
0.0
 20
0.0
 11
-1.0
 21
0.125
 12
-1.0
 22
-0.125
 13
-1.0
 23
-0.125
  0
ENDBLK
  5
21C
100
AcDbEntity
  8
0
  6
BYBLOCK
 62
0
100
AcDbBlockEnd
  0
BLOCK
  5
21D
100
AcDbEntity
  8
_03_2D_ZEICHNUNG_BEMASSUNGEN
100
AcDbBlockBegin
 62
7
  6
CONTINUOUS
  2
*D0
 70
65
 10
0.0
 20
0.0
  3
*D0
  1

  0
TEXT
  5
21E
100
AcDbEntity
  8
_03_2D_ZEICHNUNG_BEMASSUNGEN
100
AcDbText
 62
2
  6
CONTINUOUS
 10
-9.875
 20
-4.9583333333
  7
TEXTSTYLE_2
 40
3.5
  1
n
 50
90.0
 41
1.0
 72
1
 11
-9.875
 21
-2.625
100
AcDbText
  0
TEXT
  5
21F
100
AcDbEntity
  8
_03_2D_ZEICHNUNG_BEMASSUNGEN
100
AcDbText
 62
2
  6
CONTINUOUS
 10
-9.875
 20
-0.2916666667
  7
STANDARD
 40
3.5
  1
32
 50
90.0
 41
0.75
 72
1
 11
-9.875
 21
2.3333333333
100
AcDbText
  0
LINE
  5
220
100
AcDbEntity
  8
_03_2D_ZEICHNUNG_BEMASSUNGEN
100
AcDbLine
 62
7
  6
CONTINUOUS
 10
1.5
 20
16.0
 11
-10.5
 21
16.0
  0
LINE
  5
221
100
AcDbEntity
  8
_03_2D_ZEICHNUNG_BEMASSUNGEN
100
AcDbLine
 62
7
  6
CONTINUOUS
 10
1.5
 20
-16.0
 11
-10.5
 21
-16.0
  0
LINE
  5
222
100
AcDbEntity
  8
_03_2D_ZEICHNUNG_BEMASSUNGEN
100
AcDbLine
 62
7
  6
CONTINUOUS
 10
-9.0
 20
16.0
 11
-9.0
 21
0.0
  0
LINE
  5
223
100
AcDbEntity
  8
_03_2D_ZEICHNUNG_BEMASSUNGEN
100
AcDbLine
 62
7
  6
CONTINUOUS
 10
-9.0
 20
-16.0
 11
-9.0
 21
0.0
  0
INSERT
  5
224
100
AcDbEntity
  8
_03_2D_ZEICHNUNG_BEMASSUNGEN
100
AcDbBlockReference
 62
7
  6
CONTINUOUS
  2
_FILLED
 10
-9.0
 20
16.0
 41
3.5
 42
3.5
 43
3.5
 50
90.0
  0
INSERT
  5
225
100
AcDbEntity
  8
_03_2D_ZEICHNUNG_BEMASSUNGEN
100
AcDbBlockReference
 62
7
  6
CONTINUOUS
  2
_FILLED
 10
-9.0
 20
-16.0
 41
3.5
 42
3.5
 43
3.5
 50
270.0
  0
ENDBLK
  5
226
100
AcDbEntity
  8
0
  6
BYBLOCK
 62
0
100
AcDbBlockEnd
  0
BLOCK
  5
227
100
AcDbEntity
  8
_03_2D_ZEICHNUNG_BEMASSUNGEN
100
AcDbBlockBegin
 62
7
  6
CONTINUOUS
  2
*D1
 70
65
 10
0.0
 20
0.0
  3
*D1
  1

  0
TEXT
  5
228
100
AcDbEntity
  8
_03_2D_ZEICHNUNG_BEMASSUNGEN
100
AcDbText
 62
2
  6
CONTINUOUS
 10
125.5581454837
 20
40.9307929845
  7
STANDARD
 40
3.5
  1
250
 41
0.7619047619
 72
1
 11
129.5581454837
 21
40.9307929845
100
AcDbText
  0
LINE
  5
229
100
AcDbEntity
  8
_03_2D_ZEICHNUNG_BEMASSUNGEN
100
AcDbLine
 62
7
  6
CONTINUOUS
 10
250.0
 20
0.0
 11
250.0
 21
41.5557929845
  0
LINE
  5
22A
100
AcDbEntity
  8
_03_2D_ZEICHNUNG_BEMASSUNGEN
100
AcDbLine
 62
7
  6
CONTINUOUS
 10
0.0
 20
0.0
 11
0.0
 21
41.5557929845
  0
LINE
  5
22B
100
AcDbEntity
  8
_03_2D_ZEICHNUNG_BEMASSUNGEN
100
AcDbLine
 62
7
  6
CONTINUOUS
 10
250.0
 20
40.0557929845
 11
125.0
 21
40.0557929845
  0
LINE
  5
22C
100
AcDbEntity
  8
_03_2D_ZEICHNUNG_BEMASSUNGEN
100
AcDbLine
 62
7
  6
CONTINUOUS
 10
0.0
 20
40.0557929845
 11
125.0
 21
40.0557929845
  0
INSERT
  5
22D
100
AcDbEntity
  8
_03_2D_ZEICHNUNG_BEMASSUNGEN
100
AcDbBlockReference
 62
7
  6
CONTINUOUS
  2
_FILLED
 10
250.0
 20
40.0557929845
 41
3.5
 42
3.5
 43
3.5
  0
INSERT
  5
22E
100
AcDbEntity
  8
_03_2D_ZEICHNUNG_BEMASSUNGEN
100
AcDbBlockReference
 62
7
  6
CONTINUOUS
  2
_FILLED
 10
0.0
 20
40.0557929845
 41
3.5
 42
3.5
 43
3.5
 50
180.0
  0
ENDBLK
  5
22F
100
AcDbEntity
  8
0
  6
BYBLOCK
 62
0
100
AcDbBlockEnd
  0
BLOCK
  5
230
100
AcDbEntity
  8
_03_2D_ZEICHNUNG_BEMASSUNGEN
100
AcDbBlockBegin
 62
7
  6
CONTINUOUS
  2
*D2
 70
65
 10
0.0
 20
0.0
  3
*D2
  1

  0
TEXT
  5
231
100
AcDbEntity
  8
_03_2D_ZEICHNUNG_BEMASSUNGEN
100
AcDbText
 62
2
  6
CONTINUOUS
 10
226.8061585613
 20
31.9307929845
  7
STANDARD
 40
3.5
  1
40
 41
0.7857142857
 72
1
 11
229.5561585613
 21
31.9307929845
100
AcDbText
  0
LINE
  5
232
100
AcDbEntity
  8
_03_2D_ZEICHNUNG_BEMASSUNGEN
100
AcDbLine
 62
7
  6
CONTINUOUS
 10
250.0
 20
-16.862914795
 11
250.0
 21
32.5557929845
  0
LINE
  5
233
100
AcDbEntity
  8
_03_2D_ZEICHNUNG_BEMASSUNGEN
100
AcDbLine
 62
7
  6
CONTINUOUS
 10
210.0
 20
-16.862914795
 11
210.0
 21
32.5557929845
  0
LINE
  5
234
100
AcDbEntity
  8
_03_2D_ZEICHNUNG_BEMASSUNGEN
100
AcDbLine
 62
7
  6
CONTINUOUS
 10
250.0
 20
31.0557929845
 11
230.0
 21
31.0557929845
  0
LINE
  5
235
100
AcDbEntity
  8
_03_2D_ZEICHNUNG_BEMASSUNGEN
100
AcDbLine
 62
7
  6
CONTINUOUS
 10
210.0
 20
31.0557929845
 11
230.0
 21
31.0557929845
  0
INSERT
  5
236
100
AcDbEntity
  8
_03_2D_ZEICHNUNG_BEMASSUNGEN
100
AcDbBlockReference
 62
7
  6
CONTINUOUS
  2
_FILLED
 10
250.0
 20
31.0557929845
 41
3.5
 42
3.5
 43
3.5
  0
INSERT
  5
237
100
AcDbEntity
  8
_03_2D_ZEICHNUNG_BEMASSUNGEN
100
AcDbBlockReference
 62
7
  6
CONTINUOUS
  2
_FILLED
 10
210.0
 20
31.0557929845
 41
3.5
 42
3.5
 43
3.5
 50
180.0
  0
ENDBLK
  5
238
100
AcDbEntity
  8
0
  6
BYBLOCK
 62
0
100
AcDbBlockEnd
  0
BLOCK
  5
239
100
AcDbEntity
  8
_03_2D_ZEICHNUNG_BEMASSUNGEN
100
AcDbBlockBegin
 62
7
  6
CONTINUOUS
  2
*D3
 70
65
 10
0.0
 20
0.0
  3
*D3
  1

  0
TEXT
  5
23A
100
AcDbEntity
  8
_03_2D_ZEICHNUNG_BEMASSUNGEN
100
AcDbText
 62
2
  6
CONTINUOUS
 10
258.224964525
 20
8.25
  7
STANDARD
 40
3.5
  1
22
 50
90.0
 41
0.7857142857
 72
1
 11
258.224964525
 21
11.0
100
AcDbText
  0
LINE
  5
23B
100
AcDbEntity
  8
_03_2D_ZEICHNUNG_BEMASSUNGEN
100
AcDbLine
 62
7
  6
CONTINUOUS
 10
254.2218968353
 20
0.0
 11
260.599964525
 21
0.0
  0
LINE
  5
23C
100
AcDbEntity
  8
_03_2D_ZEICHNUNG_BEMASSUNGEN
100
AcDbLine
 62
7
  6
CONTINUOUS
 10
250.0
 20
22.0
 11
260.599964525
 21
22.0
  0
LINE
  5
23D
100
AcDbEntity
  8
_03_2D_ZEICHNUNG_BEMASSUNGEN
100
AcDbLine
 62
7
  6
CONTINUOUS
 10
259.099964525
 20
0.0
 11
259.099964525
 21
-6.0
  0
LINE
  5
23E
100
AcDbEntity
  8
_03_2D_ZEICHNUNG_BEMASSUNGEN
100
AcDbLine
 62
7
  6
CONTINUOUS
 10
259.099964525
 20
-6.0
 11
259.099964525
 21
11.0
  0
LINE
  5
23F
100
AcDbEntity
  8
_03_2D_ZEICHNUNG_BEMASSUNGEN
100
AcDbLine
 62
7
  6
CONTINUOUS
 10
259.099964525
 20
22.0
 11
259.099964525
 21
28.0
  0
LINE
  5
240
100
AcDbEntity
  8
_03_2D_ZEICHNUNG_BEMASSUNGEN
100
AcDbLine
 62
7
  6
CONTINUOUS
 10
259.099964525
 20
28.0
 11
259.099964525
 21
11.0
  0
INSERT
  5
241
100
AcDbEntity
  8
_03_2D_ZEICHNUNG_BEMASSUNGEN
100
AcDbBlockReference
 62
7
  6
CONTINUOUS
  2
_FILLED
 10
259.099964525
 20
0.0
 41
3.5
 42
3.5
 43
3.5
 50
90.0
  0
INSERT
  5
242
100
AcDbEntity
  8
_03_2D_ZEICHNUNG_BEMASSUNGEN
100
AcDbBlockReference
 62
7
  6
CONTINUOUS
  2
_FILLED
 10
259.099964525
 20
22.0
 41
3.5
 42
3.5
 43
3.5
 50
270.0
  0
ENDBLK
  5
243
100
AcDbEntity
  8
0
  6
BYBLOCK
 62
0
100
AcDbBlockEnd
  0
ENDSEC
  0
SECTION
  2
ENTITIES
  0
DIMENSION
  5
244
100
AcDbEntity
  8
_03_2D_ZEICHNUNG_BEMASSUNGEN
100
AcDbDimension
 62
7
  6
CONTINUOUS
  2
*D0
 10
-9.0
 20
-16.0
 11
-9.0
 21
-0.0
 70
160
 71
2
 42
32.0
  1
%%c<>
  3
DIMSTYLE_1
100
AcDbAlignedDimension
 13
1.5
 23
16.0
 14
1.5
 24
-16.0
 50
270.0
100
AcDbRotatedDimension
  0
DIMENSION
  5
245
100
AcDbEntity
  8
_03_2D_ZEICHNUNG_BEMASSUNGEN
100
AcDbDimension
 62
7
  6
CONTINUOUS
  2
*D1
 10
0.0
 20
40.0557929845
 11
129.0581442261
 21
40.0557929845
 70
160
 71
2
 42
250.0
  3
DIMSTYLE_2
100
AcDbAlignedDimension
 13
250.0
 23
0.0
 14
0.0
 24
0.0
 50
180.0
100
AcDbRotatedDimension
  0
DIMENSION
  5
246
100
AcDbEntity
  8
_03_2D_ZEICHNUNG_BEMASSUNGEN
100
AcDbDimension
 62
7
  6
CONTINUOUS
  2
*D2
 10
210.0
 20
31.0557929845
 11
229.0561541748
 21
31.0557929845
 70
160
 71
2
 42
40.0
  3
DIMSTYLE_1
100
AcDbAlignedDimension
 13
250.0
 23
-16.862914795
 14
210.0
 24
-16.862914795
 50
180.0
100
AcDbRotatedDimension
  0
DIMENSION
  5
247
100
AcDbEntity
  8
_03_2D_ZEICHNUNG_BEMASSUNGEN
100
AcDbDimension
 62
7
  6
CONTINUOUS
  2
*D3
 10
259.099964525
 20
22.0
 11
259.099964525
 21
10.500004347
 70
160
 71
2
 42
22.0
  3
DIMSTYLE_3
100
AcDbAlignedDimension
 13
254.2218968353
 23
0.0
 14
250.0
 24
22.0
 50
90.0
100
AcDbRotatedDimension
  0
LINE
  5
248
100
AcDbEntity
  8
_30_VOLUMEN
100
AcDbLine
 62
4
  6
CONTINUOUS
 10
-0.0
 20
14.5
 11
0.0
 21
-14.5
  0
LINE
  5
249
100
AcDbEntity
  8
0
100
AcDbLine
 62
4
  6
CONTINUOUS
 10
1.5
 20
16.0
 11
1.5
 21
5.5677643628
  0
LINE
  5
24A
100
AcDbEntity
  8
0
100
AcDbLine
 62
4
  6
CONTINUOUS
 10
1.5
 20
-5.5677643628
 11
1.5
 21
-16.0
  0
LINE
  5
24B
100
AcDbEntity
  8
_30_VOLUMEN
100
AcDbLine
 62
4
  6
CONTINUOUS
 10
1.5
 20
-16.0
 11
0.0
 21
-14.5
  0
LINE
  5
24C
100
AcDbEntity
  8
_30_VOLUMEN
100
AcDbLine
 62
4
  6
CONTINUOUS
 10
1.5
 20
16.0
 11
-0.0
 21
14.5
  0
LINE
  5
24D
100
AcDbEntity
  8
_30_VOLUMEN
100
AcDbLine
 62
4
  6
CONTINUOUS
 10
1.5
 20
-16.0
 11
210.0
 21
-16.0
  0
LINE
  5
24E
100
AcDbEntity
  8
_30_VOLUMEN
100
AcDbLine
 62
4
  6
CONTINUOUS
 10
210.0
 20
-15.75
 11
227.3948187403
 21
-15.75
  0
LINE
  5
24F
100
AcDbEntity
  8
0
100
AcDbLine
 62
4
  6
CONTINUOUS
 10
1.5
 20
-5.5677643628
 11
210.0
 21
-5.5677643628
  0
LINE
  5
250
100
AcDbEntity
  8
_30_VOLUMEN
100
AcDbLine
 62
4
  6
CONTINUOUS
 10
210.0
 20
-4.8023431781
 11
215.0673946851
 21
-4.8023431781
  0
LINE
  5
251
100
AcDbEntity
  8
_21_KURVEN
100
AcDbLine
 62
7
  6
CONTINUOUS
 10
248.3433348983
 20
9.5253183527
 11
242.6173174292
 21
9.1774971149
  0
LINE
  5
252
100
AcDbEntity
  8
_30_VOLUMEN
100
AcDbLine
 62
4
  6
CONTINUOUS
 10
248.4597196928
 20
9.5323880313
 11
242.6173174292
 21
9.1774971149
  0
LINE
  5
253
100
AcDbEntity
  8
_26_BEZUGSACHSEN
100
AcDbLine
 62
7
  6
CENTER
 10
-3.0
 20
0.0
 11
254.2218968353
 21
0.0
  0
LINE
  5
254
100
AcDbEntity
  8
_30_VOLUMEN
100
AcDbLine
 62
4
  6
CONTINUOUS
 10
234.1886047807
 20
19.9386047807
 11
237.0693260907
 21
20.2923128819
  0
LINE
  5
255
100
AcDbEntity
  8
_30_VOLUMEN
100
AcDbLine
 62
4
  6
CONTINUOUS
 10
1.5
 20
5.5677643628
 11
204.5961907527
 21
5.5677643628
  0
LINE
  5
256
100
AcDbEntity
  8
_30_VOLUMEN
100
AcDbLine
 62
4
  6
CONTINUOUS
 10
228.8187333694
 20
11.2969264832
 11
230.6823632233
 21
11.2969890107
  0
LINE
  5
257
100
AcDbEntity
  8
_30_VOLUMEN
100
AcDbLine
 62
4
  6
CONTINUOUS
 10
238.0100218411
 20
21.3214014372
 11
249.1570665962
 21
21.9985175874
  0
LINE
  5
258
100
AcDbEntity
  8
_21_KURVEN
100
AcDbLine
 62
7
  6
CONTINUOUS
 10
238.0100218411
 20
21.3214014372
 11
249.1570665962
 21
21.9985175874
  0
LINE
  5
259
100
AcDbEntity
  8
_30_VOLUMEN
100
AcDbLine
 62
4
  6
CONTINUOUS
 10
210.0
 20
15.75
 11
230.0
 21
15.75
  0
LINE
  5
25A
100
AcDbEntity
  8
_30_VOLUMEN
100
AcDbLine
 62
4
  6
CONTINUOUS
 10
1.5
 20
16.0
 11
210.0
 21
16.0
  0
LINE
  5
25B
100
AcDbEntity
  8
_30_VOLUMEN
100
AcDbLine
 62
7
  6
CONTINUOUS
 10
242.1002181871
 20
17.5386310448
 11
242.663285726
 21
17.5084663549
  0
LINE
  5
25C
100
AcDbEntity
  8
_30_VOLUMEN
100
AcDbLine
 62
4
  6
CONTINUOUS
 10
222.3243083692
 20
6.1320848525
 11
225.9109341047
 21
7.50239969
  0
LINE
  5
25D
100
AcDbEntity
  8
_30_VOLUMEN
100
AcDbLine
 62
4
  6
CONTINUOUS
 10
242.1002181871
 20
17.5386310448
 11
228.8187333694
 21
11.2969264832
  0
LINE
  5
25E
100
AcDbEntity
  8
_30_VOLUMEN
100
AcDbLine
 62
4
  6
CONTINUOUS
 10
237.4682655307
 20
14.4860599593
 11
230.6823632233
 21
11.2969890107
  0
LINE
  5
25F
100
AcDbEntity
  8
_30_VOLUMEN
100
AcDbLine
 62
4
  6
CONTINUOUS
 10
242.663285726
 20
17.5084663549
 11
237.4682655307
 21
14.4860599593
  0
LINE
  5
260
100
AcDbEntity
  8
_30_VOLUMEN
100
AcDbLine
 62
4
  6
CONTINUOUS
 10
228.8187333694
 20
11.2969264832
 11
222.3243083692
 21
6.1320848525
  0
LINE
  5
261
100
AcDbEntity
  8
_30_VOLUMEN
100
AcDbLine
 62
4
  6
CONTINUOUS
 10
230.6823632233
 20
11.2969890107
 11
225.9109341047
 21
7.50239969
  0
LINE
  5
262
100
AcDbEntity
  8
_30_VOLUMEN
100
AcDbLine
 62
4
  6
CONTINUOUS
 10
230.0
 20
15.75
 11
234.1886047807
 21
19.9386047807
  0
LINE
  5
263
100
AcDbEntity
  8
_28_BEZUGSPUNKTE
100
AcDbLine
 62
1
  6
CONTINUOUS
 10
250.15625
 20
22.15625
 11
249.84375
 21
21.84375
  0
LINE
  5
264
100
AcDbEntity
  8
_30_VOLUMEN
100
AcDbLine
 62
4
  6
CONTINUOUS
 10
222.3243083692
 20
6.1320848525
 11
233.1366483695
 21
-4.7692520514
  0
LINE
  5
265
100
AcDbEntity
  8
_30_VOLUMEN
100
AcDbLine
 62
4
  6
CONTINUOUS
 10
225.9109341047
 20
7.50239969
 11
233.8468692532
 21
-0.4988565321
  0
LINE
  5
266
100
AcDbEntity
  8
0
100
AcDbLine
 62
4
  6
CONTINUOUS
 10
210.0
 20
-4.8023431781
 11
210.0
 21
-5.5677643628
  0
LINE
  5
267
100
AcDbEntity
  8
_30_VOLUMEN
100
AcDbLine
 62
4
  6
CONTINUOUS
 10
210.0
 20
-15.9999059391
 11
210.0
 21
-5.5677643628
  0
LINE
  5
268
100
AcDbEntity
  8
_30_VOLUMEN
100
AcDbLine
 62
4
  6
CONTINUOUS
 10
210.0
 20
14.1770914985
 11
210.0
 21
15.9999089672
  0
LINE
  5
269
100
AcDbEntity
  8
_30_VOLUMEN
100
AcDbLine
 62
4
  6
CONTINUOUS
 10
245.023321828
 20
15.1290046794
 11
241.2804380356
 21
10.6425092745
  0
LINE
  5
26A
100
AcDbEntity
  8
_30_VOLUMEN
100
AcDbLine
 62
4
  6
CONTINUOUS
 10
233.8468692532
 20
-0.4988565321
 11
237.8445531094
 21
4.0758467866
  0
LINE
  5
26B
100
AcDbEntity
  8
_30_VOLUMEN
100
AcDbLine
 62
4
  6
CONTINUOUS
 10
237.3743744208
 20
20.9187429567
 11
237.0392509201
 21
20.2886201153
  0
LINE
  5
26C
100
AcDbEntity
  8
_30_VOLUMEN
100
AcDbLine
 62
7
  6
CONTINUOUS
 10
237.2892571002
 20
20.6309166283
 11
237.1086784727
 21
20.2913799571
  0
LINE
  5
26D
100
AcDbEntity
  8
_30_VOLUMEN
100
AcDbLine
 62
4
  6
CONTINUOUS
 10
233.1366483695
 20
-4.7692520514
 11
238.5779233696
 21
1.4574081089
  0
LINE
  5
26E
100
AcDbEntity
  8
_30_VOLUMEN
100
AcDbLine
 62
4
  6
CONTINUOUS
 10
227.3946733783
 20
-15.7501453621
 11
248.0553605433
 21
4.9105418029
  0
LINE
  5
26F
100
AcDbEntity
  8
_30_VOLUMEN
100
AcDbLine
 62
4
  6
CONTINUOUS
 10
241.2804380356
 20
10.6425092745
 11
237.4682655307
 21
14.4860599593
  0
LINE
  5
270
100
AcDbEntity
  8
_30_VOLUMEN
100
AcDbLine
 62
4
  6
CONTINUOUS
 10
237.8445531094
 20
4.0758467866
 11
241.2804380356
 21
10.6425092745
  0
LINE
  5
271
100
AcDbEntity
  8
_30_VOLUMEN
100
AcDbLine
 62
4
  6
CONTINUOUS
 10
238.5779233696
 20
1.4574081089
 11
245.3026964972
 21
14.3097929777
  0
LINE
  5
272
100
AcDbEntity
  8
_28_BEZUGSPUNKTE
100
AcDbLine
 62
1
  6
CONTINUOUS
 10
250.15625
 20
21.84375
 11
249.84375
 21
22.15625
  0
LINE
  5
273
100
AcDbEntity
  8
_30_VOLUMEN
100
AcDbLine
 62
4
  6
CONTINUOUS
 10
230.0
 20
15.75
 11
230.0
 21
15.2285980645
  0
LINE
  5
274
100
AcDbEntity
  8
_30_VOLUMEN
100
AcDbLine
 62
4
  6
CONTINUOUS
 10
234.1886047807
 20
19.9386047807
 11
234.1886047807
 21
19.7872285085
  0
LINE
  5
275
100
AcDbEntity
  8
_30_VOLUMEN
100
AcDbLine
 62
4
  6
CONTINUOUS
 10
236.8008287227
 20
15.0481547278
 11
237.2892571002
 21
20.6309166283
  0
LINE
  5
276
100
AcDbEntity
  8
_21_KURVEN
100
AcDbLine
 62
7
  6
CONTINUOUS
 10
236.8008287227
 20
15.0481547278
 11
237.2892571002
 21
20.6309166283
  0
LINE
  5
277
100
AcDbEntity
  8
_30_VOLUMEN
100
AcDbLine
 62
4
  6
CONTINUOUS
 10
233.1366483695
 20
-4.7692520514
 11
233.8468692532
 21
-0.4988565321
  0
LINE
  5
278
100
AcDbEntity
  8
_30_VOLUMEN
100
AcDbLine
 62
4
  6
CONTINUOUS
 10
248.9789823186
 20
9.9279768332
 11
248.4135395974
 21
8.8647915494
  0
LINE
  5
279
100
AcDbEntity
  8
_30_VOLUMEN
100
AcDbLine
 62
4
  6
CONTINUOUS
 10
238.5779233696
 20
1.4574081089
 11
237.8445531094
 21
4.0758467866
  0
LINE
  5
27A
100
AcDbEntity
  8
_26_BEZUGSACHSEN
100
AcDbLine
 62
4
  6
CONTINUOUS
 10
248.4597196928
 20
9.5323880313
 11
248.0553605433
 21
4.9105418029
  0
LINE
  5
27B
100
AcDbEntity
  8
_21_KURVEN
100
AcDbLine
 62
7
  6
CONTINUOUS
 10
250.0191771399
 20
21.1323889475
 11
249.0640996393
 21
10.2158031615
  0
LINE
  5
27C
100
AcDbEntity
  8
_30_VOLUMEN
100
AcDbLine
 62
4
  6
CONTINUOUS
 10
250.0191771399
 20
21.1323889475
 11
249.0640996393
 21
10.2158031615
  0
LINE
  5
27D
100
AcDbEntity
  8
_30_VOLUMEN
100
AcDbLine
 62
7
  6
CONTINUOUS
 10
245.3026964972
 20
14.3097929777
 11
245.023321828
 21
15.1290046794
  0
ARC
  5
27E
100
AcDbEntity
  8
_30_VOLUMEN
100
AcDbCircle
 62
4
  6
CONTINUOUS
 10
254.0069299841
 20
-685.9393765604
 40
701.5788347198
100
AcDbArc
 50
91.9609547337
 51
93.3665767538
  0
ARC
  5
27F
100
AcDbEntity
  8
_26_BEZUGSACHSEN
100
AcDbCircle
 62
4
  6
CONTINUOUS
 10
332.7010611226
 20
-669.0997144769
 40
695.8950526266
100
AcDbArc
 50
97.8834509631
 51
98.1382559255
  0
ARC
  5
280
100
AcDbEntity
  8
_30_VOLUMEN
100
AcDbCircle
 62
7
  6
CONTINUOUS
 10
243.0463441296
 20
14.9643442701
 40
2.481816601
100
AcDbArc
 50
343.8964430718
 51
358.7146473414
  0
ARC
  5
281
100
AcDbEntity
  8
_30_VOLUMEN
100
AcDbCircle
 62
4
  6
CONTINUOUS
 10
242.6940681282
 20
14.2940869746
 40
2.4787369514
100
AcDbArc
 50
353.4956505988
 51
353.8651785244
  0
ARC
  5
282
100
AcDbEntity
  8
_30_VOLUMEN
100
AcDbCircle
 62
4
  6
CONTINUOUS
 10
242.7011852989
 20
14.293194845
 40
2.4715645342
100
AcDbArc
 50
349.461615405
 51
353.4975089541
  0
ARC
  5
283
100
AcDbEntity
  8
_30_VOLUMEN
100
AcDbCircle
 62
4
  6
CONTINUOUS
 10
242.7449205194
 20
14.2844677784
 40
2.4269709527
100
AcDbArc
 50
341.8124918547
 51
349.4753303261
  0
ARC
  5
284
100
AcDbEntity
  8
_30_VOLUMEN
100
AcDbCircle
 62
7
  6
CONTINUOUS
 10
243.124190501
 20
14.9444500005
 40
2.4015078908
100
AcDbArc
 50
331.9981590658
 51
343.8373002293
  0
ARC
  5
285
100
AcDbEntity
  8
_30_VOLUMEN
100
AcDbCircle
 62
4
  6
CONTINUOUS
 10
248.2941069654
 20
10.3209429668
 40
0.7971461071
100
AcDbArc
 50
273.5405663328
 51
287.0948741894
  0
SPLINE
  5
286
100
AcDbEntity
  8
_30_VOLUMEN
100
AcDbSpline
 62
4
  6
CONTINUOUS
 70
0
 71
3
 72
11
 73
7
 74
0
 42
0.0000001
 43
0.0000001
 44
0.0000000001
 40
0.0
 40
0.0
 40
0.0
 40
0.0
 40
0.2466384139
 40
0.4967269544
 40
0.748795927
 40
1.0
 40
1.0
 40
1.0
 40
1.0
 10
250.0191771399
 20
21.1323889475
 30
0.0
 10
250.0290186111
 20
21.2448774773
 30
0.0
 10
249.9968786659
 20
21.4788989279
 30
0.0
 10
249.8051814589
 20
21.7754245566
 30
0.0
 10
249.5077135515
 20
21.9689502331
 30
0.0
 10
249.2718635093
 20
22.0054908117
 30
0.0
 10
249.1570665962
 20
21.9985175874
 30
0.0
  0
SPLINE
  5
287
100
AcDbEntity
  8
_30_VOLUMEN
100
AcDbSpline
 62
4
  6
CONTINUOUS
 70
0
 71
3
 72
9
 73
5
 74
0
 42
0.0000001
 43
0.0000001
 44
0.0000000001
 40
0.0
 40
0.0
 40
0.0
 40
0.0
 40
0.5034014713
 40
1.0
 40
1.0
 40
1.0
 40
1.0
 10
238.0100218411
 20
21.3214014372
 30
0.0
 10
237.8797548021
 20
21.3134884954
 30
0.0
 10
237.6202495424
 20
21.2324808228
 30
0.0
 10
237.4346909156
 20
21.0324833409
 30
0.0
 10
237.3744769201
 20
20.9186889693
 30
0.0
  0
SPLINE
  5
288
100
AcDbEntity
  8
_30_VOLUMEN
100
AcDbSpline
 62
4
  6
CONTINUOUS
 70
0
 71
3
 72
8
 73
4
 74
0
 42
0.0000001
 43
0.0000001
 44
0.0000000001
 40
0.0
 40
0.0
 40
0.0
 40
0.0
 40
1.0
 40
1.0
 40
1.0
 40
1.0
 10
248.9788798193
 20
9.9280308206
 30
0.0
 10
249.0256699102
 20
10.0164562597
 30
0.0
 10
249.0553804179
 20
10.1161420053
 30
0.0
 10
249.0640996393
 20
10.2158031615
 30
0.0
  0
SPLINE
  5
289
100
AcDbEntity
  8
_30_VOLUMEN
100
AcDbSpline
 62
4
  6
CONTINUOUS
 70
0
 71
3
 72
9
 73
5
 74
0
 42
0.0000001
 43
0.0000001
 44
0.0000000001
 40
0.0
 40
0.0
 40
0.0
 40
0.0
 40
0.246921987
 40
1.0
 40
1.0
 40
1.0
 40
1.0
 10
245.2445215738
 20
13.8169625999
 30
0.0
 10
245.2110384918
 20
13.7540053478
 30
0.0
 10
245.0630452611
 20
13.505792206
 30
0.0
 10
244.8667232112
 20
13.2866487862
 30
0.0
 10
244.7001888903
 20
13.1467818276
 30
0.0
  0
SPLINE
  5
28A
100
AcDbEntity
  8
_30_VOLUMEN
100
AcDbSpline
 62
4
  6
CONTINUOUS
 70
0
 71
3
 72
11
 73
7
 74
0
 42
0.0000001
 43
0.0000001
 44
0.0000000001
 40
0.0
 40
0.0
 40
0.0
 40
0.0
 40
0.250332533
 40
0.499776805
 40
0.7490694498
 40
1.0
 40
1.0
 40
1.0
 40
1.0
 10
246.0893666439
 20
15.5311226664
 30
0.0
 10
246.1153371127
 20
15.245115015
 30
0.0
 10
246.0801056963
 20
14.6623792774
 30
0.0
 10
245.7669857509
 20
13.8478233994
 30
0.0
 10
245.2201865321
 20
13.1668825743
 30
0.0
 10
244.7340926541
 20
12.8427066808
 30
0.0
 10
244.4733858725
 20
12.7206356628
 30
0.0
  0
SPLINE
  5
28B
100
AcDbEntity
  8
_30_VOLUMEN
100
AcDbSpline
 62
4
  6
CONTINUOUS
 70
0
 71
3
 72
17
 73
13
 74
0
 42
0.0000001
 43
0.0000001
 44
0.0000000001
 40
0.0
 40
0.0
 40
0.0
 40
0.0
 40
0.1242188113
 40
0.2498338493
 40
0.3761892447
 40
0.502704368
 40
0.6285589187
 40
0.7532254751
 40
0.8152689659
 40
0.8770428271
 40
0.9385833495
 40
1.0
 40
1.0
 40
1.0
 40
1.0
 10
246.0893666439
 20
15.5311226664
 30
0.0
 10
246.0612668646
 20
15.8405799929
 30
0.0
 10
245.9013067198
 20
16.4578463299
 30
0.0
 10
245.3849679986
 20
17.2623458333
 30
0.0
 10
244.641905834
 20
17.8735828162
 30
0.0
 10
243.7482302631
 20
18.2310929658
 30
0.0
 10
242.7923151407
 20
18.2987080627
 30
0.0
 10
242.0197164719
 20
18.1052651298
 30
0.0
 10
241.4686714772
 20
17.8127452353
 30
0.0
 10
241.0978763009
 20
17.5308024982
 30
0.0
 10
240.7789617417
 20
17.1936601196
 30
0.0
 10
240.6065903573
 20
16.9369112911
 30
0.0
 10
240.5316901025
 20
16.8027738795
 30
0.0
  0
SPLINE
  5
28C
100
AcDbEntity
  8
_30_VOLUMEN
100
AcDbSpline
 62
4
  6
CONTINUOUS
 70
0
 71
3
 72
16
 73
12
 74
0
 42
0.0000001
 43
0.0000001
 44
0.0000000001
 40
0.0
 40
0.0
 40
0.0
 40
0.0
 40
0.0614587072
 40
0.1230211107
 40
0.2463776898
 40
0.3709841572
 40
0.4968385844
 40
0.6234293201
 40
0.7499401451
 40
0.8756285062
 40
1.0
 40
1.0
 40
1.0
 40
1.0
 10
240.448993059
 20
16.7652396766
 30
0.0
 10
240.5191847516
 20
16.9086874791
 30
0.0
 10
240.6842757873
 20
17.1846150753
 30
0.0
 10
241.1022104355
 20
17.6727492128
 30
0.0
 10
241.7740662883
 20
18.1439944634
 30
0.0
 10
242.723898799
 20
18.4174254905
 30
0.0
 10
243.7196407639
 20
18.376165053
 30
0.0
 10
244.657199509
 20
18.0251235611
 30
0.0
 10
245.439913914
 20
17.4012637095
 30
0.0
 10
245.9856384441
 20
16.5697086206
 30
0.0
 10
246.153957032
 20
15.927841605
 30
0.0
 10
246.1831825263
 20
15.6059870006
 30
0.0
  0
SPLINE
  5
28D
100
AcDbEntity
  8
_30_VOLUMEN
100
AcDbSpline
 62
4
  6
CONTINUOUS
 70
0
 71
3
 72
8
 73
4
 74
0
 42
0.0000001
 43
0.0000001
 44
0.0000000001
 40
0.0
 40
0.0
 40
0.0
 40
0.0
 40
1.0
 40
1.0
 40
1.0
 40
1.0
 10
237.3744769201
 20
20.9186889693
 30
0.0
 10
237.3276868292
 20
20.8302635302
 30
0.0
 10
237.2979763215
 20
20.7305777846
 30
0.0
 10
237.2892571002
 20
20.6309166283
 30
0.0
  0
SPLINE
  5
28E
100
AcDbEntity
  8
_30_VOLUMEN
100
AcDbSpline
 62
4
  6
CONTINUOUS
 70
0
 71
3
 72
9
 73
5
 74
0
 42
0.0000001
 43
0.0000001
 44
0.0000000001
 40
0.0
 40
0.0
 40
0.0
 40
0.0
 40
0.5025229507
 40
1.0
 40
1.0
 40
1.0
 40
1.0
 10
248.5284319031
 20
9.5590153196
 30
0.0
 10
248.6235136273
 20
9.5882266081
 30
0.0
 10
248.8036710156
 20
9.6831005649
 30
0.0
 10
248.9328253647
 20
9.8409956109
 30
0.0
 10
248.9788798193
 20
9.9280308206
 30
0.0
  0
SPLINE
  5
28F
100
AcDbEntity
  8
_30_VOLUMEN
100
AcDbSpline
 62
4
  6
CONTINUOUS
 70
0
 71
3
 72
11
 73
7
 74
0
 42
0.0000001
 43
0.0000001
 44
0.0000000001
 40
0.0
 40
0.0
 40
0.0
 40
0.0
 40
0.2503757925
 40
0.4996223457
 40
0.7489754976
 40
1.0
 40
1.0
 40
1.0
 40
1.0
 10
246.1831825263
 20
15.6059870006
 30
0.0
 10
246.2102098883
 20
15.3083399932
 30
0.0
 10
246.1719413604
 20
14.701766778
 30
0.0
 10
245.8371908241
 20
13.8571773385
 30
0.0
 10
245.2566129757
 20
13.1574506423
 30
0.0
 10
244.7426363778
 20
12.8315547862
 30
0.0
 10
244.468121998
 20
12.7114317559
 30
0.0
  0
SPLINE
  5
290
100
AcDbEntity
  8
_21_KURVEN
100
AcDbSpline
 62
7
  6
CONTINUOUS
 70
0
 71
3
 72
9
 73
5
 74
0
 42
0.0000001
 43
0.0000001
 44
0.0000000001
 40
0.0
 40
0.0
 40
0.0
 40
0.0
 40
0.5
 40
1.0
 40
1.0
 40
1.0
 40
1.0
 10
238.0100218411
 20
21.3214014372
 30
0.0
 10
237.949531164
 20
21.315420476
 30
0.0
 10
237.8282845372
 20
21.2986539047
 30
0.0
 10
237.7187847377
 20
21.2467246368
 30
0.0
 10
237.66312373
 20
21.2174333299
 30
0.0
  0
SPLINE
  5
291
100
AcDbEntity
  8
_21_KURVEN
100
AcDbSpline
 62
7
  6
CONTINUOUS
 70
0
 71
3
 72
9
 73
5
 74
0
 42
0.0000001
 43
0.0000001
 44
0.0000000001
 40
0.0
 40
0.0
 40
0.0
 40
0.0
 40
0.5
 40
1.0
 40
1.0
 40
1.0
 40
1.0
 10
237.663123728
 20
21.2174333288
 30
0.0
 10
237.6374919384
 20
21.2019042085
 30
0.0
 10
237.586773817
 20
21.1697983293
 30
0.0
 10
237.5418614141
 20
21.1303259576
 30
0.0
 10
237.5179920499
 20
21.1084200341
 30
0.0
  0
SPLINE
  5
292
100
AcDbEntity
  8
_21_KURVEN
100
AcDbSpline
 62
7
  6
CONTINUOUS
 70
0
 71
3
 72
8
 73
4
 74
0
 42
0.0000001
 43
0.0000001
 44
0.0000000001
 40
0.0
 40
0.0
 40
0.0
 40
0.0
 40
1.0
 40
1.0
 40
1.0
 40
1.0
 10
237.5179920485
 20
21.1084200328
 30
0.0
 10
237.4757768983
 20
21.0663503234
 30
0.0
 10
237.4384742112
 20
21.0212061652
 30
0.0
 10
237.4042305498
 20
20.9698929407
 30
0.0
  0
SPLINE
  5
293
100
AcDbEntity
  8
_21_KURVEN
100
AcDbSpline
 62
7
  6
CONTINUOUS
 70
0
 71
3
 72
8
 73
4
 74
0
 42
0.0000001
 43
0.0000001
 44
0.0000000001
 40
0.0
 40
0.0
 40
0.0
 40
0.0
 40
1.0
 40
1.0
 40
1.0
 40
1.0
 10
237.4042305518
 20
20.9698929438
 30
0.0
 10
237.3955844334
 20
20.956177925
 30
0.0
 10
237.3844680401
 20
20.9374017114
 30
0.0
 10
237.3743744206
 20
20.9187429562
 30
0.0
  0
SPLINE
  5
294
100
AcDbEntity
  8
_21_KURVEN
100
AcDbSpline
 62
7
  6
CONTINUOUS
 70
0
 71
3
 72
9
 73
5
 74
0
 42
0.0000001
 43
0.0000001
 44
0.0000000001
 40
0.0
 40
0.0
 40
0.0
 40
0.0
 40
0.5
 40
1.0
 40
1.0
 40
1.0
 40
1.0
 10
237.3743744208
 20
20.9187429567
 30
0.0
 10
237.3597751677
 20
20.8897979581
 30
0.0
 10
237.3306057321
 20
20.8286851388
 30
0.0
 10
237.3128102756
 20
20.7632417673
 30
0.0
 10
237.3042058972
 20
20.7282974588
 30
0.0
  0
SPLINE
  5
295
100
AcDbEntity
  8
_21_KURVEN
100
AcDbSpline
 62
7
  6
CONTINUOUS
 70
0
 71
3
 72
8
 73
4
 74
0
 42
0.0000001
 43
0.0000001
 44
0.0000000001
 40
0.0
 40
0.0
 40
0.0
 40
0.0
 40
1.0
 40
1.0
 40
1.0
 40
1.0
 10
237.3042058976
 20
20.7282974605
 30
0.0
 10
237.2975335732
 20
20.6964894318
 30
0.0
 10
237.2926589729
 20
20.6652934109
 30
0.0
 10
237.2892571001
 20
20.630916627
 30
0.0
  0
SPLINE
  5
296
100
AcDbEntity
  8
_21_KURVEN
100
AcDbSpline
 62
7
  6
CONTINUOUS
 70
0
 71
3
 72
9
 73
5
 74
0
 42
0.0000001
 43
0.0000001
 44
0.0000000001
 40
0.0
 40
0.0
 40
0.0
 40
0.0
 40
0.5
 40
1.0
 40
1.0
 40
1.0
 40
1.0
 10
250.0191771399
 20
21.1323889475
 30
0.0
 10
250.0219779358
 20
21.1866521454
 30
0.0
 10
250.0233421176
 20
21.3030045364
 30
0.0
 10
249.9924231253
 20
21.4106210777
 30
0.0
 10
249.9740487917
 20
21.4670574895
 30
0.0
  0
SPLINE
  5
297
100
AcDbEntity
  8
_21_KURVEN
100
AcDbSpline
 62
7
  6
CONTINUOUS
 70
0
 71
3
 72
21
 73
17
 74
0
 42
0.0000001
 43
0.0000001
 44
0.0000000001
 40
0.0
 40
0.0
 40
0.0
 40
0.0
 40
0.125
 40
0.1875
 40
0.25
 40
0.3125
 40
0.375
 40
0.4375
 40
0.5
 40
0.5625
 40
0.625
 40
0.6875
 40
0.75
 40
0.8125
 40
0.875
 40
1.0
 40
1.0
 40
1.0
 40
1.0
 10
249.9740487949
 20
21.4670574809
 30
0.0
 10
249.9624420269
 20
21.492801771
 30
0.0
 10
249.9455836624
 20
21.5315750299
 30
0.0
 10
249.9208986932
 20
21.5826454136
 30
0.0
 10
249.8959319679
 20
21.6188248704
 30
0.0
 10
249.873939065
 20
21.6564281632
 30
0.0
 10
249.8465038708
 20
21.6904594431
 30
0.0
 10
249.8173475497
 20
21.7229408529
 30
0.0
 10
249.7902597926
 20
21.7579867134
 30
0.0
 10
249.7566189065
 20
21.7843246412
 30
0.0
 10
249.7250230134
 20
21.8132478406
 30
0.0
 10
249.6918002774
 20
21.8405378864
 30
0.0
 10
249.6539191948
 20
21.8634184605
 30
0.0
 10
249.6180568909
 20
21.8888564461
 30
0.0
 10
249.5656847947
 20
21.9150135275
 30
0.0
 10
249.5256032629
 20
21.9331175157
 30
0.0
 10
249.4990605661
 20
21.9455232462
 30
0.0
  0
SPLINE
  5
298
100
AcDbEntity
  8
_21_KURVEN
100
AcDbSpline
 62
7
  6
CONTINUOUS
 70
0
 71
3
 72
9
 73
5
 74
0
 42
0.0000001
 43
0.0000001
 44
0.0000000001
 40
0.0
 40
0.0
 40
0.0
 40
0.0
 40
0.5
 40
1.0
 40
1.0
 40
1.0
 40
1.0
 10
249.4990605777
 20
21.9455232417
 30
0.0
 10
249.4463221722
 20
21.9637307851
 30
0.0
 10
249.3335411567
 20
21.998350615
 30
0.0
 10
249.2162683082
 20
21.9999343485
 30
0.0
 10
249.1570665871
 20
21.9985175868
 30
0.0
  0
SPLINE
  5
299
100
AcDbEntity
  8
_21_KURVEN
100
AcDbSpline
 62
1
  6
CENTER
 70
0
 71
3
 72
147
 73
143
 74
0
 42
0.0000001
 43
0.0000001
 44
0.0000000001
 40
0.0
 40
0.0
 40
0.0
 40
0.0
 40
0.015625
 40
0.03125
 40
0.046875
 40
0.0546875
 40
0.05859375
 40
0.0625
 40
0.064453125
 40
0.06640625
 40
0.068359375
 40
0.0703125
 40
0.07421875
 40
0.078125
 40
0.09375
 40
0.1015625
 40
0.109375
 40
0.1171875
 40
0.125
 40
0.12890625
 40
0.130859375
 40
0.1328125
 40
0.13671875
 40
0.140625
 40
0.1484375
 40
0.15625
 40
0.171875
 40
0.1875
 40
0.1953125
 40
0.197265625
 40
0.19921875
 40
0.203125
 40
0.20703125
 40
0.2109375
 40
0.21875
 40
0.234375
 40
0.25
 40
0.2578125
 40
0.26171875
 40
0.265625
 40
0.26953125
 40
0.2734375
 40
0.28125
 40
0.296875
 40
0.3125
 40
0.3203125
 40
0.328125
 40
0.33203125
 40
0.333984375
 40
0.3359375
 40
0.33984375
 40
0.34375
 40
0.359375
 40
0.375
 40
0.3828125
 40
0.390625
 40
0.39453125
 40
0.3984375
 40
0.40625
 40
0.4140625
 40
0.421875
 40
0.4375
 40
0.453125
 40
0.4609375
 40
0.46484375
 40
0.466796875
 40
0.46875
 40
0.47265625
 40
0.4765625
 40
0.484375
 40
0.5
 40
0.5078125
 40
0.515625
 40
0.5234375
 40
0.52734375
 40
0.53125
 40
0.533203125
 40
0.53515625
 40
0.5390625
 40
0.546875
 40
0.5625
 40
0.578125
 40
0.5859375
 40
0.59375
 40
0.6015625
 40
0.60546875
 40
0.609375
 40
0.6171875
 40
0.625
 40
0.640625
 40
0.6484375
 40
0.65625
 40
0.66015625
 40
0.6640625
 40
0.666015625
 40
0.66796875
 40
0.671875
 40
0.6796875
 40
0.6875
 40
0.703125
 40
0.71875
 40
0.7265625
 40
0.73046875
 40
0.734375
 40
0.73828125
 40
0.7421875
 40
0.75
 40
0.765625
 40
0.78125
 40
0.7890625
 40
0.79296875
 40
0.796875
 40
0.80078125
 40
0.802734375
 40
0.8046875
 40
0.8125
 40
0.828125
 40
0.84375
 40
0.8515625
 40
0.859375
 40
0.86328125
 40
0.8671875
 40
0.869140625
 40
0.87109375
 40
0.875
 40
0.8828125
 40
0.890625
 40
0.8984375
 40
0.90625
 40
0.921875
 40
0.92578125
 40
0.9296875
 40
0.931640625
 40
0.93359375
 40
0.935546875
 40
0.9375
 40
0.94140625
 40
0.9453125
 40
0.953125
 40
0.96875
 40
0.984375
 40
1.0
 40
1.0
 40
1.0
 40
1.0
 10
249.4567117231
 20
15.8048342768
 30
0.0
 10
249.4373813428
 20
15.9029027242
 30
0.0
 10
249.3987168551
 20
16.0990389179
 30
0.0
 10
249.3407424866
 20
16.3932474159
 30
0.0
 10
249.2923652873
 20
16.6384088923
 30
0.0
 10
249.2586284376
 20
16.8100458561
 30
0.0
 10
249.2391517657
 20
16.9080867792
 30
0.0
 10
249.2274447428
 20
16.9694500134
 30
0.0
 10
249.2170105895
 20
17.0183395588
 30
0.0
 10
249.2121110415
 20
17.0555572494
 30
0.0
 10
249.1960414928
 20
17.0906733349
 30
0.0
 10
249.1763426964
 20
17.1378197641
 30
0.0
 10
249.1511287336
 20
17.196641699
 30
0.0
 10
249.0911019037
 20
17.3379059721
 30
0.0
 10
249.0209036864
 20
17.5026822305
 30
0.0
 10
248.9407627539
 20
17.691016246
 30
0.0
 10
248.8806291629
 20
17.8322558511
 30
0.0
 10
248.8205643375
 20
17.9735299364
 30
0.0
 10
248.770304341
 20
18.0911524956
 30
0.0
 10
248.7355248066
 20
18.1736954768
 30
0.0
 10
248.7150226426
 20
18.2205394658
 30
0.0
 10
248.6968797369
 20
18.2685982408
 30
0.0
 10
248.6572918482
 20
18.3199651006
 30
0.0
 10
248.5994510073
 20
18.4049838199
 30
0.0
 10
248.5252691223
 20
18.5102895253
 30
0.0
 10
248.4076158815
 20
18.6793084069
 30
0.0
 10
248.2602893508
 20
18.8904796366
 30
0.0
 10
248.1127055202
 20
19.1013981644
 30
0.0
 10
248.017446752
 20
19.2390545183
 30
0.0
 10
247.9727555007
 20
19.301990243
 30
0.0
 10
247.9447588585
 20
19.3454272679
 30
0.0
 10
247.8966444489
 20
19.3889234745
 30
0.0
 10
247.8406044198
 20
19.4425161185
 30
0.0
 10
247.7652934215
 20
19.5134869743
 30
0.0
 10
247.6337638317
 20
19.6378988151
 30
0.0
 10
247.4458120255
 20
19.8156281575
 30
0.0
 10
247.2575656791
 20
19.9929595195
 30
0.0
 10
247.1264484455
 20
20.1179285328
 30
0.0
 10
247.0504894589
 20
20.1880238319
 30
0.0
 10
246.9964375759
 20
20.2443028432
 30
0.0
 10
246.9312336915
 20
20.2864094892
 30
0.0
 10
246.8427503287
 20
20.3405886513
 30
0.0
 10
246.6886219226
 20
20.4363119622
 30
0.0
 10
246.468081856
 20
20.5726228296
 30
0.0
 10
246.2476016801
 20
20.7089476663
 30
0.0
 10
246.071359105
 20
20.8183233851
 30
0.0
 10
245.9608236363
 20
20.8858866013
 30
0.0
 10
245.8842239452
 20
20.9347846374
 30
0.0
 10
245.8392390446
 20
20.9602160094
 30
0.0
 10
245.7896827195
 20
20.976191882
 30
0.0
 10
245.7292998261
 20
20.9993934773
 30
0.0
 10
245.5830950306
 20
21.0524189612
 30
0.0
 10
245.3643254524
 20
21.1330513034
 30
0.0
 10
245.1210018286
 20
21.2222106298
 30
0.0
 10
244.9263606289
 20
21.2934082294
 30
0.0
 10
244.804788788
 20
21.3384474653
 30
0.0
 10
244.707337509
 20
21.3732135528
 30
0.0
 10
244.6105983279
 20
21.4126082562
 30
0.0
 10
244.4845758753
 20
21.428718642
 30
0.0
 10
244.3340107526
 20
21.4523538742
 30
0.0
 10
244.1330233896
 20
21.4823389083
 30
0.0
 10
243.8818886304
 20
21.5205278441
 30
0.0
 10
243.6306484258
 20
21.557796968
 30
0.0
 10
243.4549321066
 20
21.5853216096
 30
0.0
 10
243.3668738905
 20
21.5971709988
 30
0.0
 10
243.3168761748
 20
21.6070162103
 30
0.0
 10
243.2652374534
 20
21.6011581792
 30
0.0
 10
243.2012508693
 20
21.5992117211
 30
0.0
 10
243.0985587129
 20
21.5930969566
 30
0.0
 10
242.9189942891
 20
21.5837945974
 30
0.0
 10
242.7137117002
 20
21.5725750561
 30
0.0
 10
242.5084595968
 20
21.5615220745
 30
0.0
 10
242.3544951671
 20
21.5533209329
 30
0.0
 10
242.2262632805
 20
21.5461219329
 30
0.0
 10
242.1235181159
 20
21.5411937524
 30
0.0
 10
242.0596656238
 20
21.5362184485
 30
0.0
 10
242.007751778
 20
21.5365789091
 30
0.0
 10
241.9588747522
 20
21.5210927077
 30
0.0
 10
241.8722994681
 20
21.4994207069
 30
0.0
 10
241.699890089
 20
21.4522161938
 30
0.0
 10
241.4531835772
 20
21.3868492647
 30
0.0
 10
241.2066948716
 20
21.3205633324
 30
0.0
 10
241.0093070914
 20
21.2680857224
 30
0.0
 10
240.8617260197
 20
21.2276255093
 30
0.0
 10
240.737291255
 20
21.1973523774
 30
0.0
 10
240.6484732929
 20
21.1476786994
 30
0.0
 10
240.5577813734
 20
21.1024506595
 30
0.0
 10
240.4450588422
 20
21.0443922894
 30
0.0
 10
240.2643395507
 20
20.9523568707
 30
0.0
 10
240.0837441312
 20
20.8600482355
 30
0.0
 10
239.9030495268
 20
20.7679157697
 30
0.0
 10
239.7902601348
 20
20.7101202356
 30
0.0
 10
239.6997060515
 20
20.6643503492
 30
0.0
 10
239.6438438058
 20
20.6346841894
 30
0.0
 10
239.5974729163
 20
20.6133785802
 30
0.0
 10
239.5572391538
 20
20.5832116809
 30
0.0
 10
239.4896808916
 20
20.5263032917
 30
0.0
 10
239.3916826325
 20
20.447152381
 30
0.0
 10
239.2357105166
 20
20.3193164409
 30
0.0
 10
239.0405029558
 20
20.1598929851
 30
0.0
 10
238.8452336849
 20
20.0004767558
 30
0.0
 10
238.7088444777
 20
19.888610191
 30
0.0
 10
238.6304132454
 20
19.8251560506
 30
0.0
 10
238.5729879393
 20
19.7762352425
 30
0.0
 10
238.5290199252
 20
19.7145095389
 30
0.0
 10
238.4657020011
 20
19.6366750104
 30
0.0
 10
238.3570811172
 20
19.4983844186
 30
0.0
 10
238.2007778566
 20
19.3019073959
 30
0.0
 10
238.044834048
 20
19.1050687335
 30
0.0
 10
237.9357099313
 20
18.9672844374
 30
0.0
 10
237.8731828017
 20
18.8886543014
 30
0.0
 10
237.8267884861
 20
18.8293696663
 30
0.0
 10
237.7865274891
 20
18.7809626859
 30
0.0
 10
237.7661840412
 20
18.7348395348
 30
0.0
 10
237.7326204819
 20
18.667555422
 30
0.0
 10
237.6616771879
 20
18.5206633648
 30
0.0
 10
237.5513655841
 20
18.2954169416
 30
0.0
 10
237.4413502757
 20
18.0699369371
 30
0.0
 10
237.3535613797
 20
17.8895204429
 30
0.0
 10
237.2979867952
 20
17.7769581511
 30
0.0
 10
237.2551669486
 20
17.6864411992
 30
0.0
 10
237.2246582544
 20
17.6309368919
 30
0.0
 10
237.2149944902
 20
17.5823270099
 30
0.0
 10
237.2027594279
 20
17.5344507549
 30
0.0
 10
237.1825461158
 20
17.450325489
 30
0.0
 10
237.1530433488
 20
17.3303253185
 30
0.0
 10
237.1179093481
 20
17.1862482683
 30
0.0
 10
237.08270064
 20
17.042192551
 30
0.0
 10
237.0357950422
 20
16.8501069469
 30
0.0
 10
236.9946768138
 20
16.6820541112
 30
0.0
 10
236.9595766679
 20
16.5379668386
 30
0.0
 10
236.9447476337
 20
16.4779899412
 30
0.0
 10
236.9333595376
 20
16.429869903
 30
0.0
 10
236.9235154555
 20
16.3941597555
 30
0.0
 10
236.9249065481
 20
16.3551740919
 30
0.0
 10
236.9228371516
 20
16.3043372691
 30
0.0
 10
236.9215938682
 20
16.240399566
 30
0.0
 10
236.91885483
 20
16.1383178342
 30
0.0
 10
236.9144108659
 20
15.9595729529
 30
0.0
 10
236.9078795857
 20
15.7042764046
 30
0.0
 10
236.9001207769
 20
15.3978975942
 30
0.0
 10
236.894933242
 20
15.1936494259
 30
0.0
 10
236.892341349
 20
15.0915247952
 30
0.0
  0
SPLINE
  5
29A
100
AcDbEntity
  8
_21_KURVEN
100
AcDbSpline
 62
1
  6
CENTER
 70
0
 71
3
 72
13
 73
9
 74
0
 42
0.0000001
 43
0.0000001
 44
0.0000000001
 40
0.0
 40
0.0
 40
0.0
 40
0.0
 40
0.5
 40
0.625
 40
0.75
 40
0.8125
 40
0.875
 40
1.0
 40
1.0
 40
1.0
 40
1.0
 10
242.6663796389
 20
9.2701414964
 30
0.0
 10
242.6883192348
 20
9.2678406179
 30
0.0
 10
242.7159834204
 20
9.2649880022
 30
0.0
 10
242.7484943409
 20
9.2619163592
 30
0.0
 10
242.7629863253
 20
9.2605899898
 30
0.0
 10
242.7723864031
 20
9.2597180109
 30
0.0
 10
242.7898090538
 20
9.2582018617
 30
0.0
 10
242.8046988926
 20
9.2569194669
 30
0.0
 10
242.8142203739
 20
9.2560968221
 30
0.0
  0
SPLINE
  5
29B
100
AcDbEntity
  8
_21_KURVEN
100
AcDbSpline
 62
1
  6
CENTER
 70
0
 71
3
 72
95
 73
91
 74
0
 42
0.0000001
 43
0.0000001
 44
0.0000000001
 40
0.0
 40
0.0
 40
0.0
 40
0.0
 40
0.03125
 40
0.0625
 40
0.078125
 40
0.09375
 40
0.109375
 40
0.1171875
 40
0.12109375
 40
0.125
 40
0.12890625
 40
0.1328125
 40
0.140625
 40
0.15625
 40
0.171875
 40
0.1875
 40
0.203125
 40
0.21875
 40
0.234375
 40
0.2421875
 40
0.24609375
 40
0.25
 40
0.25390625
 40
0.2578125
 40
0.265625
 40
0.28125
 40
0.296875
 40
0.3125
 40
0.328125
 40
0.34375
 40
0.359375
 40
0.3671875
 40
0.37109375
 40
0.375
 40
0.37890625
 40
0.3828125
 40
0.390625
 40
0.40625
 40
0.421875
 40
0.4375
 40
0.453125
 40
0.46875
 40
0.484375
 40
0.4921875
 40
0.49609375
 40
0.5
 40
0.50390625
 40
0.5078125
 40
0.515625
 40
0.53125
 40
0.546875
 40
0.5625
 40
0.578125
 40
0.59375
 40
0.609375
 40
0.6171875
 40
0.62109375
 40
0.625
 40
0.62890625
 40
0.6328125
 40
0.640625
 40
0.65625
 40
0.671875
 40
0.6875
 40
0.703125
 40
0.71875
 40
0.734375
 40
0.7421875
 40
0.74609375
 40
0.75
 40
0.75390625
 40
0.7578125
 40
0.765625
 40
0.78125
 40
0.796875
 40
0.8125
 40
0.828125
 40
0.84375
 40
0.859375
 40
0.8671875
 40
0.87109375
 40
0.875
 40
0.87890625
 40
0.8828125
 40
0.890625
 40
0.90625
 40
0.921875
 40
0.9375
 40
0.96875
 40
1.0
 40
1.0
 40
1.0
 40
1.0
 10
242.814220375
 20
9.256096822
 30
0.0
 10
242.9257531377
 20
9.2584566015
 30
0.0
 10
243.1488182383
 20
9.2631812924
 30
0.0
 10
243.4276517388
 20
9.2690614964
 30
0.0
 10
243.650714077
 20
9.2738195449
 30
0.0
 10
243.8180229422
 20
9.2772418213
 30
0.0
 10
243.9574084841
 20
9.2805587991
 30
0.0
 10
244.0550539408
 20
9.2819680026
 30
0.0
 10
244.1107333371
 20
9.2841983335
 30
0.0
 10
244.1528253133
 20
9.2818566323
 30
0.0
 10
244.1936465773
 20
9.2948601928
 30
0.0
 10
244.2485181716
 20
9.3068456648
 30
0.0
 10
244.3443369112
 20
9.3303142154
 30
0.0
 10
244.481329098
 20
9.3625360734
 30
0.0
 10
244.6456721264
 20
9.4017640757
 30
0.0
 10
244.8100323009
 20
9.4408324156
 30
0.0
 10
244.9743714865
 20
9.4799776324
 30
0.0
 10
245.1387774818
 20
9.5189750041
 30
0.0
 10
245.2755772697
 20
9.5519015667
 30
0.0
 10
245.3717388292
 20
9.5741144618
 30
0.0
 10
245.4260612119
 20
9.5881115452
 30
0.0
 10
245.4685694651
 20
9.5949361273
 30
0.0
 10
245.5043253932
 20
9.615801631
 30
0.0
 10
245.5543552556
 20
9.6387246629
 30
0.0
 10
245.6408100916
 20
9.6811219606
 30
0.0
 10
245.7648911406
 20
9.7404957474
 30
0.0
 10
245.913540921
 20
9.8122584605
 30
0.0
 10
246.0622619907
 20
9.8838745482
 30
0.0
 10
246.2109453815
 20
9.9555629684
 30
0.0
 10
246.3597081984
 20
10.027108684
 30
0.0
 10
246.4834438579
 20
10.0871455187
 30
0.0
 10
246.5705141153
 20
10.1283613856
 30
0.0
 10
246.6195580476
 20
10.1531771179
 30
0.0
 10
246.6583424137
 20
10.1682288972
 30
0.0
 10
246.6894763624
 20
10.1968888518
 30
0.0
 10
246.7336568525
 20
10.2303554335
 30
0.0
 10
246.809729307
 20
10.2911335957
 30
0.0
 10
246.9190548886
 20
10.376802682
 30
0.0
 10
247.049964547
 20
10.4801033254
 30
0.0
 10
247.1809573292
 20
10.5832639848
 30
0.0
 10
247.3118986556
 20
10.6864868406
 30
0.0
 10
247.4429626817
 20
10.7896008949
 30
0.0
 10
247.5518165841
 20
10.8758401145
 30
0.0
 10
247.6287294853
 20
10.9356024029
 30
0.0
 10
247.6715635454
 20
10.970696456
 30
0.0
 10
247.7068332637
 20
10.994357378
 30
0.0
 10
247.7300843741
 20
11.0281846843
 30
0.0
 10
247.7652780878
 20
11.0697416043
 30
0.0
 10
247.8249137652
 20
11.1441184972
 30
0.0
 10
247.9111294732
 20
11.2495068584
 30
0.0
 10
248.0141480185
 20
11.3763450909
 30
0.0
 10
248.1172927681
 20
11.5030774762
 30
0.0
 10
248.220373005
 20
11.6298610511
 30
0.0
 10
248.3235850883
 20
11.7565457149
 30
0.0
 10
248.4092094302
 20
11.8624033138
 30
0.0
 10
248.4698988145
 20
11.9359441105
 30
0.0
 10
248.5034044468
 20
11.9788404906
 30
0.0
 10
248.5318407628
 20
12.0085534361
 30
0.0
 10
248.5476357195
 20
12.0476672065
 30
0.0
 10
248.5731051191
 20
12.0965397835
 30
0.0
 10
248.6156220246
 20
12.1835946323
 30
0.0
 10
248.6774353707
 20
12.3071596278
 30
0.0
 10
248.7511479192
 20
12.4557809757
 30
0.0
 10
248.8249944799
 20
12.6043074289
 30
0.0
 10
248.8987684584
 20
12.7528701075
 30
0.0
 10
248.9726987534
 20
12.901382779
 30
0.0
 10
249.0338467629
 20
13.0252798413
 30
0.0
 10
249.0775491773
 20
13.1117430073
 30
0.0
 10
249.1011193431
 20
13.1615634844
 30
0.0
 10
249.1227480926
 20
13.1977656317
 30
0.0
 10
249.1292736628
 20
13.2384141446
 30
0.0
 10
249.1432425912
 20
13.2910612173
 30
0.0
 10
249.1652335776
 20
13.3839162329
 30
0.0
 10
249.1979333985
 20
13.5161882532
 30
0.0
 10
249.2366199807
 20
13.675077342
 30
0.0
 10
249.2754647725
 20
13.8339205761
 30
0.0
 10
249.3142299287
 20
13.9927845646
 30
0.0
 10
249.3531554179
 20
14.1516113904
 30
0.0
 10
249.3851252454
 20
14.2840736586
 30
0.0
 10
249.4084169472
 20
14.3765896871
 30
0.0
 10
249.4203020765
 20
14.429779831
 30
0.0
 10
249.4332283608
 20
14.4687602157
 30
0.0
 10
249.4308171032
 20
14.5112275723
 30
0.0
 10
249.4329519995
 20
14.5666344195
 30
0.0
 10
249.434195447
 20
14.6641630965
 30
0.0
 10
249.4372749746
 20
14.803193503
 30
0.0
 10
249.4404125916
 20
14.9701568095
 30
0.0
 10
249.444790996
 20
15.1927302379
 30
0.0
 10
249.4501966788
 20
15.4709623291
 30
0.0
 10
249.4545417425
 20
15.6935433375
 30
0.0
 10
249.4567117096
 20
15.8048344247
 30
0.0
  0
SPLINE
  5
29C
100
AcDbEntity
  8
_21_KURVEN
100
AcDbSpline
 62
7
  6
CONTINUOUS
 70
0
 71
3
 72
9
 73
5
 74
0
 42
0.0000001
 43
0.0000001
 44
0.0000000001
 40
0.0
 40
0.0
 40
0.0
 40
0.0
 40
0.5
 40
1.0
 40
1.0
 40
1.0
 40
1.0
 10
248.3433348983
 20
9.5253183527
 30
0.0
 10
248.376404308
 20
9.528013594
 30
0.0
 10
248.4425331137
 20
9.5347920373
 30
0.0
 10
248.5062872003
 20
9.5523184089
 30
0.0
 10
248.5397743393
 20
9.5623342079
 30
0.0
  0
SPLINE
  5
29D
100
AcDbEntity
  8
_21_KURVEN
100
AcDbSpline
 62
7
  6
CONTINUOUS
 70
0
 71
3
 72
9
 73
5
 74
0
 42
0.0000001
 43
0.0000001
 44
0.0000000001
 40
0.0
 40
0.0
 40
0.0
 40
0.0
 40
0.5
 40
1.0
 40
1.0
 40
1.0
 40
1.0
 10
248.5397743368
 20
9.5623342071
 30
0.0
 10
248.5938448428
 20
9.5820478393
 30
0.0
 10
248.700026279
 20
9.624920973
 30
0.0
 10
248.7922203683
 20
9.7000113238
 30
0.0
 10
248.8353646943
 20
9.7382997603
 30
0.0
  0
SPLINE
  5
29E
100
AcDbEntity
  8
_21_KURVEN
100
AcDbSpline
 62
7
  6
CONTINUOUS
 70
0
 71
3
 72
10
 73
6
 74
0
 42
0.0000001
 43
0.0000001
 44
0.0000000001
 40
0.0
 40
0.0
 40
0.0
 40
0.0
 40
0.5
 40
0.75
 40
1.0
 40
1.0
 40
1.0
 40
1.0
 10
248.8353646909
 20
9.7382997571
 30
0.0
 10
248.8620807904
 20
9.7652119788
 30
0.0
 10
248.9051673085
 20
9.8116730585
 30
0.0
 10
248.9475668884
 20
9.8735114829
 30
0.0
 10
248.9687504659
 20
9.9099591662
 30
0.0
 10
248.9789823206
 20
9.927976837
 30
0.0
  0
SPLINE
  5
29F
100
AcDbEntity
  8
_21_KURVEN
100
AcDbSpline
 62
7
  6
CONTINUOUS
 70
0
 71
3
 72
9
 73
5
 74
0
 42
0.0000001
 43
0.0000001
 44
0.0000000001
 40
0.0
 40
0.0
 40
0.0
 40
0.0
 40
0.5
 40
1.0
 40
1.0
 40
1.0
 40
1.0
 10
248.9789823186
 20
9.9279768332
 30
0.0
 10
248.9935815717
 20
9.9569218317
 30
0.0
 10
249.0227510073
 20
10.0180346511
 30
0.0
 10
249.0405464638
 20
10.0834780226
 30
0.0
 10
249.0491508422
 20
10.118422331
 30
0.0
  0
SPLINE
  5
2A0
100
AcDbEntity
  8
_21_KURVEN
100
AcDbSpline
 62
7
  6
CONTINUOUS
 70
0
 71
3
 72
8
 73
4
 74
0
 42
0.0000001
 43
0.0000001
 44
0.0000000001
 40
0.0
 40
0.0
 40
0.0
 40
0.0
 40
1.0
 40
1.0
 40
1.0
 40
1.0
 10
249.0491508419
 20
10.1184223293
 30
0.0
 10
249.0558231662
 20
10.150230358
 30
0.0
 10
249.0606977665
 20
10.181426379
 30
0.0
 10
249.0640996394
 20
10.2158031629
 30
0.0
  0
SPLINE
  5
2A1
100
AcDbEntity
  8
_30_VOLUMEN
100
AcDbSpline
 62
4
  6
CONTINUOUS
 70
0
 71
3
 72
15
 73
11
 74
0
 42
0.0000001
 43
0.0000001
 44
0.0000000001
 40
0.0
 40
0.0
 40
0.0
 40
0.0
 40
0.1226457678
 40
0.2460481285
 40
0.3706741125
 40
0.4964987064
 40
0.6230526511
 40
0.7495981225
 40
0.8753950305
 40
1.0
 40
1.0
 40
1.0
 40
1.0
 10
245.3026964972
 20
14.3097929777
 30
0.0
 10
245.4148413462
 20
14.5241241874
 30
0.0
 10
245.5706800535
 20
14.9943340618
 30
0.0
 10
245.5681197159
 20
15.737451979
 30
0.0
 10
245.3325793684
 20
16.4491110913
 30
0.0
 10
244.8878652043
 20
17.0596302884
 30
0.0
 10
244.2777497499
 20
17.5109055325
 30
0.0
 10
243.5607870414
 20
17.7598499463
 30
0.0
 10
242.8064345278
 20
17.7826031706
 30
0.0
 10
242.3226420369
 20
17.6431603182
 30
0.0
 10
242.1002181871
 20
17.5386310448
 30
0.0
  0
SPLINE
  5
2A2
100
AcDbEntity
  8
_30_VOLUMEN
100
AcDbSpline
 62
4
  6
CONTINUOUS
 70
0
 71
3
 72
9
 73
5
 74
0
 42
0.0000001
 43
0.0000001
 44
0.0000000001
 40
0.0
 40
0.0
 40
0.0
 40
0.0
 40
0.5000744439
 40
1.0
 40
1.0
 40
1.0
 40
1.0
 10
234.1886047807
 20
19.7872285085
 30
0.0
 10
233.4779501537
 20
19.0389126887
 30
0.0
 10
232.0662511179
 20
17.5335419692
 30
0.0
 10
230.6817336809
 20
16.0029440315
 30
0.0
 10
230.0
 20
15.2285980645
 30
0.0
  0
LINE
  5
2A3
100
AcDbEntity
  8
_30_VOLUMEN
100
AcDbLine
 62
4
  6
CONTINUOUS
 10
204.5961907527
 20
5.5677643628
 11
215.0673946851
 21
-4.8023431781
  0
SPLINE
  5
2A4
100
AcDbEntity
  8
_30_VOLUMEN
100
AcDbSpline
 62
7
  6
CONTINUOUS
 70
0
 71
3
 72
9
 73
5
 74
0
 42
0.0000001
 43
0.0000001
 44
0.0000000001
 40
0.0
 40
0.0
 40
0.0
 40
0.0
 40
0.5000975982
 40
1.0
 40
1.0
 40
1.0
 40
1.0
 10
212.8073831937
 20
14.428711427
 30
0.0
 10
216.3500628413
 20
10.5019076771
 30
0.0
 10
223.3861503487
 20
2.6064821331
 30
0.0
 10
230.2929421144
 20
-5.403036649
 30
0.0
 10
233.6964816282
 20
-9.4483370367
 30
0.0
  0
SPLINE
  5
2A5
100
AcDbEntity
  8
_30_VOLUMEN
100
AcDbSpline
 62
4
  6
CONTINUOUS
 70
0
 71
3
 72
21
 73
17
 74
0
 42
0.0000001
 43
0.0000001
 44
0.0000000001
 40
0.0
 40
0.0
 40
0.0
 40
0.0
 40
0.1364984592
 40
0.2018785791
 40
0.2646019841
 40
0.3241413321
 40
0.3803490549
 40
0.4340410633
 40
0.4872316768
 40
0.5422058189
 40
0.6002566288
 40
0.6615369664
 40
0.7256250844
 40
0.7919691719
 40
0.8600677386
 40
1.0
 40
1.0
 40
1.0
 40
1.0
 10
204.5961907527
 20
5.5677643628
 30
0.0
 10
204.232285031
 20
6.1109268948
 30
0.0
 10
203.7257003228
 20
6.9378433711
 30
0.0
 10
203.1818412632
 20
8.0840111978
 30
0.0
 10
202.8755367442
 20
8.9309687528
 30
0.0
 10
202.6926997529
 20
9.7694909323
 30
0.0
 10
202.6680997573
 20
10.5869761874
 30
0.0
 10
202.83888111
 20
11.3593210593
 30
0.0
 10
203.2195918596
 20
12.0467795088
 30
0.0
 10
203.7807846775
 20
12.6221029271
 30
0.0
 10
204.4771936567
 20
13.0901124381
 30
0.0
 10
205.2726265861
 20
13.4683000282
 30
0.0
 10
206.1399425775
 20
13.7735211911
 30
0.0
 10
207.0590866872
 20
14.0199346883
 30
0.0
 10
208.3462442653
 20
14.2874962861
 30
0.0
 10
209.3340614569
 20
14.4264074303
 30
0.0
 10
210.0
 20
14.5022729845
 30
0.0
  0
SPLINE
  5
2A6
100
AcDbEntity
  8
_30_VOLUMEN
100
AcDbSpline
 62
4
  6
CONTINUOUS
 70
0
 71
3
 72
9
 73
5
 74
0
 42
0.0000001
 43
0.0000001
 44
0.0000000001
 40
0.0
 40
0.0
 40
0.0
 40
0.0
 40
0.2477408759
 40
1.0
 40
1.0
 40
1.0
 40
1.0
 10
210.0
 20
14.1770914985
 30
0.0
 10
210.2309826164
 20
14.2060318678
 30
0.0
 10
211.1645604689
 20
14.3130884372
 30
0.0
 10
212.1017880072
 20
14.3865340905
 30
0.0
 10
212.807385331
 20
14.428711459
 30
0.0
  0
SPLINE
  5
2A7
100
AcDbEntity
  8
_30_VOLUMEN
100
AcDbSpline
 62
4
  6
CONTINUOUS
 70
0
 71
3
 72
11
 73
7
 74
0
 42
0.0000001
 43
0.0000001
 44
0.0000000001
 40
0.0
 40
0.0
 40
0.0
 40
0.0
 40
0.2511010525
 40
0.499638963
 40
0.7483540548
 40
1.0
 40
1.0
 40
1.0
 40
1.0
 10
231.3322758151
 20
-11.8125429253
 30
0.0
 10
229.8618151702
 20
-11.5424463632
 30
0.0
 10
226.9596395256
 20
-10.8594624018
 30
0.0
 10
222.7571062557
 20
-9.3479736474
 30
0.0
 10
218.7661929842
 20
-7.3356262613
 30
0.0
 10
216.2741617905
 20
-5.6903922748
 30
0.0
 10
215.0673946851
 20
-4.8023431781
 30
0.0
  0
SPLINE
  5
2A8
100
AcDbEntity
  8
0
100
AcDbSpline
 62
4
  6
CONTINUOUS
 70
0
 71
3
 72
11
 73
7
 74
0
 42
0.0000001
 43
0.0000001
 44
0.0000000001
 40
0.0
 40
0.0
 40
0.0
 40
0.0
 40
0.2500457204
 40
0.5000000243
 40
0.7499543135
 40
1.0
 40
1.0
 40
1.0
 40
1.0
 10
1.5
 20
5.5677643628
 30
0.0
 10
1.188972721
 20
4.6739699886
 30
0.0
 10
0.6833312693
 20
2.8416764503
 30
0.0
 10
0.4084027554
 20
-0.0000002235
 30
0.0
 10
0.6833312885
 20
-2.8416767714
 30
0.0
 10
1.1889727631
 20
-4.6739701097
 30
0.0
 10
1.5
 20
-5.5677643628
 30
0.0
  0
ELLIPSE
  5
2A9
100
AcDbEntity
  8
_26_BEZUGSACHSEN
100
AcDbEllipse
 62
4
  6
CONTINUOUS
 10
234.8710708589
 20
0.2728011026
 30
0.0
 11
2.242729738
 21
20.0198190674
 31
0.0
 40
0.0959709793
 41
-0.0759829685
 42
0.0228452652
  0
ELLIPSE
  5
2AA
100
AcDbEntity
  8
_30_VOLUMEN
100
AcDbEllipse
 62
4
  6
CONTINUOUS
 10
243.6866592491
 20
16.1871354934
 30
0.0
 11
1.3903536816
 21
-0.9884742988
 31
0.0
 40
0.8166545243
 41
-0.0631234207
 42
2.7868368521
  0
ENDSEC
  0
SECTION
  2
OBJECTS
  0
DICTIONARY
  5
C
100
AcDbDictionary
280
0
281
1
  3
ACAD_GROUP
350
D
  3
ACAD_MLINESTYLE
350
17
  3
ACAD_LAYOUT
350
1A
  3
ACAD_PLOTSETTINGS
350
19
  3
ACAD_PLOTSTYLENAME
350
E
  0
DICTIONARY
  5
D
102
{ACAD_REACTORS
330
C
102
}
100
AcDbDictionary
280
0
281
1
  0
ACDBDICTIONARYWDFLT
  5
E
102
{ACAD_REACTORS
330
C
102
}
100
AcDbDictionary
281
1
  3
Normal
350
F
100
AcDbDictionaryWithDefault
340
F
  0
DICTIONARY
  5
17
102
{ACAD_REACTORS
330
C
102
}
100
AcDbDictionary
280
0
281
1
  3
Standard
350
18
  0
DICTIONARY
  5
19
102
{ACAD_REACTORS
330
C
102
}
100
AcDbDictionary
281
1
  0
DICTIONARY
  5
1A
102
{ACAD_REACTORS
330
C
102
}
100
AcDbDictionary
281
1
  3
Model
350
2AB
  3
Layout1
350
2AC
  0
ACDBPLACEHOLDER
  5
F
102
{ACAD_REACTORS
330
E
102
}
  0
MLINESTYLE
  5
18
102
{ACAD_REACTORS
330
17
102
}
100
AcDbMlineStyle
  2
STANDARD
 70
0
  3

 62
256
 51
90.0
 52
90.0
 71
2
 49
0.5
 62
256
  6
BYLAYER
 49
-0.5
 62
256
  6
BYLAYER
  0
LAYOUT
  5
2AB
102
{ACAD_REACTORS
330
1A
102
}
100
AcDbPlotSettings
  1

  2
none_device
  4
ISO_A3_(420.00_x_297.00_MM)
  6

 40
0.0
 41
0.0
 42
0.0
 43
0.0
 44
420.0
 45
297.0
 46
0.0
 47
0.0
 48
0.0
 49
0.0
140
0.0
141
0.0
142
1.0
143
1.0
 70
1024
 72
1
 73
0
 74
0
  7

 75
0
147
1.0
148
0.0
149
0.0
100
AcDbLayout
  1
Model
 70
0
 71
0
 10
0.0
 20
0.0
 11
420.0
 21
297.0
 12
0.0
 22
0.0
 32
0.0
 14
0.0
 24
0.0
 34
0.0
 15
0.0
 25
0.0
 35
0.0
146
0.0
 13
0.0
 23
0.0
 33
0.0
 16
1.0
 26
0.0
 36
0.0
 17
0.0
 27
1.0
 37
0.0
 76
0
330
20F
345
0
346
0
  0
LAYOUT
  5
2AC
102
{ACAD_REACTORS
330
1A
102
}
100
AcDbPlotSettings
  1

  2
none_device
  4
ISO_A3_(420.00_x_297.00_MM)
  6

 40
0.0
 41
0.0
 42
0.0
 43
0.0
 44
420.0
 45
297.0
 46
0.0
 47
0.0
 48
0.0
 49
0.0
140
0.0
141
0.0
142
1.0
143
1.0
 70
0
 72
1
 73
0
 74
0
  7

 75
0
147
1.0
148
0.0
149
0.0
100
AcDbLayout
  1
Layout1
 70
0
 71
1
 10
0.0
 20
0.0
 11
420.0
 21
297.0
 12
0.0
 22
0.0
 32
0.0
 14
0.0
 24
0.0
 34
0.0
 15
0.0
 25
0.0
 35
0.0
146
0.0
 13
0.0
 23
0.0
 33
0.0
 16
1.0
 26
0.0
 36
0.0
 17
0.0
 27
1.0
 37
0.0
 76
0
330
210
345
0
346
0
  0
ENDSEC
  0
EOF
