999
DXF file: 70557040.dxf
999
Pro/ENGINEER 2018400 by Parametric Technology Corporation
  0
SECTION
  2
HEADER
  9
$ACADVER
  1
AC1027
  9
$DWGCODEPAGE
  3
ANSI_1252
  9
$EXTMAX
 10
420.0
 20
297.0
 30
0.0
  9
$EXTMIN
 10
0.0
 20
0.0
 30
0.0
  9
$LIMMIN
 10
0.0
 20
0.0
  9
$LIMMAX
 10
420.0
 20
297.0
  9
$VIEWCTR
 10
210.0
 20
148.5
  9
$VIEWSIZE
 40
297.0
  9
$CLAYER
  8
0
  9
$LTSCALE
 40
23.1
  9
$CELTYPE
  6
BYLAYER
  9
$DIMSCALE
 40
1.0
  9
$DIMASZ
 40
3.5
  9
$DIMEXO
 40
0.0
  9
$DIMDLI
 40
15.96
  9
$DIMEXE
 40
1.5
  9
$DIMCEN
 40
3.78
  9
$DIMLFAC
 40
1.0
  9
$DIMBLK
  1
_FILLED
  9
$DIMALT
 70
0
  9
$DIMALTF
 40
0.0393700787
  9
$DIMTXT
 40
3.5
  9
$DIMTOL
 70
1
  9
$DIMLIM
 70
0
  9
$DIMTFAC
 40
1.0
  9
$DIMTP
 40
0.05
  9
$DIMTM
 40
0.05
  9
$DIMGAP
 40
0.625
  9
$DIMDSEP
 70
46
  9
$AUNITS
 70
0
  9
$PDMODE
 70
3
  9
$PDSIZE
 40
0.3125
  9
$HANDSEED
  5
2A5
  9
$TILEMODE
 70
1
  9
$MEASUREMENT
 70
1
  9
$INSUNITS
 70
4
  0
ENDSEC
  0
SECTION
  2
CLASSES
  0
CLASS
  1
ACDBDICTIONARYWDFLT
  2
AcDbDictionaryWithDefault
  3
AutoCAD 2000
 90
0
 91
1
280
0
281
0
  0
CLASS
  1
ACDBPLACEHOLDER
  2
AcDbPlaceHolder
  3
AutoCAD 2000
 90
0
 91
1
280
0
281
0
  0
CLASS
  1
LAYOUT
  2
AcDbLayout
  3
AutoCAD 2000
 90
0
 91
0
280
0
281
0
  0
ENDSEC
  0
SECTION
  2
TABLES
  0
TABLE
  2
VPORT
  5
8
100
AcDbSymbolTable
 70
2
  0
VPORT
  5
1F4
100
AcDbSymbolTableRecord
100
AcDbViewportTableRecord
  2
*ACTIVE
 70
0
 10
0.0
 20
0.0
 11
1.0
 21
1.0
 12
210.0
 22
148.5
 13
0.0
 23
0.0
 14
1.0
 24
1.0
 15
0.0
 25
0.0
 16
0.0
 26
0.0
 36
1.0
 17
0.0
 27
0.0
 37
0.0
 40
297.0
 41
1.4141414141
 42
50.0
 43
0.0
 44
0.0
 50
0.0
 51
0.0
 71
0
 72
100
 73
1
 74
1
 75
0
 76
0
 77
0
 78
0
  0
ENDTAB
  0
TABLE
  2
LTYPE
  5
5
100
AcDbSymbolTable
 70
6
  0
LTYPE
  5
14
100
AcDbSymbolTableRecord
100
AcDbLinetypeTableRecord
  2
BYBLOCK
 70
0
  3

 72
65
 73
0
 40
0.0
  0
LTYPE
  5
15
100
AcDbSymbolTableRecord
100
AcDbLinetypeTableRecord
  2
BYLAYER
 70
0
  3

 72
65
 73
0
 40
0.0
  0
LTYPE
  5
16
100
AcDbSymbolTableRecord
100
AcDbLinetypeTableRecord
  2
CONTINUOUS
 70
64
  3
Solid line
 72
65
 73
0
 40
0.0
  0
LTYPE
  5
1F5
100
AcDbSymbolTableRecord
100
AcDbLinetypeTableRecord
  2
CENTER
 70
64
  3
____ _ ____ _ ____ _ ____ _ ____ _ ____ _ ____
 72
65
 73
4
 40
0.6
 49
0.375
 74
0
 49
-0.075
 74
0
 49
0.075
 74
0
 49
-0.075
 74
0
  0
LTYPE
  5
1F6
100
AcDbSymbolTableRecord
100
AcDbLinetypeTableRecord
  2
HIDDEN
 70
64
  3
- - - - - - - - - - - - - - - - - - - -
 72
65
 73
2
 40
0.2
 49
0.1
 74
0
 49
-0.1
 74
0
  0
LTYPE
  5
1F7
100
AcDbSymbolTableRecord
100
AcDbLinetypeTableRecord
  2
PHANTOM
 70
64
  3
_____ _ _ _____ _ _ _____ _ _ _____
 72
65
 73
6
 40
0.8
 49
0.45
 74
0
 49
-0.05
 74
0
 49
0.1
 74
0
 49
-0.05
 74
0
 49
0.1
 74
0
 49
-0.05
 74
0
  0
LTYPE
  5
1F8
100
AcDbSymbolTableRecord
100
AcDbLinetypeTableRecord
  2
DOT
 70
64
  3
. . . . . . . . . . . . . . . . . . . .
 72
65
 73
2
 40
0.2
 49
0.1
 74
0
 49
-0.1
 74
0
  0
LTYPE
  5
1F9
100
AcDbSymbolTableRecord
100
AcDbLinetypeTableRecord
  2
DASHED
 70
64
  3
- - - - - - - - - - - - - - - - - - - -
 72
65
 73
2
 40
0.2
 49
0.1
 74
0
 49
-0.1
 74
0
  0
ENDTAB
  0
TABLE
  2
LAYER
  5
2
100
AcDbSymbolTable
 70
36
  0
LAYER
  5
10
100
AcDbSymbolTableRecord
100
AcDbLayerTableRecord
  2
0
 70
0
 62
7
  6
CONTINUOUS
370
-3
390
F
  0
LAYER
  5
1FA
100
AcDbSymbolTableRecord
100
AcDbLayerTableRecord
  2
DEFAULT_1
 70
0
 62
7
  6
CENTER
370
-3
390
F
  0
LAYER
  5
1FB
100
AcDbSymbolTableRecord
100
AcDbLayerTableRecord
  2
DEFAULT_2
 70
0
 62
1
  6
HIDDEN
370
-3
390
F
  0
LAYER
  5
1FC
100
AcDbSymbolTableRecord
100
AcDbLayerTableRecord
  2
DEFAULT_3
 70
0
 62
7
  6
PHANTOM
370
-3
390
F
  0
LAYER
  5
1FD
100
AcDbSymbolTableRecord
100
AcDbLayerTableRecord
  2
BG_STARTBEZUEGE
 70
0
 62
7
  6
CONTINUOUS
370
-3
390
F
  0
LAYER
  5
1FE
100
AcDbSymbolTableRecord
100
AcDbLayerTableRecord
  2
HILFEN
 70
0
 62
7
  6
CONTINUOUS
370
-3
390
F
  0
LAYER
  5
1FF
100
AcDbSymbolTableRecord
100
AcDbLayerTableRecord
  2
PLATZIERUNG
 70
0
 62
7
  6
CONTINUOUS
370
-3
390
F
  0
LAYER
  5
200
100
AcDbSymbolTableRecord
100
AcDbLayerTableRecord
  2
T_STARTBEZUEGE
 70
0
 62
7
  6
CONTINUOUS
370
-3
390
F
  0
LAYER
  5
201
100
AcDbSymbolTableRecord
100
AcDbLayerTableRecord
  2
_03_2D_ZEICHNUNG_BEMASSUNGEN
 70
0
 62
7
  6
CONTINUOUS
370
-3
390
F
  0
LAYER
  5
202
100
AcDbSymbolTableRecord
100
AcDbLayerTableRecord
  2
_04_NOTIZEN
 70
0
 62
7
  6
CONTINUOUS
370
-3
390
F
  0
LAYER
  5
203
100
AcDbSymbolTableRecord
100
AcDbLayerTableRecord
  2
_05_2D_ELEMENTE
 70
0
 62
7
  6
CONTINUOUS
370
-3
390
F
  0
LAYER
  5
204
100
AcDbSymbolTableRecord
100
AcDbLayerTableRecord
  2
_07_EINRASTLINIEN
 70
0
 62
7
  6
CONTINUOUS
370
-3
390
F
  0
LAYER
  5
205
100
AcDbSymbolTableRecord
100
AcDbLayerTableRecord
  2
_21_KURVEN
 70
0
 62
7
  6
CONTINUOUS
370
-3
390
F
  0
LAYER
  5
206
100
AcDbSymbolTableRecord
100
AcDbLayerTableRecord
  2
_22_FLAECHEN
 70
0
 62
7
  6
CONTINUOUS
370
-3
390
F
  0
LAYER
  5
207
100
AcDbSymbolTableRecord
100
AcDbLayerTableRecord
  2
_26_BEZUGSACHSEN
 70
0
 62
7
  6
CONTINUOUS
370
-3
390
F
  0
LAYER
  5
208
100
AcDbSymbolTableRecord
100
AcDbLayerTableRecord
  2
_27_BEZUGSEBENEN
 70
0
 62
7
  6
CONTINUOUS
370
-3
390
F
  0
LAYER
  5
209
100
AcDbSymbolTableRecord
100
AcDbLayerTableRecord
  2
_28_BEZUGSPUNKTE
 70
0
 62
7
  6
CONTINUOUS
370
-3
390
F
  0
LAYER
  5
20A
100
AcDbSymbolTableRecord
100
AcDbLayerTableRecord
  2
_29_KOORDINATENSYSTEME
 70
0
 62
7
  6
CONTINUOUS
370
-3
390
F
  0
LAYER
  5
20B
100
AcDbSymbolTableRecord
100
AcDbLayerTableRecord
  2
_30_VOLUMEN
 70
0
 62
7
  6
CONTINUOUS
370
-3
390
F
  0
ENDTAB
  0
TABLE
  2
STYLE
  5
3
100
AcDbSymbolTable
 70
1
  0
STYLE
  5
11
100
AcDbSymbolTableRecord
100
AcDbTextStyleTableRecord
  2
STANDARD
 70
0
 40
0.0
 41
0.7
 50
0.0
 71
0
 42
0.2
  3
SIMPLEX.SHX
  4

  0
STYLE
  5
20C
100
AcDbSymbolTableRecord
100
AcDbTextStyleTableRecord
  2
TEXTSTYLE_1
 70
0
 40
0.0
 41
0.8
 50
0.0
 71
0
 42
0.2
  3
gdt
  4

  0
STYLE
  5
20D
100
AcDbSymbolTableRecord
100
AcDbTextStyleTableRecord
  2
TEXTSTYLE_2
 70
0
 40
0.0
 41
0.7
 50
0.0
 71
0
 42
0.2
  3
gdt
  4

  0
ENDTAB
  0
TABLE
  2
VIEW
  5
6
100
AcDbSymbolTable
 70
0
  0
ENDTAB
  0
TABLE
  2
UCS
  5
7
100
AcDbSymbolTable
 70
0
  0
ENDTAB
  0
TABLE
  2
APPID
  5
9
100
AcDbSymbolTable
 70
1
  0
APPID
  5
20E
100
AcDbSymbolTableRecord
100
AcDbRegAppTableRecord
  2
ACAD
 70
0
  0
ENDTAB
  0
TABLE
  2
BLOCK_RECORD
  5
1
100
AcDbSymbolTable
 70
0
  0
BLOCK_RECORD
  5
20F
100
AcDbSymbolTableRecord
100
AcDbBlockTableRecord
  2
*Model_Space
  0
BLOCK_RECORD
  5
210
100
AcDbSymbolTableRecord
100
AcDbBlockTableRecord
  2
*Paper_Space
  0
BLOCK_RECORD
  5
211
100
AcDbSymbolTableRecord
100
AcDbBlockTableRecord
  2
_FILLED
  0
BLOCK_RECORD
  5
212
100
AcDbSymbolTableRecord
100
AcDbBlockTableRecord
  2
*D0
  0
BLOCK_RECORD
  5
213
100
AcDbSymbolTableRecord
100
AcDbBlockTableRecord
  2
*D1
  0
BLOCK_RECORD
  5
214
100
AcDbSymbolTableRecord
100
AcDbBlockTableRecord
  2
*D2
  0
BLOCK_RECORD
  5
215
100
AcDbSymbolTableRecord
100
AcDbBlockTableRecord
  2
*D3
  0
ENDTAB
  0
TABLE
  2
DIMSTYLE
  5
A
100
AcDbSymbolTable
 70
1
100
AcDbDimStyleTable
 71
0
  0
DIMSTYLE
105
216
100
AcDbSymbolTableRecord
100
AcDbDimStyleTableRecord
  2
STANDARD
 70
0
  3

  4

 40
1.0
 41
3.5
 42
0.0
 43
0.38
 44
1.5
 45
0.0
 46
0.0
 47
0.05
 48
0.05
140
3.5
141
0.09
142
0.0
143
25.4
144
1.0
145
0.0
146
1.0
147
0.625
 71
1.0
 72
0.0
 73
0
 74
0
 75
0
 76
0
 77
1
 78
8
 79
2
170
0
171
1
172
0
173
0
174
0
175
0
176
0
177
0
178
2
270
2
179
2
271
2
272
2
273
2
274
2
275
0
280
0
281
0
282
0
283
1
284
8
285
0
286
0
287
3
288
0
340
11
278
46
341
211
342
211
343
211
344
211
  0
DIMSTYLE
105
217
100
AcDbSymbolTableRecord
100
AcDbDimStyleTableRecord
  2
DIMSTYLE_1
 70
0
  3

  4

 40
1.0
 41
3.5
 42
0.0
 43
0.38
 44
1.5
 45
0.0
 46
0.0
 47
0.3
 48
0.3
140
3.5
141
0.09
142
0.0
143
25.4
144
1.0
145
0.0
146
1.0
147
0.875
 71
0.0
 72
0.0
 73
0
 74
0
 75
0
 76
0
 77
1
 78
8
 79
2
170
0
171
1
172
0
173
0
174
0
175
0
176
0
177
0
178
2
270
2
179
2
271
2
272
2
273
2
274
2
275
0
280
0
281
0
282
0
283
1
284
8
285
0
286
0
287
3
288
0
340
11
278
46
341
211
342
211
343
211
344
211
  0
DIMSTYLE
105
218
100
AcDbSymbolTableRecord
100
AcDbDimStyleTableRecord
  2
DIMSTYLE_2
 70
0
  3

  4

 40
1.0
 41
3.5
 42
0.0
 43
0.38
 44
1.5
 45
0.0
 46
0.0
 47
0.5
 48
0.5
140
3.5
141
0.09
142
0.0
143
25.4
144
1.0
145
0.0
146
1.0
147
0.875
 71
0.0
 72
0.0
 73
0
 74
0
 75
0
 76
0
 77
1
 78
8
 79
2
170
0
171
1
172
0
173
0
174
0
175
0
176
0
177
0
178
2
270
2
179
2
271
2
272
2
273
2
274
2
275
0
280
0
281
0
282
0
283
1
284
8
285
0
286
0
287
3
288
0
340
11
278
46
341
211
342
211
343
211
344
211
  0
DIMSTYLE
105
219
100
AcDbSymbolTableRecord
100
AcDbDimStyleTableRecord
  2
DIMSTYLE_3
 70
0
  3

  4

 40
1.0
 41
3.5
 42
0.0
 43
0.38
 44
1.5
 45
0.0
 46
0.0
 47
0.2
 48
0.2
140
3.5
141
0.09
142
0.0
143
25.4
144
1.0
145
0.0
146
1.0
147
0.875
 71
0.0
 72
0.0
 73
0
 74
0
 75
0
 76
0
 77
1
 78
8
 79
2
170
0
171
1
172
0
173
0
174
0
175
0
176
0
177
0
178
2
270
2
179
2
271
2
272
2
273
2
274
2
275
0
280
0
281
0
282
0
283
1
284
8
285
0
286
0
287
3
288
0
340
11
278
46
341
211
342
211
343
211
344
211
  0
ENDTAB
  0
ENDSEC
  0
SECTION
  2
BLOCKS
  0
BLOCK
  5
20
100
AcDbEntity
  8
0
100
AcDbBlockBegin
  2
*Model_Space
 70
0
 10
0.0
 20
0.0
 30
0.0
  3
*Model_Space
  1

  0
ENDBLK
  5
21
100
AcDbEntity
  8
0
100
AcDbBlockEnd
  0
BLOCK
  5
1C
100
AcDbEntity
  8
0
100
AcDbBlockBegin
  2
*Paper_Space
 70
0
 10
0.0
 20
0.0
 30
0.0
  3
*Paper_Space
  1

  0
ENDBLK
  5
1D
100
AcDbEntity
  8
0
100
AcDbBlockEnd
  0
BLOCK
  5
21A
100
AcDbEntity
  8
0
100
AcDbBlockBegin
  2
_FILLED
 70
64
 10
0.0
 20
0.0
  3
_FILLED
  1

  0
SOLID
  5
21B
100
AcDbEntity
  8
0
  6
BYBLOCK
 62
0
100
AcDbTrace
 10
0.0
 20
0.0
 11
-1.0
 21
0.125
 12
-1.0
 22
-0.125
 13
-1.0
 23
-0.125
  0
ENDBLK
  5
21C
100
AcDbEntity
  8
0
  6
BYBLOCK
 62
0
100
AcDbBlockEnd
  0
BLOCK
  5
21D
100
AcDbEntity
  8
_03_2D_ZEICHNUNG_BEMASSUNGEN
100
AcDbBlockBegin
 62
7
  6
CONTINUOUS
  2
*D0
 70
65
 10
0.0
 20
0.0
  3
*D0
  1

  0
TEXT
  5
21E
100
AcDbEntity
  8
_03_2D_ZEICHNUNG_BEMASSUNGEN
100
AcDbText
 62
2
  6
CONTINUOUS
 10
-9.875
 20
-5.0833333333
  7
TEXTSTYLE_2
 40
3.5
  1
n
 50
90.0
 41
1.0
 72
1
 11
-9.875
 21
-2.75
100
AcDbText
  0
TEXT
  5
21F
100
AcDbEntity
  8
_03_2D_ZEICHNUNG_BEMASSUNGEN
100
AcDbText
 62
2
  6
CONTINUOUS
 10
-9.875
 20
-0.4166666667
  7
STANDARD
 40
3.5
  1
40
 50
90.0
 41
0.7857142857
 72
1
 11
-9.875
 21
2.3333333333
100
AcDbText
  0
LINE
  5
220
100
AcDbEntity
  8
_03_2D_ZEICHNUNG_BEMASSUNGEN
100
AcDbLine
 62
7
  6
CONTINUOUS
 10
1.5
 20
20.0
 11
-10.5
 21
20.0
  0
LINE
  5
221
100
AcDbEntity
  8
_03_2D_ZEICHNUNG_BEMASSUNGEN
100
AcDbLine
 62
7
  6
CONTINUOUS
 10
1.5
 20
-20.0
 11
-10.5
 21
-20.0
  0
LINE
  5
222
100
AcDbEntity
  8
_03_2D_ZEICHNUNG_BEMASSUNGEN
100
AcDbLine
 62
7
  6
CONTINUOUS
 10
-9.0
 20
20.0
 11
-9.0
 21
0.0
  0
LINE
  5
223
100
AcDbEntity
  8
_03_2D_ZEICHNUNG_BEMASSUNGEN
100
AcDbLine
 62
7
  6
CONTINUOUS
 10
-9.0
 20
-20.0
 11
-9.0
 21
0.0
  0
INSERT
  5
224
100
AcDbEntity
  8
_03_2D_ZEICHNUNG_BEMASSUNGEN
100
AcDbBlockReference
 62
7
  6
CONTINUOUS
  2
_FILLED
 10
-9.0
 20
20.0
 41
3.5
 42
3.5
 43
3.5
 50
90.0
  0
INSERT
  5
225
100
AcDbEntity
  8
_03_2D_ZEICHNUNG_BEMASSUNGEN
100
AcDbBlockReference
 62
7
  6
CONTINUOUS
  2
_FILLED
 10
-9.0
 20
-20.0
 41
3.5
 42
3.5
 43
3.5
 50
270.0
  0
ENDBLK
  5
226
100
AcDbEntity
  8
0
  6
BYBLOCK
 62
0
100
AcDbBlockEnd
  0
BLOCK
  5
227
100
AcDbEntity
  8
_03_2D_ZEICHNUNG_BEMASSUNGEN
100
AcDbBlockBegin
 62
7
  6
CONTINUOUS
  2
*D1
 70
65
 10
0.0
 20
0.0
  3
*D1
  1

  0
TEXT
  5
228
100
AcDbEntity
  8
_03_2D_ZEICHNUNG_BEMASSUNGEN
100
AcDbText
 62
2
  6
CONTINUOUS
 10
203.168032774
 20
38.8749825466
  7
STANDARD
 40
3.5
  1
400
 41
0.7857142857
 72
1
 11
207.293032774
 21
38.8749825466
100
AcDbText
  0
LINE
  5
229
100
AcDbEntity
  8
_03_2D_ZEICHNUNG_BEMASSUNGEN
100
AcDbLine
 62
7
  6
CONTINUOUS
 10
400.0
 20
0.0
 11
400.0
 21
39.4999825466
  0
LINE
  5
22A
100
AcDbEntity
  8
_03_2D_ZEICHNUNG_BEMASSUNGEN
100
AcDbLine
 62
7
  6
CONTINUOUS
 10
0.0
 20
0.0
 11
0.0
 21
39.4999825466
  0
LINE
  5
22B
100
AcDbEntity
  8
_03_2D_ZEICHNUNG_BEMASSUNGEN
100
AcDbLine
 62
7
  6
CONTINUOUS
 10
400.0
 20
37.9999825466
 11
200.0
 21
37.9999825466
  0
LINE
  5
22C
100
AcDbEntity
  8
_03_2D_ZEICHNUNG_BEMASSUNGEN
100
AcDbLine
 62
7
  6
CONTINUOUS
 10
0.0
 20
37.9999825466
 11
200.0
 21
37.9999825466
  0
INSERT
  5
22D
100
AcDbEntity
  8
_03_2D_ZEICHNUNG_BEMASSUNGEN
100
AcDbBlockReference
 62
7
  6
CONTINUOUS
  2
_FILLED
 10
400.0
 20
37.9999825466
 41
3.5
 42
3.5
 43
3.5
  0
INSERT
  5
22E
100
AcDbEntity
  8
_03_2D_ZEICHNUNG_BEMASSUNGEN
100
AcDbBlockReference
 62
7
  6
CONTINUOUS
  2
_FILLED
 10
0.0
 20
37.9999825466
 41
3.5
 42
3.5
 43
3.5
 50
180.0
  0
ENDBLK
  5
22F
100
AcDbEntity
  8
0
  6
BYBLOCK
 62
0
100
AcDbBlockEnd
  0
BLOCK
  5
230
100
AcDbEntity
  8
_03_2D_ZEICHNUNG_BEMASSUNGEN
100
AcDbBlockBegin
 62
7
  6
CONTINUOUS
  2
*D2
 70
65
 10
0.0
 20
0.0
  3
*D2
  1

  0
TEXT
  5
231
100
AcDbEntity
  8
_03_2D_ZEICHNUNG_BEMASSUNGEN
100
AcDbText
 62
2
  6
CONTINUOUS
 10
382.9325855332
 20
29.8749825466
  7
STANDARD
 40
3.5
  1
24.1
 41
0.6785714286
 72
1
 11
387.6825855332
 21
29.8749825466
100
AcDbText
  0
LINE
  5
232
100
AcDbEntity
  8
_03_2D_ZEICHNUNG_BEMASSUNGEN
100
AcDbLine
 62
7
  6
CONTINUOUS
 10
400.0
 20
-32.6936710853
 11
400.0
 21
30.4999825466
  0
LINE
  5
233
100
AcDbEntity
  8
_03_2D_ZEICHNUNG_BEMASSUNGEN
100
AcDbLine
 62
7
  6
CONTINUOUS
 10
375.9
 20
-32.6936710853
 11
375.9
 21
30.4999825466
  0
LINE
  5
234
100
AcDbEntity
  8
_03_2D_ZEICHNUNG_BEMASSUNGEN
100
AcDbLine
 62
7
  6
CONTINUOUS
 10
400.0
 20
28.9999825466
 11
387.95
 21
28.9999825466
  0
LINE
  5
235
100
AcDbEntity
  8
_03_2D_ZEICHNUNG_BEMASSUNGEN
100
AcDbLine
 62
7
  6
CONTINUOUS
 10
375.9
 20
28.9999825466
 11
387.95
 21
28.9999825466
  0
INSERT
  5
236
100
AcDbEntity
  8
_03_2D_ZEICHNUNG_BEMASSUNGEN
100
AcDbBlockReference
 62
7
  6
CONTINUOUS
  2
_FILLED
 10
400.0
 20
28.9999825466
 41
3.5
 42
3.5
 43
3.5
  0
INSERT
  5
237
100
AcDbEntity
  8
_03_2D_ZEICHNUNG_BEMASSUNGEN
100
AcDbBlockReference
 62
7
  6
CONTINUOUS
  2
_FILLED
 10
375.9
 20
28.9999825466
 41
3.5
 42
3.5
 43
3.5
 50
180.0
  0
ENDBLK
  5
238
100
AcDbEntity
  8
0
  6
BYBLOCK
 62
0
100
AcDbBlockEnd
  0
BLOCK
  5
239
100
AcDbEntity
  8
_03_2D_ZEICHNUNG_BEMASSUNGEN
100
AcDbBlockBegin
 62
7
  6
CONTINUOUS
  2
*D3
 70
65
 10
0.0
 20
0.0
  3
*D3
  1

  0
TEXT
  5
23A
100
AcDbEntity
  8
_03_2D_ZEICHNUNG_BEMASSUNGEN
100
AcDbText
 62
2
  6
CONTINUOUS
 10
408.2183263293
 20
-16.25
  7
STANDARD
 40
3.5
  1
27
 50
90.0
 41
0.7857142857
 72
1
 11
408.2183263293
 21
-13.5
100
AcDbText
  0
LINE
  5
23B
100
AcDbEntity
  8
_03_2D_ZEICHNUNG_BEMASSUNGEN
100
AcDbLine
 62
7
  6
CONTINUOUS
 10
403.0933263293
 20
0.0
 11
410.5933263293
 21
0.0
  0
LINE
  5
23C
100
AcDbEntity
  8
_03_2D_ZEICHNUNG_BEMASSUNGEN
100
AcDbLine
 62
7
  6
CONTINUOUS
 10
400.0
 20
-27.0
 11
410.5933263293
 21
-27.0
  0
LINE
  5
23D
100
AcDbEntity
  8
_03_2D_ZEICHNUNG_BEMASSUNGEN
100
AcDbLine
 62
7
  6
CONTINUOUS
 10
409.0933263293
 20
0.0
 11
409.0933263293
 21
6.0
  0
LINE
  5
23E
100
AcDbEntity
  8
_03_2D_ZEICHNUNG_BEMASSUNGEN
100
AcDbLine
 62
7
  6
CONTINUOUS
 10
409.0933263293
 20
6.0
 11
409.0933263293
 21
-13.5
  0
LINE
  5
23F
100
AcDbEntity
  8
_03_2D_ZEICHNUNG_BEMASSUNGEN
100
AcDbLine
 62
7
  6
CONTINUOUS
 10
409.0933263293
 20
-27.0
 11
409.0933263293
 21
-33.0
  0
LINE
  5
240
100
AcDbEntity
  8
_03_2D_ZEICHNUNG_BEMASSUNGEN
100
AcDbLine
 62
7
  6
CONTINUOUS
 10
409.0933263293
 20
-33.0
 11
409.0933263293
 21
-13.5
  0
INSERT
  5
241
100
AcDbEntity
  8
_03_2D_ZEICHNUNG_BEMASSUNGEN
100
AcDbBlockReference
 62
7
  6
CONTINUOUS
  2
_FILLED
 10
409.0933263293
 20
0.0
 41
3.5
 42
3.5
 43
3.5
 50
270.0
  0
INSERT
  5
242
100
AcDbEntity
  8
_03_2D_ZEICHNUNG_BEMASSUNGEN
100
AcDbBlockReference
 62
7
  6
CONTINUOUS
  2
_FILLED
 10
409.0933263293
 20
-27.0
 41
3.5
 42
3.5
 43
3.5
 50
90.0
  0
ENDBLK
  5
243
100
AcDbEntity
  8
0
  6
BYBLOCK
 62
0
100
AcDbBlockEnd
  0
ENDSEC
  0
SECTION
  2
ENTITIES
  0
DIMENSION
  5
244
100
AcDbEntity
  8
_03_2D_ZEICHNUNG_BEMASSUNGEN
100
AcDbDimension
 62
7
  6
CONTINUOUS
  2
*D0
 10
-9.0
 20
-20.0
 11
-9.0
 21
0.0
 70
160
 71
2
 72
2
 41
0.9
 42
40.0
  1
%%c<>
  3
DIMSTYLE_1
100
AcDbAlignedDimension
 13
1.5
 23
20.0
 14
1.5
 24
-20.0
 50
270.0
100
AcDbRotatedDimension
  0
DIMENSION
  5
245
100
AcDbEntity
  8
_03_2D_ZEICHNUNG_BEMASSUNGEN
100
AcDbDimension
 62
7
  6
CONTINUOUS
  2
*D1
 10
0.0
 20
37.9999825466
 11
206.7930331421
 21
37.9999825466
 70
160
 71
2
 72
2
 41
0.9
 42
400.0
  3
DIMSTYLE_2
100
AcDbAlignedDimension
 13
400.0
 23
0.0
 14
0.0
 24
0.0
 50
180.0
100
AcDbRotatedDimension
  0
DIMENSION
  5
246
100
AcDbEntity
  8
_03_2D_ZEICHNUNG_BEMASSUNGEN
100
AcDbDimension
 62
7
  6
CONTINUOUS
  2
*D2
 10
375.9
 20
28.9999825466
 11
387.1825909424
 21
28.9999825466
 70
160
 71
2
 72
2
 41
0.9
 42
24.1
  3
DIMSTYLE_3
100
AcDbAlignedDimension
 13
400.0
 23
-32.6936710853
 14
375.9
 24
-32.6936710853
 50
180.0
100
AcDbRotatedDimension
  0
DIMENSION
  5
247
100
AcDbEntity
  8
_03_2D_ZEICHNUNG_BEMASSUNGEN
100
AcDbDimension
 62
7
  6
CONTINUOUS
  2
*D3
 10
409.0933263293
 20
-27.0
 11
409.0933263293
 21
-13.9999986926
 70
160
 71
2
 72
2
 41
0.9
 42
27.0
  3
DIMSTYLE_3
100
AcDbAlignedDimension
 13
403.0933263293
 23
0.0
 14
400.0
 24
-27.0
 50
270.0
100
AcDbRotatedDimension
  0
LINE
  5
248
100
AcDbEntity
  8
0
100
AcDbLine
 62
4
  6
CONTINUOUS
 10
0.0
 20
-18.499954101
 11
-0.0
 21
18.4999541854
  0
LINE
  5
249
100
AcDbEntity
  8
0
100
AcDbLine
 62
4
  6
CONTINUOUS
 10
1.5
 20
-20.0
 11
1.5
 21
-8.7177978871
  0
LINE
  5
24A
100
AcDbEntity
  8
0
100
AcDbLine
 62
4
  6
CONTINUOUS
 10
1.5
 20
8.7177978871
 11
1.5
 21
20.0
  0
LINE
  5
24B
100
AcDbEntity
  8
_30_VOLUMEN
100
AcDbLine
 62
4
  6
CONTINUOUS
 10
-0.0
 20
18.5
 11
1.5
 21
20.0
  0
LINE
  5
24C
100
AcDbEntity
  8
_30_VOLUMEN
100
AcDbLine
 62
4
  6
CONTINUOUS
 10
0.0
 20
-18.5
 11
1.5
 21
-20.0
  0
LINE
  5
24D
100
AcDbEntity
  8
_30_VOLUMEN
100
AcDbLine
 62
4
  6
CONTINUOUS
 10
392.8914408591
 20
-17.3244815239
 11
393.1792784849
 21
-17.3096497405
  0
LINE
  5
24E
100
AcDbEntity
  8
_30_VOLUMEN
100
AcDbLine
 62
4
  6
CONTINUOUS
 10
1.5
 20
-20.0
 11
375.9
 21
-20.0
  0
LINE
  5
24F
100
AcDbEntity
  8
_30_VOLUMEN
100
AcDbLine
 62
4
  6
CONTINUOUS
 10
375.9
 20
-19.75
 11
377.0
 21
-19.75
  0
LINE
  5
250
100
AcDbEntity
  8
_26_BEZUGSACHSEN
100
AcDbLine
 62
4
  6
CONTINUOUS
 10
1.5
 20
-8.7177978871
 11
354.3234233135
 21
-8.7177978871
  0
LINE
  5
251
100
AcDbEntity
  8
_30_VOLUMEN
100
AcDbLine
 62
4
  6
CONTINUOUS
 10
399.1486816651
 20
-26.998064093
 11
387.9809868089
 21
-26.2203349639
  0
LINE
  5
252
100
AcDbEntity
  8
_21_KURVEN
100
AcDbLine
 62
7
  6
CONTINUOUS
 10
399.1486816651
 20
-26.998064093
 11
387.9809868089
 21
-26.2203349639
  0
LINE
  5
253
100
AcDbEntity
  8
_30_VOLUMEN
100
AcDbLine
 62
4
  6
CONTINUOUS
 10
381.3734153307
 20
-24.1234153307
 11
387.0355339999
 21
-24.7075396146
  0
LINE
  5
254
100
AcDbEntity
  8
_26_BEZUGSACHSEN
100
AcDbLine
 62
7
  6
CENTER
 10
-3.0
 20
0.0
 11
403.0933263293
 21
0.0
  0
LINE
  5
255
100
AcDbEntity
  8
_26_BEZUGSACHSEN
100
AcDbLine
 62
4
  6
CONTINUOUS
 10
1.5
 20
8.7177978871
 11
353.2867305044
 21
8.7177978871
  0
LINE
  5
256
100
AcDbEntity
  8
_26_BEZUGSACHSEN
100
AcDbLine
 62
4
  6
CONTINUOUS
 10
386.2106376933
 20
-13.5411109754
 11
397.994323562
 21
-14.3617383176
  0
LINE
  5
257
100
AcDbEntity
  8
_30_VOLUMEN
100
AcDbLine
 62
4
  6
CONTINUOUS
 10
387.1552823575
 20
-13.6068969483
 11
398.3229772137
 21
-14.3846260774
  0
LINE
  5
258
100
AcDbEntity
  8
_21_KURVEN
100
AcDbLine
 62
7
  6
CONTINUOUS
 10
387.1552823575
 20
-13.6068969483
 11
398.3229772137
 21
-14.3846260774
  0
LINE
  5
259
100
AcDbEntity
  8
_30_VOLUMEN
100
AcDbLine
 62
4
  6
CONTINUOUS
 10
1.5
 20
20.0
 11
374.4182191048
 21
20.0
  0
LINE
  5
25A
100
AcDbEntity
  8
_30_VOLUMEN
100
AcDbLine
 62
4
  6
CONTINUOUS
 10
377.0
 20
-19.75
 11
381.3734153307
 21
-24.1234153307
  0
LINE
  5
25B
100
AcDbEntity
  8
0
100
AcDbLine
 62
4
  6
CONTINUOUS
 10
374.41809662
 20
20.0000956956
 11
375.9
 21
18.8423058849
  0
LINE
  5
25C
100
AcDbEntity
  8
_30_VOLUMEN
100
AcDbLine
 62
4
  6
CONTINUOUS
 10
375.9
 20
18.8423058849
 11
396.497242514
 21
2.7499763631
  0
LINE
  5
25D
100
AcDbEntity
  8
_28_BEZUGSPUNKTE
100
AcDbLine
 62
1
  6
CONTINUOUS
 10
400.15625
 20
-27.15625
 11
399.84375
 21
-26.84375
  0
LINE
  5
25E
100
AcDbEntity
  8
_30_VOLUMEN
100
AcDbLine
 62
4
  6
CONTINUOUS
 10
387.3639502156
 20
-25.8439068855
 11
386.8738729779
 21
-25.0217341213
  0
LINE
  5
25F
100
AcDbEntity
  8
_28_BEZUGSPUNKTE
100
AcDbLine
 62
1
  6
CONTINUOUS
 10
400.15625
 20
-26.84375
 11
399.84375
 21
-27.15625
  0
LINE
  5
260
100
AcDbEntity
  8
_30_VOLUMEN
100
AcDbLine
 62
7
  6
CONTINUOUS
 10
387.2583420812
 20
-25.5164269267
 11
386.7682648435
 21
-24.6942541625
  0
LINE
  5
261
100
AcDbEntity
  8
_30_VOLUMEN
100
AcDbLine
 62
4
  6
CONTINUOUS
 10
375.9
 20
18.8423058849
 11
375.9
 21
16.8706419908
  0
LINE
  5
262
100
AcDbEntity
  8
_26_BEZUGSACHSEN
100
AcDbLine
 62
4
  6
CONTINUOUS
 10
375.9
 20
-19.3121837706
 11
375.9
 21
-19.9999819281
  0
LINE
  5
263
100
AcDbEntity
  8
_30_VOLUMEN
100
AcDbLine
 62
7
  6
CONTINUOUS
 10
398.3229772137
 20
-14.3846260774
 11
397.9401344636
 21
-13.7423540888
  0
LINE
  5
264
100
AcDbEntity
  8
_30_VOLUMEN
100
AcDbLine
 62
4
  6
CONTINUOUS
 10
398.940013807
 20
-14.7610541559
 11
398.4499365693
 21
-13.9388813917
  0
LINE
  5
265
100
AcDbEntity
  8
_26_BEZUGSACHSEN
100
AcDbLine
 62
7
  6
CONTINUOUS
 10
380.9732003725
 20
-23.5799801756
 11
370.7802820144
 21
16.8332371496
  0
LINE
  5
266
100
AcDbEntity
  8
_30_VOLUMEN
100
AcDbLine
 62
4
  6
CONTINUOUS
 10
386.76700351
 20
-24.6798370549
 11
386.7682648435
 21
-24.6942541625
  0
LINE
  5
267
100
AcDbEntity
  8
_30_VOLUMEN
100
AcDbLine
 62
4
  6
CONTINUOUS
 10
387.2583420812
 20
-25.5164269267
 11
386.2923484444
 21
-14.4750691341
  0
LINE
  5
268
100
AcDbEntity
  8
_21_KURVEN
100
AcDbLine
 62
7
  6
CONTINUOUS
 10
387.2583420812
 20
-25.5164269267
 11
386.2923484444
 21
-14.4750691341
  0
LINE
  5
269
100
AcDbEntity
  8
_26_BEZUGSACHSEN
100
AcDbLine
 62
4
  6
CONTINUOUS
 10
386.2106376933
 20
-13.5411109754
 11
387.18342266
 21
-24.6600940239
  0
LINE
  5
26A
100
AcDbEntity
  8
_26_BEZUGSACHSEN
100
AcDbLine
 62
4
  6
CONTINUOUS
 10
396.497242514
 20
2.7499763631
 11
397.994323562
 21
-14.3617383176
  0
LINE
  5
26B
100
AcDbEntity
  8
_30_VOLUMEN
100
AcDbLine
 62
4
  6
CONTINUOUS
 10
399.0456219414
 20
-15.0885341146
 11
400.0116155782
 21
-26.1298919073
  0
LINE
  5
26C
100
AcDbEntity
  8
_21_KURVEN
100
AcDbLine
 62
7
  6
CONTINUOUS
 10
399.0456219414
 20
-15.0885341146
 11
400.0116155782
 21
-26.1298919073
  0
LINE
  5
26D
100
AcDbEntity
  8
_26_BEZUGSACHSEN
100
AcDbLine
 62
4
  6
CONTINUOUS
 10
377.0
 20
-19.3622210025
 11
377.0
 21
-19.75
  0
LINE
  5
26E
100
AcDbEntity
  8
_30_VOLUMEN
100
AcDbLine
 62
4
  6
CONTINUOUS
 10
381.3734153307
 20
-23.9948091968
 11
381.3734153307
 21
-24.1234153307
  0
ARC
  5
26F
100
AcDbEntity
  8
_26_BEZUGSACHSEN
100
AcDbCircle
 62
4
  6
CONTINUOUS
 10
537.1859938956
 20
1311.0316227225
 40
1344.0882164361
100
AcDbArc
 50
263.3430558941
 51
263.5923434305
  0
ARC
  5
270
100
AcDbEntity
  8
_26_BEZUGSACHSEN
100
AcDbCircle
 62
4
  6
CONTINUOUS
 10
381.4097036566
 20
89.6950883969
 40
109.1464255933
100
AcDbArc
 50
267.1064834251
 51
267.6845215681
  0
ARC
  5
271
100
AcDbEntity
  8
_30_VOLUMEN
100
AcDbCircle
 62
4
  6
CONTINUOUS
 10
393.212241428
 20
-20.4032045504
 40
3.0953151609
100
AcDbArc
 50
95.9487087651
 51
150.9923647682
  0
ARC
  5
272
100
AcDbEntity
  8
_30_VOLUMEN
100
AcDbCircle
 62
4
  6
CONTINUOUS
 10
392.9941098044
 20
-20.1201146681
 40
2.5789274534
100
AcDbArc
 50
153.0610241162
 51
153.8064990154
  0
ARC
  5
273
100
AcDbEntity
  8
_30_VOLUMEN
100
AcDbCircle
 62
4
  6
CONTINUOUS
 10
392.7278778897
 20
-19.4346057746
 40
2.500428428
100
AcDbArc
 50
16.4270635893
 51
17.0018713264
  0
ARC
  5
274
100
AcDbEntity
  8
_30_VOLUMEN
100
AcDbCircle
 62
4
  6
CONTINUOUS
 10
392.5915365006
 20
-19.5179178431
 40
2.500358665
100
AcDbArc
 50
218.3041126636
 51
224.3864398409
  0
ARC
  5
275
100
AcDbEntity
  8
_30_VOLUMEN
100
AcDbCircle
 62
4
  6
CONTINUOUS
 10
392.737291961
 20
-19.4315715786
 40
2.4905385933
100
AcDbArc
 50
16.998446173
 51
23.78015526
  0
SPLINE
  5
276
100
AcDbEntity
  8
_30_VOLUMEN
100
AcDbSpline
 62
4
  6
CONTINUOUS
 70
0
 71
3
 72
11
 73
7
 74
0
 42
0.0000001
 43
0.0000001
 44
0.0000000001
 40
0.0
 40
0.0
 40
0.0
 40
0.0
 40
0.2504893552
 40
0.5017378513
 40
0.751932724
 40
1.0
 40
1.0
 40
1.0
 40
1.0
 10
399.1486816651
 20
-26.998064093
 30
0.0
 10
399.2634859756
 20
-27.0060591768
 30
0.0
 10
399.4998948742
 20
-26.9712149127
 30
0.0
 10
399.7983031896
 20
-26.7775714925
 30
0.0
 10
399.9899084202
 20
-26.4789739197
 30
0.0
 10
400.0215486825
 20
-26.2434278089
 30
0.0
 10
400.0116155782
 20
-26.1298919073
 30
0.0
  0
SPLINE
  5
277
100
AcDbEntity
  8
_30_VOLUMEN
100
AcDbSpline
 62
4
  6
CONTINUOUS
 70
0
 71
3
 72
8
 73
4
 74
0
 42
0.0000001
 43
0.0000001
 44
0.0000000001
 40
0.0
 40
0.0
 40
0.0
 40
0.0
 40
1.0
 40
1.0
 40
1.0
 40
1.0
 10
399.0456219414
 20
-15.0885341146
 30
0.0
 10
399.0356257445
 20
-14.974277061
 30
0.0
 10
398.9985245954
 20
-14.859700438
 30
0.0
 10
398.9399867027
 20
-14.761070253
 30
0.0
  0
SPLINE
  5
278
100
AcDbEntity
  8
_30_VOLUMEN
100
AcDbSpline
 62
4
  6
CONTINUOUS
 70
0
 71
3
 72
9
 73
5
 74
0
 42
0.0000001
 43
0.0000001
 44
0.0000000001
 40
0.0
 40
0.0
 40
0.0
 40
0.0
 40
0.5019790495
 40
1.0
 40
1.0
 40
1.0
 40
1.0
 10
397.9272278885
 20
-13.5748356514
 30
0.0
 10
398.0342663192
 20
-13.5955119669
 30
0.0
 10
398.2416431323
 20
-13.6811996358
 30
0.0
 10
398.3947074318
 20
-13.8458878759
 30
0.0
 10
398.449909465
 20
-13.9388974889
 30
0.0
  0
SPLINE
  5
279
100
AcDbEntity
  8
_30_VOLUMEN
100
AcDbSpline
 62
4
  6
CONTINUOUS
 70
0
 71
3
 72
11
 73
7
 74
0
 42
0.0000001
 43
0.0000001
 44
0.0000000001
 40
0.0
 40
0.0
 40
0.0
 40
0.0
 40
0.2512419008
 40
0.5022044843
 40
0.7516107501
 40
1.0
 40
1.0
 40
1.0
 40
1.0
 10
392.8830219357
 20
-22.007688484
 30
0.0
 10
392.6932876906
 20
-22.0273447366
 30
0.0
 10
392.3083745818
 20
-22.0241208427
 30
0.0
 10
391.7480326013
 20
-21.8940274135
 30
0.0
 10
391.2330964841
 20
-21.6421863203
 30
0.0
 10
390.9366037438
 20
-21.4016678554
 30
0.0
 10
390.8046845635
 20
-21.2669042949
 30
0.0
  0
SPLINE
  5
27A
100
AcDbEntity
  8
_30_VOLUMEN
100
AcDbSpline
 62
4
  6
CONTINUOUS
 70
0
 71
3
 72
9
 73
5
 74
0
 42
0.0000001
 43
0.0000001
 44
0.0000000001
 40
0.0
 40
0.0
 40
0.0
 40
0.0
 40
0.4980461352
 40
1.0
 40
1.0
 40
1.0
 40
1.0
 10
387.3639773199
 20
-25.8438907883
 30
0.0
 10
387.427047156
 20
-25.9501568207
 30
0.0
 10
387.6095462559
 20
-26.1346151815
 30
0.0
 10
387.8567452042
 20
-26.2116826578
 30
0.0
 10
387.9809868089
 20
-26.2203349639
 30
0.0
  0
SPLINE
  5
27B
100
AcDbEntity
  8
_30_VOLUMEN
100
AcDbSpline
 62
4
  6
CONTINUOUS
 70
0
 71
3
 72
8
 73
4
 74
0
 42
0.0000001
 43
0.0000001
 44
0.0000000001
 40
0.0
 40
0.0
 40
0.0
 40
0.0
 40
1.0
 40
1.0
 40
1.0
 40
1.0
 10
386.8739000822
 20
-25.0217180241
 30
0.0
 10
386.8153621895
 20
-24.9230878392
 30
0.0
 10
386.7782610404
 20
-24.8085112162
 30
0.0
 10
386.7682648435
 20
-24.6942541625
 30
0.0
  0
SPLINE
  5
27C
100
AcDbEntity
  8
_30_VOLUMEN
100
AcDbSpline
 62
4
  6
CONTINUOUS
 70
0
 71
3
 72
11
 73
7
 74
0
 42
0.0000001
 43
0.0000001
 44
0.0000000001
 40
0.0
 40
0.0
 40
0.0
 40
0.0
 40
0.2584681262
 40
0.5107920672
 40
0.7574722443
 40
1.0
 40
1.0
 40
1.0
 40
1.0
 10
392.7973808141
 20
-17.5118950513
 30
0.0
 10
393.037068237
 20
-17.4870637062
 30
0.0
 10
393.5202328453
 20
-17.5041691407
 30
0.0
 10
394.2006470432
 20
-17.7253162329
 30
0.0
 10
394.7778443458
 20
-18.1223732259
 30
0.0
 10
395.0703256165
 20
-18.4818544011
 30
0.0
 10
395.1860968292
 20
-18.6760767208
 30
0.0
  0
SPLINE
  5
27D
100
AcDbEntity
  8
_30_VOLUMEN
100
AcDbSpline
 62
4
  6
CONTINUOUS
 70
0
 71
3
 72
13
 73
9
 74
0
 42
0.0000001
 43
0.0000001
 44
0.0000000001
 40
0.0
 40
0.0
 40
0.0
 40
0.0
 40
0.1239325176
 40
0.2483294017
 40
0.3732713512
 40
0.498778779
 40
0.7493498122
 40
1.0
 40
1.0
 40
1.0
 40
1.0
 10
395.1262400891
 20
-18.7274982273
 30
0.0
 10
395.1788895421
 20
-18.9060740669
 30
0.0
 10
395.2444570369
 20
-19.2771039413
 30
0.0
 10
395.2160546011
 20
-19.8415496274
 30
0.0
 10
395.0638993195
 20
-20.3886703186
 30
0.0
 10
394.7067101711
 20
-21.0570184917
 30
0.0
 10
393.9987163667
 20
-21.7238908907
 30
0.0
 10
393.2575522658
 20
-21.9688875667
 30
0.0
 10
392.8830219357
 20
-22.007688484
 30
0.0
  0
SPLINE
  5
27E
100
AcDbEntity
  8
_30_VOLUMEN
100
AcDbSpline
 62
4
  6
CONTINUOUS
 70
0
 71
3
 72
11
 73
7
 74
0
 42
0.0000001
 43
0.0000001
 44
0.0000000001
 40
0.0
 40
0.0
 40
0.0
 40
0.0
 40
0.2437914967
 40
0.4910635247
 40
0.7426128603
 40
1.0
 40
1.0
 40
1.0
 40
1.0
 10
390.7537781794
 20
-21.3180743338
 30
0.0
 10
390.6526344425
 20
-21.1483916402
 30
0.0
 10
390.4917648135
 20
-20.7790948267
 30
0.0
 10
390.3944113168
 20
-20.17910766
 30
0.0
 10
390.4500341994
 20
-19.5626952892
 30
0.0
 10
390.5879584519
 20
-19.1689053981
 30
0.0
 10
390.6800164251
 20
-18.981765582
 30
0.0
  0
SPLINE
  5
27F
100
AcDbEntity
  8
_30_VOLUMEN
100
AcDbSpline
 62
4
  6
CONTINUOUS
 70
0
 71
3
 72
11
 73
7
 74
0
 42
0.0000001
 43
0.0000001
 44
0.0000000001
 40
0.0
 40
0.0
 40
0.0
 40
0.0
 40
0.247790652
 40
0.4986500162
 40
0.7504325297
 40
1.0
 40
1.0
 40
1.0
 40
1.0
 10
390.6950229264
 20
-18.9517541341
 30
0.0
 10
390.7941491932
 20
-18.7566949103
 30
0.0
 10
391.0449421653
 20
-18.3881942557
 30
0.0
 10
391.5458647273
 20
-17.9444185666
 30
0.0
 10
392.1418126578
 20
-17.6364377262
 30
0.0
 10
392.5781834709
 20
-17.5346036474
 30
0.0
 10
392.7973808141
 20
-17.5118950513
 30
0.0
  0
SPLINE
  5
280
100
AcDbEntity
  8
_30_VOLUMEN
100
AcDbSpline
 62
7
  6
CONTINUOUS
 70
0
 71
3
 72
12
 73
8
 74
0
 42
0.0000001
 43
0.0000001
 44
0.0000000001
 40
0.0
 40
0.0
 40
0.0
 40
0.0
 40
0.2513681082
 40
0.5021815692
 40
0.6271599614
 40
0.7517942201
 40
1.0
 40
1.0
 40
1.0
 40
1.0
 10
393.1910546664
 20
-22.5244562549
 30
0.0
 10
392.9523730221
 20
-22.5491834024
 30
0.0
 10
392.4661801256
 20
-22.5311319871
 30
0.0
 10
391.8890156058
 20
-22.3430499519
 30
0.0
 10
391.4759824903
 20
-22.0999652799
 30
0.0
 10
391.1033580581
 20
-21.8031548677
 30
0.0
 10
390.875457734
 20
-21.5213842806
 30
0.0
 10
390.7541117098
 20
-21.3178754626
 30
0.0
  0
SPLINE
  5
281
100
AcDbEntity
  8
_30_VOLUMEN
100
AcDbSpline
 62
4
  6
CONTINUOUS
 70
0
 71
3
 72
15
 73
11
 74
0
 42
0.0000001
 43
0.0000001
 44
0.0000000001
 40
0.0
 40
0.0
 40
0.0
 40
0.0
 40
0.1259132658
 40
0.2514231222
 40
0.3760959413
 40
0.5003991732
 40
0.6246204223
 40
0.749133864
 40
0.8742264279
 40
1.0
 40
1.0
 40
1.0
 40
1.0
 10
393.3747409593
 20
-23.1699335492
 30
0.0
 10
393.1114672752
 20
-23.1972084042
 30
0.0
 10
392.575831771
 20
-23.1812270466
 30
0.0
 10
391.8108453124
 20
-22.9479097028
 30
0.0
 10
391.1389049113
 20
-22.5189870544
 30
0.0
 10
390.6097003271
 20
-21.9265777789
 30
0.0
 10
390.2610575469
 20
-21.2131579773
 30
0.0
 10
390.1181795752
 20
-20.4303322087
 30
0.0
 10
390.1912365228
 20
-19.6352804408
 30
0.0
 10
390.3804233288
 20
-19.1350619651
 30
0.0
 10
390.5057368811
 20
-18.9022571072
 30
0.0
  0
SPLINE
  5
282
100
AcDbEntity
  8
_30_VOLUMEN
100
AcDbSpline
 62
7
  6
CONTINUOUS
 70
0
 71
3
 72
15
 73
11
 74
0
 42
0.0000001
 43
0.0000001
 44
0.0000000001
 40
0.0
 40
0.0
 40
0.0
 40
0.0
 40
0.1255276407
 40
0.2518341895
 40
0.37779812
 40
0.5033083227
 40
0.6283260976
 40
0.7526728048
 40
0.8764963195
 40
1.0
 40
1.0
 40
1.0
 40
1.0
 10
393.1910546664
 20
-22.5244562549
 30
0.0
 10
393.4048582179
 20
-22.5023064495
 30
0.0
 10
393.8297596401
 20
-22.4029673081
 30
0.0
 10
394.4115582195
 20
-22.1061421845
 30
0.0
 10
394.9025561634
 20
-21.6745693399
 30
0.0
 10
395.2717157478
 20
-21.1380777972
 30
0.0
 10
395.4968169941
 20
-20.5296994101
 30
0.0
 10
395.5623262928
 20
-19.8870971524
 30
0.0
 10
395.4653182514
 20
-19.2513240843
 30
0.0
 10
395.2940712313
 20
-18.8579182908
 30
0.0
 10
395.1857632988
 20
-18.6762755921
 30
0.0
  0
SPLINE
  5
283
100
AcDbEntity
  8
_30_VOLUMEN
100
AcDbSpline
 62
4
  6
CONTINUOUS
 70
0
 71
3
 72
15
 73
11
 74
0
 42
0.0000001
 43
0.0000001
 44
0.0000000001
 40
0.0
 40
0.0
 40
0.0
 40
0.0
 40
0.1261308575
 40
0.2523983966
 40
0.3780905617
 40
0.5028479031
 40
0.6268001754
 40
0.7505341187
 40
0.8747138102
 40
1.0
 40
1.0
 40
1.0
 40
1.0
 10
393.3747409593
 20
-23.1699335492
 30
0.0
 10
393.7472450284
 20
-23.1313425502
 30
0.0
 10
394.4850861308
 20
-22.9112343843
 30
0.0
 10
395.3903642102
 20
-22.205961461
 30
0.0
 10
395.9765275864
 20
-21.2221286942
 30
0.0
 10
396.1573499503
 20
-20.0977786755
 30
0.0
 10
395.9050446257
 20
-18.9924732772
 30
0.0
 10
395.2535469572
 20
-18.0664211642
 30
0.0
 10
394.2996472386
 20
-17.4517265649
 30
0.0
 10
393.5512801174
 20
-17.3098904459
 30
0.0
 10
393.1792921407
 20
-17.3087239961
 30
0.0
  0
SPLINE
  5
284
100
AcDbEntity
  8
_30_VOLUMEN
100
AcDbSpline
 62
4
  6
CONTINUOUS
 70
0
 71
3
 72
9
 73
5
 74
0
 42
0.0000001
 43
0.0000001
 44
0.0000000001
 40
0.0
 40
0.0
 40
0.0
 40
0.0
 40
0.4980461352
 40
1.0
 40
1.0
 40
1.0
 40
1.0
 10
398.9399867027
 20
-14.761070253
 30
0.0
 10
398.8769168666
 20
-14.6548042206
 30
0.0
 10
398.6944177667
 20
-14.4703458599
 30
0.0
 10
398.4472188183
 20
-14.3932783836
 30
0.0
 10
398.3229772137
 20
-14.3846260774
 30
0.0
  0
SPLINE
  5
285
100
AcDbEntity
  8
_30_VOLUMEN
100
AcDbSpline
 62
4
  6
CONTINUOUS
 70
0
 71
3
 72
11
 73
7
 74
0
 42
0.0000001
 43
0.0000001
 44
0.0000000001
 40
0.0
 40
0.0
 40
0.0
 40
0.0
 40
0.2504893552
 40
0.5017378513
 40
0.751932724
 40
1.0
 40
1.0
 40
1.0
 40
1.0
 10
387.1552823575
 20
-13.6068969483
 30
0.0
 10
387.040478047
 20
-13.5989018645
 30
0.0
 10
386.8040691484
 20
-13.6337461287
 30
0.0
 10
386.505660833
 20
-13.8273895489
 30
0.0
 10
386.3140556024
 20
-14.1259871217
 30
0.0
 10
386.2824153401
 20
-14.3615332325
 30
0.0
 10
386.2923484444
 20
-14.4750691341
 30
0.0
  0
SPLINE
  5
286
100
AcDbEntity
  8
_30_VOLUMEN
100
AcDbSpline
 62
4
  6
CONTINUOUS
 70
0
 71
3
 72
8
 73
4
 74
0
 42
0.0000001
 43
0.0000001
 44
0.0000000001
 40
0.0
 40
0.0
 40
0.0
 40
0.0
 40
1.0
 40
1.0
 40
1.0
 40
1.0
 10
387.2583420812
 20
-25.5164269267
 30
0.0
 10
387.2683382781
 20
-25.6306839804
 30
0.0
 10
387.3054394272
 20
-25.7452606034
 30
0.0
 10
387.3639773199
 20
-25.8438907883
 30
0.0
  0
SPLINE
  5
287
100
AcDbEntity
  8
_30_VOLUMEN
100
AcDbSpline
 62
4
  6
CONTINUOUS
 70
0
 71
3
 72
20
 73
16
 74
0
 42
0.0000001
 43
0.0000001
 44
0.0000000001
 40
0.0
 40
0.0
 40
0.0
 40
0.0
 40
0.0628636168
 40
0.1254788178
 40
0.1877875686
 40
0.2499071065
 40
0.3119131326
 40
0.3738759682
 40
0.4358893352
 40
0.4980456251
 40
0.5604011283
 40
0.6230016387
 40
0.7483325501
 40
0.8742108763
 40
1.0
 40
1.0
 40
1.0
 40
1.0
 10
393.1792902808
 20
-17.3084504682
 30
0.0
 10
393.3707156417
 20
-17.3068557518
 30
0.0
 10
393.7541263861
 20
-17.3393428897
 30
0.0
 10
394.3076933662
 20
-17.4955461785
 30
0.0
 10
394.8196257064
 20
-17.7533076427
 30
0.0
 10
395.2708820258
 20
-18.1035755299
 30
0.0
 10
395.6461757201
 20
-18.5329265911
 30
0.0
 10
395.9306405651
 20
-19.0268013504
 30
0.0
 10
396.115054784
 20
-19.5665438851
 30
0.0
 10
396.1917825748
 20
-20.132902781
 30
0.0
 10
396.1588623809
 20
-20.7053743612
 30
0.0
 10
395.970614196
 20
-21.4479422276
 30
0.0
 10
395.4723186265
 20
-22.2924438596
 30
0.0
 10
394.548167777
 20
-23.015290442
 30
0.0
 10
393.7935364393
 20
-23.2410069743
 30
0.0
 10
393.4125231635
 20
-23.2804795175
 30
0.0
  0
SPLINE
  5
288
100
AcDbEntity
  8
_30_VOLUMEN
100
AcDbSpline
 62
4
  6
CONTINUOUS
 70
0
 71
3
 72
16
 73
12
 74
0
 42
0.0000001
 43
0.0000001
 44
0.0000000001
 40
0.0
 40
0.0
 40
0.0
 40
0.0
 40
0.1259314228
 40
0.2513221107
 40
0.375951403
 40
0.5002113866
 40
0.5624383931
 40
0.6246955154
 40
0.7491819364
 40
0.8742426705
 40
1.0
 40
1.0
 40
1.0
 40
1.0
 10
393.4125231635
 20
-23.2804795175
 30
0.0
 10
393.1427468737
 20
-23.3084280351
 30
0.0
 10
392.5940916076
 20
-23.2920051469
 30
0.0
 10
391.8110828093
 20
-23.0508856254
 30
0.0
 10
391.1247671101
 20
-22.6092885422
 30
0.0
 10
390.6745278849
 20
-22.1006332768
 30
0.0
 10
390.4092987469
 20
-21.6334690512
 30
0.0
 10
390.2098378106
 20
-21.1341648212
 30
0.0
 10
390.0930722762
 20
-20.4633718002
 30
0.0
 10
390.1754373949
 20
-19.6499140118
 30
0.0
 10
390.3742228755
 20
-19.1392654068
 30
0.0
 10
390.5053116748
 20
-18.9022572905
 30
0.0
  0
SPLINE
  5
289
100
AcDbEntity
  8
_21_KURVEN
100
AcDbSpline
 62
7
  6
CONTINUOUS
 70
0
 71
3
 72
8
 73
4
 74
0
 42
0.0000001
 43
0.0000001
 44
0.0000000001
 40
0.0
 40
0.0
 40
0.0
 40
0.0
 40
1.0
 40
1.0
 40
1.0
 40
1.0
 10
399.0456219414
 20
-15.0885341146
 30
0.0
 10
399.0405322934
 20
-15.0393829538
 30
0.0
 10
399.0319519172
 20
-14.9921950514
 30
0.0
 10
399.0183194847
 20
-14.9417051842
 30
0.0
  0
SPLINE
  5
28A
100
AcDbEntity
  8
_21_KURVEN
100
AcDbSpline
 62
7
  6
CONTINUOUS
 70
0
 71
3
 72
9
 73
5
 74
0
 42
0.0000001
 43
0.0000001
 44
0.0000000001
 40
0.0
 40
0.0
 40
0.0
 40
0.0
 40
0.5
 40
1.0
 40
1.0
 40
1.0
 40
1.0
 10
399.0183194853
 20
-14.9417051861
 30
0.0
 10
399.0085458978
 20
-14.9103326955
 30
0.0
 10
398.9876088187
 20
-14.8478840051
 30
0.0
 10
398.9563999102
 20
-14.7899476594
 30
0.0
 10
398.9400791646
 20
-14.7611638231
 30
0.0
  0
SPLINE
  5
28B
100
AcDbEntity
  8
_21_KURVEN
100
AcDbSpline
 62
7
  6
CONTINUOUS
 70
0
 71
3
 72
10
 73
6
 74
0
 42
0.0000001
 43
0.0000001
 44
0.0000000001
 40
0.0
 40
0.0
 40
0.0
 40
0.0
 40
0.5
 40
0.75
 40
1.0
 40
1.0
 40
1.0
 40
1.0
 10
398.9400791598
 20
-14.7611638151
 30
0.0
 10
398.9181436093
 20
-14.7264918451
 30
0.0
 10
398.8850414457
 20
-14.6768347415
 30
0.0
 10
398.8254838048
 20
-14.6124540128
 30
0.0
 10
398.7950755266
 20
-14.5847006953
 30
0.0
 10
398.7792870379
 20
-14.5704205732
 30
0.0
  0
SPLINE
  5
28C
100
AcDbEntity
  8
_21_KURVEN
100
AcDbSpline
 62
7
  6
CONTINUOUS
 70
0
 71
3
 72
11
 73
7
 74
0
 42
0.0000001
 43
0.0000001
 44
0.0000000001
 40
0.0
 40
0.0
 40
0.0
 40
0.0
 40
0.5
 40
0.625
 40
0.75
 40
1.0
 40
1.0
 40
1.0
 40
1.0
 10
398.7792870318
 20
-14.570420568
 30
0.0
 10
398.7140299866
 20
-14.5203468781
 30
0.0
 10
398.631567812
 20
-14.4619517382
 30
0.0
 10
398.5083071945
 20
-14.4202472611
 30
0.0
 10
398.4284356399
 20
-14.3979799767
 30
0.0
 10
398.3653272948
 20
-14.3898614256
 30
0.0
 10
398.3229772068
 20
-14.384626077
 30
0.0
  0
SPLINE
  5
28D
100
AcDbEntity
  8
_21_KURVEN
100
AcDbSpline
 62
7
  6
CONTINUOUS
 70
0
 71
3
 72
9
 73
5
 74
0
 42
0.0000001
 43
0.0000001
 44
0.0000000001
 40
0.0
 40
0.0
 40
0.0
 40
0.0
 40
0.5
 40
1.0
 40
1.0
 40
1.0
 40
1.0
 10
399.1486816651
 20
-26.998064093
 30
0.0
 10
399.2041450717
 20
-26.9999999649
 30
0.0
 10
399.3229565736
 20
-26.9995491926
 30
0.0
 10
399.4320543736
 20
-26.9672263292
 30
0.0
 10
399.4892143535
 20
-26.9481342192
 30
0.0
  0
SPLINE
  5
28E
100
AcDbEntity
  8
_21_KURVEN
100
AcDbSpline
 62
7
  6
CONTINUOUS
 70
0
 71
3
 72
21
 73
17
 74
0
 42
0.0000001
 43
0.0000001
 44
0.0000000001
 40
0.0
 40
0.0
 40
0.0
 40
0.0
 40
0.125
 40
0.1875
 40
0.25
 40
0.3125
 40
0.375
 40
0.4375
 40
0.5
 40
0.5625
 40
0.625
 40
0.6875
 40
0.75
 40
0.8125
 40
0.875
 40
1.0
 40
1.0
 40
1.0
 40
1.0
 10
399.4892143448
 20
-26.9481342225
 30
0.0
 10
399.5152092072
 20
-26.9362275714
 30
0.0
 10
399.5543751945
 20
-26.9189122396
 30
0.0
 10
399.6059017359
 20
-26.8936465512
 30
0.0
 10
399.6422199886
 20
-26.8683323021
 30
0.0
 10
399.68006506
 20
-26.8459444122
 30
0.0
 10
399.7141295098
 20
-26.8182160681
 30
0.0
 10
399.746569357
 20
-26.7888053158
 30
0.0
 10
399.7816781013
 20
-26.7614057171
 30
0.0
 10
399.8077358598
 20
-26.7276439124
 30
0.0
 10
399.8364831893
 20
-26.6958695688
 30
0.0
 10
399.8635232206
 20
-26.6625075868
 30
0.0
 10
399.885947037
 20
-26.6245953799
 30
0.0
 10
399.9110313376
 20
-26.5886450756
 30
0.0
 10
399.9364427762
 20
-26.5363148228
 30
0.0
 10
399.9539361952
 20
-26.4962949886
 30
0.0
 10
399.9659462879
 20
-26.4697866868
 30
0.0
  0
SPLINE
  5
28F
100
AcDbEntity
  8
_21_KURVEN
100
AcDbSpline
 62
7
  6
CONTINUOUS
 70
0
 71
3
 72
9
 73
5
 74
0
 42
0.0000001
 43
0.0000001
 44
0.0000000001
 40
0.0
 40
0.0
 40
0.0
 40
0.0
 40
0.5
 40
1.0
 40
1.0
 40
1.0
 40
1.0
 10
399.9659462836
 20
-26.4697866984
 30
0.0
 10
399.9832334387
 20
-26.4172164716
 30
0.0
 10
400.0157950275
 20
-26.3048620133
 30
0.0
 10
400.0145211298
 20
-26.1885660958
 30
0.0
 10
400.0116155774
 20
-26.1298918983
 30
0.0
  0
SPLINE
  5
290
100
AcDbEntity
  8
_21_KURVEN
100
AcDbSpline
 62
1
  6
CENTER
 70
0
 71
3
 72
163
 73
159
 74
0
 42
0.0000001
 43
0.0000001
 44
0.0000000001
 40
0.0
 40
0.0
 40
0.0
 40
0.0
 40
0.015625
 40
0.03125
 40
0.0390625
 40
0.046875
 40
0.0546875
 40
0.05859375
 40
0.060546875
 40
0.0625
 40
0.064453125
 40
0.06640625
 40
0.0703125
 40
0.078125
 40
0.09375
 40
0.109375
 40
0.1171875
 40
0.12109375
 40
0.123046875
 40
0.125
 40
0.126953125
 40
0.12890625
 40
0.1328125
 40
0.140625
 40
0.15625
 40
0.171875
 40
0.1796875
 40
0.18359375
 40
0.185546875
 40
0.1875
 40
0.189453125
 40
0.19140625
 40
0.1953125
 40
0.203125
 40
0.21875
 40
0.234375
 40
0.2421875
 40
0.24609375
 40
0.248046875
 40
0.25
 40
0.251953125
 40
0.25390625
 40
0.2578125
 40
0.265625
 40
0.28125
 40
0.296875
 40
0.3046875
 40
0.30859375
 40
0.310546875
 40
0.3125
 40
0.314453125
 40
0.31640625
 40
0.3203125
 40
0.328125
 40
0.34375
 40
0.359375
 40
0.3671875
 40
0.37109375
 40
0.373046875
 40
0.375
 40
0.376953125
 40
0.37890625
 40
0.3828125
 40
0.390625
 40
0.40625
 40
0.421875
 40
0.4296875
 40
0.43359375
 40
0.435546875
 40
0.4375
 40
0.439453125
 40
0.44140625
 40
0.4453125
 40
0.453125
 40
0.46875
 40
0.484375
 40
0.4921875
 40
0.49609375
 40
0.498046875
 40
0.5
 40
0.501953125
 40
0.50390625
 40
0.5078125
 40
0.515625
 40
0.53125
 40
0.546875
 40
0.5546875
 40
0.55859375
 40
0.560546875
 40
0.5625
 40
0.564453125
 40
0.56640625
 40
0.5703125
 40
0.578125
 40
0.59375
 40
0.609375
 40
0.6171875
 40
0.62109375
 40
0.623046875
 40
0.625
 40
0.626953125
 40
0.62890625
 40
0.6328125
 40
0.640625
 40
0.65625
 40
0.671875
 40
0.6796875
 40
0.68359375
 40
0.685546875
 40
0.6875
 40
0.689453125
 40
0.69140625
 40
0.6953125
 40
0.703125
 40
0.71875
 40
0.734375
 40
0.7421875
 40
0.74609375
 40
0.748046875
 40
0.75
 40
0.751953125
 40
0.75390625
 40
0.7578125
 40
0.765625
 40
0.78125
 40
0.796875
 40
0.8046875
 40
0.80859375
 40
0.810546875
 40
0.8125
 40
0.814453125
 40
0.81640625
 40
0.8203125
 40
0.828125
 40
0.84375
 40
0.859375
 40
0.8671875
 40
0.87109375
 40
0.873046875
 40
0.875
 40
0.876953125
 40
0.87890625
 40
0.8828125
 40
0.890625
 40
0.90625
 40
0.921875
 40
0.9296875
 40
0.93359375
 40
0.935546875
 40
0.9375
 40
0.939453125
 40
0.94140625
 40
0.9453125
 40
0.953125
 40
0.9609375
 40
0.96875
 40
0.984375
 40
1.0
 40
1.0
 40
1.0
 40
1.0
 10
393.6962044838
 20
-26.5229718462
 30
0.0
 10
393.7971966955
 20
-26.5025473297
 30
0.0
 10
393.9991799123
 20
-26.4616941918
 30
0.0
 10
394.2516649654
 20
-26.410648294
 30
0.0
 10
394.4536403407
 20
-26.3697684743
 30
0.0
 10
394.6051562546
 20
-26.3392255989
 30
0.0
 10
394.731310186
 20
-26.3134011971
 30
0.0
 10
394.8198324889
 20
-26.2960541449
 30
0.0
 10
394.8700816596
 20
-26.2850016669
 30
0.0
 10
394.9087122446
 20
-26.279923359
 30
0.0
 10
394.9437355027
 20
-26.2625707873
 30
0.0
 10
394.991691379
 20
-26.243715109
 30
0.0
 10
395.0750287191
 20
-26.2087262137
 30
0.0
 10
395.2421231754
 20
-26.1401702318
 30
0.0
 10
395.4805768522
 20
-26.0414259445
 30
0.0
 10
395.719241713
 20
-25.9432021316
 30
0.0
 10
395.8860405118
 20
-25.8739174856
 30
0.0
 10
395.9697843811
 20
-25.8399305034
 30
0.0
 10
396.0170855871
 20
-25.8194613546
 30
0.0
 10
396.0541203723
 20
-25.8070663012
 30
0.0
 10
396.0851958513
 20
-25.7833680232
 30
0.0
 10
396.1287083533
 20
-25.7557127213
 30
0.0
 10
396.2038882386
 20
-25.7054820068
 30
0.0
 10
396.3549396439
 20
-25.6063301998
 30
0.0
 10
396.5703247442
 20
-25.4639390654
 30
0.0
 10
396.7860029317
 20
-25.3220361964
 30
0.0
 10
396.9366440148
 20
-25.2222008177
 30
0.0
 10
397.0123880932
 20
-25.1729100144
 30
0.0
 10
397.0549920245
 20
-25.1437410894
 30
0.0
 10
397.0888591602
 20
-25.1246935403
 30
0.0
 10
397.1154087466
 20
-25.0948307884
 30
0.0
 10
397.1533604743
 20
-25.058785955
 30
0.0
 10
397.2185884895
 20
-24.9939529316
 30
0.0
 10
397.3498951526
 20
-24.8655377757
 30
0.0
 10
397.5369707231
 20
-24.681391716
 30
0.0
 10
397.7244475484
 20
-24.497646355
 30
0.0
 10
397.8551924549
 20
-24.368670221
 30
0.0
 10
397.9211928855
 20
-24.3046085425
 30
0.0
 10
397.9579007234
 20
-24.2673215433
 30
0.0
 10
397.9882722615
 20
-24.241275446
 30
0.0
 10
398.0077845076
 20
-24.207892903
 30
0.0
 10
398.0375884065
 20
-24.1659416862
 30
0.0
 10
398.0879832595
 20
-24.091336791
 30
0.0
 10
398.1900318589
 20
-23.9429762769
 30
0.0
 10
398.3350934581
 20
-23.730554693
 30
0.0
 10
398.4806456219
 20
-23.5184274093
 30
0.0
 10
398.5820074309
 20
-23.3696548749
 30
0.0
 10
398.6333466206
 20
-23.2956165076
 30
0.0
 10
398.6616297695
 20
-23.2527529602
 30
0.0
 10
398.6858146427
 20
-23.2221736266
 30
0.0
 10
398.6986362352
 20
-23.1855989394
 30
0.0
 10
398.7196950496
 20
-23.1389237706
 30
0.0
 10
398.7547042006
 20
-23.0562696156
 30
0.0
 10
398.8260401654
 20
-22.8916544454
 30
0.0
 10
398.9271902876
 20
-22.6561064867
 30
0.0
 10
399.0288641715
 20
-22.4207719816
 30
0.0
 10
399.0994668699
 20
-22.2558579764
 30
0.0
 10
399.1354842621
 20
-22.1736147196
 30
0.0
 10
399.1549194155
 20
-22.1262778446
 30
0.0
 10
399.1727298374
 20
-22.0917363029
 30
0.0
 10
399.1781771386
 20
-22.0535206671
 30
0.0
 10
399.1897522926
 20
-22.0038479504
 30
0.0
 10
399.2080028354
 20
-21.9163246497
 30
0.0
 10
399.24593719
 20
-21.7417029171
 30
0.0
 10
399.2993066849
 20
-21.4920075471
 30
0.0
 10
399.353235905
 20
-21.2424459115
 30
0.0
 10
399.3903866443
 20
-21.0676369507
 30
0.0
 10
399.4097146583
 20
-20.9803710889
 30
0.0
 10
399.4195546638
 20
-20.9302837953
 30
0.0
 10
399.4303333483
 20
-20.8933419802
 30
0.0
 10
399.4281195985
 20
-20.8540160883
 30
0.0
 10
399.4296995099
 20
-20.8024130687
 30
0.0
 10
399.4303563069
 20
-20.711721273
 30
0.0
 10
399.433175694
 20
-20.5306104264
 30
0.0
 10
399.4363425806
 20
-20.27175147
 30
0.0
 10
399.4400845268
 20
-20.0128897017
 30
0.0
 10
399.4420988305
 20
-19.8317827917
 30
0.0
 10
399.4438626171
 20
-19.7410855832
 30
0.0
 10
399.443659844
 20
-19.6894912804
 30
0.0
 10
399.4469235365
 20
-19.6501386051
 30
0.0
 10
399.4371294651
 20
-19.6132973859
 30
0.0
 10
399.4286250634
 20
-19.5632997923
 30
0.0
 10
399.411623754
 20
-19.4762115723
 30
0.0
 10
399.3791340202
 20
-19.3017431371
 30
0.0
 10
399.3318588514
 20
-19.0526763673
 30
0.0
 10
399.2851470504
 20
-18.8034703713
 30
0.0
 10
399.2518686016
 20
-18.6291968526
 30
0.0
 10
399.2359517753
 20
-18.5418406224
 30
0.0
 10
399.2257009332
 20
-18.4922746297
 30
0.0
 10
399.2212729407
 20
-18.4541072818
 30
0.0
 10
399.2043821481
 20
-18.4197354209
 30
0.0
 10
399.1862079343
 20
-18.3725824469
 30
0.0
 10
399.1523810094
 20
-18.2906807124
 30
0.0
 10
399.0861708426
 20
-18.1264356901
 30
0.0
 10
398.9907650401
 20
-17.8920648585
 30
0.0
 10
398.8958887649
 20
-17.6574754229
 30
0.0
 10
398.8289372599
 20
-17.493536446
 30
0.0
 10
398.7961296751
 20
-17.411213899
 30
0.0
 10
398.7763139266
 20
-17.3647385972
 30
0.0
 10
398.7644668816
 20
-17.3282845339
 30
0.0
 10
398.7410950499
 20
-17.2979377415
 30
0.0
 10
398.7139522876
 20
-17.2553452137
 30
0.0
 10
398.6645825674
 20
-17.1817992894
 30
0.0
 10
398.5671784409
 20
-17.0339986739
 30
0.0
 10
398.4272692041
 20
-16.8232672296
 30
0.0
 10
398.2878584511
 20
-16.6122366488
 30
0.0
 10
398.1897564474
 20
-16.4648548243
 30
0.0
 10
398.1413463084
 20
-16.3907330623
 30
0.0
 10
398.1126582465
 20
-16.3490678575
 30
0.0
 10
398.0940344725
 20
-16.3158717907
 30
0.0
 10
398.0643541711
 20
-16.2901193328
 30
0.0
 10
398.0286367757
 20
-16.253186476
 30
0.0
 10
397.9643376117
 20
-16.189761932
 30
0.0
 10
397.837018164
 20
-16.0620476722
 30
0.0
 10
397.6544212475
 20
-15.8801118851
 30
0.0
 10
397.4722363332
 20
-15.6977714227
 30
0.0
 10
397.3443400824
 20
-15.5706237083
 30
0.0
 10
397.2808340227
 20
-15.5064201644
 30
0.0
 10
397.2438394203
 20
-15.4707418009
 30
0.0
 10
397.2180834403
 20
-15.441134811
 30
0.0
 10
397.1847202857
 20
-15.4224160023
 30
0.0
 10
397.1428893465
 20
-15.393659944
 30
0.0
 10
397.0684510112
 20
-15.3451034975
 30
0.0
 10
396.9204549896
 20
-15.2467283842
 30
0.0
 10
396.7085362055
 20
-15.1069163643
 30
0.0
 10
396.4969235793
 20
-14.9666131487
 30
0.0
 10
396.3484989366
 20
-14.8689257094
 30
0.0
 10
396.2746499553
 20
-14.8194237112
 30
0.0
 10
396.2318699265
 20
-14.7921903595
 30
0.0
 10
396.2014229263
 20
-14.768792912
 30
0.0
 10
396.1647141459
 20
-14.7567584473
 30
0.0
 10
396.1179531118
 20
-14.7367492409
 30
0.0
 10
396.0351054648
 20
-14.7035768522
 30
0.0
 10
395.8701341842
 20
-14.6359144842
 30
0.0
 10
395.6340598821
 20
-14.5400120342
 30
0.0
 10
395.3982106832
 20
-14.4435869779
 30
0.0
 10
395.2329242582
 20
-14.3766562587
 30
0.0
 10
395.1505099347
 20
-14.342477853
 30
0.0
 10
395.103051081
 20
-14.3240887258
 30
0.0
 10
395.0684864074
 20
-14.3070764368
 30
0.0
 10
395.0299863448
 20
-14.3023752272
 30
0.0
 10
394.9800255282
 20
-14.2918130135
 30
0.0
 10
394.8919556576
 20
-14.2753266705
 30
0.0
 10
394.7162710663
 20
-14.2409267681
 30
0.0
 10
394.465040031
 20
-14.1926028719
 30
0.0
 10
394.213954234
 20
-14.1437221968
 30
0.0
 10
394.0380663091
 20
-14.1101017848
 30
0.0
 10
393.9502760222
 20
-14.0925436425
 30
0.0
 10
393.8998649669
 20
-14.0837074433
 30
0.0
 10
393.8627482993
 20
-14.073702915
 30
0.0
 10
393.8229877244
 20
-14.0766093899
 30
0.0
 10
393.7708958491
 20
-14.0759811872
 30
0.0
 10
393.6793053856
 20
-14.0769800983
 30
0.0
 10
393.5486865094
 20
-14.0773101139
 30
0.0
 10
393.3918477008
 20
-14.0781756973
 30
0.0
 10
393.1827628891
 20
-14.0791657308
 30
0.0
 10
392.9213952693
 20
-14.0804599442
 30
0.0
 10
392.7123047102
 20
-14.0814780436
 30
0.0
 10
392.6077589886
 20
-14.0819892522
 30
0.0
  0
SPLINE
  5
291
100
AcDbEntity
  8
_21_KURVEN
100
AcDbSpline
 62
1
  6
CENTER
 70
0
 71
3
 72
163
 73
159
 74
0
 42
0.0000001
 43
0.0000001
 44
0.0000000001
 40
0.0
 40
0.0
 40
0.0
 40
0.0
 40
0.015625
 40
0.03125
 40
0.0390625
 40
0.046875
 40
0.0546875
 40
0.05859375
 40
0.060546875
 40
0.0625
 40
0.064453125
 40
0.06640625
 40
0.0703125
 40
0.078125
 40
0.09375
 40
0.109375
 40
0.1171875
 40
0.12109375
 40
0.123046875
 40
0.125
 40
0.126953125
 40
0.12890625
 40
0.1328125
 40
0.140625
 40
0.15625
 40
0.171875
 40
0.1796875
 40
0.18359375
 40
0.185546875
 40
0.1875
 40
0.189453125
 40
0.19140625
 40
0.1953125
 40
0.203125
 40
0.21875
 40
0.234375
 40
0.2421875
 40
0.24609375
 40
0.248046875
 40
0.25
 40
0.251953125
 40
0.25390625
 40
0.2578125
 40
0.265625
 40
0.28125
 40
0.296875
 40
0.3046875
 40
0.30859375
 40
0.310546875
 40
0.3125
 40
0.314453125
 40
0.31640625
 40
0.3203125
 40
0.328125
 40
0.34375
 40
0.359375
 40
0.3671875
 40
0.37109375
 40
0.373046875
 40
0.375
 40
0.376953125
 40
0.37890625
 40
0.3828125
 40
0.390625
 40
0.40625
 40
0.421875
 40
0.4296875
 40
0.43359375
 40
0.435546875
 40
0.4375
 40
0.439453125
 40
0.44140625
 40
0.4453125
 40
0.453125
 40
0.46875
 40
0.484375
 40
0.4921875
 40
0.49609375
 40
0.498046875
 40
0.5
 40
0.501953125
 40
0.50390625
 40
0.5078125
 40
0.515625
 40
0.53125
 40
0.546875
 40
0.5546875
 40
0.55859375
 40
0.560546875
 40
0.5625
 40
0.564453125
 40
0.56640625
 40
0.5703125
 40
0.578125
 40
0.59375
 40
0.609375
 40
0.6171875
 40
0.62109375
 40
0.623046875
 40
0.625
 40
0.626953125
 40
0.62890625
 40
0.6328125
 40
0.640625
 40
0.65625
 40
0.671875
 40
0.6796875
 40
0.68359375
 40
0.685546875
 40
0.6875
 40
0.689453125
 40
0.69140625
 40
0.6953125
 40
0.703125
 40
0.71875
 40
0.734375
 40
0.7421875
 40
0.74609375
 40
0.748046875
 40
0.75
 40
0.751953125
 40
0.75390625
 40
0.7578125
 40
0.765625
 40
0.78125
 40
0.796875
 40
0.8046875
 40
0.80859375
 40
0.810546875
 40
0.8125
 40
0.814453125
 40
0.81640625
 40
0.8203125
 40
0.828125
 40
0.84375
 40
0.859375
 40
0.8671875
 40
0.87109375
 40
0.873046875
 40
0.875
 40
0.876953125
 40
0.87890625
 40
0.8828125
 40
0.890625
 40
0.90625
 40
0.921875
 40
0.9296875
 40
0.93359375
 40
0.935546875
 40
0.9375
 40
0.939453125
 40
0.94140625
 40
0.9453125
 40
0.953125
 40
0.9609375
 40
0.96875
 40
0.984375
 40
1.0
 40
1.0
 40
1.0
 40
1.0
 10
392.6077595388
 20
-14.0819891952
 30
0.0
 10
392.5067673271
 20
-14.1024137117
 30
0.0
 10
392.3047841102
 20
-14.1432668495
 30
0.0
 10
392.0522990572
 20
-14.1943127474
 30
0.0
 10
391.8503236819
 20
-14.2351925671
 30
0.0
 10
391.698807768
 20
-14.2657354424
 30
0.0
 10
391.5726538365
 20
-14.2915598443
 30
0.0
 10
391.4841315337
 20
-14.3089068964
 30
0.0
 10
391.433882363
 20
-14.3199593744
 30
0.0
 10
391.395251778
 20
-14.3250376824
 30
0.0
 10
391.3602285199
 20
-14.3423902541
 30
0.0
 10
391.3122726436
 20
-14.3612459324
 30
0.0
 10
391.2289353035
 20
-14.3962348277
 30
0.0
 10
391.0618408472
 20
-14.4647908095
 30
0.0
 10
390.8233871703
 20
-14.5635350968
 30
0.0
 10
390.5847223096
 20
-14.6617589098
 30
0.0
 10
390.4179235108
 20
-14.7310435558
 30
0.0
 10
390.3341796415
 20
-14.7650305379
 30
0.0
 10
390.2868784355
 20
-14.7854996867
 30
0.0
 10
390.2498436502
 20
-14.7978947402
 30
0.0
 10
390.2187681713
 20
-14.8215930182
 30
0.0
 10
390.1752556693
 20
-14.8492483201
 30
0.0
 10
390.1000757839
 20
-14.8994790346
 30
0.0
 10
389.9490243786
 20
-14.9986308416
 30
0.0
 10
389.7336392784
 20
-15.141021976
 30
0.0
 10
389.5179610909
 20
-15.2829248449
 30
0.0
 10
389.3673200078
 20
-15.3827602236
 30
0.0
 10
389.2915759294
 20
-15.432051027
 30
0.0
 10
389.2489719981
 20
-15.461219952
 30
0.0
 10
389.2151048624
 20
-15.4802675011
 30
0.0
 10
389.188555276
 20
-15.5101302529
 30
0.0
 10
389.1506035483
 20
-15.5461750864
 30
0.0
 10
389.0853755331
 20
-15.6110081098
 30
0.0
 10
388.9540688699
 20
-15.7394232656
 30
0.0
 10
388.7669932995
 20
-15.9235693253
 30
0.0
 10
388.5795164742
 20
-16.1073146864
 30
0.0
 10
388.4487715677
 20
-16.2362908204
 30
0.0
 10
388.3827711371
 20
-16.3003524989
 30
0.0
 10
388.3460632992
 20
-16.3376394981
 30
0.0
 10
388.3156917611
 20
-16.3636855954
 30
0.0
 10
388.296179515
 20
-16.3970681384
 30
0.0
 10
388.2663756161
 20
-16.4390193552
 30
0.0
 10
388.2159807631
 20
-16.5136242504
 30
0.0
 10
388.1139321637
 20
-16.6619847645
 30
0.0
 10
387.9688705645
 20
-16.8744063484
 30
0.0
 10
387.8233184007
 20
-17.0865336321
 30
0.0
 10
387.7219565917
 20
-17.2353061665
 30
0.0
 10
387.6706174019
 20
-17.3093445338
 30
0.0
 10
387.6423342531
 20
-17.3522080812
 30
0.0
 10
387.6181493799
 20
-17.3827874148
 30
0.0
 10
387.6053277874
 20
-17.4193621019
 30
0.0
 10
387.584268973
 20
-17.4660372708
 30
0.0
 10
387.549259822
 20
-17.5486914258
 30
0.0
 10
387.4779238572
 20
-17.7133065959
 30
0.0
 10
387.376773735
 20
-17.9488545547
 30
0.0
 10
387.2750998511
 20
-18.1841890598
 30
0.0
 10
387.2044971527
 20
-18.349103065
 30
0.0
 10
387.1684797605
 20
-18.4313463218
 30
0.0
 10
387.1490446071
 20
-18.4786831968
 30
0.0
 10
387.1312341852
 20
-18.5132247385
 30
0.0
 10
387.1257868839
 20
-18.5514403743
 30
0.0
 10
387.11421173
 20
-18.601113091
 30
0.0
 10
387.0959611872
 20
-18.6886363916
 30
0.0
 10
387.0580268325
 20
-18.8632581242
 30
0.0
 10
387.0046573377
 20
-19.1129534943
 30
0.0
 10
386.9507281176
 20
-19.3625151298
 30
0.0
 10
386.9135773783
 20
-19.5373240907
 30
0.0
 10
386.8942493643
 20
-19.6245899525
 30
0.0
 10
386.8844093588
 20
-19.674677246
 30
0.0
 10
386.8736306743
 20
-19.7116190611
 30
0.0
 10
386.8758444241
 20
-19.750944953
 30
0.0
 10
386.8742645126
 20
-19.8025479727
 30
0.0
 10
386.8736077157
 20
-19.8932397683
 30
0.0
 10
386.8707883286
 20
-20.074350615
 30
0.0
 10
386.867621442
 20
-20.3332095714
 30
0.0
 10
386.8638794958
 20
-20.5920713396
 30
0.0
 10
386.8618651921
 20
-20.7731782496
 30
0.0
 10
386.8601014054
 20
-20.8638754582
 30
0.0
 10
386.8603041786
 20
-20.915469761
 30
0.0
 10
386.8570404861
 20
-20.9548224363
 30
0.0
 10
386.8668345574
 20
-20.9916636554
 30
0.0
 10
386.8753389592
 20
-21.0416612491
 30
0.0
 10
386.8923402686
 20
-21.128749469
 30
0.0
 10
386.9248300024
 20
-21.3032179043
 30
0.0
 10
386.9721051712
 20
-21.5522846741
 30
0.0
 10
387.0188169722
 20
-21.80149067
 30
0.0
 10
387.052095421
 20
-21.9757641887
 30
0.0
 10
387.0680122473
 20
-22.0631204189
 30
0.0
 10
387.0782630894
 20
-22.1126864116
 30
0.0
 10
387.0826910819
 20
-22.1508537596
 30
0.0
 10
387.0995818745
 20
-22.1852256205
 30
0.0
 10
387.1177560883
 20
-22.2323785945
 30
0.0
 10
387.1515830132
 20
-22.3142803289
 30
0.0
 10
387.21779318
 20
-22.4785253512
 30
0.0
 10
387.3131989825
 20
-22.7128961829
 30
0.0
 10
387.4080752576
 20
-22.9474856185
 30
0.0
 10
387.4750267627
 20
-23.1114245953
 30
0.0
 10
387.5078343475
 20
-23.1937471423
 30
0.0
 10
387.527650096
 20
-23.2402224442
 30
0.0
 10
387.539497141
 20
-23.2766765075
 30
0.0
 10
387.5628689727
 20
-23.3070232999
 30
0.0
 10
387.590011735
 20
-23.3496158276
 30
0.0
 10
387.6393814552
 20
-23.4231617519
 30
0.0
 10
387.7367855817
 20
-23.5709623675
 30
0.0
 10
387.8766948185
 20
-23.7816938118
 30
0.0
 10
388.0161055715
 20
-23.9927243926
 30
0.0
 10
388.1142075752
 20
-24.1401062171
 30
0.0
 10
388.1626177142
 20
-24.214227979
 30
0.0
 10
388.1913057761
 20
-24.2558931839
 30
0.0
 10
388.2099295501
 20
-24.2890892507
 30
0.0
 10
388.2396098515
 20
-24.3148417085
 30
0.0
 10
388.2753272469
 20
-24.3517745654
 30
0.0
 10
388.3396264109
 20
-24.4151991094
 30
0.0
 10
388.4669458586
 20
-24.5429133691
 30
0.0
 10
388.6495427751
 20
-24.7248491563
 30
0.0
 10
388.8317276894
 20
-24.9071896187
 30
0.0
 10
388.9596239402
 20
-25.0343373331
 30
0.0
 10
389.0231299999
 20
-25.098540877
 30
0.0
 10
389.0601246023
 20
-25.1342192405
 30
0.0
 10
389.0858805823
 20
-25.1638262303
 30
0.0
 10
389.1192437369
 20
-25.1825450391
 30
0.0
 10
389.1610746761
 20
-25.2113010973
 30
0.0
 10
389.2355130114
 20
-25.2598575439
 30
0.0
 10
389.383509033
 20
-25.3582326571
 30
0.0
 10
389.5954278171
 20
-25.498044677
 30
0.0
 10
389.8070404433
 20
-25.6383478926
 30
0.0
 10
389.955465086
 20
-25.7360353319
 30
0.0
 10
390.0293140673
 20
-25.7855373302
 30
0.0
 10
390.0720940961
 20
-25.8127706818
 30
0.0
 10
390.1025410963
 20
-25.8361681293
 30
0.0
 10
390.1392498767
 20
-25.848202594
 30
0.0
 10
390.1860109108
 20
-25.8682118005
 30
0.0
 10
390.2688585578
 20
-25.9013841892
 30
0.0
 10
390.4338298384
 20
-25.9690465572
 30
0.0
 10
390.6699041405
 20
-26.0649490072
 30
0.0
 10
390.9057533394
 20
-26.1613740634
 30
0.0
 10
391.0710397644
 20
-26.2283047827
 30
0.0
 10
391.1534540879
 20
-26.2624831884
 30
0.0
 10
391.2009129415
 20
-26.2808723155
 30
0.0
 10
391.2354776152
 20
-26.2978846045
 30
0.0
 10
391.2739776778
 20
-26.3025858142
 30
0.0
 10
391.3239384943
 20
-26.3131480278
 30
0.0
 10
391.412008365
 20
-26.3296343708
 30
0.0
 10
391.5876929563
 20
-26.3640342733
 30
0.0
 10
391.8389239916
 20
-26.4123581695
 30
0.0
 10
392.0900097885
 20
-26.4612388445
 30
0.0
 10
392.2658977135
 20
-26.4948592566
 30
0.0
 10
392.3536880004
 20
-26.5124173989
 30
0.0
 10
392.4040990557
 20
-26.521253598
 30
0.0
 10
392.4412157232
 20
-26.5312581264
 30
0.0
 10
392.4809762982
 20
-26.5283516514
 30
0.0
 10
392.5330681735
 20
-26.5289798541
 30
0.0
 10
392.624658637
 20
-26.5279809431
 30
0.0
 10
392.7552775132
 20
-26.5276509274
 30
0.0
 10
392.9121163218
 20
-26.526785344
 30
0.0
 10
393.1212011335
 20
-26.5257953106
 30
0.0
 10
393.3825687533
 20
-26.5245010972
 30
0.0
 10
393.5916593123
 20
-26.5234829978
 30
0.0
 10
393.696205034
 20
-26.5229717892
 30
0.0
  0
SPLINE
  5
292
100
AcDbEntity
  8
_21_KURVEN
100
AcDbSpline
 62
7
  6
CONTINUOUS
 70
0
 71
3
 72
8
 73
4
 74
0
 42
0.0000001
 43
0.0000001
 44
0.0000000001
 40
0.0
 40
0.0
 40
0.0
 40
0.0
 40
1.0
 40
1.0
 40
1.0
 40
1.0
 10
387.2583420812
 20
-25.5164269267
 30
0.0
 10
387.2634317292
 20
-25.5655780876
 30
0.0
 10
387.2720121054
 20
-25.6127659899
 30
0.0
 10
387.2856445379
 20
-25.6632558572
 30
0.0
  0
SPLINE
  5
293
100
AcDbEntity
  8
_21_KURVEN
100
AcDbSpline
 62
7
  6
CONTINUOUS
 70
0
 71
3
 72
9
 73
5
 74
0
 42
0.0000001
 43
0.0000001
 44
0.0000000001
 40
0.0
 40
0.0
 40
0.0
 40
0.0
 40
0.5
 40
1.0
 40
1.0
 40
1.0
 40
1.0
 10
387.2856445373
 20
-25.6632558552
 30
0.0
 10
387.2954181248
 20
-25.6946283458
 30
0.0
 10
387.3163552039
 20
-25.7570770363
 30
0.0
 10
387.3475641124
 20
-25.8150133819
 30
0.0
 10
387.3639502116
 20
-25.8439068787
 30
0.0
  0
LINE
  5
294
100
AcDbEntity
  8
_21_KURVEN
100
AcDbLine
 62
7
  6
CONTINUOUS
 10
387.3639502156
 20
-25.8439068855
 11
387.3738081803
 21
-25.8599922314
  0
SPLINE
  5
295
100
AcDbEntity
  8
_21_KURVEN
100
AcDbSpline
 62
7
  6
CONTINUOUS
 70
0
 71
3
 72
9
 73
5
 74
0
 42
0.0000001
 43
0.0000001
 44
0.0000000001
 40
0.0
 40
0.0
 40
0.0
 40
0.0
 40
0.5
 40
1.0
 40
1.0
 40
1.0
 40
1.0
 10
387.3738081807
 20
-25.859992232
 30
0.0
 10
387.3950199464
 20
-25.8918757868
 30
0.0
 10
387.439182215
 20
-25.9547638349
 30
0.0
 10
387.4949713481
 20
-26.007763117
 30
0.0
 10
387.5246769853
 20
-26.0345404687
 30
0.0
  0
SPLINE
  5
296
100
AcDbEntity
  8
_21_KURVEN
100
AcDbSpline
 62
7
  6
CONTINUOUS
 70
0
 71
3
 72
8
 73
4
 74
0
 42
0.0000001
 43
0.0000001
 44
0.0000000001
 40
0.0
 40
0.0
 40
0.0
 40
0.0
 40
1.0
 40
1.0
 40
1.0
 40
1.0
 10
387.5246769908
 20
-26.0345404734
 30
0.0
 10
387.5584096893
 20
-26.0625804759
 30
0.0
 10
387.5935822788
 20
-26.0878968704
 30
0.0
 10
387.6321102177
 20
-26.1115970277
 30
0.0
  0
SPLINE
  5
297
100
AcDbEntity
  8
_21_KURVEN
100
AcDbSpline
 62
7
  6
CONTINUOUS
 70
0
 71
3
 72
10
 73
6
 74
0
 42
0.0000001
 43
0.0000001
 44
0.0000000001
 40
0.0
 40
0.0
 40
0.0
 40
0.0
 40
0.5
 40
0.75
 40
1.0
 40
1.0
 40
1.0
 40
1.0
 10
387.632110215
 20
-26.1115970261
 30
0.0
 10
387.6852447377
 20
-26.1404956663
 30
0.0
 10
387.7652151111
 20
-26.1801789257
 30
0.0
 10
387.8892006324
 20
-26.2098470462
 30
0.0
 10
387.9498819364
 20
-26.2169403899
 30
0.0
 10
387.9809868008
 20
-26.2203349634
 30
0.0
  0
SPLINE
  5
298
100
AcDbEntity
  8
_21_KURVEN
100
AcDbSpline
 62
7
  6
CONTINUOUS
 70
0
 71
3
 72
37
 73
33
 74
0
 42
0.0000001
 43
0.0000001
 44
0.0000000001
 40
0.0
 40
0.0
 40
0.0
 40
0.0
 40
0.0625
 40
0.09375
 40
0.125
 40
0.15625
 40
0.1875
 40
0.21875
 40
0.25
 40
0.28125
 40
0.3125
 40
0.34375
 40
0.375
 40
0.40625
 40
0.4375
 40
0.46875
 40
0.5
 40
0.53125
 40
0.5625
 40
0.59375
 40
0.625
 40
0.65625
 40
0.6875
 40
0.71875
 40
0.75
 40
0.78125
 40
0.8125
 40
0.84375
 40
0.875
 40
0.90625
 40
0.9375
 40
1.0
 40
1.0
 40
1.0
 40
1.0
 10
387.1552823575
 20
-13.6068969483
 30
0.0
 10
387.126641277
 20
-13.6079774356
 30
0.0
 10
387.0836544837
 20
-13.6091711368
 30
0.0
 10
387.0264394496
 20
-13.6124708567
 30
0.0
 10
386.983276448
 20
-13.6106753512
 30
0.0
 10
386.9410700051
 20
-13.6251069681
 30
0.0
 10
386.8984873248
 20
-13.6349269604
 30
0.0
 10
386.8564530356
 20
-13.6469663287
 30
0.0
 10
386.8126014192
 20
-13.6547398176
 30
0.0
 10
386.7754707204
 20
-13.6773574483
 30
0.0
 10
386.7363996656
 20
-13.6957440116
 30
0.0
 10
386.698369117
 20
-13.7162107028
 30
0.0
 10
386.6581168999
 20
-13.7325879499
 30
0.0
 10
386.6257108507
 20
-13.7632428452
 30
0.0
 10
386.5909803039
 20
-13.7898853907
 30
0.0
 10
386.5577015797
 20
-13.8182996871
 30
0.0
 10
386.5209400628
 20
-13.8436393297
 30
0.0
 10
386.496657894
 20
-13.8795058367
 30
0.0
 10
386.4687961541
 20
-13.9123821779
 30
0.0
 10
386.4427733503
 20
-13.9466923179
 30
0.0
 10
386.412974373
 20
-13.9782574286
 30
0.0
 10
386.3964411535
 20
-14.0193688576
 30
0.0
 10
386.376070699
 20
-14.0578475849
 30
0.0
 10
386.3577834269
 20
-14.0973108008
 30
0.0
 10
386.3350006599
 20
-14.135468764
 30
0.0
 10
386.3281166903
 20
-14.1778632495
 30
0.0
 10
386.3166867304
 20
-14.2190687251
 30
0.0
 10
386.3075419344
 20
-14.2607937178
 30
0.0
 10
386.2938024733
 20
-14.301629652
 30
0.0
 10
386.2961565083
 20
-14.3455023032
 30
0.0
 10
386.293648381
 20
-14.4029336568
 30
0.0
 10
386.2930378246
 20
-14.4462469128
 30
0.0
 10
386.292348445
 20
-14.475069141
 30
0.0
  0
SPLINE
  5
299
100
AcDbEntity
  8
_26_BEZUGSACHSEN
100
AcDbSpline
 62
4
  6
CONTINUOUS
 70
0
 71
3
 72
17
 73
13
 74
0
 42
0.0000001
 43
0.0000001
 44
0.0000000001
 40
0.0
 40
0.0
 40
0.0
 40
0.0
 40
0.1371548051
 40
0.2693370713
 40
0.3957918041
 40
0.5168205288
 40
0.5758624804
 40
0.6343782394
 40
0.692833104
 40
0.7517298791
 40
0.8726058738
 40
1.0
 40
1.0
 40
1.0
 40
1.0
 10
375.9
 20
-19.5757990433
 30
0.0
 10
374.7312096223
 20
-19.5173507181
 30
0.0
 10
372.4375011783
 20
-19.3639497457
 30
0.0
 10
369.0827527302
 20
-18.9548233697
 30
0.0
 10
365.9062729115
 20
-18.2940228822
 30
0.0
 10
363.4199169426
 20
-17.4511837549
 30
0.0
 10
361.5834267866
 20
-16.5676312361
 30
0.0
 10
360.2909347906
 20
-15.7987315389
 30
0.0
 10
359.0771709531
 20
-14.9124564874
 30
0.0
 10
357.5562920083
 20
-13.5596346438
 30
0.0
 10
355.8613323059
 20
-11.5397507349
 30
0.0
 10
354.7972033993
 20
-9.6960796082
 30
0.0
 10
354.3234233135
 20
-8.7177978871
 30
0.0
  0
SPLINE
  5
29A
100
AcDbEntity
  8
_26_BEZUGSACHSEN
100
AcDbSpline
 62
4
  6
CONTINUOUS
 70
0
 71
3
 72
9
 73
5
 74
0
 42
0.0000001
 43
0.0000001
 44
0.0000000001
 40
0.0
 40
0.0
 40
0.0
 40
0.0
 40
0.2508988359
 40
1.0
 40
1.0
 40
1.0
 40
1.0
 10
380.9732003725
 20
-23.5799801756
 30
0.0
 10
380.6369531578
 20
-23.2309971418
 30
0.0
 10
379.2997967156
 20
-21.8371845246
 30
0.0
 10
377.9766651167
 20
-20.4297617686
 30
0.0
 10
377.0
 20
-19.3622210025
 30
0.0
  0
SPLINE
  5
29B
100
AcDbEntity
  8
_26_BEZUGSACHSEN
100
AcDbSpline
 62
4
  6
CONTINUOUS
 70
0
 71
3
 72
15
 73
11
 74
0
 42
0.0000001
 43
0.0000001
 44
0.0000000001
 40
0.0
 40
0.0
 40
0.0
 40
0.0
 40
0.1208193841
 40
0.239977815
 40
0.3600063005
 40
0.4825332423
 40
0.6081213975
 40
0.7366100694
 40
0.8674661997
 40
1.0
 40
1.0
 40
1.0
 40
1.0
 10
353.2867305044
 20
8.7177978871
 30
0.0
 10
353.65006696
 20
9.4452080292
 30
0.0
 10
354.5281608653
 20
10.818886353
 30
0.0
 10
356.2593042632
 20
12.5384728851
 30
0.0
 10
358.297668171
 20
13.8926445831
 30
0.0
 10
360.5578716977
 20
14.9262347333
 30
0.0
 10
362.9775886801
 20
15.6958285279
 30
0.0
 10
365.510969847
 20
16.2504440124
 30
0.0
 10
368.1228575984
 20
16.6280962187
 30
0.0
 10
369.8899727117
 20
16.7793015878
 30
0.0
 10
370.7802820144
 20
16.8332371496
 30
0.0
  0
LINE
  5
29C
100
AcDbEntity
  8
_26_BEZUGSACHSEN
100
AcDbLine
 62
4
  6
CONTINUOUS
 10
380.9732003725
 20
-23.5799801756
 11
381.3734153307
 21
-23.9948091968
  0
SPLINE
  5
29D
100
AcDbEntity
  8
0
100
AcDbSpline
 62
4
  6
CONTINUOUS
 70
0
 71
3
 72
9
 73
5
 74
0
 42
0.0000001
 43
0.0000001
 44
0.0000000001
 40
0.0
 40
0.0
 40
0.0
 40
0.0
 40
0.2501151565
 40
1.0
 40
1.0
 40
1.0
 40
1.0
 10
0.0
 20
-4.2720018727
 30
0.0
 10
0.0880901491
 20
-4.6534782406
 30
0.0
 10
0.4827232487
 20
-6.1688855365
 30
0.0
 10
1.0309637265
 20
-7.641754878
 30
0.0
 10
1.5
 20
-8.7177978871
 30
0.0
  0
SPLINE
  5
29E
100
AcDbEntity
  8
0
100
AcDbSpline
 62
4
  6
CONTINUOUS
 70
0
 71
3
 72
9
 73
5
 74
0
 42
0.0000001
 43
0.0000001
 44
0.0000000001
 40
0.0
 40
0.0
 40
0.0
 40
0.0
 40
0.749884985
 40
1.0
 40
1.0
 40
1.0
 40
1.0
 10
1.5
 20
8.7177978871
 30
0.0
 10
1.0309636372
 20
7.6417546733
 30
0.0
 10
0.4827229535
 20
6.1688853877
 30
0.0
 10
0.0880900994
 20
4.6534780252
 30
0.0
 10
-0.0
 20
4.2720018727
 30
0.0
  0
ELLIPSE
  5
29F
100
AcDbEntity
  8
_26_BEZUGSACHSEN
100
AcDbEllipse
 62
4
  6
CONTINUOUS
 10
384.5219494318
 20
-0.2612935591
 30
0.0
 11
-2.5518446812
 21
24.4462653575
 31
0.0
 40
0.0859063961
 41
-3.1596146215
 42
-3.0875934451
  0
ELLIPSE
  5
2A0
100
AcDbEntity
  8
_26_BEZUGSACHSEN
100
AcDbEllipse
 62
4
  6
CONTINUOUS
 10
445.2962572545
 20
0.0
 30
0.0
 11
193.2224463045
 21
3.5094110653
 31
0.0
 40
0.1019016888
 41
1.9363041481
 42
1.9648555693
  0
ELLIPSE
  5
2A1
100
AcDbEntity
  8
_30_VOLUMEN
100
AcDbEllipse
 62
4
  6
CONTINUOUS
 10
445.2962572545
 20
0.0
 30
0.0
 11
190.8071657257
 21
3.4655434269
 31
0.0
 40
0.1019016888
 41
1.9279807096
 42
1.9411799762
  0
ELLIPSE
  5
2A2
100
AcDbEntity
  8
_26_BEZUGSACHSEN
100
AcDbEllipse
 62
4
  6
CONTINUOUS
 10
403.4394523124
 20
-105.2371825145
 30
0.0
 11
-39.919185968
 21
158.2728990159
 31
0.0
 40
0.192979887
 41
0.7195991709
 42
0.8672266778
  0
ENDSEC
  0
SECTION
  2
OBJECTS
  0
DICTIONARY
  5
C
100
AcDbDictionary
280
0
281
1
  3
ACAD_GROUP
350
D
  3
ACAD_MLINESTYLE
350
17
  3
ACAD_LAYOUT
350
1A
  3
ACAD_PLOTSETTINGS
350
19
  3
ACAD_PLOTSTYLENAME
350
E
  0
DICTIONARY
  5
D
102
{ACAD_REACTORS
330
C
102
}
100
AcDbDictionary
280
0
281
1
  0
ACDBDICTIONARYWDFLT
  5
E
102
{ACAD_REACTORS
330
C
102
}
100
AcDbDictionary
281
1
  3
Normal
350
F
100
AcDbDictionaryWithDefault
340
F
  0
DICTIONARY
  5
17
102
{ACAD_REACTORS
330
C
102
}
100
AcDbDictionary
280
0
281
1
  3
Standard
350
18
  0
DICTIONARY
  5
19
102
{ACAD_REACTORS
330
C
102
}
100
AcDbDictionary
281
1
  0
DICTIONARY
  5
1A
102
{ACAD_REACTORS
330
C
102
}
100
AcDbDictionary
281
1
  3
Model
350
2A3
  3
Layout1
350
2A4
  0
ACDBPLACEHOLDER
  5
F
102
{ACAD_REACTORS
330
E
102
}
  0
MLINESTYLE
  5
18
102
{ACAD_REACTORS
330
17
102
}
100
AcDbMlineStyle
  2
STANDARD
 70
0
  3

 62
256
 51
90.0
 52
90.0
 71
2
 49
0.5
 62
256
  6
BYLAYER
 49
-0.5
 62
256
  6
BYLAYER
  0
LAYOUT
  5
2A3
102
{ACAD_REACTORS
330
1A
102
}
100
AcDbPlotSettings
  1

  2
none_device
  4
ISO_A3_(420.00_x_297.00_MM)
  6

 40
0.0
 41
0.0
 42
0.0
 43
0.0
 44
420.0
 45
297.0
 46
0.0
 47
0.0
 48
0.0
 49
0.0
140
0.0
141
0.0
142
1.0
143
1.0
 70
1024
 72
1
 73
0
 74
0
  7

 75
0
147
1.0
148
0.0
149
0.0
100
AcDbLayout
  1
Model
 70
0
 71
0
 10
0.0
 20
0.0
 11
420.0
 21
297.0
 12
0.0
 22
0.0
 32
0.0
 14
0.0
 24
0.0
 34
0.0
 15
0.0
 25
0.0
 35
0.0
146
0.0
 13
0.0
 23
0.0
 33
0.0
 16
1.0
 26
0.0
 36
0.0
 17
0.0
 27
1.0
 37
0.0
 76
0
330
20F
345
0
346
0
  0
LAYOUT
  5
2A4
102
{ACAD_REACTORS
330
1A
102
}
100
AcDbPlotSettings
  1

  2
none_device
  4
ISO_A3_(420.00_x_297.00_MM)
  6

 40
0.0
 41
0.0
 42
0.0
 43
0.0
 44
420.0
 45
297.0
 46
0.0
 47
0.0
 48
0.0
 49
0.0
140
0.0
141
0.0
142
1.0
143
1.0
 70
0
 72
1
 73
0
 74
0
  7

 75
0
147
1.0
148
0.0
149
0.0
100
AcDbLayout
  1
Layout1
 70
0
 71
1
 10
0.0
 20
0.0
 11
420.0
 21
297.0
 12
0.0
 22
0.0
 32
0.0
 14
0.0
 24
0.0
 34
0.0
 15
0.0
 25
0.0
 35
0.0
146
0.0
 13
0.0
 23
0.0
 33
0.0
 16
1.0
 26
0.0
 36
0.0
 17
0.0
 27
1.0
 37
0.0
 76
0
330
210
345
0
346
0
  0
ENDSEC
  0
EOF
