999
DXF file: 70557720.dxf
999
Pro/ENGINEER 2017380 by Parametric Technology Corporation
  0
SECTION
  2
HEADER
  9
$ACADVER
  1
AC1027
  9
$DWGCODEPAGE
  3
ANSI_1252
  9
$EXTMAX
 10
420.0
 20
297.0
 30
0.0
  9
$EXTMIN
 10
0.0
 20
0.0
 30
0.0
  9
$LIMMIN
 10
0.0
 20
0.0
  9
$LIMMAX
 10
420.0
 20
297.0
  9
$VIEWCTR
 10
210.0
 20
148.5
  9
$VIEWSIZE
 40
297.0
  9
$CLAYER
  8
0
  9
$LTSCALE
 40
23.1
  9
$CELTYPE
  6
BYLAYER
  9
$DIMSCALE
 40
1.0
  9
$DIMASZ
 40
3.5
  9
$DIMEXO
 40
0.0
  9
$DIMDLI
 40
15.96
  9
$DIMEXE
 40
1.5
  9
$DIMCEN
 40
3.78
  9
$DIMLFAC
 40
1.0
  9
$DIMBLK
  1
_FILLED
  9
$DIMALT
 70
0
  9
$DIMALTF
 40
25.4
  9
$DIMTXT
 40
3.5
  9
$DIMTOL
 70
1
  9
$DIMLIM
 70
0
  9
$DIMTFAC
 40
1.0
  9
$DIMTP
 40
0.05
  9
$DIMTM
 40
0.05
  9
$DIMGAP
 40
0.625
  9
$DIMDSEP
 70
46
  9
$AUNITS
 70
0
  9
$PDMODE
 70
3
  9
$PDSIZE
 40
0.3125
  9
$HANDSEED
  5
2B4
  9
$TILEMODE
 70
1
  9
$MEASUREMENT
 70
1
  9
$INSUNITS
 70
4
  0
ENDSEC
  0
SECTION
  2
CLASSES
  0
CLASS
  1
ACDBDICTIONARYWDFLT
  2
AcDbDictionaryWithDefault
  3
AutoCAD 2000
 90
0
 91
1
280
0
281
0
  0
CLASS
  1
ACDBPLACEHOLDER
  2
AcDbPlaceHolder
  3
AutoCAD 2000
 90
0
 91
1
280
0
281
0
  0
CLASS
  1
LAYOUT
  2
AcDbLayout
  3
AutoCAD 2000
 90
0
 91
0
280
0
281
0
  0
ENDSEC
  0
SECTION
  2
TABLES
  0
TABLE
  2
VPORT
  5
8
100
AcDbSymbolTable
 70
2
  0
VPORT
  5
1F4
100
AcDbSymbolTableRecord
100
AcDbViewportTableRecord
  2
*ACTIVE
 70
0
 10
0.0
 20
0.0
 11
1.0
 21
1.0
 12
210.0
 22
148.5
 13
0.0
 23
0.0
 14
1.0
 24
1.0
 15
0.0
 25
0.0
 16
0.0
 26
0.0
 36
1.0
 17
0.0
 27
0.0
 37
0.0
 40
297.0
 41
1.4141414141
 42
50.0
 43
0.0
 44
0.0
 50
0.0
 51
0.0
 71
0
 72
100
 73
1
 74
1
 75
0
 76
0
 77
0
 78
0
  0
ENDTAB
  0
TABLE
  2
LTYPE
  5
5
100
AcDbSymbolTable
 70
6
  0
LTYPE
  5
14
100
AcDbSymbolTableRecord
100
AcDbLinetypeTableRecord
  2
BYBLOCK
 70
0
  3

 72
65
 73
0
 40
0.0
  0
LTYPE
  5
15
100
AcDbSymbolTableRecord
100
AcDbLinetypeTableRecord
  2
BYLAYER
 70
0
  3

 72
65
 73
0
 40
0.0
  0
LTYPE
  5
16
100
AcDbSymbolTableRecord
100
AcDbLinetypeTableRecord
  2
CONTINUOUS
 70
64
  3
Solid line
 72
65
 73
0
 40
0.0
  0
LTYPE
  5
1F5
100
AcDbSymbolTableRecord
100
AcDbLinetypeTableRecord
  2
CENTER
 70
64
  3
____ _ ____ _ ____ _ ____ _ ____ _ ____ _ ____
 72
65
 73
4
 40
0.6
 49
0.375
 74
0
 49
-0.075
 74
0
 49
0.075
 74
0
 49
-0.075
 74
0
  0
LTYPE
  5
1F6
100
AcDbSymbolTableRecord
100
AcDbLinetypeTableRecord
  2
HIDDEN
 70
64
  3
- - - - - - - - - - - - - - - - - - - -
 72
65
 73
2
 40
0.2
 49
0.1
 74
0
 49
-0.1
 74
0
  0
LTYPE
  5
1F7
100
AcDbSymbolTableRecord
100
AcDbLinetypeTableRecord
  2
PHANTOM
 70
64
  3
_____ _ _ _____ _ _ _____ _ _ _____
 72
65
 73
6
 40
0.8
 49
0.45
 74
0
 49
-0.05
 74
0
 49
0.1
 74
0
 49
-0.05
 74
0
 49
0.1
 74
0
 49
-0.05
 74
0
  0
LTYPE
  5
1F8
100
AcDbSymbolTableRecord
100
AcDbLinetypeTableRecord
  2
DOT
 70
64
  3
. . . . . . . . . . . . . . . . . . . .
 72
65
 73
2
 40
0.2
 49
0.1
 74
0
 49
-0.1
 74
0
  0
LTYPE
  5
1F9
100
AcDbSymbolTableRecord
100
AcDbLinetypeTableRecord
  2
DASHED
 70
64
  3
- - - - - - - - - - - - - - - - - - - -
 72
65
 73
2
 40
0.2
 49
0.1
 74
0
 49
-0.1
 74
0
  0
ENDTAB
  0
TABLE
  2
LAYER
  5
2
100
AcDbSymbolTable
 70
36
  0
LAYER
  5
10
100
AcDbSymbolTableRecord
100
AcDbLayerTableRecord
  2
0
 70
0
 62
7
  6
CONTINUOUS
370
-3
390
F
  0
LAYER
  5
1FA
100
AcDbSymbolTableRecord
100
AcDbLayerTableRecord
  2
DEFAULT_1
 70
0
 62
7
  6
CENTER
370
-3
390
F
  0
LAYER
  5
1FB
100
AcDbSymbolTableRecord
100
AcDbLayerTableRecord
  2
DEFAULT_2
 70
0
 62
1
  6
HIDDEN
370
-3
390
F
  0
LAYER
  5
1FC
100
AcDbSymbolTableRecord
100
AcDbLayerTableRecord
  2
DEFAULT_3
 70
0
 62
7
  6
PHANTOM
370
-3
390
F
  0
LAYER
  5
1FD
100
AcDbSymbolTableRecord
100
AcDbLayerTableRecord
  2
BG_STARTBEZUEGE
 70
0
 62
7
  6
CONTINUOUS
370
-3
390
F
  0
LAYER
  5
1FE
100
AcDbSymbolTableRecord
100
AcDbLayerTableRecord
  2
HILFEN
 70
0
 62
7
  6
CONTINUOUS
370
-3
390
F
  0
LAYER
  5
1FF
100
AcDbSymbolTableRecord
100
AcDbLayerTableRecord
  2
PLATZIERUNG
 70
0
 62
7
  6
CONTINUOUS
370
-3
390
F
  0
LAYER
  5
200
100
AcDbSymbolTableRecord
100
AcDbLayerTableRecord
  2
T_STARTBEZUEGE
 70
0
 62
7
  6
CONTINUOUS
370
-3
390
F
  0
LAYER
  5
201
100
AcDbSymbolTableRecord
100
AcDbLayerTableRecord
  2
_03_2D_ZEICHNUNG_BEMASSUNGEN
 70
0
 62
7
  6
CONTINUOUS
370
-3
390
F
  0
LAYER
  5
202
100
AcDbSymbolTableRecord
100
AcDbLayerTableRecord
  2
_04_NOTIZEN
 70
0
 62
7
  6
CONTINUOUS
370
-3
390
F
  0
LAYER
  5
203
100
AcDbSymbolTableRecord
100
AcDbLayerTableRecord
  2
_05_2D_ELEMENTE
 70
0
 62
7
  6
CONTINUOUS
370
-3
390
F
  0
LAYER
  5
204
100
AcDbSymbolTableRecord
100
AcDbLayerTableRecord
  2
_07_EINRASTLINIEN
 70
0
 62
7
  6
CONTINUOUS
370
-3
390
F
  0
LAYER
  5
205
100
AcDbSymbolTableRecord
100
AcDbLayerTableRecord
  2
_21_KURVEN
 70
0
 62
7
  6
CONTINUOUS
370
-3
390
F
  0
LAYER
  5
206
100
AcDbSymbolTableRecord
100
AcDbLayerTableRecord
  2
_22_FLAECHEN
 70
0
 62
7
  6
CONTINUOUS
370
-3
390
F
  0
LAYER
  5
207
100
AcDbSymbolTableRecord
100
AcDbLayerTableRecord
  2
_26_BEZUGSACHSEN
 70
0
 62
7
  6
CONTINUOUS
370
-3
390
F
  0
LAYER
  5
208
100
AcDbSymbolTableRecord
100
AcDbLayerTableRecord
  2
_27_BEZUGSEBENEN
 70
0
 62
7
  6
CONTINUOUS
370
-3
390
F
  0
LAYER
  5
209
100
AcDbSymbolTableRecord
100
AcDbLayerTableRecord
  2
_28_BEZUGSPUNKTE
 70
0
 62
7
  6
CONTINUOUS
370
-3
390
F
  0
LAYER
  5
20A
100
AcDbSymbolTableRecord
100
AcDbLayerTableRecord
  2
_29_KOORDINATENSYSTEME
 70
0
 62
7
  6
CONTINUOUS
370
-3
390
F
  0
LAYER
  5
20B
100
AcDbSymbolTableRecord
100
AcDbLayerTableRecord
  2
_30_VOLUMEN
 70
0
 62
7
  6
CONTINUOUS
370
-3
390
F
  0
ENDTAB
  0
TABLE
  2
STYLE
  5
3
100
AcDbSymbolTable
 70
1
  0
STYLE
  5
11
100
AcDbSymbolTableRecord
100
AcDbTextStyleTableRecord
  2
STANDARD
 70
0
 40
0.0
 41
0.7
 50
0.0
 71
0
 42
0.2
  3
SIMPLEX.SHX
  4

  0
STYLE
  5
20C
100
AcDbSymbolTableRecord
100
AcDbTextStyleTableRecord
  2
TEXTSTYLE_1
 70
0
 40
0.0
 41
0.8
 50
0.0
 71
0
 42
0.2
  3
gdt
  4

  0
STYLE
  5
20D
100
AcDbSymbolTableRecord
100
AcDbTextStyleTableRecord
  2
TEXTSTYLE_2
 70
0
 40
0.0
 41
0.7
 50
0.0
 71
0
 42
0.2
  3
gdt
  4

  0
ENDTAB
  0
TABLE
  2
VIEW
  5
6
100
AcDbSymbolTable
 70
0
  0
ENDTAB
  0
TABLE
  2
UCS
  5
7
100
AcDbSymbolTable
 70
0
  0
ENDTAB
  0
TABLE
  2
APPID
  5
9
100
AcDbSymbolTable
 70
1
  0
APPID
  5
20E
100
AcDbSymbolTableRecord
100
AcDbRegAppTableRecord
  2
ACAD
 70
0
  0
ENDTAB
  0
TABLE
  2
BLOCK_RECORD
  5
1
100
AcDbSymbolTable
 70
0
  0
BLOCK_RECORD
  5
20F
100
AcDbSymbolTableRecord
100
AcDbBlockTableRecord
  2
*Model_Space
  0
BLOCK_RECORD
  5
210
100
AcDbSymbolTableRecord
100
AcDbBlockTableRecord
  2
*Paper_Space
  0
BLOCK_RECORD
  5
211
100
AcDbSymbolTableRecord
100
AcDbBlockTableRecord
  2
_FILLED
  0
BLOCK_RECORD
  5
212
100
AcDbSymbolTableRecord
100
AcDbBlockTableRecord
  2
*D0
  0
BLOCK_RECORD
  5
213
100
AcDbSymbolTableRecord
100
AcDbBlockTableRecord
  2
*D1
  0
BLOCK_RECORD
  5
214
100
AcDbSymbolTableRecord
100
AcDbBlockTableRecord
  2
*D2
  0
BLOCK_RECORD
  5
215
100
AcDbSymbolTableRecord
100
AcDbBlockTableRecord
  2
*D3
  0
ENDTAB
  0
TABLE
  2
DIMSTYLE
  5
A
100
AcDbSymbolTable
 70
1
100
AcDbDimStyleTable
 71
0
  0
DIMSTYLE
105
216
100
AcDbSymbolTableRecord
100
AcDbDimStyleTableRecord
  2
STANDARD
 70
0
  3

  4

 40
1.0
 41
3.5
 42
0.0
 43
0.38
 44
1.5
 45
0.0
 46
0.0
 47
0.05
 48
0.05
140
3.5
141
0.09
142
0.0
143
25.4
144
1.0
145
0.0
146
1.0
147
0.625
 71
1.0
 72
0.0
 73
0
 74
0
 75
0
 76
0
 77
1
 78
8
 79
2
170
0
171
1
172
0
173
0
174
0
175
0
176
0
177
0
178
2
270
2
179
2
271
2
272
2
273
2
274
2
275
0
280
0
281
0
282
0
283
1
284
8
285
0
286
0
287
3
288
0
340
11
278
46
341
211
342
211
343
211
344
211
  0
DIMSTYLE
105
217
100
AcDbSymbolTableRecord
100
AcDbDimStyleTableRecord
  2
DIMSTYLE_1
 70
0
  3

  4

 40
1.0
 41
3.5
 42
0.0
 43
0.38
 44
1.5
 45
0.0
 46
0.0
 47
0.2
 48
0.2
140
3.5
141
0.09
142
0.0
143
25.4
144
1.0
145
0.0
146
1.0
147
0.875
 71
0.0
 72
0.0
 73
0
 74
0
 75
0
 76
0
 77
1
 78
8
 79
2
170
0
171
1
172
0
173
0
174
0
175
0
176
0
177
0
178
2
270
2
179
2
271
2
272
2
273
2
274
2
275
0
280
0
281
0
282
0
283
1
284
8
285
0
286
0
287
3
288
0
340
11
278
46
341
211
342
211
343
211
344
211
  0
DIMSTYLE
105
218
100
AcDbSymbolTableRecord
100
AcDbDimStyleTableRecord
  2
DIMSTYLE_2
 70
0
  3

  4

 40
1.0
 41
3.5
 42
0.0
 43
0.38
 44
1.5
 45
0.0
 46
0.0
 47
0.5
 48
0.5
140
3.5
141
0.09
142
0.0
143
25.4
144
1.0
145
0.0
146
1.0
147
0.875
 71
0.0
 72
0.0
 73
0
 74
0
 75
0
 76
0
 77
1
 78
8
 79
2
170
0
171
1
172
0
173
0
174
0
175
0
176
0
177
0
178
2
270
2
179
2
271
2
272
2
273
2
274
2
275
0
280
0
281
0
282
0
283
1
284
8
285
0
286
0
287
3
288
0
340
11
278
46
341
211
342
211
343
211
344
211
  0
DIMSTYLE
105
219
100
AcDbSymbolTableRecord
100
AcDbDimStyleTableRecord
  2
DIMSTYLE_3
 70
0
  3

  4

 40
1.0
 41
3.5
 42
0.0
 43
0.38
 44
1.5
 45
0.0
 46
0.0
 47
0.3
 48
0.3
140
3.5
141
0.09
142
0.0
143
25.4
144
1.0
145
0.0
146
1.0
147
0.875
 71
0.0
 72
0.0
 73
0
 74
0
 75
0
 76
0
 77
1
 78
8
 79
2
170
0
171
1
172
0
173
0
174
0
175
0
176
0
177
0
178
2
270
2
179
2
271
2
272
2
273
2
274
2
275
0
280
0
281
0
282
0
283
1
284
8
285
0
286
0
287
3
288
0
340
11
278
46
341
211
342
211
343
211
344
211
  0
ENDTAB
  0
ENDSEC
  0
SECTION
  2
BLOCKS
  0
BLOCK
  5
20
100
AcDbEntity
  8
0
100
AcDbBlockBegin
  2
*Model_Space
 70
0
 10
0.0
 20
0.0
 30
0.0
  3
*Model_Space
  1

  0
ENDBLK
  5
21
100
AcDbEntity
  8
0
100
AcDbBlockEnd
  0
BLOCK
  5
1C
100
AcDbEntity
  8
0
100
AcDbBlockBegin
  2
*Paper_Space
 70
0
 10
0.0
 20
0.0
 30
0.0
  3
*Paper_Space
  1

  0
ENDBLK
  5
1D
100
AcDbEntity
  8
0
100
AcDbBlockEnd
  0
BLOCK
  5
21A
100
AcDbEntity
  8
0
100
AcDbBlockBegin
  2
_FILLED
 70
64
 10
0.0
 20
0.0
  3
_FILLED
  1

  0
SOLID
  5
21B
100
AcDbEntity
  8
0
  6
BYBLOCK
 62
0
100
AcDbTrace
 10
0.0
 20
0.0
 11
-1.0
 21
0.125
 12
-1.0
 22
-0.125
 13
-1.0
 23
-0.125
  0
ENDBLK
  5
21C
100
AcDbEntity
  8
0
  6
BYBLOCK
 62
0
100
AcDbBlockEnd
  0
BLOCK
  5
21D
100
AcDbEntity
  8
_03_2D_ZEICHNUNG_BEMASSUNGEN
100
AcDbBlockBegin
 62
7
  6
CONTINUOUS
  2
*D0
 70
65
 10
0.0
 20
0.0
  3
*D0
  1

  0
TEXT
  5
21E
100
AcDbEntity
  8
_03_2D_ZEICHNUNG_BEMASSUNGEN
100
AcDbText
 62
2
  6
CONTINUOUS
 10
-9.875
 20
-5.0833333333
  7
TEXTSTYLE_2
 40
3.5
  1
n
 50
90.0
 41
1.0
 72
1
 11
-9.875
 21
-2.75
100
AcDbText
  0
TEXT
  5
21F
100
AcDbEntity
  8
_03_2D_ZEICHNUNG_BEMASSUNGEN
100
AcDbText
 62
2
  6
CONTINUOUS
 10
-9.875
 20
-0.4166666667
  7
STANDARD
 40
3.5
  1
20
 50
90.0
 41
0.7857142857
 72
1
 11
-9.875
 21
2.3333333333
100
AcDbText
  0
LINE
  5
220
100
AcDbEntity
  8
_03_2D_ZEICHNUNG_BEMASSUNGEN
100
AcDbLine
 62
7
  6
CONTINUOUS
 10
1.5
 20
10.0
 11
-10.5
 21
10.0
  0
LINE
  5
221
100
AcDbEntity
  8
_03_2D_ZEICHNUNG_BEMASSUNGEN
100
AcDbLine
 62
7
  6
CONTINUOUS
 10
1.5
 20
-10.0
 11
-10.5
 21
-10.0
  0
LINE
  5
222
100
AcDbEntity
  8
_03_2D_ZEICHNUNG_BEMASSUNGEN
100
AcDbLine
 62
7
  6
CONTINUOUS
 10
-9.0
 20
10.0
 11
-9.0
 21
0.0
  0
LINE
  5
223
100
AcDbEntity
  8
_03_2D_ZEICHNUNG_BEMASSUNGEN
100
AcDbLine
 62
7
  6
CONTINUOUS
 10
-9.0
 20
-10.0
 11
-9.0
 21
0.0
  0
INSERT
  5
224
100
AcDbEntity
  8
_03_2D_ZEICHNUNG_BEMASSUNGEN
100
AcDbBlockReference
 62
7
  6
CONTINUOUS
  2
_FILLED
 10
-9.0
 20
10.0
 41
3.5
 42
3.5
 43
3.5
 50
90.0
  0
INSERT
  5
225
100
AcDbEntity
  8
_03_2D_ZEICHNUNG_BEMASSUNGEN
100
AcDbBlockReference
 62
7
  6
CONTINUOUS
  2
_FILLED
 10
-9.0
 20
-10.0
 41
3.5
 42
3.5
 43
3.5
 50
270.0
  0
ENDBLK
  5
226
100
AcDbEntity
  8
0
  6
BYBLOCK
 62
0
100
AcDbBlockEnd
  0
BLOCK
  5
227
100
AcDbEntity
  8
_03_2D_ZEICHNUNG_BEMASSUNGEN
100
AcDbBlockBegin
 62
7
  6
CONTINUOUS
  2
*D1
 70
65
 10
0.0
 20
0.0
  3
*D1
  1

  0
TEXT
  5
228
100
AcDbEntity
  8
_03_2D_ZEICHNUNG_BEMASSUNGEN
100
AcDbText
 62
2
  6
CONTINUOUS
 10
89.5318647483
 20
28.875
  7
STANDARD
 40
3.5
  1
180
 41
0.7142857143
 72
1
 11
93.2818647483
 21
28.875
100
AcDbText
  0
LINE
  5
229
100
AcDbEntity
  8
_03_2D_ZEICHNUNG_BEMASSUNGEN
100
AcDbLine
 62
7
  6
CONTINUOUS
 10
180.0
 20
0.0
 11
180.0
 21
29.5
  0
LINE
  5
22A
100
AcDbEntity
  8
_03_2D_ZEICHNUNG_BEMASSUNGEN
100
AcDbLine
 62
7
  6
CONTINUOUS
 10
0.0
 20
0.0
 11
0.0
 21
29.5
  0
LINE
  5
22B
100
AcDbEntity
  8
_03_2D_ZEICHNUNG_BEMASSUNGEN
100
AcDbLine
 62
7
  6
CONTINUOUS
 10
180.0
 20
28.0
 11
90.0
 21
28.0
  0
LINE
  5
22C
100
AcDbEntity
  8
_03_2D_ZEICHNUNG_BEMASSUNGEN
100
AcDbLine
 62
7
  6
CONTINUOUS
 10
0.0
 20
28.0
 11
90.0
 21
28.0
  0
INSERT
  5
22D
100
AcDbEntity
  8
_03_2D_ZEICHNUNG_BEMASSUNGEN
100
AcDbBlockReference
 62
7
  6
CONTINUOUS
  2
_FILLED
 10
180.0
 20
28.0
 41
3.5
 42
3.5
 43
3.5
  0
INSERT
  5
22E
100
AcDbEntity
  8
_03_2D_ZEICHNUNG_BEMASSUNGEN
100
AcDbBlockReference
 62
7
  6
CONTINUOUS
  2
_FILLED
 10
0.0
 20
28.0
 41
3.5
 42
3.5
 43
3.5
 50
180.0
  0
ENDBLK
  5
22F
100
AcDbEntity
  8
0
  6
BYBLOCK
 62
0
100
AcDbBlockEnd
  0
BLOCK
  5
230
100
AcDbEntity
  8
_03_2D_ZEICHNUNG_BEMASSUNGEN
100
AcDbBlockBegin
 62
7
  6
CONTINUOUS
  2
*D2
 70
65
 10
0.0
 20
0.0
  3
*D2
  1

  0
TEXT
  5
231
100
AcDbEntity
  8
_03_2D_ZEICHNUNG_BEMASSUNGEN
100
AcDbText
 62
2
  6
CONTINUOUS
 10
159.6116387412
 20
19.875
  7
STANDARD
 40
3.5
  1
35
 41
0.7142857143
 72
1
 11
162.1116387412
 21
19.875
100
AcDbText
  0
LINE
  5
232
100
AcDbEntity
  8
_03_2D_ZEICHNUNG_BEMASSUNGEN
100
AcDbLine
 62
7
  6
CONTINUOUS
 10
180.0
 20
-13.4941544635
 11
180.0
 21
20.5
  0
LINE
  5
233
100
AcDbEntity
  8
_03_2D_ZEICHNUNG_BEMASSUNGEN
100
AcDbLine
 62
7
  6
CONTINUOUS
 10
145.0
 20
-13.4941544635
 11
145.0
 21
20.5
  0
LINE
  5
234
100
AcDbEntity
  8
_03_2D_ZEICHNUNG_BEMASSUNGEN
100
AcDbLine
 62
7
  6
CONTINUOUS
 10
180.0
 20
19.0
 11
162.5
 21
19.0
  0
LINE
  5
235
100
AcDbEntity
  8
_03_2D_ZEICHNUNG_BEMASSUNGEN
100
AcDbLine
 62
7
  6
CONTINUOUS
 10
145.0
 20
19.0
 11
162.5
 21
19.0
  0
INSERT
  5
236
100
AcDbEntity
  8
_03_2D_ZEICHNUNG_BEMASSUNGEN
100
AcDbBlockReference
 62
7
  6
CONTINUOUS
  2
_FILLED
 10
180.0
 20
19.0
 41
3.5
 42
3.5
 43
3.5
  0
INSERT
  5
237
100
AcDbEntity
  8
_03_2D_ZEICHNUNG_BEMASSUNGEN
100
AcDbBlockReference
 62
7
  6
CONTINUOUS
  2
_FILLED
 10
145.0
 20
19.0
 41
3.5
 42
3.5
 43
3.5
 50
180.0
  0
ENDBLK
  5
238
100
AcDbEntity
  8
0
  6
BYBLOCK
 62
0
100
AcDbBlockEnd
  0
BLOCK
  5
239
100
AcDbEntity
  8
_03_2D_ZEICHNUNG_BEMASSUNGEN
100
AcDbBlockBegin
 62
7
  6
CONTINUOUS
  2
*D3
 70
65
 10
0.0
 20
0.0
  3
*D3
  1

  0
TEXT
  5
23A
100
AcDbEntity
  8
_03_2D_ZEICHNUNG_BEMASSUNGEN
100
AcDbText
 62
2
  6
CONTINUOUS
 10
188.2024397643
 20
-8.75
  7
STANDARD
 40
3.5
  1
13
 50
90.0
 41
0.6428571429
 72
1
 11
188.2024397643
 21
-6.5
100
AcDbText
  0
LINE
  5
23B
100
AcDbEntity
  8
_03_2D_ZEICHNUNG_BEMASSUNGEN
100
AcDbLine
 62
7
  6
CONTINUOUS
 10
183.0774397643
 20
0.0
 11
190.5774397643
 21
0.0
  0
LINE
  5
23C
100
AcDbEntity
  8
_03_2D_ZEICHNUNG_BEMASSUNGEN
100
AcDbLine
 62
7
  6
CONTINUOUS
 10
180.0
 20
-13.0
 11
190.5774397643
 21
-13.0
  0
LINE
  5
23D
100
AcDbEntity
  8
_03_2D_ZEICHNUNG_BEMASSUNGEN
100
AcDbLine
 62
7
  6
CONTINUOUS
 10
189.0774397643
 20
0.0
 11
189.0774397643
 21
6.0
  0
LINE
  5
23E
100
AcDbEntity
  8
_03_2D_ZEICHNUNG_BEMASSUNGEN
100
AcDbLine
 62
7
  6
CONTINUOUS
 10
189.0774397643
 20
6.0
 11
189.0774397643
 21
-6.5
  0
LINE
  5
23F
100
AcDbEntity
  8
_03_2D_ZEICHNUNG_BEMASSUNGEN
100
AcDbLine
 62
7
  6
CONTINUOUS
 10
189.0774397643
 20
-13.0
 11
189.0774397643
 21
-19.0
  0
LINE
  5
240
100
AcDbEntity
  8
_03_2D_ZEICHNUNG_BEMASSUNGEN
100
AcDbLine
 62
7
  6
CONTINUOUS
 10
189.0774397643
 20
-19.0
 11
189.0774397643
 21
-6.5
  0
INSERT
  5
241
100
AcDbEntity
  8
_03_2D_ZEICHNUNG_BEMASSUNGEN
100
AcDbBlockReference
 62
7
  6
CONTINUOUS
  2
_FILLED
 10
189.0774397643
 20
0.0
 41
3.5
 42
3.5
 43
3.5
 50
270.0
  0
INSERT
  5
242
100
AcDbEntity
  8
_03_2D_ZEICHNUNG_BEMASSUNGEN
100
AcDbBlockReference
 62
7
  6
CONTINUOUS
  2
_FILLED
 10
189.0774397643
 20
-13.0
 41
3.5
 42
3.5
 43
3.5
 50
90.0
  0
ENDBLK
  5
243
100
AcDbEntity
  8
0
  6
BYBLOCK
 62
0
100
AcDbBlockEnd
  0
ENDSEC
  0
SECTION
  2
ENTITIES
  0
DIMENSION
  5
244
100
AcDbEntity
  8
_03_2D_ZEICHNUNG_BEMASSUNGEN
100
AcDbDimension
 62
7
  6
CONTINUOUS
  2
*D0
 10
-9.0
 20
-10.0
 11
-9.0
 21
0.0
 70
160
 71
2
 42
20.0
  1
%%c<>
  3
DIMSTYLE_1
100
AcDbAlignedDimension
 13
1.5
 23
10.0
 14
1.5
 24
-10.0
 50
270.0
100
AcDbRotatedDimension
  0
DIMENSION
  5
245
100
AcDbEntity
  8
_03_2D_ZEICHNUNG_BEMASSUNGEN
100
AcDbDimension
 62
7
  6
CONTINUOUS
  2
*D1
 10
0.0
 20
28.0
 11
92.7818650818
 21
28.0
 70
160
 71
2
 42
180.0
  3
DIMSTYLE_2
100
AcDbAlignedDimension
 13
180.0
 23
0.0
 14
0.0
 24
0.0
 50
180.0
100
AcDbRotatedDimension
  0
DIMENSION
  5
246
100
AcDbEntity
  8
_03_2D_ZEICHNUNG_BEMASSUNGEN
100
AcDbDimension
 62
7
  6
CONTINUOUS
  2
*D2
 10
145.0
 20
19.0
 11
161.6116369629
 21
19.0
 70
160
 71
2
 42
35.0
  3
DIMSTYLE_3
100
AcDbAlignedDimension
 13
180.0
 23
-13.4941544635
 14
145.0
 24
-13.4941544635
 50
180.0
100
AcDbRotatedDimension
  0
DIMENSION
  5
247
100
AcDbEntity
  8
_03_2D_ZEICHNUNG_BEMASSUNGEN
100
AcDbDimension
 62
7
  6
CONTINUOUS
  2
*D3
 10
189.0774397643
 20
-13.0
 11
189.0774397643
 21
-6.9999992736
 70
160
 71
2
 42
13.0
  3
DIMSTYLE_1
100
AcDbAlignedDimension
 13
183.0774397643
 23
0.0
 14
180.0
 24
-13.0
 50
270.0
100
AcDbRotatedDimension
  0
LINE
  5
248
100
AcDbEntity
  8
_30_VOLUMEN
100
AcDbLine
 62
4
  6
CONTINUOUS
 10
-0.0
 20
8.5
 11
0.0
 21
-8.5
  0
LINE
  5
249
100
AcDbEntity
  8
0
100
AcDbLine
 62
4
  6
CONTINUOUS
 10
1.5
 20
10.0
 11
1.5
 21
4.3588989435
  0
LINE
  5
24A
100
AcDbEntity
  8
0
100
AcDbLine
 62
4
  6
CONTINUOUS
 10
1.5
 20
-4.3588989435
 11
1.5
 21
-10.0
  0
LINE
  5
24B
100
AcDbEntity
  8
_30_VOLUMEN
100
AcDbLine
 62
4
  6
CONTINUOUS
 10
1.5
 20
10.0
 11
-0.0
 21
8.5
  0
LINE
  5
24C
100
AcDbEntity
  8
_30_VOLUMEN
100
AcDbLine
 62
4
  6
CONTINUOUS
 10
1.5
 20
-10.0
 11
0.0
 21
-8.5
  0
LINE
  5
24D
100
AcDbEntity
  8
_30_VOLUMEN
100
AcDbLine
 62
7
  6
CONTINUOUS
 10
174.4798987115
 20
-9.5203234587
 11
174.2272079363
 21
-9.5547943435
  0
LINE
  5
24E
100
AcDbEntity
  8
_21_KURVEN
100
AcDbLine
 62
1
  6
CENTER
 10
174.7166119315
 20
-3.3099250742
 11
174.700680572
 21
-3.3113226674
  0
LINE
  5
24F
100
AcDbEntity
  8
_30_VOLUMEN
100
AcDbLine
 62
4
  6
CONTINUOUS
 10
165.1421729761
 20
-4.6949029737
 11
163.7551954876
 21
-4.7956114049
  0
LINE
  5
250
100
AcDbEntity
  8
_30_VOLUMEN
100
AcDbLine
 62
4
  6
CONTINUOUS
 10
1.5
 20
-10.0
 11
145.0
 21
-10.0
  0
LINE
  5
251
100
AcDbEntity
  8
_30_VOLUMEN
100
AcDbLine
 62
4
  6
CONTINUOUS
 10
145.0
 20
-9.75
 11
163.0
 21
-9.75
  0
LINE
  5
252
100
AcDbEntity
  8
_30_VOLUMEN
100
AcDbLine
 62
4
  6
CONTINUOUS
 10
1.5
 20
-4.3588989435
 11
140.0944521436
 21
-4.3588989435
  0
LINE
  5
253
100
AcDbEntity
  8
_30_VOLUMEN
100
AcDbLine
 62
4
  6
CONTINUOUS
 10
179.1368347859
 20
-12.9970213261
 11
171.1976003158
 21
-12.3107629294
  0
LINE
  5
254
100
AcDbEntity
  8
_21_KURVEN
100
AcDbLine
 62
7
  6
CONTINUOUS
 10
179.1368347859
 20
-12.9970213261
 11
171.1976003158
 21
-12.3107629294
  0
LINE
  5
255
100
AcDbEntity
  8
_30_VOLUMEN
100
AcDbLine
 62
4
  6
CONTINUOUS
 10
163.9834100338
 20
-10.7334100338
 11
170.3336027903
 21
-11.5131156631
  0
LINE
  5
256
100
AcDbEntity
  8
_26_BEZUGSACHSEN
100
AcDbLine
 62
7
  6
CENTER
 10
-3.0
 20
0.0
 11
183.0774397643
 21
0.0
  0
LINE
  5
257
100
AcDbEntity
  8
_30_VOLUMEN
100
AcDbLine
 62
4
  6
CONTINUOUS
 10
145.0
 20
3.75
 11
148.2961666618
 21
3.75
  0
LINE
  5
258
100
AcDbEntity
  8
0
100
AcDbLine
 62
4
  6
CONTINUOUS
 10
1.5
 20
4.3588989435
 11
145.0
 21
4.3588989435
  0
LINE
  5
259
100
AcDbEntity
  8
_30_VOLUMEN
100
AcDbLine
 62
4
  6
CONTINUOUS
 10
174.6618660742
 20
-3.2339698254
 11
178.8208829421
 21
-3.5934705126
  0
LINE
  5
25A
100
AcDbEntity
  8
_21_KURVEN
100
AcDbLine
 62
7
  6
CONTINUOUS
 10
174.6618660742
 20
-3.2339698254
 11
178.8208829421
 21
-3.5934705126
  0
LINE
  5
25B
100
AcDbEntity
  8
_30_VOLUMEN
100
AcDbLine
 62
4
  6
CONTINUOUS
 10
178.4416854623
 20
-2.9370287587
 11
177.8350162069
 21
-2.8845889583
  0
LINE
  5
25C
100
AcDbEntity
  8
_30_VOLUMEN
100
AcDbLine
 62
4
  6
CONTINUOUS
 10
145.0
 20
9.75
 11
169.6576700471
 21
9.75
  0
LINE
  5
25D
100
AcDbEntity
  8
_30_VOLUMEN
100
AcDbLine
 62
4
  6
CONTINUOUS
 10
1.5
 20
10.0
 11
145.0
 21
10.0
  0
LINE
  5
25E
100
AcDbEntity
  8
_30_VOLUMEN
100
AcDbLine
 62
4
  6
CONTINUOUS
 10
161.4564633336
 20
-1.7882393061
 11
158.756517476
 21
-0.8535006119
  0
LINE
  5
25F
100
AcDbEntity
  8
_30_VOLUMEN
100
AcDbLine
 62
4
  6
CONTINUOUS
 10
163.7551954876
 20
-4.7956114049
 11
174.2272079363
 21
-9.5547943435
  0
LINE
  5
260
100
AcDbEntity
  8
_30_VOLUMEN
100
AcDbLine
 62
4
  6
CONTINUOUS
 10
165.1421729761
 20
-4.6949029737
 11
169.9596032032
 21
-6.8842655109
  0
LINE
  5
261
100
AcDbEntity
  8
_30_VOLUMEN
100
AcDbLine
 62
4
  6
CONTINUOUS
 10
169.9596032032
 20
-6.8842655109
 11
174.4798987115
 21
-9.5203234587
  0
LINE
  5
262
100
AcDbEntity
  8
_30_VOLUMEN
100
AcDbLine
 62
4
  6
CONTINUOUS
 10
158.756517476
 20
-0.8535006119
 11
163.7551954876
 21
-4.7956114049
  0
LINE
  5
263
100
AcDbEntity
  8
_30_VOLUMEN
100
AcDbLine
 62
4
  6
CONTINUOUS
 10
158.756517476
 20
-0.8535006119
 11
167.3918741534
 21
7.8694825344
  0
LINE
  5
264
100
AcDbEntity
  8
_30_VOLUMEN
100
AcDbLine
 62
4
  6
CONTINUOUS
 10
161.4564633336
 20
-1.7882393061
 11
165.1421729761
 21
-4.6949029737
  0
LINE
  5
265
100
AcDbEntity
  8
_30_VOLUMEN
100
AcDbLine
 62
4
  6
CONTINUOUS
 10
163.0
 20
-9.75
 11
163.9834100338
 21
-10.7334100338
  0
LINE
  5
266
100
AcDbEntity
  8
0
100
AcDbLine
 62
4
  6
CONTINUOUS
 10
145.0
 20
4.3588989435
 11
145.0
 21
3.75
  0
LINE
  5
267
100
AcDbEntity
  8
_30_VOLUMEN
100
AcDbLine
 62
4
  6
CONTINUOUS
 10
145.0
 20
-9.9998453802
 11
145.0
 21
-8.1287632089
  0
LINE
  5
268
100
AcDbEntity
  8
_30_VOLUMEN
100
AcDbLine
 62
4
  6
CONTINUOUS
 10
145.0
 20
4.3588989435
 11
145.0
 21
9.9999980694
  0
LINE
  5
269
100
AcDbEntity
  8
_30_VOLUMEN
100
AcDbLine
 62
4
  6
CONTINUOUS
 10
167.9192220238
 20
4.7400996195
 11
161.4564633336
 21
-1.7882393061
  0
LINE
  5
26A
100
AcDbEntity
  8
_30_VOLUMEN
100
AcDbLine
 62
4
  6
CONTINUOUS
 10
169.9596032032
 20
-6.8842655109
 11
173.3074458943
 21
-3.5024509013
  0
LINE
  5
26B
100
AcDbEntity
  8
_28_BEZUGSPUNKTE
100
AcDbLine
 62
1
  6
CONTINUOUS
 10
180.15625
 20
-13.15625
 11
179.84375
 21
-12.84375
  0
LINE
  5
26C
100
AcDbEntity
  8
_30_VOLUMEN
100
AcDbLine
 62
4
  6
CONTINUOUS
 10
169.6576689683
 20
9.7500010788
 11
177.4076700471
 21
2.0
  0
LINE
  5
26D
100
AcDbEntity
  8
_30_VOLUMEN
100
AcDbLine
 62
4
  6
CONTINUOUS
 10
170.963038414
 20
1.1850291482
 11
167.9192220238
 21
4.7400996195
  0
LINE
  5
26E
100
AcDbEntity
  8
_30_VOLUMEN
100
AcDbLine
 62
4
  6
CONTINUOUS
 10
167.3918741534
 20
7.8694825344
 11
171.5199958821
 21
3.0479815705
  0
LINE
  5
26F
100
AcDbEntity
  8
_30_VOLUMEN
100
AcDbLine
 62
4
  6
CONTINUOUS
 10
173.3074458943
 20
-3.5024509013
 11
176.4875707482
 21
-7.492278759
  0
LINE
  5
270
100
AcDbEntity
  8
_30_VOLUMEN
100
AcDbLine
 62
4
  6
CONTINUOUS
 10
170.5941258113
 20
-11.9311310074
 11
170.3508867313
 21
-11.5100514992
  0
LINE
  5
271
100
AcDbEntity
  8
_30_VOLUMEN
100
AcDbLine
 62
7
  6
CONTINUOUS
 10
170.4940849747
 20
-11.5991950547
 11
170.4288276459
 21
-11.4862258563
  0
LINE
  5
272
100
AcDbEntity
  8
_30_VOLUMEN
100
AcDbLine
 62
4
  6
CONTINUOUS
 10
163.0
 20
-9.3180369565
 11
163.0
 21
-9.75
  0
LINE
  5
273
100
AcDbEntity
  8
_28_BEZUGSPUNKTE
100
AcDbLine
 62
1
  6
CONTINUOUS
 10
180.15625
 20
-12.84375
 11
179.84375
 21
-13.15625
  0
LINE
  5
274
100
AcDbEntity
  8
_30_VOLUMEN
100
AcDbLine
 62
4
  6
CONTINUOUS
 10
163.9834100338
 20
-10.435390809
 11
163.9834100338
 21
-10.7334100338
  0
LINE
  5
275
100
AcDbEntity
  8
_30_VOLUMEN
100
AcDbLine
 62
4
  6
CONTINUOUS
 10
170.963038414
 20
1.1850291482
 11
171.5199958821
 21
3.0479815705
  0
LINE
  5
276
100
AcDbEntity
  8
_30_VOLUMEN
100
AcDbLine
 62
7
  6
CONTINUOUS
 10
178.8208829421
 20
-3.5934705126
 11
178.4416854623
 21
-2.9370287587
  0
LINE
  5
277
100
AcDbEntity
  8
_30_VOLUMEN
100
AcDbLine
 62
4
  6
CONTINUOUS
 10
179.4243574466
 20
-3.9731024346
 11
179.0451599668
 21
-3.3166606807
  0
LINE
  5
278
100
AcDbEntity
  8
_30_VOLUMEN
100
AcDbLine
 62
4
  6
CONTINUOUS
 10
173.3074458943
 20
-3.5024509013
 11
170.963038414
 21
1.1850291482
  0
LINE
  5
279
100
AcDbEntity
  8
_30_VOLUMEN
100
AcDbLine
 62
4
  6
CONTINUOUS
 10
176.6162117402
 20
-7.1415483484
 11
171.5199958821
 21
3.0479815705
  0
LINE
  5
27A
100
AcDbEntity
  8
_30_VOLUMEN
100
AcDbLine
 62
4
  6
CONTINUOUS
 10
167.9192220238
 20
4.7400996195
 11
167.3918741534
 21
7.8694825344
  0
LINE
  5
27B
100
AcDbEntity
  8
_26_BEZUGSACHSEN
100
AcDbLine
 62
4
  6
CONTINUOUS
 10
177.4076700471
 20
2.0
 11
177.8899955447
 21
-3.5130056648
  0
LINE
  5
27C
100
AcDbEntity
  8
_30_VOLUMEN
100
AcDbLine
 62
4
  6
CONTINUOUS
 10
170.4940849747
 20
-11.5991950547
 11
170.251309758
 21
-7.74788026
  0
LINE
  5
27D
100
AcDbEntity
  8
_21_KURVEN
100
AcDbLine
 62
7
  6
CONTINUOUS
 10
170.4940849747
 20
-11.5991950547
 11
170.251309758
 21
-7.74788026
  0
LINE
  5
27E
100
AcDbEntity
  8
_30_VOLUMEN
100
AcDbLine
 62
4
  6
CONTINUOUS
 10
179.5243982832
 20
-4.3050383872
 11
180.0188583481
 21
-12.1490077551
  0
LINE
  5
27F
100
AcDbEntity
  8
_21_KURVEN
100
AcDbLine
 62
7
  6
CONTINUOUS
 10
179.5243982832
 20
-4.3050383872
 11
180.0188583481
 21
-12.1490077551
  0
LINE
  5
280
100
AcDbEntity
  8
_30_VOLUMEN
100
AcDbLine
 62
7
  6
CONTINUOUS
 10
176.4875707482
 20
-7.492278759
 11
176.6162117402
 21
-7.1415483484
  0
ARC
  5
281
100
AcDbEntity
  8
_30_VOLUMEN
100
AcDbCircle
 62
4
  6
CONTINUOUS
 10
204.8627498562
 20
-454.9266818662
 40
464.1635072916
100
AcDbArc
 50
94.6500748215
 51
95.7033724724
  0
ARC
  5
282
100
AcDbEntity
  8
_26_BEZUGSACHSEN
100
AcDbCircle
 62
4
  6
CONTINUOUS
 10
217.2955194886
 20
315.1939283084
 40
329.9645958029
100
AcDbArc
 50
260.7020111698
 51
261.7938122011
  0
ARC
  5
283
100
AcDbEntity
  8
_30_VOLUMEN
100
AcDbCircle
 62
4
  6
CONTINUOUS
 10
220.5004332143
 20
40.2980406952
 40
75.9477121536
100
AcDbArc
 50
220.790311601
 51
221.9132556254
  0
ARC
  5
284
100
AcDbEntity
  8
_30_VOLUMEN
100
AcDbCircle
 62
7
  6
CONTINUOUS
 10
174.8633441409
 20
-7.5435623118
 40
1.8269490832
100
AcDbArc
 50
12.912762306
 51
18.9667715503
  0
ARC
  5
285
100
AcDbEntity
  8
_30_VOLUMEN
100
AcDbCircle
 62
7
  6
CONTINUOUS
 10
174.8718331199
 20
-7.5415077613
 40
1.8182156566
100
AcDbArc
 50
10.8456556388
 51
12.9094350931
  0
ARC
  5
286
100
AcDbEntity
  8
_30_VOLUMEN
100
AcDbCircle
 62
7
  6
CONTINUOUS
 10
174.871699148
 20
-7.5405078163
 40
1.8180549294
100
AcDbArc
 50
18.9613158152
 51
29.8966204855
  0
ARC
  5
287
100
AcDbEntity
  8
_30_VOLUMEN
100
AcDbCircle
 62
4
  6
CONTINUOUS
 10
174.7215446297
 20
-7.2444247872
 40
1.7997898848
100
AcDbArc
 50
19.3770265433
 51
25.1086967034
  0
ARC
  5
288
100
AcDbEntity
  8
_30_VOLUMEN
100
AcDbCircle
 62
4
  6
CONTINUOUS
 10
174.7336691989
 20
-7.2394063369
 40
1.7867038464
100
AcDbArc
 50
13.0645549936
 51
16.7629429043
  0
ARC
  5
289
100
AcDbEntity
  8
_30_VOLUMEN
100
AcDbCircle
 62
4
  6
CONTINUOUS
 10
174.9610722021
 20
-7.9324782197
 40
1.7807190587
100
AcDbArc
 50
252.761278304
 51
259.7795354792
  0
ARC
  5
28A
100
AcDbEntity
  8
_30_VOLUMEN
100
AcDbCircle
 62
4
  6
CONTINUOUS
 10
174.7401536104
 20
-7.2376776273
 40
1.7799964134
100
AcDbArc
 50
16.7698614019
 51
19.3708839562
  0
ARC
  5
28B
100
AcDbEntity
  8
_30_VOLUMEN
100
AcDbCircle
 62
4
  6
CONTINUOUS
 10
174.9541667939
 20
-7.9537828122
 40
1.7583250848
100
AcDbArc
 50
245.5789955007
 51
252.7704515368
  0
SPLINE
  5
28C
100
AcDbEntity
  8
_30_VOLUMEN
100
AcDbSpline
 62
4
  6
CONTINUOUS
 70
0
 71
3
 72
11
 73
7
 74
0
 42
0.0000001
 43
0.0000001
 44
0.0000000001
 40
0.0
 40
0.0
 40
0.0
 40
0.0
 40
0.2506406676
 40
0.5023913332
 40
0.7526946492
 40
1.0
 40
1.0
 40
1.0
 40
1.0
 10
179.1368347859
 20
-12.9970213261
 30
0.0
 10
179.2513302768
 20
-13.0069181861
 30
0.0
 10
179.4880336673
 20
-12.9761416509
 30
0.0
 10
179.7899543456
 20
-12.7890771922
 30
0.0
 10
179.9883878997
 20
-12.4960793691
 30
0.0
 10
180.0259921485
 20
-12.2621762713
 30
0.0
 10
180.0188583481
 20
-12.1490077551
 30
0.0
  0
SPLINE
  5
28D
100
AcDbEntity
  8
_30_VOLUMEN
100
AcDbSpline
 62
4
  6
CONTINUOUS
 70
0
 71
3
 72
8
 73
4
 74
0
 42
0.0000001
 43
0.0000001
 44
0.0000000001
 40
0.0
 40
0.0
 40
0.0
 40
0.0
 40
1.0
 40
1.0
 40
1.0
 40
1.0
 10
179.5243982832
 20
-4.3050383872
 30
0.0
 10
179.517128183
 20
-4.189707651
 30
0.0
 10
179.4819593063
 20
-4.0732825769
 30
0.0
 10
179.4243390573
 20
-3.9731130208
 30
0.0
  0
SPLINE
  5
28E
100
AcDbEntity
  8
_30_VOLUMEN
100
AcDbSpline
 62
4
  6
CONTINUOUS
 70
0
 71
3
 72
9
 73
5
 74
0
 42
0.0000001
 43
0.0000001
 44
0.0000000001
 40
0.0
 40
0.0
 40
0.0
 40
0.0
 40
0.5027494691
 40
1.0
 40
1.0
 40
1.0
 40
1.0
 10
178.4416854623
 20
-2.9370287587
 30
0.0
 10
178.5642508006
 20
-2.9476231671
 30
0.0
 10
178.8068398276
 20
-3.0269613363
 30
0.0
 10
178.9844712088
 20
-3.2111992499
 30
0.0
 10
179.0451415774
 20
-3.3166712669
 30
0.0
  0
SPLINE
  5
28F
100
AcDbEntity
  8
_30_VOLUMEN
100
AcDbSpline
 62
4
  6
CONTINUOUS
 70
0
 71
3
 72
9
 73
5
 74
0
 42
0.0000001
 43
0.0000001
 44
0.0000000001
 40
0.0
 40
0.0
 40
0.0
 40
0.0
 40
0.4972505309
 40
1.0
 40
1.0
 40
1.0
 40
1.0
 10
170.5941442006
 20
-11.9311204212
 30
0.0
 10
170.6548145693
 20
-12.0365924382
 30
0.0
 10
170.8324459505
 20
-12.2208303518
 30
0.0
 10
171.0750349775
 20
-12.300168521
 30
0.0
 10
171.1976003158
 20
-12.3107629294
 30
0.0
  0
SPLINE
  5
290
100
AcDbEntity
  8
_30_VOLUMEN
100
AcDbSpline
 62
4
  6
CONTINUOUS
 70
0
 71
3
 72
9
 73
5
 74
0
 42
0.0000001
 43
0.0000001
 44
0.0000000001
 40
0.0
 40
0.0
 40
0.0
 40
0.0
 40
0.2529476144
 40
1.0
 40
1.0
 40
1.0
 40
1.0
 10
176.2086218666
 20
-6.3167731831
 30
0.0
 10
176.2318911342
 20
-6.3409673455
 30
0.0
 10
176.3210053723
 20
-6.4393377962
 30
0.0
 10
176.3983695989
 20
-6.548395738
 30
0.0
 10
176.4479590632
 20
-6.6342417593
 30
0.0
  0
SPLINE
  5
291
100
AcDbEntity
  8
_30_VOLUMEN
100
AcDbSpline
 62
4
  6
CONTINUOUS
 70
0
 71
3
 72
12
 73
8
 74
0
 42
0.0000001
 43
0.0000001
 44
0.0000000001
 40
0.0
 40
0.0
 40
0.0
 40
0.0
 40
0.2522127776
 40
0.5031735432
 40
0.628020731
 40
0.7524204688
 40
1.0
 40
1.0
 40
1.0
 40
1.0
 10
175.1129327801
 20
-10.136316756
 30
0.0
 10
174.8945233122
 20
-10.1551122783
 30
0.0
 10
174.4511027602
 20
-10.129938203
 30
0.0
 10
173.929211051
 20
-9.9444183697
 30
0.0
 10
173.5606378173
 20
-9.7110220937
 30
0.0
 10
173.2321853833
 20
-9.4289344783
 30
0.0
 10
173.0364234054
 20
-9.1637911052
 30
0.0
 10
172.9353076102
 20
-8.9738380391
 30
0.0
  0
SPLINE
  5
292
100
AcDbEntity
  8
_30_VOLUMEN
100
AcDbSpline
 62
4
  6
CONTINUOUS
 70
0
 71
3
 72
17
 73
13
 74
0
 42
0.0000001
 43
0.0000001
 44
0.0000000001
 40
0.0
 40
0.0
 40
0.0
 40
0.0
 40
0.1263686905
 40
0.253291038
 40
0.3795255456
 40
0.5048076341
 40
0.567199419
 40
0.6293389422
 40
0.691259167
 40
0.7530590256
 40
0.8762075952
 40
1.0
 40
1.0
 40
1.0
 40
1.0
 10
175.1129327801
 20
-10.136316756
 30
0.0
 10
175.3629247043
 20
-10.1148033626
 30
0.0
 10
175.8602756672
 20
-9.9887989007
 30
0.0
 10
176.5070808683
 20
-9.5785863301
 30
0.0
 10
176.9908565443
 20
-8.9868509968
 30
0.0
 10
177.2159798219
 20
-8.3926446435
 30
0.0
 10
177.2722756999
 20
-7.8978604101
 30
0.0
 10
177.2527196258
 20
-7.5264141866
 30
0.0
 10
177.1719738767
 20
-7.164443898
 30
0.0
 10
176.9846425841
 20
-6.7093133601
 30
0.0
 10
176.6107742774
 20
-6.2081582764
 30
0.0
 10
176.1940304206
 20
-5.929926044
 30
0.0
 10
175.9700546398
 20
-5.8286703442
 30
0.0
  0
SPLINE
  5
293
100
AcDbEntity
  8
_30_VOLUMEN
100
AcDbSpline
 62
4
  6
CONTINUOUS
 70
0
 71
3
 72
9
 73
5
 74
0
 42
0.0000001
 43
0.0000001
 44
0.0000000001
 40
0.0
 40
0.0
 40
0.0
 40
0.0
 40
0.4972505309
 40
1.0
 40
1.0
 40
1.0
 40
1.0
 10
179.4243390573
 20
-3.9731130208
 30
0.0
 10
179.3636686886
 20
-3.8676410037
 30
0.0
 10
179.1860373075
 20
-3.6834030902
 30
0.0
 10
178.9434482805
 20
-3.604064921
 30
0.0
 10
178.8208829421
 20
-3.5934705126
 30
0.0
  0
SPLINE
  5
294
100
AcDbEntity
  8
_30_VOLUMEN
100
AcDbSpline
 62
4
  6
CONTINUOUS
 70
0
 71
3
 72
8
 73
4
 74
0
 42
0.0000001
 43
0.0000001
 44
0.0000000001
 40
0.0
 40
0.0
 40
0.0
 40
0.0
 40
1.0
 40
1.0
 40
1.0
 40
1.0
 10
170.4940849747
 20
-11.5991950547
 30
0.0
 10
170.5013550749
 20
-11.7145257909
 30
0.0
 10
170.5365239516
 20
-11.8309508651
 30
0.0
 10
170.5941442006
 20
-11.9311204212
 30
0.0
  0
SPLINE
  5
295
100
AcDbEntity
  8
_30_VOLUMEN
100
AcDbSpline
 62
4
  6
CONTINUOUS
 70
0
 71
3
 72
17
 73
13
 74
0
 42
0.0000001
 43
0.0000001
 44
0.0000000001
 40
0.0
 40
0.0
 40
0.0
 40
0.0
 40
0.1238695395
 40
0.247075893
 40
0.3703359337
 40
0.432442386
 40
0.4948229876
 40
0.6200426471
 40
0.7462893007
 40
0.8098605225
 40
0.8735418372
 40
1.0
 40
1.0
 40
1.0
 40
1.0
 10
175.9624622167
 20
-5.8141483352
 30
0.0
 10
176.1982443194
 20
-5.9114836296
 30
0.0
 10
176.639660177
 20
-6.1870026605
 30
0.0
 10
177.1226852334
 20
-6.7954589982
 30
0.0
 10
177.3311199053
 20
-7.4101617181
 30
0.0
 10
177.3679562862
 20
-7.9210971122
 30
0.0
 10
177.3183674987
 20
-8.4351024086
 30
0.0
 10
177.0940920315
 20
-9.0547538565
 30
0.0
 10
176.6805808454
 20
-9.5703363677
 30
0.0
 10
176.2642007243
 20
-9.888636067
 30
0.0
 10
175.8021088609
 20
-10.1359104813
 30
0.0
 10
175.414012819
 20
-10.23504531
 30
0.0
 10
175.1545580036
 20
-10.2573730453
 30
0.0
  0
SPLINE
  5
296
100
AcDbEntity
  8
_30_VOLUMEN
100
AcDbSpline
 62
4
  6
CONTINUOUS
 70
0
 71
3
 72
11
 73
7
 74
0
 42
0.0000001
 43
0.0000001
 44
0.0000000001
 40
0.0
 40
0.0
 40
0.0
 40
0.0
 40
0.2526823629
 40
0.5035167723
 40
0.752158264
 40
1.0
 40
1.0
 40
1.0
 40
1.0
 10
175.1545580036
 20
-10.2573730453
 30
0.0
 10
174.9188493885
 20
-10.2776572692
 30
0.0
 10
174.4400150893
 20
-10.2474424306
 30
0.0
 10
173.7723253611
 20
-9.9916540289
 30
0.0
 10
173.2177413384
 20
-9.5472325407
 30
0.0
 10
172.9569674042
 20
-9.1515901749
 30
0.0
 10
172.8612302813
 20
-8.9402125173
 30
0.0
  0
SPLINE
  5
297
100
AcDbEntity
  8
_21_KURVEN
100
AcDbSpline
 62
7
  6
CONTINUOUS
 70
0
 71
3
 72
8
 73
4
 74
0
 42
0.0000001
 43
0.0000001
 44
0.0000000001
 40
0.0
 40
0.0
 40
0.0
 40
0.0
 40
1.0
 40
1.0
 40
1.0
 40
1.0
 10
179.5243982832
 20
-4.3050383872
 30
0.0
 10
179.5205278833
 20
-4.2561180779
 30
0.0
 10
179.5131275385
 20
-4.2090894619
 30
0.0
 10
179.500769139
 20
-4.1586948964
 30
0.0
  0
SPLINE
  5
298
100
AcDbEntity
  8
_21_KURVEN
100
AcDbSpline
 62
7
  6
CONTINUOUS
 70
0
 71
3
 72
10
 73
6
 74
0
 42
0.0000001
 43
0.0000001
 44
0.0000000001
 40
0.0
 40
0.0
 40
0.0
 40
0.0
 40
0.25
 40
0.5
 40
1.0
 40
1.0
 40
1.0
 40
1.0
 10
179.5007691395
 20
-4.1586948983
 30
0.0
 10
179.4962798363
 20
-4.1430272668
 30
0.0
 10
179.4874848123
 20
-4.1126707767
 30
0.0
 10
179.4630917765
 20
-4.0458531934
 30
0.0
 10
179.4414930983
 20
-4.0044579945
 30
0.0
 10
179.4245497888
 20
-3.9734356007
 30
0.0
  0
SPLINE
  5
299
100
AcDbEntity
  8
_21_KURVEN
100
AcDbSpline
 62
7
  6
CONTINUOUS
 70
0
 71
3
 72
9
 73
5
 74
0
 42
0.0000001
 43
0.0000001
 44
0.0000000001
 40
0.0
 40
0.0
 40
0.0
 40
0.0
 40
0.5
 40
1.0
 40
1.0
 40
1.0
 40
1.0
 10
179.4245497831
 20
-3.973435591
 30
0.0
 10
179.4047552127
 20
-3.9410392691
 30
0.0
 10
179.3604176668
 20
-3.8724612339
 30
0.0
 10
179.3023769044
 20
-3.8147971502
 30
0.0
 10
179.2714617938
 20
-3.7857688307
 30
0.0
  0
SPLINE
  5
29A
100
AcDbEntity
  8
_21_KURVEN
100
AcDbSpline
 62
7
  6
CONTINUOUS
 70
0
 71
3
 72
11
 73
7
 74
0
 42
0.0000001
 43
0.0000001
 44
0.0000000001
 40
0.0
 40
0.0
 40
0.0
 40
0.0
 40
0.5
 40
0.625
 40
0.75
 40
1.0
 40
1.0
 40
1.0
 40
1.0
 10
179.2714617894
 20
-3.7857688268
 30
0.0
 10
179.2076011053
 20
-3.7349164862
 30
0.0
 10
179.1267836746
 20
-3.6755059507
 30
0.0
 10
179.0048629543
 20
-3.63198996
 30
0.0
 10
178.9257429063
 20
-3.6085181797
 30
0.0
 10
178.8629958169
 20
-3.599386866
 30
0.0
 10
178.8208829353
 20
-3.593470512
 30
0.0
  0
SPLINE
  5
29B
100
AcDbEntity
  8
_21_KURVEN
100
AcDbSpline
 62
7
  6
CONTINUOUS
 70
0
 71
3
 72
9
 73
5
 74
0
 42
0.0000001
 43
0.0000001
 44
0.0000000001
 40
0.0
 40
0.0
 40
0.0
 40
0.0
 40
0.5
 40
1.0
 40
1.0
 40
1.0
 40
1.0
 10
179.1368347859
 20
-12.9970213261
 30
0.0
 10
179.1921082889
 20
-12.9998807804
 30
0.0
 10
179.3106258159
 20
-13.0014380991
 30
0.0
 10
179.4202367286
 20
-12.9711647846
 30
0.0
 10
179.4777184807
 20
-12.953160403
 30
0.0
  0
SPLINE
  5
29C
100
AcDbEntity
  8
_21_KURVEN
100
AcDbSpline
 62
7
  6
CONTINUOUS
 70
0
 71
3
 72
21
 73
17
 74
0
 42
0.0000001
 43
0.0000001
 44
0.0000000001
 40
0.0
 40
0.0
 40
0.0
 40
0.0
 40
0.125
 40
0.1875
 40
0.25
 40
0.3125
 40
0.375
 40
0.4375
 40
0.5
 40
0.5625
 40
0.625
 40
0.6875
 40
0.75
 40
0.8125
 40
0.875
 40
1.0
 40
1.0
 40
1.0
 40
1.0
 10
179.477718472
 20
-12.9531604061
 30
0.0
 10
179.503938787
 20
-12.9417692024
 30
0.0
 10
179.5434291418
 20
-12.9252264633
 30
0.0
 10
179.5954434197
 20
-12.9009932124
 30
0.0
 10
179.6322896464
 20
-12.8764550428
 30
0.0
 10
179.6705869583
 20
-12.8548501422
 30
0.0
 10
179.705244411
 20
-12.8278753974
 30
0.0
 10
179.7383227188
 20
-12.7992016683
 30
0.0
 10
179.7740137174
 20
-12.772571175
 30
0.0
 10
179.8008330976
 20
-12.7394667226
 30
0.0
 10
179.8302863709
 20
-12.7083823153
 30
0.0
 10
179.8580756904
 20
-12.6756916868
 30
0.0
 10
179.8813723103
 20
-12.6384022489
 30
0.0
 10
179.9072744382
 20
-12.6031069712
 30
0.0
 10
179.933904832
 20
-12.5515428253
 30
0.0
 10
179.9523354344
 20
-12.5120761319
 30
0.0
 10
179.9649652123
 20
-12.4859413549
 30
0.0
  0
SPLINE
  5
29D
100
AcDbEntity
  8
_21_KURVEN
100
AcDbSpline
 62
7
  6
CONTINUOUS
 70
0
 71
3
 72
9
 73
5
 74
0
 42
0.0000001
 43
0.0000001
 44
0.0000000001
 40
0.0
 40
0.0
 40
0.0
 40
0.0
 40
0.5
 40
1.0
 40
1.0
 40
1.0
 40
1.0
 10
179.9649652077
 20
-12.4859413664
 30
0.0
 10
179.9834980653
 20
-12.434001679
 30
0.0
 10
180.01873326
 20
-12.3229208208
 30
0.0
 10
180.0203165617
 20
-12.2073528609
 30
0.0
 10
180.0188583476
 20
-12.1490077463
 30
0.0
  0
SPLINE
  5
29E
100
AcDbEntity
  8
_21_KURVEN
100
AcDbSpline
 62
1
  6
CENTER
 70
0
 71
3
 72
131
 73
127
 74
0
 42
0.0000001
 43
0.0000001
 44
0.0000000001
 40
0.0
 40
0.0
 40
0.0
 40
0.0
 40
0.015625
 40
0.03125
 40
0.046875
 40
0.0546875
 40
0.05859375
 40
0.0625
 40
0.06640625
 40
0.0703125
 40
0.078125
 40
0.09375
 40
0.109375
 40
0.1171875
 40
0.12109375
 40
0.125
 40
0.12890625
 40
0.1328125
 40
0.140625
 40
0.15625
 40
0.171875
 40
0.1796875
 40
0.18359375
 40
0.1875
 40
0.19140625
 40
0.1953125
 40
0.203125
 40
0.21875
 40
0.234375
 40
0.2421875
 40
0.24609375
 40
0.25
 40
0.25390625
 40
0.2578125
 40
0.265625
 40
0.28125
 40
0.296875
 40
0.3046875
 40
0.30859375
 40
0.3125
 40
0.31640625
 40
0.3203125
 40
0.328125
 40
0.34375
 40
0.359375
 40
0.3671875
 40
0.37109375
 40
0.375
 40
0.37890625
 40
0.3828125
 40
0.390625
 40
0.40625
 40
0.421875
 40
0.4296875
 40
0.43359375
 40
0.4375
 40
0.44140625
 40
0.4453125
 40
0.453125
 40
0.46875
 40
0.484375
 40
0.4921875
 40
0.49609375
 40
0.5
 40
0.50390625
 40
0.5078125
 40
0.515625
 40
0.53125
 40
0.546875
 40
0.5546875
 40
0.55859375
 40
0.5625
 40
0.56640625
 40
0.5703125
 40
0.578125
 40
0.59375
 40
0.609375
 40
0.6171875
 40
0.62109375
 40
0.625
 40
0.62890625
 40
0.6328125
 40
0.640625
 40
0.65625
 40
0.671875
 40
0.6796875
 40
0.68359375
 40
0.6875
 40
0.69140625
 40
0.6953125
 40
0.703125
 40
0.71875
 40
0.734375
 40
0.7421875
 40
0.74609375
 40
0.75
 40
0.75390625
 40
0.7578125
 40
0.765625
 40
0.78125
 40
0.796875
 40
0.8046875
 40
0.80859375
 40
0.8125
 40
0.81640625
 40
0.8203125
 40
0.828125
 40
0.84375
 40
0.859375
 40
0.8671875
 40
0.87109375
 40
0.875
 40
0.87890625
 40
0.8828125
 40
0.890625
 40
0.90625
 40
0.921875
 40
0.9296875
 40
0.93359375
 40
0.9375
 40
0.94140625
 40
0.9453125
 40
0.953125
 40
0.96875
 40
0.984375
 40
1.0
 40
1.0
 40
1.0
 40
1.0
 10
175.3018713264
 20
-12.5943083678
 30
0.0
 10
175.3777969362
 20
-12.5803670351
 30
0.0
 10
175.5296395306
 20
-12.5524523061
 30
0.0
 10
175.7574551735
 20
-12.5107725949
 30
0.0
 10
175.9471506013
 20
-12.4754783872
 30
0.0
 10
176.0802317361
 20
-12.4518666161
 30
0.0
 10
176.1558188064
 20
-12.4366667826
 30
0.0
 10
176.2138028907
 20
-12.4300764649
 30
0.0
 10
176.266841495
 20
-12.405101614
 30
0.0
 10
176.3392855006
 20
-12.3782162209
 30
0.0
 10
176.4652500923
 20
-12.3281613631
 30
0.0
 10
176.6456910931
 20
-12.2583611355
 30
0.0
 10
176.8257132204
 20
-12.1874586684
 30
0.0
 10
176.952264235
 20
-12.138946946
 30
0.0
 10
177.0237867189
 20
-12.1096366259
 30
0.0
 10
177.0796527192
 20
-12.0921018921
 30
0.0
 10
177.1270183608
 20
-12.0575698009
 30
0.0
 10
177.1931386034
 20
-12.0174574883
 30
0.0
 10
177.3074567187
 20
-11.9444816972
 30
0.0
 10
177.4715796888
 20
-11.8418133752
 30
0.0
 10
177.6351091692
 20
-11.7381076188
 30
0.0
 10
177.7502581702
 20
-11.666584236
 30
0.0
 10
177.8150727354
 20
-11.6241895674
 30
0.0
 10
177.8664444325
 20
-11.5966601593
 30
0.0
 10
177.9072654688
 20
-11.5528264601
 30
0.0
 10
177.9653752648
 20
-11.500069764
 30
0.0
 10
178.0653363703
 20
-11.4050840842
 30
0.0
 10
178.2091688612
 20
-11.270871899
 30
0.0
 10
178.3521749197
 20
-11.1358025921
 30
0.0
 10
178.4532930307
 20
-11.0420168827
 30
0.0
 10
178.5095846751
 20
-10.9873745187
 30
0.0
 10
178.5559841312
 20
-10.9493263915
 30
0.0
 10
178.5864057629
 20
-10.9000689463
 30
0.0
 10
178.6325428329
 20
-10.8383032015
 30
0.0
 10
178.7106687009
 20
-10.7283818475
 30
0.0
 10
178.8237769817
 20
-10.5723825215
 30
0.0
 10
178.9358647266
 20
-10.4157466682
 30
0.0
 10
179.015419345
 20
-10.3067164524
 30
0.0
 10
179.0593112358
 20
-10.2435503476
 30
0.0
 10
179.0966214853
 20
-10.1985894615
 30
0.0
 10
179.1171503548
 20
-10.1444053675
 30
0.0
 10
179.1503775179
 20
-10.0753776459
 30
0.0
 10
179.2057788434
 20
-9.9530741211
 30
0.0
 10
179.2865050216
 20
-9.7791883894
 30
0.0
 10
179.3661363658
 20
-9.6048349895
 30
0.0
 10
179.423070459
 20
-9.4831862002
 30
0.0
 10
179.4538889871
 20
-9.4131296085
 30
0.0
 10
179.4818079866
 20
-9.3621022752
 30
0.0
 10
179.4913641922
 20
-9.3052859987
 30
0.0
 10
179.5105128506
 20
-9.2315505989
 30
0.0
 10
179.5410187466
 20
-9.1015687785
 30
0.0
 10
179.5863229241
 20
-8.9164057216
 30
0.0
 10
179.6304521898
 20
-8.7309413866
 30
0.0
 10
179.6626029624
 20
-8.6013813556
 30
0.0
 10
179.6791668147
 20
-8.5269831439
 30
0.0
 10
179.6966536754
 20
-8.4722004944
 30
0.0
 10
179.6947886589
 20
-8.4135357621
 30
0.0
 10
179.6990540537
 20
-8.3366699159
 30
0.0
 10
179.7033531882
 20
-8.2015271068
 30
0.0
 10
179.7113056935
 20
-8.0087684555
 30
0.0
 10
179.7180438154
 20
-7.8159951731
 30
0.0
 10
179.7240430867
 20
-7.6808728476
 30
0.0
 10
179.7256368378
 20
-7.6039748128
 30
0.0
 10
179.7319689099
 20
-7.5454088412
 30
0.0
 10
179.718671149
 20
-7.4902552903
 30
0.0
 10
179.7077897585
 20
-7.415526411
 30
0.0
 10
179.6855376869
 20
-7.2853109198
 30
0.0
 10
179.6555766083
 20
-7.0989539244
 30
0.0
 10
179.6244187463
 20
-6.9128696322
 30
0.0
 10
179.6038421713
 20
-6.7822723565
 30
0.0
 10
179.5903278576
 20
-6.7081434243
 30
0.0
 10
179.5851083841
 20
-6.6511491265
 30
0.0
 10
179.5611019987
 20
-6.5994961822
 30
0.0
 10
179.5356482935
 20
-6.5287616075
 30
0.0
 10
179.4880330104
 20
-6.4058531791
 30
0.0
 10
179.4217560642
 20
-6.2297418368
 30
0.0
 10
179.3543496642
 20
-6.0540713639
 30
0.0
 10
179.3083156164
 20
-5.9305457184
 30
0.0
 10
179.2803771129
 20
-5.8607810564
 30
0.0
 10
179.2639945403
 20
-5.8061522434
 30
0.0
 10
179.2301434143
 20
-5.7603339859
 30
0.0
 10
179.1911034641
 20
-5.6961686959
 30
0.0
 10
179.1199272006
 20
-5.5853224338
 30
0.0
 10
179.0198740128
 20
-5.4261306494
 30
0.0
 10
178.9187527384
 20
-5.2675502281
 30
0.0
 10
178.8490717962
 20
-5.1558480577
 30
0.0
 10
178.8076820555
 20
-5.0930277664
 30
0.0
 10
178.781040514
 20
-5.0430828086
 30
0.0
 10
178.737581946
 20
-5.0039520478
 30
0.0
 10
178.6855043291
 20
-4.9480040217
 30
0.0
 10
178.591623118
 20
-4.851868908
 30
0.0
 10
178.4590371679
 20
-4.7134791943
 30
0.0
 10
178.3255602528
 20
-4.5759259107
 30
0.0
 10
178.2329263927
 20
-4.4786197948
 30
0.0
 10
178.1788886527
 20
-4.424511915
 30
0.0
 10
178.1414440989
 20
-4.3797352509
 30
0.0
 10
178.0922165932
 20
-4.3509937965
 30
0.0
 10
178.0306909134
 20
-4.3070769466
 30
0.0
 10
177.9210958639
 20
-4.232845787
 30
0.0
 10
177.7656162192
 20
-4.1252965226
 30
0.0
 10
177.6094646033
 20
-4.0187694462
 30
0.0
 10
177.5008103136
 20
-3.9431072235
 30
0.0
 10
177.437806297
 20
-3.901439187
 30
0.0
 10
177.3931145973
 20
-3.8657979641
 30
0.0
 10
177.3386355721
 20
-3.8469337638
 30
0.0
 10
177.2694114338
 20
-3.8159276904
 30
0.0
 10
177.1466719292
 20
-3.764412449
 30
0.0
 10
176.9722159947
 20
-3.6892391319
 30
0.0
 10
176.7972576055
 20
-3.6151569665
 30
0.0
 10
176.6752215376
 20
-3.5621141126
 30
0.0
 10
176.6048919989
 20
-3.5335085732
 30
0.0
 10
176.5538045431
 20
-3.5072790982
 30
0.0
 10
176.496375616
 20
-3.4992985735
 30
0.0
 10
176.4220161306
 20
-3.4822905501
 30
0.0
 10
176.2908517973
 20
-3.4555120829
 30
0.0
 10
176.1040510454
 20
-3.4155439621
 30
0.0
 10
175.9169146995
 20
-3.3767417048
 30
0.0
 10
175.7862201978
 20
-3.3483310288
 30
0.0
 10
175.7111224057
 20
-3.3338879049
 30
0.0
 10
175.6559587376
 20
-3.3180378024
 30
0.0
 10
175.5963639758
 20
-3.3213629641
 30
0.0
 10
175.5184499114
 20
-3.3191079534
 30
0.0
 10
175.3813801373
 20
-3.3182781355
 30
0.0
 10
175.1859429188
 20
-3.3154623449
 30
0.0
 10
174.9512559666
 20
-3.312785695
 30
0.0
 10
174.7948289108
 20
-3.3108674905
 30
0.0
 10
174.7166115189
 20
-3.3099251097
 30
0.0
  0
SPLINE
  5
29F
100
AcDbEntity
  8
_21_KURVEN
100
AcDbSpline
 62
1
  6
CENTER
 70
0
 71
3
 72
9
 73
5
 74
0
 42
0.0000001
 43
0.0000001
 44
0.0000000001
 40
0.0
 40
0.0
 40
0.0
 40
0.0
 40
0.5
 40
1.0
 40
1.0
 40
1.0
 40
1.0
 10
170.2907812137
 20
-7.766247107
 30
0.0
 10
170.2897339276
 20
-7.7825014654
 30
0.0
 10
170.2876968266
 20
-7.8150128431
 30
0.0
 10
170.2861199572
 20
-7.8475375849
 30
0.0
 10
170.2850515259
 20
-7.870789835
 30
0.0
  0
SPLINE
  5
2A0
100
AcDbEntity
  8
_21_KURVEN
100
AcDbSpline
 62
1
  6
CENTER
 70
0
 71
3
 72
83
 73
79
 74
0
 42
0.0000001
 43
0.0000001
 44
0.0000000001
 40
0.0
 40
0.0
 40
0.0
 40
0.0
 40
0.03125
 40
0.0625
 40
0.078125
 40
0.09375
 40
0.109375
 40
0.1171875
 40
0.12109375
 40
0.125
 40
0.12890625
 40
0.1328125
 40
0.140625
 40
0.15625
 40
0.1875
 40
0.21875
 40
0.234375
 40
0.2421875
 40
0.24609375
 40
0.25
 40
0.25390625
 40
0.2578125
 40
0.265625
 40
0.28125
 40
0.3125
 40
0.34375
 40
0.359375
 40
0.3671875
 40
0.37109375
 40
0.375
 40
0.37890625
 40
0.3828125
 40
0.390625
 40
0.40625
 40
0.4375
 40
0.46875
 40
0.484375
 40
0.4921875
 40
0.49609375
 40
0.5
 40
0.50390625
 40
0.5078125
 40
0.515625
 40
0.53125
 40
0.5625
 40
0.59375
 40
0.609375
 40
0.6171875
 40
0.62109375
 40
0.625
 40
0.62890625
 40
0.6328125
 40
0.640625
 40
0.65625
 40
0.6875
 40
0.71875
 40
0.734375
 40
0.7421875
 40
0.74609375
 40
0.75
 40
0.75390625
 40
0.7578125
 40
0.765625
 40
0.78125
 40
0.8125
 40
0.84375
 40
0.859375
 40
0.8671875
 40
0.87109375
 40
0.875
 40
0.87890625
 40
0.8828125
 40
0.890625
 40
0.90625
 40
0.921875
 40
0.9375
 40
0.96875
 40
1.0
 40
1.0
 40
1.0
 40
1.0
 10
170.2850515261
 20
-7.8707898322
 30
0.0
 10
170.2901495482
 20
-7.9516633587
 30
0.0
 10
170.3003492679
 20
-8.1134097109
 30
0.0
 10
170.3130805398
 20
-8.3155961554
 30
0.0
 10
170.3233041507
 20
-8.4773379519
 30
0.0
 10
170.3308671055
 20
-8.598664274
 30
0.0
 10
170.3375026652
 20
-8.6997060264
 30
0.0
 10
170.341493882
 20
-8.7705598977
 30
0.0
 10
170.3447952337
 20
-8.8108532025
 30
0.0
 10
170.3443960428
 20
-8.8416214333
 30
0.0
 10
170.3549873425
 20
-8.8702939661
 30
0.0
 10
170.3652757514
 20
-8.909254973
 30
0.0
 10
170.3850636529
 20
-8.9770965658
 30
0.0
 10
170.423366177
 20
-9.1130242252
 30
0.0
 10
170.4788082527
 20
-9.3070549305
 30
0.0
 10
170.5337788848
 20
-9.5012266326
 30
0.0
 10
170.57274143
 20
-9.6369568965
 30
0.0
 10
170.5916218024
 20
-9.7050699082
 30
0.0
 10
170.6033716867
 20
-9.7435938249
 30
0.0
 10
170.6094724854
 20
-9.7736093525
 30
0.0
 10
170.6259391919
 20
-9.799333422
 30
0.0
 10
170.6442793248
 20
-9.8351289935
 30
0.0
 10
170.6780563751
 20
-9.8970748204
 30
0.0
 10
170.7444099114
 20
-10.0214652874
 30
0.0
 10
170.8398808419
 20
-10.1988699746
 30
0.0
 10
170.9349179037
 20
-10.3765084616
 30
0.0
 10
171.0018788562
 20
-10.5005716088
 30
0.0
 10
171.0348207092
 20
-10.5629675005
 30
0.0
 10
171.0545058351
 20
-10.5980382924
 30
0.0
 10
171.0668399421
 20
-10.6259893055
 30
0.0
 10
171.0884623938
 20
-10.6476406435
 30
0.0
 10
171.1140526948
 20
-10.6787063423
 30
0.0
 10
171.1603426773
 20
-10.7320490729
 30
0.0
 10
171.251847256
 20
-10.8394658876
 30
0.0
 10
171.3831745045
 20
-10.9924911203
 30
0.0
 10
171.5141244202
 20
-11.145832738
 30
0.0
 10
171.6061572649
 20
-11.2528066137
 30
0.0
 10
171.6517208815
 20
-11.3067583855
 30
0.0
 10
171.6784809146
 20
-11.3368432907
 30
0.0
 10
171.6965092703
 20
-11.361508196
 30
0.0
 10
171.7223424622
 20
-11.378140535
 30
0.0
 10
171.7540645125
 20
-11.403118641
 30
0.0
 10
171.8108443328
 20
-11.445526942
 30
0.0
 10
171.9235007646
 20
-11.5312754742
 30
0.0
 10
172.0849447003
 20
-11.6532333155
 30
0.0
 10
172.2460843301
 20
-11.7755762993
 30
0.0
 10
172.3591667902
 20
-11.8607856318
 30
0.0
 10
172.4153608217
 20
-11.9039353324
 30
0.0
 10
172.4480262202
 20
-11.9277194962
 30
0.0
 10
172.4709608988
 20
-11.948020319
 30
0.0
 10
172.4998757965
 20
-11.958906746
 30
0.0
 10
172.5363431902
 20
-11.9767055961
 30
0.0
 10
172.6011312977
 20
-12.0063260212
 30
0.0
 10
172.7300159561
 20
-12.0666586486
 30
0.0
 10
172.9145207042
 20
-12.1522189555
 30
0.0
 10
173.0988074731
 20
-12.2382163301
 30
0.0
 10
173.2279973024
 20
-12.2979370627
 30
0.0
 10
173.2923658
 20
-12.3283988431
 30
0.0
 10
173.3295089291
 20
-12.3448427834
 30
0.0
 10
173.3563475752
 20
-12.3598922802
 30
0.0
 10
173.387080459
 20
-12.3645570061
 30
0.0
 10
173.4266993959
 20
-12.3743987052
 30
0.0
 10
173.4966642395
 20
-12.3899366997
 30
0.0
 10
173.6361442464
 20
-12.422216597
 30
0.0
 10
173.8356460642
 20
-12.4676399733
 30
0.0
 10
174.0350257557
 20
-12.5135332417
 30
0.0
 10
174.1746767395
 20
-12.5451552899
 30
0.0
 10
174.2444064899
 20
-12.5615978268
 30
0.0
 10
174.2844040184
 20
-12.5699828603
 30
0.0
 10
174.3139736492
 20
-12.5791233087
 30
0.0
 10
174.3451813635
 20
-12.5773624149
 30
0.0
 10
174.3862202673
 20
-12.5788170667
 30
0.0
 10
174.4583045664
 20
-12.5795910471
 30
0.0
 10
174.5611429546
 20
-12.5816229801
 30
0.0
 10
174.6846085965
 20
-12.583664825
 30
0.0
 10
174.8492086351
 20
-12.5865258231
 30
0.0
 10
175.0549658734
 20
-12.5900542205
 30
0.0
 10
175.2195694728
 20
-12.5928915213
 30
0.0
 10
175.3018715465
 20
-12.5943083488
 30
0.0
  0
SPLINE
  5
2A1
100
AcDbEntity
  8
_21_KURVEN
100
AcDbSpline
 62
7
  6
CONTINUOUS
 70
0
 71
3
 72
8
 73
4
 74
0
 42
0.0000001
 43
0.0000001
 44
0.0000000001
 40
0.0
 40
0.0
 40
0.0
 40
0.0
 40
1.0
 40
1.0
 40
1.0
 40
1.0
 10
170.4940849747
 20
-11.5991950547
 30
0.0
 10
170.4979553746
 20
-11.6481153641
 30
0.0
 10
170.5053557194
 20
-11.6951439801
 30
0.0
 10
170.5177141189
 20
-11.7455385456
 30
0.0
  0
SPLINE
  5
2A2
100
AcDbEntity
  8
_21_KURVEN
100
AcDbSpline
 62
7
  6
CONTINUOUS
 70
0
 71
3
 72
10
 73
6
 74
0
 42
0.0000001
 43
0.0000001
 44
0.0000000001
 40
0.0
 40
0.0
 40
0.0
 40
0.0
 40
0.25
 40
0.5
 40
1.0
 40
1.0
 40
1.0
 40
1.0
 10
170.5177141184
 20
-11.7455385436
 30
0.0
 10
170.5222034216
 20
-11.7612061751
 30
0.0
 10
170.5309984456
 20
-11.7915626652
 30
0.0
 10
170.5553914814
 20
-11.8583802485
 30
0.0
 10
170.5769901596
 20
-11.8997754474
 30
0.0
 10
170.5941258163
 20
-11.931131016
 30
0.0
  0
SPLINE
  5
2A3
100
AcDbEntity
  8
_21_KURVEN
100
AcDbSpline
 62
7
  6
CONTINUOUS
 70
0
 71
3
 72
9
 73
5
 74
0
 42
0.0000001
 43
0.0000001
 44
0.0000000001
 40
0.0
 40
0.0
 40
0.0
 40
0.0
 40
0.5
 40
1.0
 40
1.0
 40
1.0
 40
1.0
 10
170.5941258113
 20
-11.9311310074
 30
0.0
 10
170.6139369098
 20
-11.9635172567
 30
0.0
 10
170.6583094732
 20
-12.0320727812
 30
0.0
 10
170.7163799382
 20
-12.0897078038
 30
0.0
 10
170.7470214656
 20
-12.1184646126
 30
0.0
  0
SPLINE
  5
2A4
100
AcDbEntity
  8
_21_KURVEN
100
AcDbSpline
 62
7
  6
CONTINUOUS
 70
0
 71
3
 72
8
 73
4
 74
0
 42
0.0000001
 43
0.0000001
 44
0.0000000001
 40
0.0
 40
0.0
 40
0.0
 40
0.0
 40
1.0
 40
1.0
 40
1.0
 40
1.0
 10
170.7470214685
 20
-12.1184646151
 30
0.0
 10
170.7799794534
 20
-12.1468932247
 30
0.0
 10
170.8144404705
 20
-12.1726400793
 30
0.0
 10
170.8522878853
 20
-12.1968377408
 30
0.0
  0
SPLINE
  5
2A5
100
AcDbEntity
  8
_21_KURVEN
100
AcDbSpline
 62
7
  6
CONTINUOUS
 70
0
 71
3
 72
10
 73
6
 74
0
 42
0.0000001
 43
0.0000001
 44
0.0000000001
 40
0.0
 40
0.0
 40
0.0
 40
0.0
 40
0.5
 40
0.75
 40
1.0
 40
1.0
 40
1.0
 40
1.0
 10
170.8522878827
 20
-12.1968377392
 30
0.0
 10
170.9045768084
 20
-12.2264468983
 30
0.0
 10
170.9833680292
 20
-12.2672240858
 30
0.0
 10
171.1063071672
 20
-12.2987935213
 30
0.0
 10
171.1666586056
 20
-12.3068652733
 30
0.0
 10
171.1976003077
 20
-12.3107629287
 30
0.0
  0
SPLINE
  5
2A6
100
AcDbEntity
  8
_30_VOLUMEN
100
AcDbSpline
 62
4
  6
CONTINUOUS
 70
0
 71
3
 72
15
 73
11
 74
0
 42
0.0000001
 43
0.0000001
 44
0.0000000001
 40
0.0
 40
0.0
 40
0.0
 40
0.0
 40
0.125281729
 40
0.2513297859
 40
0.3776841979
 40
0.5038054787
 40
0.6292170335
 40
0.7536571952
 40
0.8771361557
 40
1.0
 40
1.0
 40
1.0
 40
1.0
 10
174.6451080769
 20
-9.6849413541
 30
0.0
 10
174.8076970074
 20
-9.7142450039
 30
0.0
 10
175.143839985
 20
-9.7274117492
 30
0.0
 10
175.6339922236
 20
-9.6104368593
 30
0.0
 10
176.0763794047
 20
-9.366190002
 30
0.0
 10
176.4368071786
 20
-9.0132578515
 30
0.0
 10
176.6877899791
 20
-8.5784482643
 30
0.0
 10
176.8095851031
 20
-8.0947450103
 30
0.0
 10
176.7926529623
 20
-7.5997837698
 30
0.0
 10
176.6886858344
 20
-7.28645527
 30
0.0
 10
176.6162117402
 20
-7.1415483484
 30
0.0
  0
LINE
  5
2A7
100
AcDbEntity
  8
_30_VOLUMEN
100
AcDbLine
 62
4
  6
CONTINUOUS
 10
148.2961666618
 20
3.75
 11
140.0944521436
 21
-4.3588989435
  0
SPLINE
  5
2A8
100
AcDbEntity
  8
_30_VOLUMEN
100
AcDbSpline
 62
4
  6
CONTINUOUS
 70
0
 71
3
 72
9
 73
5
 74
0
 42
0.0000001
 43
0.0000001
 44
0.0000000001
 40
0.0
 40
0.0
 40
0.0
 40
0.0
 40
0.4998433395
 40
1.0
 40
1.0
 40
1.0
 40
1.0
 10
146.4488325073
 20
-8.2981023513
 30
0.0
 10
149.2014690867
 20
-8.5380626113
 30
0.0
 10
154.715955745
 20
-8.9335283591
 30
0.0
 10
160.2374530035
 20
-9.2062449038
 30
0.0
 10
163.0
 20
-9.3180369565
 30
0.0
  0
SPLINE
  5
2A9
100
AcDbEntity
  8
_30_VOLUMEN
100
AcDbSpline
 62
7
  6
CONTINUOUS
 70
0
 71
3
 72
10
 73
6
 74
0
 42
0.0000001
 43
0.0000001
 44
0.0000000001
 40
0.0
 40
0.0
 40
0.0
 40
0.0
 40
0.2498791867
 40
0.4998575292
 40
1.0
 40
1.0
 40
1.0
 40
1.0
 10
158.7349606279
 20
6.939087121
 30
0.0
 10
157.7570622809
 20
5.634340808
 30
0.0
 10
155.7665185857
 20
3.0500226394
 30
0.0
 10
151.6915526964
 20
-2.0466987892
 30
0.0
 10
148.5584957549
 20
-5.8080689141
 30
0.0
 10
146.4488325073
 20
-8.2981023513
 30
0.0
  0
SPLINE
  5
2AA
100
AcDbEntity
  8
_30_VOLUMEN
100
AcDbSpline
 62
4
  6
CONTINUOUS
 70
0
 71
3
 72
11
 73
7
 74
0
 42
0.0000001
 43
0.0000001
 44
0.0000000001
 40
0.0
 40
0.0
 40
0.0
 40
0.0
 40
0.2488677362
 40
0.4974407662
 40
0.7475163218
 40
1.0
 40
1.0
 40
1.0
 40
1.0
 10
148.2961666618
 20
3.75
 30
0.0
 10
149.0894293171
 20
4.1992906883
 30
0.0
 10
150.7289271215
 20
5.0056053326
 30
0.0
 10
153.3119712141
 20
5.9303207275
 30
0.0
 10
155.9897794957
 20
6.5822472996
 30
0.0
 10
157.8146602637
 20
6.8468937584
 30
0.0
 10
158.7349620942
 20
6.9390871712
 30
0.0
  0
SPLINE
  5
2AB
100
AcDbEntity
  8
_30_VOLUMEN
100
AcDbSpline
 62
4
  6
CONTINUOUS
 70
0
 71
3
 72
9
 73
5
 74
0
 42
0.0000001
 43
0.0000001
 44
0.0000000001
 40
0.0
 40
0.0
 40
0.0
 40
0.0
 40
0.2513280166
 40
1.0
 40
1.0
 40
1.0
 40
1.0
 10
146.4488407205
 20
-8.2981027822
 30
0.0
 10
146.3270875949
 20
-8.2874889494
 30
0.0
 10
145.8429408831
 20
-8.2420827189
 30
0.0
 10
145.3599869834
 20
-8.1830785315
 30
0.0
 10
145.0
 20
-8.1287632089
 30
0.0
  0
SPLINE
  5
2AC
100
AcDbEntity
  8
_30_VOLUMEN
100
AcDbSpline
 62
4
  6
CONTINUOUS
 70
0
 71
3
 72
18
 73
14
 74
0
 42
0.0000001
 43
0.0000001
 44
0.0000000001
 40
0.0
 40
0.0
 40
0.0
 40
0.0
 40
0.136906713
 40
0.2712438002
 40
0.4018208343
 40
0.5270583932
 40
0.5873211282
 40
0.645955297
 40
0.7033230875
 40
0.760194042
 40
0.8176110323
 40
0.8764953391
 40
1.0
 40
1.0
 40
1.0
 40
1.0
 10
145.0
 20
-8.4861122079
 30
0.0
 10
144.6613939474
 20
-8.4421910275
 30
0.0
 10
143.9923640793
 20
-8.3398673259
 30
0.0
 10
143.0121090558
 20
-8.1270367066
 30
0.0
 10
142.0818285493
 20
-7.8369181005
 30
0.0
 10
141.3632311408
 20
-7.501665967
 30
0.0
 10
140.8599750164
 20
-7.1562862337
 30
0.0
 10
140.5342246617
 20
-6.858493071
 30
0.0
 10
140.2685174244
 20
-6.515820797
 30
0.0
 10
140.0762507251
 20
-6.1299784242
 30
0.0
 10
139.9659123505
 20
-5.7093414177
 30
0.0
 10
139.9265981573
 20
-5.1097056761
 30
0.0
 10
140.0094018905
 20
-4.6549423534
 30
0.0
 10
140.0944521436
 20
-4.3588989435
 30
0.0
  0
LINE
  5
2AD
100
AcDbEntity
  8
_26_BEZUGSACHSEN
100
AcDbLine
 62
4
  6
CONTINUOUS
 10
170.1977502912
 20
-11.3921011234
 11
170.483631895
 21
-11.4333704665
  0
SPLINE
  5
2AE
100
AcDbEntity
  8
0
100
AcDbSpline
 62
4
  6
CONTINUOUS
 70
0
 71
3
 72
13
 73
9
 74
0
 42
0.0000001
 43
0.0000001
 44
0.0000000001
 40
0.0
 40
0.0
 40
0.0
 40
0.0
 40
0.2498928221
 40
0.3749487733
 40
0.5000000565
 40
0.6250513238
 40
0.750107246
 40
1.0
 40
1.0
 40
1.0
 40
1.0
 10
1.5
 20
4.3588989435
 30
0.0
 10
1.2004174987
 20
3.6716095497
 30
0.0
 10
0.8213963274
 20
2.60413919
 30
0.0
 10
0.5474448536
 20
1.1263191648
 30
0.0
 10
0.4762779959
 20
-0.0000004644
 30
0.0
 10
0.5474449323
 20
-1.1263200031
 30
0.0
 10
0.8213965105
 20
-2.604139662
 30
0.0
 10
1.2004175804
 20
-3.671609737
 30
0.0
 10
1.5
 20
-4.3588989435
 30
0.0
  0
ELLIPSE
  5
2AF
100
AcDbEntity
  8
_26_BEZUGSACHSEN
100
AcDbEllipse
 62
4
  6
CONTINUOUS
 10
169.3684634177
 20
-0.1203999264
 30
0.0
 11
-0.9913640316
 21
11.3932095936
 31
0.0
 40
0.1037187039
 41
-3.1635840924
 42
-3.0315247629
  0
ELLIPSE
  5
2B0
100
AcDbEntity
  8
_30_VOLUMEN
100
AcDbEllipse
 62
4
  6
CONTINUOUS
 10
202.5047455591
 20
0.0
 30
0.0
 11
81.1810270551
 21
2.0554794205
 31
0.0
 40
0.1174026921
 41
1.9613367588
 42
2.0135005714
  0
ELLIPSE
  5
2B1
100
AcDbEntity
  8
_30_VOLUMEN
100
AcDbEllipse
 62
4
  6
CONTINUOUS
 10
175.3421406258
 20
-8.3844653752
 30
0.0
 11
1.1664909557
 21
0.8647935746
 31
0.0
 40
0.8245571926
 41
-2.8019011477
 42
0.0288582419
  0
ENDSEC
  0
SECTION
  2
OBJECTS
  0
DICTIONARY
  5
C
100
AcDbDictionary
280
0
281
1
  3
ACAD_GROUP
350
D
  3
ACAD_MLINESTYLE
350
17
  3
ACAD_LAYOUT
350
1A
  3
ACAD_PLOTSETTINGS
350
19
  3
ACAD_PLOTSTYLENAME
350
E
  0
DICTIONARY
  5
D
102
{ACAD_REACTORS
330
C
102
}
100
AcDbDictionary
280
0
281
1
  0
ACDBDICTIONARYWDFLT
  5
E
102
{ACAD_REACTORS
330
C
102
}
100
AcDbDictionary
281
1
  3
Normal
350
F
100
AcDbDictionaryWithDefault
340
F
  0
DICTIONARY
  5
17
102
{ACAD_REACTORS
330
C
102
}
100
AcDbDictionary
280
0
281
1
  3
Standard
350
18
  0
DICTIONARY
  5
19
102
{ACAD_REACTORS
330
C
102
}
100
AcDbDictionary
281
1
  0
DICTIONARY
  5
1A
102
{ACAD_REACTORS
330
C
102
}
100
AcDbDictionary
281
1
  3
Model
350
2B2
  3
Layout1
350
2B3
  0
ACDBPLACEHOLDER
  5
F
102
{ACAD_REACTORS
330
E
102
}
  0
MLINESTYLE
  5
18
102
{ACAD_REACTORS
330
17
102
}
100
AcDbMlineStyle
  2
STANDARD
 70
0
  3

 62
256
 51
90.0
 52
90.0
 71
2
 49
0.5
 62
256
  6
BYLAYER
 49
-0.5
 62
256
  6
BYLAYER
  0
LAYOUT
  5
2B2
102
{ACAD_REACTORS
330
1A
102
}
100
AcDbPlotSettings
  1

  2
none_device
  4
ISO_A3_(420.00_x_297.00_MM)
  6

 40
0.0
 41
0.0
 42
0.0
 43
0.0
 44
420.0
 45
297.0
 46
0.0
 47
0.0
 48
0.0
 49
0.0
140
0.0
141
0.0
142
1.0
143
1.0
 70
1024
 72
1
 73
0
 74
0
  7

 75
0
147
1.0
148
0.0
149
0.0
100
AcDbLayout
  1
Model
 70
0
 71
0
 10
0.0
 20
0.0
 11
420.0
 21
297.0
 12
0.0
 22
0.0
 32
0.0
 14
0.0
 24
0.0
 34
0.0
 15
0.0
 25
0.0
 35
0.0
146
0.0
 13
0.0
 23
0.0
 33
0.0
 16
1.0
 26
0.0
 36
0.0
 17
0.0
 27
1.0
 37
0.0
 76
0
330
20F
345
0
346
0
  0
LAYOUT
  5
2B3
102
{ACAD_REACTORS
330
1A
102
}
100
AcDbPlotSettings
  1

  2
none_device
  4
ISO_A3_(420.00_x_297.00_MM)
  6

 40
0.0
 41
0.0
 42
0.0
 43
0.0
 44
420.0
 45
297.0
 46
0.0
 47
0.0
 48
0.0
 49
0.0
140
0.0
141
0.0
142
1.0
143
1.0
 70
0
 72
1
 73
0
 74
0
  7

 75
0
147
1.0
148
0.0
149
0.0
100
AcDbLayout
  1
Layout1
 70
0
 71
1
 10
0.0
 20
0.0
 11
420.0
 21
297.0
 12
0.0
 22
0.0
 32
0.0
 14
0.0
 24
0.0
 34
0.0
 15
0.0
 25
0.0
 35
0.0
146
0.0
 13
0.0
 23
0.0
 33
0.0
 16
1.0
 26
0.0
 36
0.0
 17
0.0
 27
1.0
 37
0.0
 76
0
330
210
345
0
346
0
  0
ENDSEC
  0
EOF
