999
DXF file: 70568840.dxf
999
Pro/ENGINEER 2017380 by Parametric Technology Corporation
  0
SECTION
  2
HEADER
  9
$ACADVER
  1
AC1027
  9
$DWGCODEPAGE
  3
ANSI_1252
  9
$EXTMAX
 10
420.0
 20
297.0
 30
0.0
  9
$EXTMIN
 10
0.0
 20
0.0
 30
0.0
  9
$LIMMIN
 10
0.0
 20
0.0
  9
$LIMMAX
 10
420.0
 20
297.0
  9
$VIEWCTR
 10
210.0
 20
148.5
  9
$VIEWSIZE
 40
297.0
  9
$CLAYER
  8
0
  9
$LTSCALE
 40
23.1
  9
$CELTYPE
  6
BYLAYER
  9
$DIMSCALE
 40
1.0
  9
$DIMASZ
 40
3.5
  9
$DIMEXO
 40
0.0
  9
$DIMDLI
 40
15.96
  9
$DIMEXE
 40
1.5
  9
$DIMCEN
 40
3.78
  9
$DIMLFAC
 40
1.0
  9
$DIMBLK
  1
_FILLED
  9
$DIMALT
 70
0
  9
$DIMALTF
 40
25.4
  9
$DIMTXT
 40
3.5
  9
$DIMTOL
 70
1
  9
$DIMLIM
 70
0
  9
$DIMTFAC
 40
1.0
  9
$DIMTP
 40
0.05
  9
$DIMTM
 40
0.05
  9
$DIMGAP
 40
0.625
  9
$DIMDSEP
 70
46
  9
$AUNITS
 70
0
  9
$PDMODE
 70
3
  9
$PDSIZE
 40
0.3125
  9
$HANDSEED
  5
2AC
  9
$TILEMODE
 70
1
  9
$MEASUREMENT
 70
1
  9
$INSUNITS
 70
4
  0
ENDSEC
  0
SECTION
  2
CLASSES
  0
CLASS
  1
ACDBDICTIONARYWDFLT
  2
AcDbDictionaryWithDefault
  3
AutoCAD 2000
 90
0
 91
1
280
0
281
0
  0
CLASS
  1
ACDBPLACEHOLDER
  2
AcDbPlaceHolder
  3
AutoCAD 2000
 90
0
 91
1
280
0
281
0
  0
CLASS
  1
LAYOUT
  2
AcDbLayout
  3
AutoCAD 2000
 90
0
 91
0
280
0
281
0
  0
ENDSEC
  0
SECTION
  2
TABLES
  0
TABLE
  2
VPORT
  5
8
100
AcDbSymbolTable
 70
2
  0
VPORT
  5
1F4
100
AcDbSymbolTableRecord
100
AcDbViewportTableRecord
  2
*ACTIVE
 70
0
 10
0.0
 20
0.0
 11
1.0
 21
1.0
 12
210.0
 22
148.5
 13
0.0
 23
0.0
 14
1.0
 24
1.0
 15
0.0
 25
0.0
 16
0.0
 26
0.0
 36
1.0
 17
0.0
 27
0.0
 37
0.0
 40
297.0
 41
1.4141414141
 42
50.0
 43
0.0
 44
0.0
 50
0.0
 51
0.0
 71
0
 72
100
 73
1
 74
1
 75
0
 76
0
 77
0
 78
0
  0
ENDTAB
  0
TABLE
  2
LTYPE
  5
5
100
AcDbSymbolTable
 70
6
  0
LTYPE
  5
14
100
AcDbSymbolTableRecord
100
AcDbLinetypeTableRecord
  2
BYBLOCK
 70
0
  3

 72
65
 73
0
 40
0.0
  0
LTYPE
  5
15
100
AcDbSymbolTableRecord
100
AcDbLinetypeTableRecord
  2
BYLAYER
 70
0
  3

 72
65
 73
0
 40
0.0
  0
LTYPE
  5
16
100
AcDbSymbolTableRecord
100
AcDbLinetypeTableRecord
  2
CONTINUOUS
 70
64
  3
Solid line
 72
65
 73
0
 40
0.0
  0
LTYPE
  5
1F5
100
AcDbSymbolTableRecord
100
AcDbLinetypeTableRecord
  2
CENTER
 70
64
  3
____ _ ____ _ ____ _ ____ _ ____ _ ____ _ ____
 72
65
 73
4
 40
0.6
 49
0.375
 74
0
 49
-0.075
 74
0
 49
0.075
 74
0
 49
-0.075
 74
0
  0
LTYPE
  5
1F6
100
AcDbSymbolTableRecord
100
AcDbLinetypeTableRecord
  2
HIDDEN
 70
64
  3
- - - - - - - - - - - - - - - - - - - -
 72
65
 73
2
 40
0.2
 49
0.1
 74
0
 49
-0.1
 74
0
  0
LTYPE
  5
1F7
100
AcDbSymbolTableRecord
100
AcDbLinetypeTableRecord
  2
PHANTOM
 70
64
  3
_____ _ _ _____ _ _ _____ _ _ _____
 72
65
 73
6
 40
0.8
 49
0.45
 74
0
 49
-0.05
 74
0
 49
0.1
 74
0
 49
-0.05
 74
0
 49
0.1
 74
0
 49
-0.05
 74
0
  0
LTYPE
  5
1F8
100
AcDbSymbolTableRecord
100
AcDbLinetypeTableRecord
  2
DOT
 70
64
  3
. . . . . . . . . . . . . . . . . . . .
 72
65
 73
2
 40
0.2
 49
0.1
 74
0
 49
-0.1
 74
0
  0
LTYPE
  5
1F9
100
AcDbSymbolTableRecord
100
AcDbLinetypeTableRecord
  2
DASHED
 70
64
  3
- - - - - - - - - - - - - - - - - - - -
 72
65
 73
2
 40
0.2
 49
0.1
 74
0
 49
-0.1
 74
0
  0
ENDTAB
  0
TABLE
  2
LAYER
  5
2
100
AcDbSymbolTable
 70
36
  0
LAYER
  5
10
100
AcDbSymbolTableRecord
100
AcDbLayerTableRecord
  2
0
 70
0
 62
7
  6
CONTINUOUS
370
-3
390
F
  0
LAYER
  5
1FA
100
AcDbSymbolTableRecord
100
AcDbLayerTableRecord
  2
DEFAULT_1
 70
0
 62
7
  6
CENTER
370
-3
390
F
  0
LAYER
  5
1FB
100
AcDbSymbolTableRecord
100
AcDbLayerTableRecord
  2
DEFAULT_2
 70
0
 62
1
  6
HIDDEN
370
-3
390
F
  0
LAYER
  5
1FC
100
AcDbSymbolTableRecord
100
AcDbLayerTableRecord
  2
DEFAULT_3
 70
0
 62
7
  6
PHANTOM
370
-3
390
F
  0
LAYER
  5
1FD
100
AcDbSymbolTableRecord
100
AcDbLayerTableRecord
  2
BG_STARTBEZUEGE
 70
0
 62
7
  6
CONTINUOUS
370
-3
390
F
  0
LAYER
  5
1FE
100
AcDbSymbolTableRecord
100
AcDbLayerTableRecord
  2
HILFEN
 70
0
 62
7
  6
CONTINUOUS
370
-3
390
F
  0
LAYER
  5
1FF
100
AcDbSymbolTableRecord
100
AcDbLayerTableRecord
  2
PLATZIERUNG
 70
0
 62
7
  6
CONTINUOUS
370
-3
390
F
  0
LAYER
  5
200
100
AcDbSymbolTableRecord
100
AcDbLayerTableRecord
  2
T_STARTBEZUEGE
 70
0
 62
7
  6
CONTINUOUS
370
-3
390
F
  0
LAYER
  5
201
100
AcDbSymbolTableRecord
100
AcDbLayerTableRecord
  2
_03_2D_ZEICHNUNG_BEMASSUNGEN
 70
0
 62
7
  6
CONTINUOUS
370
-3
390
F
  0
LAYER
  5
202
100
AcDbSymbolTableRecord
100
AcDbLayerTableRecord
  2
_04_NOTIZEN
 70
0
 62
7
  6
CONTINUOUS
370
-3
390
F
  0
LAYER
  5
203
100
AcDbSymbolTableRecord
100
AcDbLayerTableRecord
  2
_05_2D_ELEMENTE
 70
0
 62
7
  6
CONTINUOUS
370
-3
390
F
  0
LAYER
  5
204
100
AcDbSymbolTableRecord
100
AcDbLayerTableRecord
  2
_07_EINRASTLINIEN
 70
0
 62
7
  6
CONTINUOUS
370
-3
390
F
  0
LAYER
  5
205
100
AcDbSymbolTableRecord
100
AcDbLayerTableRecord
  2
_21_KURVEN
 70
0
 62
7
  6
CONTINUOUS
370
-3
390
F
  0
LAYER
  5
206
100
AcDbSymbolTableRecord
100
AcDbLayerTableRecord
  2
_22_FLAECHEN
 70
0
 62
7
  6
CONTINUOUS
370
-3
390
F
  0
LAYER
  5
207
100
AcDbSymbolTableRecord
100
AcDbLayerTableRecord
  2
_26_BEZUGSACHSEN
 70
0
 62
7
  6
CONTINUOUS
370
-3
390
F
  0
LAYER
  5
208
100
AcDbSymbolTableRecord
100
AcDbLayerTableRecord
  2
_27_BEZUGSEBENEN
 70
0
 62
7
  6
CONTINUOUS
370
-3
390
F
  0
LAYER
  5
209
100
AcDbSymbolTableRecord
100
AcDbLayerTableRecord
  2
_28_BEZUGSPUNKTE
 70
0
 62
7
  6
CONTINUOUS
370
-3
390
F
  0
LAYER
  5
20A
100
AcDbSymbolTableRecord
100
AcDbLayerTableRecord
  2
_29_KOORDINATENSYSTEME
 70
0
 62
7
  6
CONTINUOUS
370
-3
390
F
  0
LAYER
  5
20B
100
AcDbSymbolTableRecord
100
AcDbLayerTableRecord
  2
_30_VOLUMEN
 70
0
 62
7
  6
CONTINUOUS
370
-3
390
F
  0
ENDTAB
  0
TABLE
  2
STYLE
  5
3
100
AcDbSymbolTable
 70
1
  0
STYLE
  5
11
100
AcDbSymbolTableRecord
100
AcDbTextStyleTableRecord
  2
STANDARD
 70
0
 40
0.0
 41
0.7
 50
0.0
 71
0
 42
0.2
  3
SIMPLEX.SHX
  4

  0
STYLE
  5
20C
100
AcDbSymbolTableRecord
100
AcDbTextStyleTableRecord
  2
TEXTSTYLE_1
 70
0
 40
0.0
 41
0.8
 50
0.0
 71
0
 42
0.2
  3
gdt
  4

  0
STYLE
  5
20D
100
AcDbSymbolTableRecord
100
AcDbTextStyleTableRecord
  2
TEXTSTYLE_2
 70
0
 40
0.0
 41
0.7
 50
0.0
 71
0
 42
0.2
  3
gdt
  4

  0
ENDTAB
  0
TABLE
  2
VIEW
  5
6
100
AcDbSymbolTable
 70
0
  0
ENDTAB
  0
TABLE
  2
UCS
  5
7
100
AcDbSymbolTable
 70
0
  0
ENDTAB
  0
TABLE
  2
APPID
  5
9
100
AcDbSymbolTable
 70
1
  0
APPID
  5
20E
100
AcDbSymbolTableRecord
100
AcDbRegAppTableRecord
  2
ACAD
 70
0
  0
ENDTAB
  0
TABLE
  2
BLOCK_RECORD
  5
1
100
AcDbSymbolTable
 70
0
  0
BLOCK_RECORD
  5
20F
100
AcDbSymbolTableRecord
100
AcDbBlockTableRecord
  2
*Model_Space
  0
BLOCK_RECORD
  5
210
100
AcDbSymbolTableRecord
100
AcDbBlockTableRecord
  2
*Paper_Space
  0
BLOCK_RECORD
  5
211
100
AcDbSymbolTableRecord
100
AcDbBlockTableRecord
  2
_FILLED
  0
BLOCK_RECORD
  5
212
100
AcDbSymbolTableRecord
100
AcDbBlockTableRecord
  2
*D0
  0
BLOCK_RECORD
  5
213
100
AcDbSymbolTableRecord
100
AcDbBlockTableRecord
  2
*D1
  0
BLOCK_RECORD
  5
214
100
AcDbSymbolTableRecord
100
AcDbBlockTableRecord
  2
*D2
  0
BLOCK_RECORD
  5
215
100
AcDbSymbolTableRecord
100
AcDbBlockTableRecord
  2
*D3
  0
ENDTAB
  0
TABLE
  2
DIMSTYLE
  5
A
100
AcDbSymbolTable
 70
1
100
AcDbDimStyleTable
 71
0
  0
DIMSTYLE
105
216
100
AcDbSymbolTableRecord
100
AcDbDimStyleTableRecord
  2
STANDARD
 70
0
  3

  4

 40
1.0
 41
3.5
 42
0.0
 43
0.38
 44
1.5
 45
0.0
 46
0.0
 47
0.05
 48
0.05
140
3.5
141
0.09
142
0.0
143
25.4
144
1.0
145
0.0
146
1.0
147
0.625
 71
1.0
 72
0.0
 73
0
 74
0
 75
0
 76
0
 77
1
 78
8
 79
2
170
0
171
1
172
0
173
0
174
0
175
0
176
0
177
0
178
2
270
2
179
2
271
2
272
2
273
2
274
2
275
0
280
0
281
0
282
0
283
1
284
8
285
0
286
0
287
3
288
0
340
11
278
46
341
211
342
211
343
211
344
211
  0
DIMSTYLE
105
217
100
AcDbSymbolTableRecord
100
AcDbDimStyleTableRecord
  2
DIMSTYLE_1
 70
0
  3

  4

 40
1.0
 41
3.5
 42
0.0
 43
0.38
 44
1.5
 45
0.0
 46
0.0
 47
0.3
 48
0.3
140
3.5
141
0.09
142
0.0
143
25.4
144
1.0
145
0.0
146
1.0
147
0.875
 71
0.0
 72
0.0
 73
0
 74
0
 75
0
 76
0
 77
1
 78
8
 79
2
170
0
171
1
172
0
173
0
174
0
175
0
176
0
177
0
178
2
270
2
179
2
271
2
272
2
273
2
274
2
275
0
280
0
281
0
282
0
283
1
284
8
285
0
286
0
287
3
288
0
340
11
278
46
341
211
342
211
343
211
344
211
  0
DIMSTYLE
105
218
100
AcDbSymbolTableRecord
100
AcDbDimStyleTableRecord
  2
DIMSTYLE_2
 70
0
  3

  4

 40
1.0
 41
3.5
 42
0.0
 43
0.38
 44
1.5
 45
0.0
 46
0.0
 47
0.5
 48
0.5
140
3.5
141
0.09
142
0.0
143
25.4
144
1.0
145
0.0
146
1.0
147
0.875
 71
0.0
 72
0.0
 73
0
 74
0
 75
0
 76
0
 77
1
 78
8
 79
2
170
0
171
1
172
0
173
0
174
0
175
0
176
0
177
0
178
2
270
2
179
2
271
2
272
2
273
2
274
2
275
0
280
0
281
0
282
0
283
1
284
8
285
0
286
0
287
3
288
0
340
11
278
46
341
211
342
211
343
211
344
211
  0
DIMSTYLE
105
219
100
AcDbSymbolTableRecord
100
AcDbDimStyleTableRecord
  2
DIMSTYLE_3
 70
0
  3

  4

 40
1.0
 41
3.5
 42
0.0
 43
0.38
 44
1.5
 45
0.0
 46
0.0
 47
0.2
 48
0.2
140
3.5
141
0.09
142
0.0
143
25.4
144
1.0
145
0.0
146
1.0
147
0.875
 71
0.0
 72
0.0
 73
0
 74
0
 75
0
 76
0
 77
1
 78
8
 79
2
170
0
171
1
172
0
173
0
174
0
175
0
176
0
177
0
178
2
270
2
179
2
271
2
272
2
273
2
274
2
275
0
280
0
281
0
282
0
283
1
284
8
285
0
286
0
287
3
288
0
340
11
278
46
341
211
342
211
343
211
344
211
  0
ENDTAB
  0
ENDSEC
  0
SECTION
  2
BLOCKS
  0
BLOCK
  5
20
100
AcDbEntity
  8
0
100
AcDbBlockBegin
  2
*Model_Space
 70
0
 10
0.0
 20
0.0
 30
0.0
  3
*Model_Space
  1

  0
ENDBLK
  5
21
100
AcDbEntity
  8
0
100
AcDbBlockEnd
  0
BLOCK
  5
1C
100
AcDbEntity
  8
0
100
AcDbBlockBegin
  2
*Paper_Space
 70
0
 10
0.0
 20
0.0
 30
0.0
  3
*Paper_Space
  1

  0
ENDBLK
  5
1D
100
AcDbEntity
  8
0
100
AcDbBlockEnd
  0
BLOCK
  5
21A
100
AcDbEntity
  8
0
100
AcDbBlockBegin
  2
_FILLED
 70
64
 10
0.0
 20
0.0
  3
_FILLED
  1

  0
SOLID
  5
21B
100
AcDbEntity
  8
0
  6
BYBLOCK
 62
0
100
AcDbTrace
 10
0.0
 20
0.0
 11
-1.0
 21
0.125
 12
-1.0
 22
-0.125
 13
-1.0
 23
-0.125
  0
ENDBLK
  5
21C
100
AcDbEntity
  8
0
  6
BYBLOCK
 62
0
100
AcDbBlockEnd
  0
BLOCK
  5
21D
100
AcDbEntity
  8
_03_2D_ZEICHNUNG_BEMASSUNGEN
100
AcDbBlockBegin
 62
7
  6
CONTINUOUS
  2
*D0
 70
65
 10
0.0
 20
0.0
  3
*D0
  1

  0
TEXT
  5
21E
100
AcDbEntity
  8
_03_2D_ZEICHNUNG_BEMASSUNGEN
100
AcDbText
 62
2
  6
CONTINUOUS
 10
-9.875
 20
-5.0833333333
  7
TEXTSTYLE_2
 40
3.5
  1
n
 50
90.0
 41
1.0
 72
1
 11
-9.875
 21
-2.75
100
AcDbText
  0
TEXT
  5
21F
100
AcDbEntity
  8
_03_2D_ZEICHNUNG_BEMASSUNGEN
100
AcDbText
 62
2
  6
CONTINUOUS
 10
-9.875
 20
-0.4166666667
  7
STANDARD
 40
3.5
  1
40
 50
90.0
 41
0.7857142857
 72
1
 11
-9.875
 21
2.3333333333
100
AcDbText
  0
LINE
  5
220
100
AcDbEntity
  8
_03_2D_ZEICHNUNG_BEMASSUNGEN
100
AcDbLine
 62
7
  6
CONTINUOUS
 10
1.5
 20
20.0
 11
-10.5
 21
20.0
  0
LINE
  5
221
100
AcDbEntity
  8
_03_2D_ZEICHNUNG_BEMASSUNGEN
100
AcDbLine
 62
7
  6
CONTINUOUS
 10
1.5
 20
-20.0
 11
-10.5
 21
-20.0
  0
LINE
  5
222
100
AcDbEntity
  8
_03_2D_ZEICHNUNG_BEMASSUNGEN
100
AcDbLine
 62
7
  6
CONTINUOUS
 10
-9.0
 20
20.0
 11
-9.0
 21
0.0
  0
LINE
  5
223
100
AcDbEntity
  8
_03_2D_ZEICHNUNG_BEMASSUNGEN
100
AcDbLine
 62
7
  6
CONTINUOUS
 10
-9.0
 20
-20.0
 11
-9.0
 21
0.0
  0
INSERT
  5
224
100
AcDbEntity
  8
_03_2D_ZEICHNUNG_BEMASSUNGEN
100
AcDbBlockReference
 62
7
  6
CONTINUOUS
  2
_FILLED
 10
-9.0
 20
20.0
 41
3.5
 42
3.5
 43
3.5
 50
90.0
  0
INSERT
  5
225
100
AcDbEntity
  8
_03_2D_ZEICHNUNG_BEMASSUNGEN
100
AcDbBlockReference
 62
7
  6
CONTINUOUS
  2
_FILLED
 10
-9.0
 20
-20.0
 41
3.5
 42
3.5
 43
3.5
 50
270.0
  0
ENDBLK
  5
226
100
AcDbEntity
  8
0
  6
BYBLOCK
 62
0
100
AcDbBlockEnd
  0
BLOCK
  5
227
100
AcDbEntity
  8
_03_2D_ZEICHNUNG_BEMASSUNGEN
100
AcDbBlockBegin
 62
7
  6
CONTINUOUS
  2
*D1
 70
65
 10
0.0
 20
0.0
  3
*D1
  1

  0
TEXT
  5
228
100
AcDbEntity
  8
_03_2D_ZEICHNUNG_BEMASSUNGEN
100
AcDbText
 62
2
  6
CONTINUOUS
 10
151.4697745805
 20
46.5419411878
  7
STANDARD
 40
3.5
  1
300
 41
0.7619047619
 72
1
 11
155.4697745805
 21
46.5419411878
100
AcDbText
  0
LINE
  5
229
100
AcDbEntity
  8
_03_2D_ZEICHNUNG_BEMASSUNGEN
100
AcDbLine
 62
7
  6
CONTINUOUS
 10
300.0
 20
0.0
 11
300.0
 21
47.1669411878
  0
LINE
  5
22A
100
AcDbEntity
  8
_03_2D_ZEICHNUNG_BEMASSUNGEN
100
AcDbLine
 62
7
  6
CONTINUOUS
 10
0.0
 20
0.0
 11
0.0
 21
47.1669411878
  0
LINE
  5
22B
100
AcDbEntity
  8
_03_2D_ZEICHNUNG_BEMASSUNGEN
100
AcDbLine
 62
7
  6
CONTINUOUS
 10
300.0
 20
45.6669411878
 11
150.0
 21
45.6669411878
  0
LINE
  5
22C
100
AcDbEntity
  8
_03_2D_ZEICHNUNG_BEMASSUNGEN
100
AcDbLine
 62
7
  6
CONTINUOUS
 10
0.0
 20
45.6669411878
 11
150.0
 21
45.6669411878
  0
INSERT
  5
22D
100
AcDbEntity
  8
_03_2D_ZEICHNUNG_BEMASSUNGEN
100
AcDbBlockReference
 62
7
  6
CONTINUOUS
  2
_FILLED
 10
300.0
 20
45.6669411878
 41
3.5
 42
3.5
 43
3.5
  0
INSERT
  5
22E
100
AcDbEntity
  8
_03_2D_ZEICHNUNG_BEMASSUNGEN
100
AcDbBlockReference
 62
7
  6
CONTINUOUS
  2
_FILLED
 10
0.0
 20
45.6669411878
 41
3.5
 42
3.5
 43
3.5
 50
180.0
  0
ENDBLK
  5
22F
100
AcDbEntity
  8
0
  6
BYBLOCK
 62
0
100
AcDbBlockEnd
  0
BLOCK
  5
230
100
AcDbEntity
  8
_03_2D_ZEICHNUNG_BEMASSUNGEN
100
AcDbBlockBegin
 62
7
  6
CONTINUOUS
  2
*D2
 70
65
 10
0.0
 20
0.0
  3
*D2
  1

  0
TEXT
  5
231
100
AcDbEntity
  8
_03_2D_ZEICHNUNG_BEMASSUNGEN
100
AcDbText
 62
2
  6
CONTINUOUS
 10
274.3756783815
 20
37.5419411878
  7
STANDARD
 40
3.5
  1
45
 41
0.75
 72
1
 11
277.0006783815
 21
37.5419411878
100
AcDbText
  0
LINE
  5
232
100
AcDbEntity
  8
_03_2D_ZEICHNUNG_BEMASSUNGEN
100
AcDbLine
 62
7
  6
CONTINUOUS
 10
300.0
 20
-21.1204045948
 11
300.0
 21
38.1669411878
  0
LINE
  5
233
100
AcDbEntity
  8
_03_2D_ZEICHNUNG_BEMASSUNGEN
100
AcDbLine
 62
7
  6
CONTINUOUS
 10
255.0
 20
-21.1204045948
 11
255.0
 21
38.1669411878
  0
LINE
  5
234
100
AcDbEntity
  8
_03_2D_ZEICHNUNG_BEMASSUNGEN
100
AcDbLine
 62
7
  6
CONTINUOUS
 10
300.0
 20
36.6669411878
 11
277.5
 21
36.6669411878
  0
LINE
  5
235
100
AcDbEntity
  8
_03_2D_ZEICHNUNG_BEMASSUNGEN
100
AcDbLine
 62
7
  6
CONTINUOUS
 10
255.0
 20
36.6669411878
 11
277.5
 21
36.6669411878
  0
INSERT
  5
236
100
AcDbEntity
  8
_03_2D_ZEICHNUNG_BEMASSUNGEN
100
AcDbBlockReference
 62
7
  6
CONTINUOUS
  2
_FILLED
 10
300.0
 20
36.6669411878
 41
3.5
 42
3.5
 43
3.5
  0
INSERT
  5
237
100
AcDbEntity
  8
_03_2D_ZEICHNUNG_BEMASSUNGEN
100
AcDbBlockReference
 62
7
  6
CONTINUOUS
  2
_FILLED
 10
255.0
 20
36.6669411878
 41
3.5
 42
3.5
 43
3.5
 50
180.0
  0
ENDBLK
  5
238
100
AcDbEntity
  8
0
  6
BYBLOCK
 62
0
100
AcDbBlockEnd
  0
BLOCK
  5
239
100
AcDbEntity
  8
_03_2D_ZEICHNUNG_BEMASSUNGEN
100
AcDbBlockBegin
 62
7
  6
CONTINUOUS
  2
*D3
 70
65
 10
0.0
 20
0.0
  3
*D3
  1

  0
TEXT
  5
23A
100
AcDbEntity
  8
_03_2D_ZEICHNUNG_BEMASSUNGEN
100
AcDbText
 62
2
  6
CONTINUOUS
 10
308.2176428916
 20
10.75
  7
STANDARD
 40
3.5
  1
27
 50
90.0
 41
0.7857142857
 72
1
 11
308.2176428916
 21
13.5
100
AcDbText
  0
LINE
  5
23B
100
AcDbEntity
  8
_03_2D_ZEICHNUNG_BEMASSUNGEN
100
AcDbLine
 62
7
  6
CONTINUOUS
 10
300.0
 20
27.0
 11
310.5926428916
 21
27.0
  0
LINE
  5
23C
100
AcDbEntity
  8
_03_2D_ZEICHNUNG_BEMASSUNGEN
100
AcDbLine
 62
7
  6
CONTINUOUS
 10
309.0926428916
 20
0.0
 11
309.0926428916
 21
-6.0
  0
LINE
  5
23D
100
AcDbEntity
  8
_03_2D_ZEICHNUNG_BEMASSUNGEN
100
AcDbLine
 62
7
  6
CONTINUOUS
 10
309.0926428916
 20
-6.0
 11
309.0926428916
 21
13.5
  0
LINE
  5
23E
100
AcDbEntity
  8
_03_2D_ZEICHNUNG_BEMASSUNGEN
100
AcDbLine
 62
7
  6
CONTINUOUS
 10
309.0926428916
 20
27.0
 11
309.0926428916
 21
33.0
  0
LINE
  5
23F
100
AcDbEntity
  8
_03_2D_ZEICHNUNG_BEMASSUNGEN
100
AcDbLine
 62
7
  6
CONTINUOUS
 10
309.0926428916
 20
33.0
 11
309.0926428916
 21
13.5
  0
INSERT
  5
240
100
AcDbEntity
  8
_03_2D_ZEICHNUNG_BEMASSUNGEN
100
AcDbBlockReference
 62
7
  6
CONTINUOUS
  2
_FILLED
 10
309.0926428916
 20
0.0
 41
3.5
 42
3.5
 43
3.5
 50
90.0
  0
INSERT
  5
241
100
AcDbEntity
  8
_03_2D_ZEICHNUNG_BEMASSUNGEN
100
AcDbBlockReference
 62
7
  6
CONTINUOUS
  2
_FILLED
 10
309.0926428916
 20
27.0
 41
3.5
 42
3.5
 43
3.5
 50
270.0
  0
ENDBLK
  5
242
100
AcDbEntity
  8
0
  6
BYBLOCK
 62
0
100
AcDbBlockEnd
  0
ENDSEC
  0
SECTION
  2
ENTITIES
  0
DIMENSION
  5
243
100
AcDbEntity
  8
_03_2D_ZEICHNUNG_BEMASSUNGEN
100
AcDbDimension
 62
7
  6
CONTINUOUS
  2
*D0
 10
-9.0
 20
-20.0
 11
-9.0
 21
0.0
 70
160
 71
2
 42
40.0
  1
%%c<>
  3
DIMSTYLE_1
100
AcDbAlignedDimension
 13
1.5
 23
20.0
 14
1.5
 24
-20.0
 50
270.0
100
AcDbRotatedDimension
  0
DIMENSION
  5
244
100
AcDbEntity
  8
_03_2D_ZEICHNUNG_BEMASSUNGEN
100
AcDbDimension
 62
7
  6
CONTINUOUS
  2
*D1
 10
0.0
 20
45.6669411878
 11
154.9697781372
 21
45.6669411878
 70
160
 71
2
 42
300.0
  3
DIMSTYLE_2
100
AcDbAlignedDimension
 13
300.0
 23
0.0
 14
0.0
 24
0.0
 50
180.0
100
AcDbRotatedDimension
  0
DIMENSION
  5
245
100
AcDbEntity
  8
_03_2D_ZEICHNUNG_BEMASSUNGEN
100
AcDbDimension
 62
7
  6
CONTINUOUS
  2
*D2
 10
255.0
 20
36.6669411878
 11
276.5006835937
 21
36.6669411878
 70
160
 71
2
 42
45.0
  3
DIMSTYLE_1
100
AcDbAlignedDimension
 13
300.0
 23
-21.1204045948
 14
255.0
 24
-21.1204045948
 50
180.0
100
AcDbRotatedDimension
  0
DIMENSION
  5
246
100
AcDbEntity
  8
_03_2D_ZEICHNUNG_BEMASSUNGEN
100
AcDbDimension
 62
7
  6
CONTINUOUS
  2
*D3
 10
309.0926428916
 20
27.0
 11
309.0926428916
 21
12.9999895546
 70
160
 71
2
 42
27.0
  3
DIMSTYLE_3
100
AcDbAlignedDimension
 13
309.7929339764
 23
0.0
 14
300.0
 24
27.0
 50
90.0
100
AcDbRotatedDimension
  0
LINE
  5
247
100
AcDbEntity
  8
_30_VOLUMEN
100
AcDbLine
 62
4
  6
CONTINUOUS
 10
-0.0
 20
18.5
 11
0.0
 21
-18.5
  0
LINE
  5
248
100
AcDbEntity
  8
0
100
AcDbLine
 62
4
  6
CONTINUOUS
 10
1.5
 20
20.0
 11
1.5
 21
6.2449979984
  0
LINE
  5
249
100
AcDbEntity
  8
0
100
AcDbLine
 62
4
  6
CONTINUOUS
 10
1.5
 20
-6.2449979984
 11
1.5
 21
-20.0
  0
LINE
  5
24A
100
AcDbEntity
  8
_30_VOLUMEN
100
AcDbLine
 62
4
  6
CONTINUOUS
 10
1.5
 20
-20.0
 11
0.0
 21
-18.5
  0
LINE
  5
24B
100
AcDbEntity
  8
_30_VOLUMEN
100
AcDbLine
 62
4
  6
CONTINUOUS
 10
1.5
 20
20.0
 11
-0.0
 21
18.5
  0
LINE
  5
24C
100
AcDbEntity
  8
_30_VOLUMEN
100
AcDbLine
 62
4
  6
CONTINUOUS
 10
284.4420824856
 20
4.0622105338
 11
286.9319775552
 21
4.6159681234
  0
LINE
  5
24D
100
AcDbEntity
  8
_30_VOLUMEN
100
AcDbLine
 62
4
  6
CONTINUOUS
 10
1.5
 20
-20.0
 11
255.0
 21
-20.0
  0
LINE
  5
24E
100
AcDbEntity
  8
_30_VOLUMEN
100
AcDbLine
 62
4
  6
CONTINUOUS
 10
255.0
 20
-19.75
 11
286.9529422439
 21
-19.75
  0
LINE
  5
24F
100
AcDbEntity
  8
0
100
AcDbLine
 62
4
  6
CONTINUOUS
 10
1.5
 20
-6.2449979984
 11
255.0
 21
-6.2449979984
  0
LINE
  5
250
100
AcDbEntity
  8
_30_VOLUMEN
100
AcDbLine
 62
4
  6
CONTINUOUS
 10
255.0
 20
-5.3909646632
 11
259.5949884055
 21
-5.3909646632
  0
LINE
  5
251
100
AcDbEntity
  8
_30_VOLUMEN
100
AcDbLine
 62
7
  6
CONTINUOUS
 10
291.013748759
 20
17.1985585099
 11
291.8200670404
 21
17.3214243794
  0
LINE
  5
252
100
AcDbEntity
  8
_26_BEZUGSACHSEN
100
AcDbLine
 62
7
  6
CENTER
 10
-3.0
 20
0.0
 11
309.7929339764
 21
0.0
  0
LINE
  5
253
100
AcDbEntity
  8
_30_VOLUMEN
100
AcDbLine
 62
4
  6
CONTINUOUS
 10
255.0
 20
5.3909646632
 11
256.7197402589
 21
5.3909646632
  0
LINE
  5
254
100
AcDbEntity
  8
0
100
AcDbLine
 62
4
  6
CONTINUOUS
 10
1.5
 20
6.2449979984
 11
255.0
 21
6.2449979984
  0
LINE
  5
255
100
AcDbEntity
  8
_30_VOLUMEN
100
AcDbLine
 62
4
  6
CONTINUOUS
 10
255.0
 20
19.75
 11
287.1053793216
 21
19.75
  0
LINE
  5
256
100
AcDbEntity
  8
_30_VOLUMEN
100
AcDbLine
 62
4
  6
CONTINUOUS
 10
1.5
 20
20.0
 11
255.0
 21
20.0
  0
LINE
  5
257
100
AcDbEntity
  8
_30_VOLUMEN
100
AcDbLine
 62
4
  6
CONTINUOUS
 10
282.5266435495
 20
-4.0899687387
 11
297.6957290589
 21
-6.473320836
  0
LINE
  5
258
100
AcDbEntity
  8
_30_VOLUMEN
100
AcDbLine
 62
4
  6
CONTINUOUS
 10
285.5247119213
 20
-1.3734066958
 11
296.6583683603
 21
-3.1227160663
  0
LINE
  5
259
100
AcDbEntity
  8
_30_VOLUMEN
100
AcDbLine
 62
4
  6
CONTINUOUS
 10
295.637892453
 20
10.4874027867
 11
290.289635674
 21
11.3277157379
  0
LINE
  5
25A
100
AcDbEntity
  8
_30_VOLUMEN
100
AcDbLine
 62
4
  6
CONTINUOUS
 10
287.370327678
 20
20.0148263284
 11
298.7967606776
 21
26.8875044753
  0
LINE
  5
25B
100
AcDbEntity
  8
_21_KURVEN
100
AcDbLine
 62
7
  6
CONTINUOUS
 10
287.370327678
 20
20.0148263284
 11
298.7967606776
 21
26.8875044753
  0
LINE
  5
25C
100
AcDbEntity
  8
_30_VOLUMEN
100
AcDbLine
 62
4
  6
CONTINUOUS
 10
298.9431190423
 20
12.2222453976
 11
296.5367482598
 21
10.7748810372
  0
LINE
  5
25D
100
AcDbEntity
  8
_21_KURVEN
100
AcDbLine
 62
7
  6
CONTINUOUS
 10
298.9431190423
 20
12.2222453976
 11
296.5367482598
 21
10.7748810372
  0
LINE
  5
25E
100
AcDbEntity
  8
_28_BEZUGSPUNKTE
100
AcDbLine
 62
1
  6
CONTINUOUS
 10
300.15625
 20
27.15625
 11
299.84375
 21
26.84375
  0
LINE
  5
25F
100
AcDbEntity
  8
_30_VOLUMEN
100
AcDbLine
 62
4
  6
CONTINUOUS
 10
282.5266435495
 20
-4.0899687387
 11
285.5247119213
 21
-1.3734066958
  0
LINE
  5
260
100
AcDbEntity
  8
_30_VOLUMEN
100
AcDbLine
 62
7
  6
CONTINUOUS
 10
295.5066399674
 20
16.4926397729
 11
295.1310607232
 21
16.8012042427
  0
LINE
  5
261
100
AcDbEntity
  8
_30_VOLUMEN
100
AcDbLine
 62
4
  6
CONTINUOUS
 10
298.1336596661
 20
1.9110031213
 11
296.9801142965
 21
3.0372145617
  0
LINE
  5
262
100
AcDbEntity
  8
0
100
AcDbLine
 62
4
  6
CONTINUOUS
 10
255.0
 20
6.2449979984
 11
255.0
 21
5.3909646632
  0
LINE
  5
263
100
AcDbEntity
  8
0
100
AcDbLine
 62
4
  6
CONTINUOUS
 10
255.0
 20
-5.3909646632
 11
255.0
 21
-6.2449979984
  0
LINE
  5
264
100
AcDbEntity
  8
_30_VOLUMEN
100
AcDbLine
 62
4
  6
CONTINUOUS
 10
255.0
 20
-19.9999257676
 11
255.0
 21
-6.2449979984
  0
LINE
  5
265
100
AcDbEntity
  8
_30_VOLUMEN
100
AcDbLine
 62
4
  6
CONTINUOUS
 10
255.0
 20
6.2449979984
 11
255.0
 21
19.9999257682
  0
LINE
  5
266
100
AcDbEntity
  8
_30_VOLUMEN
100
AcDbLine
 62
4
  6
CONTINUOUS
 10
287.0234552377
 20
19.6117994008
 11
287.0018684968
 21
19.575584639
  0
LINE
  5
267
100
AcDbEntity
  8
_30_VOLUMEN
100
AcDbLine
 62
4
  6
CONTINUOUS
 10
291.013748759
 20
17.1985585099
 11
284.4420824856
 21
4.0622105338
  0
LINE
  5
268
100
AcDbEntity
  8
_30_VOLUMEN
100
AcDbLine
 62
4
  6
CONTINUOUS
 10
290.289635674
 20
11.3277157379
 11
286.9319775552
 21
4.6159681234
  0
LINE
  5
269
100
AcDbEntity
  8
_30_VOLUMEN
100
AcDbLine
 62
4
  6
CONTINUOUS
 10
297.8612374492
 20
-6.75
 11
286.9529280338
 21
-19.7500169349
  0
LINE
  5
26A
100
AcDbEntity
  8
_28_BEZUGSPUNKTE
100
AcDbLine
 62
1
  6
CONTINUOUS
 10
300.15625
 20
26.84375
 11
299.84375
 21
27.15625
  0
LINE
  5
26B
100
AcDbEntity
  8
_30_VOLUMEN
100
AcDbLine
 62
4
  6
CONTINUOUS
 10
284.4420824856
 20
4.0622105338
 11
282.5266435495
 21
-4.0899687387
  0
LINE
  5
26C
100
AcDbEntity
  8
_30_VOLUMEN
100
AcDbLine
 62
7
  6
CONTINUOUS
 10
298.9431190423
 20
12.2222453976
 11
298.8470874741
 21
12.0611390784
  0
LINE
  5
26D
100
AcDbEntity
  8
_30_VOLUMEN
100
AcDbLine
 62
4
  6
CONTINUOUS
 10
299.2082346481
 20
12.4881138583
 11
298.8368079391
 21
11.8649938671
  0
LINE
  5
26E
100
AcDbEntity
  8
_30_VOLUMEN
100
AcDbLine
 62
4
  6
CONTINUOUS
 10
295.1310607232
 20
16.8012042427
 11
295.637892453
 21
10.4874027867
  0
LINE
  5
26F
100
AcDbEntity
  8
_30_VOLUMEN
100
AcDbLine
 62
4
  6
CONTINUOUS
 10
296.6583683603
 20
-3.1227160663
 11
296.9801142965
 21
3.0372145617
  0
LINE
  5
270
100
AcDbEntity
  8
_30_VOLUMEN
100
AcDbLine
 62
4
  6
CONTINUOUS
 10
297.6957290589
 20
-6.473320836
 11
298.1336596661
 21
1.9110031213
  0
LINE
  5
271
100
AcDbEntity
  8
_30_VOLUMEN
100
AcDbLine
 62
4
  6
CONTINUOUS
 10
287.0068011111
 20
19.5678521211
 11
286.3992136522
 21
7.9743927674
  0
LINE
  5
272
100
AcDbEntity
  8
_21_KURVEN
100
AcDbLine
 62
7
  6
CONTINUOUS
 10
286.3992136522
 20
7.9743927674
 11
286.997711675
 21
19.3944153485
  0
LINE
  5
273
100
AcDbEntity
  8
_26_BEZUGSACHSEN
100
AcDbLine
 62
4
  6
CONTINUOUS
 10
298.8526798932
 20
12.1678487925
 11
297.8612374492
 21
-6.75
  0
LINE
  5
274
100
AcDbEntity
  8
_30_VOLUMEN
100
AcDbLine
 62
4
  6
CONTINUOUS
 10
300.0135078409
 20
26.1569544677
 11
299.3157350453
 21
12.8426563775
  0
LINE
  5
275
100
AcDbEntity
  8
_21_KURVEN
100
AcDbLine
 62
7
  6
CONTINUOUS
 10
300.0135078409
 20
26.1569544677
 11
299.3157350453
 21
12.8426563775
  0
LINE
  5
276
100
AcDbEntity
  8
_30_VOLUMEN
100
AcDbLine
 62
4
  6
CONTINUOUS
 10
286.9319775552
 20
4.6159681234
 11
285.5247119213
 21
-1.3734066958
  0
LINE
  5
277
100
AcDbEntity
  8
_30_VOLUMEN
100
AcDbLine
 62
4
  6
CONTINUOUS
 10
291.8200670404
 20
17.3214243794
 11
290.289635674
 21
11.3277157379
  0
LINE
  5
278
100
AcDbEntity
  8
_30_VOLUMEN
100
AcDbLine
 62
4
  6
CONTINUOUS
 10
297.6957290589
 20
-6.473320836
 11
296.6583683603
 21
-3.1227160663
  0
LINE
  5
279
100
AcDbEntity
  8
_30_VOLUMEN
100
AcDbLine
 62
4
  6
CONTINUOUS
 10
296.9801142965
 20
3.0372145617
 11
295.637892453
 21
10.4874027867
  0
LINE
  5
27A
100
AcDbEntity
  8
_30_VOLUMEN
100
AcDbLine
 62
4
  6
CONTINUOUS
 10
298.1336596661
 20
1.9110031213
 11
295.5066399674
 21
16.4926397729
  0
ARC
  5
27B
100
AcDbEntity
  8
_30_VOLUMEN
100
AcDbCircle
 62
4
  6
CONTINUOUS
 10
368.3957887492
 20
1588.5041858744
 40
1608.0376971073
100
AcDbArc
 50
266.9199697958
 51
267.1623827783
  0
ARC
  5
27C
100
AcDbEntity
  8
_26_BEZUGSACHSEN
100
AcDbCircle
 62
4
  6
CONTINUOUS
 10
310.0865694203
 20
-1550.7848187232
 40
1570.5222655324
100
AcDbArc
 50
90.8420262143
 51
91.2135177302
  0
ARC
  5
27D
100
AcDbEntity
  8
_30_VOLUMEN
100
AcDbCircle
 62
7
  6
CONTINUOUS
 10
292.9004960127
 20
15.852218876
 40
2.4965860558
100
AcDbArc
 50
117.07907941
 51
143.8494935797
  0
ARC
  5
27E
100
AcDbEntity
  8
_30_VOLUMEN
100
AcDbCircle
 62
4
  6
CONTINUOUS
 10
292.4240756441
 20
15.0639860958
 40
2.491282068
100
AcDbArc
 50
126.7046054366
 51
129.0181644342
  0
ARC
  5
27F
100
AcDbEntity
  8
_30_VOLUMEN
100
AcDbCircle
 62
4
  6
CONTINUOUS
 10
292.4197092851
 20
15.0707463069
 40
2.4833066464
100
AcDbArc
 50
131.1786208694
 51
138.7222514735
  0
ARC
  5
280
100
AcDbEntity
  8
_30_VOLUMEN
100
AcDbCircle
 62
4
  6
CONTINUOUS
 10
292.4133797179
 20
15.0771981729
 40
2.4742831928
100
AcDbArc
 50
129.0183432682
 51
131.1666709112
  0
ARC
  5
281
100
AcDbEntity
  8
_30_VOLUMEN
100
AcDbCircle
 62
7
  6
CONTINUOUS
 10
292.8771470898
 20
15.8733203414
 40
2.465291765
100
AcDbArc
 50
144.7220667823
 51
149.2428423034
  0
ARC
  5
282
100
AcDbEntity
  8
_30_VOLUMEN
100
AcDbCircle
 62
7
  6
CONTINUOUS
 10
292.8609393284
 20
15.8845142078
 40
2.4455954636
100
AcDbArc
 50
143.9137499451
 51
144.7168550137
  0
ARC
  5
283
100
AcDbEntity
  8
_30_VOLUMEN
100
AcDbCircle
 62
4
  6
CONTINUOUS
 10
287.7723295632
 20
19.3534907738
 40
0.7756981974
100
AcDbArc
 50
167.5687777702
 51
176.9757638258
  0
SPLINE
  5
284
100
AcDbEntity
  8
_30_VOLUMEN
100
AcDbSpline
 62
4
  6
CONTINUOUS
 70
0
 71
3
 72
11
 73
7
 74
0
 42
0.0000001
 43
0.0000001
 44
0.0000000001
 40
0.0
 40
0.0
 40
0.0
 40
0.0
 40
0.2488629243
 40
0.49997467
 40
0.7511036171
 40
1.0
 40
1.0
 40
1.0
 40
1.0
 10
300.0135078409
 20
26.1569544677
 30
0.0
 10
300.0209453712
 20
26.2988709994
 30
0.0
 10
299.9541270067
 20
26.593935406
 30
0.0
 10
299.6422967789
 20
26.91714089
 30
0.0
 10
299.2104318084
 20
27.0404457504
 30
0.0
 10
298.9185573261
 20
26.9607617345
 30
0.0
 10
298.7967606776
 20
26.8875044753
 30
0.0
  0
SPLINE
  5
285
100
AcDbEntity
  8
_30_VOLUMEN
100
AcDbSpline
 62
4
  6
CONTINUOUS
 70
0
 71
3
 72
8
 73
4
 74
0
 42
0.0000001
 43
0.0000001
 44
0.0000000001
 40
0.0
 40
0.0
 40
0.0
 40
0.0
 40
1.0
 40
1.0
 40
1.0
 40
1.0
 10
287.370327678
 20
20.0148263284
 30
0.0
 10
287.263077153
 20
19.9503181534
 30
0.0
 10
287.1692772561
 20
19.8564735708
 30
0.0
 10
287.1051957557
 20
19.748967566
 30
0.0
  0
SPLINE
  5
286
100
AcDbEntity
  8
_30_VOLUMEN
100
AcDbSpline
 62
4
  6
CONTINUOUS
 70
0
 71
3
 72
8
 73
4
 74
0
 42
0.0000001
 43
0.0000001
 44
0.0000000001
 40
0.0
 40
0.0
 40
0.0
 40
0.0
 40
1.0
 40
1.0
 40
1.0
 40
1.0
 10
299.2082509647
 20
12.48810416
 30
0.0
 10
299.2714823242
 20
12.5941839303
 30
0.0
 10
299.3092717936
 20
12.7193301886
 30
0.0
 10
299.3157350453
 20
12.8426563775
 30
0.0
  0
SPLINE
  5
287
100
AcDbEntity
  8
_30_VOLUMEN
100
AcDbSpline
 62
4
  6
CONTINUOUS
 70
0
 71
3
 72
9
 73
5
 74
0
 42
0.0000001
 43
0.0000001
 44
0.0000000001
 40
0.0
 40
0.0
 40
0.0
 40
0.0
 40
0.5035216033
 40
1.0
 40
1.0
 40
1.0
 40
1.0
 10
290.4270514462
 20
16.0479995721
 30
0.0
 10
290.4380435811
 20
16.2396522767
 30
0.0
 10
290.5060462551
 20
16.6189629777
 30
0.0
 10
290.6616040687
 20
16.9715405061
 30
0.0
 10
290.7585195283
 20
17.1341296761
 30
0.0
  0
SPLINE
  5
288
100
AcDbEntity
  8
_30_VOLUMEN
100
AcDbSpline
 62
4
  6
CONTINUOUS
 70
0
 71
3
 72
11
 73
7
 74
0
 42
0.0000001
 43
0.0000001
 44
0.0000000001
 40
0.0
 40
0.0
 40
0.0
 40
0.0
 40
0.2514389082
 40
0.5022969339
 40
0.7515464267
 40
1.0
 40
1.0
 40
1.0
 40
1.0
 10
295.6396529831
 20
17.576492409
 30
0.0
 10
295.7690294749
 20
17.3694362058
 30
0.0
 10
295.9770859722
 20
16.9219254969
 30
0.0
 10
296.1162145217
 20
16.1981401518
 30
0.0
 10
296.0713145464
 20
15.4651105415
 30
0.0
 10
295.9199037095
 20
14.9997891204
 30
0.0
 10
295.8171170161
 20
14.7815270432
 30
0.0
  0
SPLINE
  5
289
100
AcDbEntity
  8
_30_VOLUMEN
100
AcDbSpline
 62
4
  6
CONTINUOUS
 70
0
 71
3
 72
19
 73
15
 74
0
 42
0.0000001
 43
0.0000001
 44
0.0000000001
 40
0.0
 40
0.0
 40
0.0
 40
0.0
 40
0.1258217362
 40
0.1891613021
 40
0.2524100927
 40
0.378125996
 40
0.4409496478
 40
0.5035534767
 40
0.5659396184
 40
0.6281345924
 40
0.6901997009
 40
0.7521909823
 40
0.8757867367
 40
1.0
 40
1.0
 40
1.0
 40
1.0
 10
295.6396529831
 20
17.576492409
 30
0.0
 10
295.4589195152
 20
17.8657411369
 30
0.0
 10
295.1084207999
 20
18.2575303376
 30
0.0
 10
294.5369475683
 20
18.6381347881
 30
0.0
 10
293.9097969279
 20
18.9178399383
 30
0.0
 10
293.2210629782
 20
19.0320176521
 30
0.0
 10
292.5404923404
 20
18.9696942465
 30
0.0
 10
292.0465215714
 20
18.8358453534
 30
0.0
 10
291.5843808368
 20
18.6202576234
 30
0.0
 10
291.168382518
 20
18.3277565419
 30
0.0
 10
290.8100699291
 20
17.9682573363
 30
0.0
 10
290.42555966
 20
17.4143010687
 30
0.0
 10
290.1364352874
 20
16.6065130582
 30
0.0
 10
290.1432257766
 20
15.9187866402
 30
0.0
 10
290.2044089263
 20
15.587681226
 30
0.0
  0
SPLINE
  5
28A
100
AcDbEntity
  8
_30_VOLUMEN
100
AcDbSpline
 62
4
  6
CONTINUOUS
 70
0
 71
3
 72
8
 73
4
 74
0
 42
0.0000001
 43
0.0000001
 44
0.0000000001
 40
0.0
 40
0.0
 40
0.0
 40
0.0
 40
1.0
 40
1.0
 40
1.0
 40
1.0
 10
287.1051957557
 20
19.748967566
 30
0.0
 10
287.0632585931
 20
19.6786118975
 30
0.0
 10
287.0324376552
 20
19.6004619986
 30
0.0
 10
287.0148175189
 20
19.5204733963
 30
0.0
  0
SPLINE
  5
28B
100
AcDbEntity
  8
_30_VOLUMEN
100
AcDbSpline
 62
4
  6
CONTINUOUS
 70
0
 71
3
 72
8
 73
4
 74
0
 42
0.0000001
 43
0.0000001
 44
0.0000000001
 40
0.0
 40
0.0
 40
0.0
 40
0.0
 40
1.0
 40
1.0
 40
1.0
 40
1.0
 10
298.9431190423
 20
12.2222453976
 30
0.0
 10
299.0503695673
 20
12.2867535726
 30
0.0
 10
299.1441694643
 20
12.3805981552
 30
0.0
 10
299.2082509647
 20
12.48810416
 30
0.0
  0
SPLINE
  5
28C
100
AcDbEntity
  8
_30_VOLUMEN
100
AcDbSpline
 62
4
  6
CONTINUOUS
 70
0
 71
3
 72
15
 73
11
 74
0
 42
0.0000001
 43
0.0000001
 44
0.0000000001
 40
0.0
 40
0.0
 40
0.0
 40
0.0
 40
0.1244738706
 40
0.2483352518
 40
0.3721325122
 40
0.4964492574
 40
0.6216215339
 40
0.7475841841
 40
0.8739088313
 40
1.0
 40
1.0
 40
1.0
 40
1.0
 10
290.1954695546
 20
15.5657447531
 30
0.0
 10
290.1248808833
 20
15.9044710142
 30
0.0
 10
290.1026342977
 20
16.6113317861
 30
0.0
 10
290.4378974107
 20
17.6121965989
 30
0.0
 10
291.1012127249
 20
18.434186312
 30
0.0
 10
292.0115552195
 20
18.9759126802
 30
0.0
 10
293.0578667045
 20
19.1736616445
 30
0.0
 10
294.1146412078
 20
19.0049950147
 30
0.0
 10
295.0555627707
 20
18.4924996254
 30
0.0
 10
295.534449659
 20
17.957626489
 30
0.0
 10
295.7201789718
 20
17.6603823311
 30
0.0
  0
SPLINE
  5
28D
100
AcDbEntity
  8
_30_VOLUMEN
100
AcDbSpline
 62
4
  6
CONTINUOUS
 70
0
 71
3
 72
11
 73
7
 74
0
 42
0.0000001
 43
0.0000001
 44
0.0000000001
 40
0.0
 40
0.0
 40
0.0
 40
0.0
 40
0.2516590241
 40
0.5023216422
 40
0.7514989724
 40
1.0
 40
1.0
 40
1.0
 40
1.0
 10
295.7201789718
 20
17.6603823311
 30
0.0
 10
295.858685385
 20
17.4387144558
 30
0.0
 10
296.078940647
 20
16.9582205073
 30
0.0
 10
296.2127744843
 20
16.1804563233
 30
0.0
 10
296.1397892484
 20
15.3978023716
 30
0.0
 10
295.9560816765
 20
14.9069721974
 30
0.0
 10
295.8343457534
 20
14.6793823821
 30
0.0
  0
SPLINE
  5
28E
100
AcDbEntity
  8
_21_KURVEN
100
AcDbSpline
 62
7
  6
CONTINUOUS
 70
0
 71
3
 72
8
 73
4
 74
0
 42
0.0000001
 43
0.0000001
 44
0.0000000001
 40
0.0
 40
0.0
 40
0.0
 40
0.0
 40
1.0
 40
1.0
 40
1.0
 40
1.0
 10
287.370327678
 20
20.0148263284
 30
0.0
 10
287.3376160787
 20
19.9945963856
 30
0.0
 10
287.3013815249
 20
19.9688981461
 30
0.0
 10
287.2682504433
 20
19.9415612334
 30
0.0
  0
SPLINE
  5
28F
100
AcDbEntity
  8
_21_KURVEN
100
AcDbSpline
 62
7
  6
CONTINUOUS
 70
0
 71
3
 72
9
 73
5
 74
0
 42
0.0000001
 43
0.0000001
 44
0.0000000001
 40
0.0
 40
0.0
 40
0.0
 40
0.0
 40
0.5
 40
1.0
 40
1.0
 40
1.0
 40
1.0
 10
287.2682504391
 20
19.9415612298
 30
0.0
 10
287.2376331031
 20
19.9141400388
 30
0.0
 10
287.1784614105
 20
19.8586037332
 30
0.0
 10
287.1296035181
 20
19.7872553822
 30
0.0
 10
287.1065238711
 20
19.7511502892
 30
0.0
  0
SPLINE
  5
290
100
AcDbEntity
  8
_21_KURVEN
100
AcDbSpline
 62
7
  6
CONTINUOUS
 70
0
 71
3
 72
10
 73
6
 74
0
 42
0.0000001
 43
0.0000001
 44
0.0000000001
 40
0.0
 40
0.0
 40
0.0
 40
0.0
 40
0.5
 40
0.75
 40
1.0
 40
1.0
 40
1.0
 40
1.0
 10
287.1065238653
 20
19.7511502796
 30
0.0
 10
287.090229349
 20
19.7226567416
 30
0.0
 10
287.0639892435
 20
19.6734166106
 30
0.0
 10
287.0408315224
 20
19.6127998913
 30
0.0
 10
287.0297349004
 20
19.577129792
 30
0.0
 10
287.0244452041
 20
19.5595768279
 30
0.0
  0
SPLINE
  5
291
100
AcDbEntity
  8
_21_KURVEN
100
AcDbSpline
 62
7
  6
CONTINUOUS
 70
0
 71
3
 72
8
 73
4
 74
0
 42
0.0000001
 43
0.0000001
 44
0.0000000001
 40
0.0
 40
0.0
 40
0.0
 40
0.0
 40
1.0
 40
1.0
 40
1.0
 40
1.0
 10
287.0244452026
 20
19.5595768227
 30
0.0
 10
287.0174015247
 20
19.5331016574
 30
0.0
 10
287.0117781643
 20
19.5078152037
 30
0.0
 10
287.0066131002
 20
19.4777827785
 30
0.0
  0
SPLINE
  5
292
100
AcDbEntity
  8
_21_KURVEN
100
AcDbSpline
 62
7
  6
CONTINUOUS
 70
0
 71
3
 72
8
 73
4
 74
0
 42
0.0000001
 43
0.0000001
 44
0.0000000001
 40
0.0
 40
0.0
 40
0.0
 40
0.0
 40
1.0
 40
1.0
 40
1.0
 40
1.0
 10
287.0066131002
 20
19.4777827787
 30
0.0
 10
287.0040695883
 20
19.4615212541
 30
0.0
 10
287.0009460807
 20
19.4367837677
 30
0.0
 10
286.9990924984
 20
19.4153531022
 30
0.0
  0
LINE
  5
293
100
AcDbEntity
  8
_21_KURVEN
100
AcDbLine
 62
7
  6
CONTINUOUS
 10
286.9990924982
 20
19.4153530994
 11
286.997711675
 21
19.3944153485
  0
SPLINE
  5
294
100
AcDbEntity
  8
_21_KURVEN
100
AcDbSpline
 62
7
  6
CONTINUOUS
 70
0
 71
3
 72
9
 73
5
 74
0
 42
0.0000001
 43
0.0000001
 44
0.0000000001
 40
0.0
 40
0.0
 40
0.0
 40
0.0
 40
0.5
 40
1.0
 40
1.0
 40
1.0
 40
1.0
 10
300.0135078409
 20
26.1569544677
 30
0.0
 10
300.0144456614
 20
26.211920644
 30
0.0
 10
300.0118138743
 20
26.329582762
 30
0.0
 10
299.9771896834
 20
26.4370405311
 30
0.0
 10
299.9569188021
 20
26.4931850182
 30
0.0
  0
SPLINE
  5
295
100
AcDbEntity
  8
_21_KURVEN
100
AcDbSpline
 62
7
  6
CONTINUOUS
 70
0
 71
3
 72
9
 73
5
 74
0
 42
0.0000001
 43
0.0000001
 44
0.0000000001
 40
0.0
 40
0.0
 40
0.0
 40
0.0
 40
0.5
 40
1.0
 40
1.0
 40
1.0
 40
1.0
 10
299.9569188
 20
26.4931850235
 30
0.0
 10
299.9343766178
 20
26.5438484128
 30
0.0
 10
299.8828909035
 20
26.649336069
 30
0.0
 10
299.8032121768
 20
26.736257543
 30
0.0
 10
299.7618649519
 20
26.7781441265
 30
0.0
  0
SPLINE
  5
296
100
AcDbEntity
  8
_21_KURVEN
100
AcDbSpline
 62
7
  6
CONTINUOUS
 70
0
 71
3
 72
9
 73
5
 74
0
 42
0.0000001
 43
0.0000001
 44
0.0000000001
 40
0.0
 40
0.0
 40
0.0
 40
0.0
 40
0.5
 40
1.0
 40
1.0
 40
1.0
 40
1.0
 10
299.7618649561
 20
26.7781441226
 30
0.0
 10
299.7199678022
 20
26.8149986426
 30
0.0
 10
299.628644533
 20
26.8898284613
 30
0.0
 10
299.5199223376
 20
26.9358819398
 30
0.0
 10
299.4650061586
 20
26.9567952887
 30
0.0
  0
SPLINE
  5
297
100
AcDbEntity
  8
_21_KURVEN
100
AcDbSpline
 62
7
  6
CONTINUOUS
 70
0
 71
3
 72
9
 73
5
 74
0
 42
0.0000001
 43
0.0000001
 44
0.0000000001
 40
0.0
 40
0.0
 40
0.0
 40
0.0
 40
0.5
 40
1.0
 40
1.0
 40
1.0
 40
1.0
 10
299.4650061599
 20
26.9567952882
 30
0.0
 10
299.4116209975
 20
26.9729319268
 30
0.0
 10
299.2976069547
 20
27.003076718
 30
0.0
 10
299.1802482599
 20
26.9996371891
 30
0.0
 10
299.1226682877
 20
26.9958252122
 30
0.0
  0
SPLINE
  5
298
100
AcDbEntity
  8
_21_KURVEN
100
AcDbSpline
 62
7
  6
CONTINUOUS
 70
0
 71
3
 72
9
 73
5
 74
0
 42
0.0000001
 43
0.0000001
 44
0.0000000001
 40
0.0
 40
0.0
 40
0.0
 40
0.0
 40
0.5
 40
1.0
 40
1.0
 40
1.0
 40
1.0
 10
299.1226682905
 20
26.9958252125
 30
0.0
 10
299.067800674
 20
26.9882652778
 30
0.0
 10
298.9524611174
 20
26.9681718526
 30
0.0
 10
298.8484301522
 20
26.9159760011
 30
0.0
 10
298.7967606738
 20
26.887504473
 30
0.0
  0
SPLINE
  5
299
100
AcDbEntity
  8
_21_KURVEN
100
AcDbSpline
 62
1
  6
CENTER
 70
0
 71
3
 72
163
 73
159
 74
0
 42
0.0000001
 43
0.0000001
 44
0.0000000001
 40
0.0
 40
0.0
 40
0.0
 40
0.0
 40
0.015625
 40
0.03125
 40
0.0390625
 40
0.046875
 40
0.0546875
 40
0.05859375
 40
0.060546875
 40
0.0625
 40
0.064453125
 40
0.06640625
 40
0.0703125
 40
0.078125
 40
0.09375
 40
0.109375
 40
0.1171875
 40
0.12109375
 40
0.123046875
 40
0.125
 40
0.126953125
 40
0.12890625
 40
0.1328125
 40
0.140625
 40
0.15625
 40
0.171875
 40
0.1796875
 40
0.18359375
 40
0.185546875
 40
0.1875
 40
0.189453125
 40
0.19140625
 40
0.1953125
 40
0.203125
 40
0.21875
 40
0.234375
 40
0.2421875
 40
0.24609375
 40
0.248046875
 40
0.25
 40
0.251953125
 40
0.25390625
 40
0.2578125
 40
0.265625
 40
0.28125
 40
0.296875
 40
0.3046875
 40
0.30859375
 40
0.310546875
 40
0.3125
 40
0.314453125
 40
0.31640625
 40
0.3203125
 40
0.328125
 40
0.34375
 40
0.359375
 40
0.3671875
 40
0.37109375
 40
0.373046875
 40
0.375
 40
0.376953125
 40
0.37890625
 40
0.3828125
 40
0.390625
 40
0.40625
 40
0.421875
 40
0.4296875
 40
0.43359375
 40
0.435546875
 40
0.4375
 40
0.439453125
 40
0.44140625
 40
0.4453125
 40
0.453125
 40
0.46875
 40
0.484375
 40
0.4921875
 40
0.49609375
 40
0.498046875
 40
0.5
 40
0.501953125
 40
0.50390625
 40
0.5078125
 40
0.515625
 40
0.53125
 40
0.546875
 40
0.5546875
 40
0.55859375
 40
0.560546875
 40
0.5625
 40
0.564453125
 40
0.56640625
 40
0.5703125
 40
0.578125
 40
0.59375
 40
0.609375
 40
0.6171875
 40
0.62109375
 40
0.623046875
 40
0.625
 40
0.626953125
 40
0.62890625
 40
0.6328125
 40
0.640625
 40
0.65625
 40
0.671875
 40
0.6796875
 40
0.68359375
 40
0.685546875
 40
0.6875
 40
0.689453125
 40
0.69140625
 40
0.6953125
 40
0.703125
 40
0.71875
 40
0.734375
 40
0.7421875
 40
0.74609375
 40
0.748046875
 40
0.75
 40
0.751953125
 40
0.75390625
 40
0.7578125
 40
0.765625
 40
0.78125
 40
0.796875
 40
0.8046875
 40
0.80859375
 40
0.810546875
 40
0.8125
 40
0.814453125
 40
0.81640625
 40
0.8203125
 40
0.828125
 40
0.84375
 40
0.859375
 40
0.8671875
 40
0.87109375
 40
0.873046875
 40
0.875
 40
0.876953125
 40
0.87890625
 40
0.8828125
 40
0.890625
 40
0.90625
 40
0.921875
 40
0.9296875
 40
0.93359375
 40
0.935546875
 40
0.9375
 40
0.939453125
 40
0.94140625
 40
0.9453125
 40
0.953125
 40
0.9609375
 40
0.96875
 40
0.984375
 40
1.0
 40
1.0
 40
1.0
 40
1.0
 10
298.5113099174
 20
19.3391691104
 30
0.0
 10
298.4485856995
 20
19.4208420745
 30
0.0
 10
298.3231341023
 20
19.5841851169
 30
0.0
 10
298.1663354126
 20
19.7883783487
 30
0.0
 10
298.0408632666
 20
19.9517026338
 30
0.0
 10
297.9468492555
 20
20.0742780913
 30
0.0
 10
297.8682177495
 20
20.1761627855
 30
0.0
 10
297.8137379203
 20
20.2479952827
 30
0.0
 10
297.7817287241
 20
20.2882410894
 30
0.0
 10
297.7601947869
 20
20.3206828162
 30
0.0
 10
297.7292079424
 20
20.3444957231
 30
0.0
 10
297.6911891788
 20
20.3792558862
 30
0.0
 10
297.6231227131
 20
20.4386860249
 30
0.0
 10
297.4880839327
 20
20.5585475547
 30
0.0
 10
297.2945565481
 20
20.7291969876
 30
0.0
 10
297.1014044305
 20
20.9002645688
 30
0.0
 10
296.9658402764
 20
21.0195406909
 30
0.0
 10
296.8984961995
 20
21.0797757651
 30
0.0
 10
296.8593141084
 20
21.1132396685
 30
0.0
 10
296.8319016813
 20
21.1410354379
 30
0.0
 10
296.7969425702
 20
21.1585179095
 30
0.0
 10
296.7529625925
 20
21.1854250101
 30
0.0
 10
296.674773235
 20
21.2308390232
 30
0.0
 10
296.5192683836
 20
21.3228630288
 30
0.0
 10
296.2966248878
 20
21.4536370019
 30
0.0
 10
296.0742917222
 20
21.5848884874
 30
0.0
 10
295.9183524086
 20
21.6762439756
 30
0.0
 10
295.8407604367
 20
21.7225772001
 30
0.0
 10
295.7958184355
 20
21.7480040122
 30
0.0
 10
295.7638152192
 20
21.7700347898
 30
0.0
 10
295.7253007302
 20
21.7807475513
 30
0.0
 10
295.67621909
 20
21.7989788074
 30
0.0
 10
295.5892700506
 20
21.8290470344
 30
0.0
 10
295.4161231877
 20
21.8904963781
 30
0.0
 10
295.168366785
 20
21.9775219354
 30
0.0
 10
294.9207944607
 20
22.0650836278
 30
0.0
 10
294.747389888
 20
22.1257823824
 30
0.0
 10
294.6607951995
 20
22.1568826694
 30
0.0
 10
294.6111429164
 20
22.1734519068
 30
0.0
 10
294.5743817738
 20
22.1892713546
 30
0.0
 10
294.5357931542
 20
22.1921219009
 30
0.0
 10
294.4849790509
 20
22.2004459981
 30
0.0
 10
294.3957579493
 20
22.212908951
 30
0.0
 10
294.2175265029
 20
22.239337776
 30
0.0
 10
293.9627974967
 20
22.2762351743
 30
0.0
 10
293.7081176659
 20
22.3137021335
 30
0.0
 10
293.5298173739
 20
22.3393335731
 30
0.0
 10
293.440690935
 20
22.352892931
 30
0.0
 10
293.3897243879
 20
22.3594513891
 30
0.0
 10
293.3516041644
 20
22.3677270038
 30
0.0
 10
293.3130837702
 20
22.3631704073
 30
0.0
 10
293.2618628034
 20
22.3615706385
 30
0.0
 10
293.1721613427
 20
22.3566890034
 30
0.0
 10
292.9928029636
 20
22.3484128211
 30
0.0
 10
292.7365650233
 20
22.3357406048
 30
0.0
 10
292.4802889782
 20
22.3236322353
 30
0.0
 10
292.3009839457
 20
22.3145666674
 30
0.0
 10
292.2112091334
 20
22.3107704375
 30
0.0
 10
292.1601062912
 20
22.3074227434
 30
0.0
 10
292.1212229495
 20
22.3082367885
 30
0.0
 10
292.0844659231
 20
22.2963407807
 30
0.0
 10
292.0347149171
 20
22.2849125238
 30
0.0
 10
291.9479957456
 20
22.2628508473
 30
0.0
 10
291.774309932
 20
22.2202005123
 30
0.0
 10
291.5263365809
 20
22.1584297473
 30
0.0
 10
291.2782376435
 20
22.0972200934
 30
0.0
 10
291.1047276506
 20
22.0537842029
 30
0.0
 10
291.0177667257
 20
22.0328026652
 30
0.0
 10
290.968405037
 20
22.0196349639
 30
0.0
 10
290.930451802
 20
22.0130835392
 30
0.0
 10
290.8960613065
 20
21.9938238354
 30
0.0
 10
290.8489646525
 20
21.9725766859
 30
0.0
 10
290.7671238484
 20
21.9333323672
 30
0.0
 10
290.6030261217
 20
21.8563150243
 30
0.0
 10
290.3688627263
 20
21.7454609073
 30
0.0
 10
290.1344442236
 20
21.6351216903
 30
0.0
 10
289.9707036471
 20
21.5573834875
 30
0.0
 10
289.8883717615
 20
21.5191303512
 30
0.0
 10
289.8420659401
 20
21.4962870119
 30
0.0
 10
289.805245548
 20
21.4819317303
 30
0.0
 10
289.7764187747
 20
21.4569597592
 30
0.0
 10
289.7351950104
 20
21.4273667425
 30
0.0
 10
289.664350457
 20
21.3738564571
 30
0.0
 10
289.5217342888
 20
21.2680654999
 30
0.0
 10
289.3185315233
 20
21.1162389082
 30
0.0
 10
289.1149561187
 20
20.9648568067
 30
0.0
 10
288.9728616452
 20
20.8584435632
 30
0.0
 10
288.9012997617
 20
20.8057889215
 30
0.0
 10
288.8612311784
 20
20.7748179852
 30
0.0
 10
288.8288550181
 20
20.754079783
 30
0.0
 10
288.8053657883
 20
20.7238228654
 30
0.0
 10
288.7709471693
 20
20.6868002909
 30
0.0
 10
288.7121566106
 20
20.6204664755
 30
0.0
 10
288.5935443403
 20
20.488900658
 30
0.0
 10
288.4246965536
 20
20.3003300041
 30
0.0
 10
288.2554196128
 20
20.1121386027
 30
0.0
 10
288.1374081582
 20
19.9800418315
 30
0.0
 10
288.0777914779
 20
19.9144380775
 30
0.0
 10
288.0447032365
 20
19.8762398197
 30
0.0
 10
288.0171263143
 20
19.849595284
 30
0.0
 10
288.0001031402
 20
19.8152893168
 30
0.0
 10
287.9737245706
 20
19.7722202203
 30
0.0
 10
287.9292744996
 20
19.695606285
 30
0.0
 10
287.8391505178
 20
19.5432655972
 30
0.0
 10
287.7111067373
 20
19.3251345706
 30
0.0
 10
287.5825750209
 20
19.1073195624
 30
0.0
 10
287.4931341494
 20
18.9545364487
 30
0.0
 10
287.4477448019
 20
18.878530849
 30
0.0
 10
287.4228788334
 20
18.8344820953
 30
0.0
 10
287.4012080701
 20
18.8031862039
 30
0.0
 10
287.3910870538
 20
18.7652361081
 30
0.0
 10
287.3735639674
 20
18.7169568451
 30
0.0
 10
287.3447726316
 20
18.6313887703
 30
0.0
 10
287.2858502638
 20
18.4610204558
 30
0.0
 10
287.2024496169
 20
18.2172235028
 30
0.0
 10
287.1185041155
 20
17.9736185932
 30
0.0
 10
287.060344544
 20
17.8029814179
 30
0.0
 10
287.0305043634
 20
17.7177830267
 30
0.0
 10
287.0146703258
 20
17.668908429
 30
0.0
 10
286.9993595705
 20
17.6327875472
 30
0.0
 10
286.9971809765
 20
17.5946213008
 30
0.0
 10
286.989695873
 20
17.544446358
 30
0.0
 10
286.9787276466
 20
17.4563084337
 30
0.0
 10
286.9552693736
 20
17.2802686023
 30
0.0
 10
286.9226262729
 20
17.028655979
 30
0.0
 10
286.8894070056
 20
16.7771023987
 30
0.0
 10
286.866755366
 20
16.6009799069
 30
0.0
 10
286.8546780187
 20
16.5129556406
 30
0.0
 10
286.8489790319
 20
16.4625976643
 30
0.0
 10
286.8413124505
 20
16.4249938029
 30
0.0
 10
286.8466140572
 20
16.3867606562
 30
0.0
 10
286.8491597463
 20
16.336002598
 30
0.0
 10
286.8557188016
 20
16.2470740517
 30
0.0
 10
286.8673340993
 20
16.0692880705
 30
0.0
 10
286.8847852097
 20
15.8152811106
 30
0.0
 10
286.9016675093
 20
15.561246648
 30
0.0
 10
286.9140791421
 20
15.3834991705
 30
0.0
 10
286.9195432367
 20
15.2945176817
 30
0.0
 10
286.9238522391
 20
15.2438448815
 30
0.0
 10
286.9237359235
 20
15.2053497726
 30
0.0
 10
286.9364185462
 20
15.1687298165
 30
0.0
 10
286.9488646212
 20
15.1192491729
 30
0.0
 10
286.9727218995
 20
15.0329623831
 30
0.0
 10
287.0189531557
 20
14.8601704513
 30
0.0
 10
287.0858452563
 20
14.61345736
 30
0.0
 10
287.1521728956
 20
14.3666300755
 30
0.0
 10
287.1991943976
 20
14.1939980141
 30
0.0
 10
287.221965088
 20
14.1074914024
 30
0.0
 10
287.2361609929
 20
14.0583647578
 30
0.0
 10
287.2434671219
 20
14.0206571113
 30
0.0
 10
287.2635444089
 20
13.9862472646
 30
0.0
 10
287.2858594018
 20
13.9392171595
 30
0.0
 10
287.3269861778
 20
13.8574504262
 30
0.0
 10
287.384653597
 20
13.7403606054
 30
0.0
 10
287.4543189786
 20
13.5999727592
 30
0.0
 10
287.5470438535
 20
13.4127470546
 30
0.0
 10
287.6630060049
 20
13.1787293992
 30
0.0
 10
287.7557586418
 20
12.9915108633
 30
0.0
 10
287.8021370958
 20
12.8979021469
 30
0.0
  0
SPLINE
  5
29A
100
AcDbEntity
  8
_21_KURVEN
100
AcDbSpline
 62
1
  6
CENTER
 70
0
 71
3
 72
9
 73
5
 74
0
 42
0.0000001
 43
0.0000001
 44
0.0000000001
 40
0.0
 40
0.0
 40
0.0
 40
0.0
 40
0.5
 40
1.0
 40
1.0
 40
1.0
 40
1.0
 10
287.8021368029
 20
12.8979026156
 30
0.0
 10
287.8977660291
 20
12.7494528962
 30
0.0
 10
288.0933663688
 20
12.4548448293
 30
0.0
 10
288.320497415
 20
12.183051422
 30
0.0
 10
288.4369015736
 20
12.0476307141
 30
0.0
  0
SPLINE
  5
29B
100
AcDbEntity
  8
_21_KURVEN
100
AcDbSpline
 62
1
  6
CENTER
 70
0
 71
3
 72
11
 73
7
 74
0
 42
0.0000001
 43
0.0000001
 44
0.0000000001
 40
0.0
 40
0.0
 40
0.0
 40
0.0
 40
0.375
 40
0.5625
 40
0.75
 40
1.0
 40
1.0
 40
1.0
 40
1.0
 10
296.5371682623
 20
10.7752521762
 30
0.0
 10
296.5464701673
 20
10.7809424623
 30
0.0
 10
296.5602018753
 20
10.7893415001
 30
0.0
 10
296.5793332927
 20
10.8011832339
 30
0.0
 10
296.5928185468
 20
10.8095356532
 30
0.0
 10
296.609799845
 20
10.8202183455
 30
0.0
 10
296.618272159
 20
10.8255331903
 30
0.0
  0
SPLINE
  5
29C
100
AcDbEntity
  8
_21_KURVEN
100
AcDbSpline
 62
1
  6
CENTER
 70
0
 71
3
 72
71
 73
67
 74
0
 42
0.0000001
 43
0.0000001
 44
0.0000000001
 40
0.0
 40
0.0
 40
0.0
 40
0.0
 40
0.03125
 40
0.0625
 40
0.09375
 40
0.109375
 40
0.125
 40
0.1328125
 40
0.140625
 40
0.15625
 40
0.171875
 40
0.1875
 40
0.21875
 40
0.234375
 40
0.25
 40
0.265625
 40
0.2734375
 40
0.28125
 40
0.28515625
 40
0.2890625
 40
0.296875
 40
0.3125
 40
0.34375
 40
0.375
 40
0.40625
 40
0.4140625
 40
0.421875
 40
0.4296875
 40
0.43359375
 40
0.4375
 40
0.4453125
 40
0.453125
 40
0.46875
 40
0.5
 40
0.53125
 40
0.546875
 40
0.5546875
 40
0.5625
 40
0.56640625
 40
0.5703125
 40
0.578125
 40
0.5859375
 40
0.59375
 40
0.625
 40
0.65625
 40
0.6875
 40
0.703125
 40
0.7109375
 40
0.71484375
 40
0.71875
 40
0.7265625
 40
0.734375
 40
0.75
 40
0.765625
 40
0.78125
 40
0.8125
 40
0.828125
 40
0.84375
 40
0.859375
 40
0.8671875
 40
0.875
 40
0.890625
 40
0.90625
 40
0.9375
 40
0.96875
 40
1.0
 40
1.0
 40
1.0
 40
1.0
 10
296.6182721602
 20
10.825533191
 30
0.0
 10
296.6962303162
 20
10.8878311672
 30
0.0
 10
296.8521519334
 20
11.012421922
 30
0.0
 10
297.0860025272
 20
11.1993392393
 30
0.0
 10
297.2809708653
 20
11.3550127138
 30
0.0
 10
297.436738628
 20
11.4797541968
 30
0.0
 10
297.5345643274
 20
11.5572563434
 30
0.0
 10
297.6117465794
 20
11.6203144573
 30
0.0
 10
297.6928653834
 20
11.6795160092
 30
0.0
 10
297.7660876322
 20
11.7811216688
 30
0.0
 10
297.8605426574
 20
11.8965941157
 30
0.0
 10
297.9841758784
 20
12.0528167625
 30
0.0
 10
298.1084733221
 20
12.2083917925
 30
0.0
 10
298.2325082072
 20
12.3642151347
 30
0.0
 10
298.3256578239
 20
12.4809853218
 30
0.0
 10
298.4029803944
 20
12.5785147461
 30
0.0
 10
298.4655017886
 20
12.656056701
 30
0.0
 10
298.5030703705
 20
12.7056139167
 30
0.0
 10
298.5365768963
 20
12.7427557002
 30
0.0
 10
298.5574826125
 20
12.7890386447
 30
0.0
 10
298.5962636235
 20
12.8684405596
 30
0.0
 10
298.6722704412
 20
13.0283744734
 30
0.0
 10
298.7816333174
 20
13.2562692752
 30
0.0
 10
298.9126713233
 20
13.5299546345
 30
0.0
 10
299.0106041145
 20
13.7352825239
 30
0.0
 10
299.0765305324
 20
13.8719952096
 30
0.0
 10
299.1083331983
 20
13.9406754104
 30
0.0
 10
299.1385975817
 20
13.9968581466
 30
0.0
 10
299.1473391011
 20
14.0461253406
 30
0.0
 10
299.1587822783
 20
14.0946379203
 30
0.0
 10
299.1721613004
 20
14.1555369953
 30
0.0
 10
299.1940840964
 20
14.2528313013
 30
0.0
 10
299.2322069196
 20
14.4231638225
 30
0.0
 10
299.2868066269
 20
14.6664583498
 30
0.0
 10
299.3413132943
 20
14.9097749161
 30
0.0
 10
299.3795663733
 20
15.0800765826
 30
0.0
 10
299.4012844816
 20
15.1774193745
 30
0.0
 10
299.415186853
 20
15.23819448
 30
0.0
 10
299.4255554196
 20
15.2869616105
 30
0.0
 10
299.4386744652
 20
15.3351918679
 30
0.0
 10
299.4353863428
 20
15.3993224308
 30
0.0
 10
299.4360367396
 20
15.4753818968
 30
0.0
 10
299.434974758
 20
15.6279626129
 30
0.0
 10
299.4343523361
 20
15.8566359942
 30
0.0
 10
299.4330717213
 20
16.1616646298
 30
0.0
 10
299.4317815159
 20
16.4157706337
 30
0.0
 10
299.431543917
 20
16.5937651183
 30
0.0
 10
299.4304853446
 20
16.6826041259
 30
0.0
 10
299.4313964077
 20
16.7336233495
 30
0.0
 10
299.4170851935
 20
16.78209207
 30
0.0
 10
299.4044083604
 20
16.8435512807
 30
0.0
 10
299.3812119999
 20
16.9413978402
 30
0.0
 10
299.3532185174
 20
17.0638741311
 30
0.0
 10
299.319187033
 20
17.2107711072
 30
0.0
 10
299.2740171503
 20
17.4066728695
 30
0.0
 10
299.2284932994
 20
17.6024890128
 30
0.0
 10
299.1838772809
 20
17.7985326673
 30
0.0
 10
299.1480457381
 20
17.9449684937
 30
0.0
 10
299.1257062852
 20
18.0688932677
 30
0.0
 10
299.0769594969
 20
18.160253051
 30
0.0
 10
299.0336047457
 20
18.2529715367
 30
0.0
 10
298.9775650608
 20
18.3684044209
 30
0.0
 10
298.8889334643
 20
18.553357057
 30
0.0
 10
298.7777897074
 20
18.7844585842
 30
0.0
 10
298.644569804
 20
19.0618188707
 30
0.0
 10
298.5557274675
 20
19.2467184039
 30
0.0
 10
298.5113099327
 20
19.339169086
 30
0.0
  0
SPLINE
  5
29D
100
AcDbEntity
  8
_21_KURVEN
100
AcDbSpline
 62
7
  6
CONTINUOUS
 70
0
 71
3
 72
8
 73
4
 74
0
 42
0.0000001
 43
0.0000001
 44
0.0000000001
 40
0.0
 40
0.0
 40
0.0
 40
0.0
 40
1.0
 40
1.0
 40
1.0
 40
1.0
 10
298.9431190423
 20
12.2222453976
 30
0.0
 10
298.9758306416
 20
12.2424753404
 30
0.0
 10
299.0120651955
 20
12.2681735798
 30
0.0
 10
299.045196277
 20
12.2955104926
 30
0.0
  0
SPLINE
  5
29E
100
AcDbEntity
  8
_21_KURVEN
100
AcDbSpline
 62
7
  6
CONTINUOUS
 70
0
 71
3
 72
9
 73
5
 74
0
 42
0.0000001
 43
0.0000001
 44
0.0000000001
 40
0.0
 40
0.0
 40
0.0
 40
0.0
 40
0.5
 40
1.0
 40
1.0
 40
1.0
 40
1.0
 10
299.0451962813
 20
12.2955104962
 30
0.0
 10
299.0758136172
 20
12.3229316872
 30
0.0
 10
299.1377673919
 20
12.3815031668
 30
0.0
 10
299.1853763419
 20
12.452082036
 30
0.0
 10
299.2082346493
 20
12.4881138602
 30
0.0
  0
SPLINE
  5
29F
100
AcDbEntity
  8
_21_KURVEN
100
AcDbSpline
 62
7
  6
CONTINUOUS
 70
0
 71
3
 72
9
 73
5
 74
0
 42
0.0000001
 43
0.0000001
 44
0.0000000001
 40
0.0
 40
0.0
 40
0.0
 40
0.0
 40
0.5
 40
1.0
 40
1.0
 40
1.0
 40
1.0
 10
299.2082346481
 20
12.4881138583
 30
0.0
 10
299.224434287
 20
12.5166615445
 30
0.0
 10
299.2569796739
 20
12.5770077592
 30
0.0
 10
299.2783658393
 20
12.6422171851
 30
0.0
 10
299.2890015189
 20
12.6774949076
 30
0.0
  0
SPLINE
  5
2A0
100
AcDbEntity
  8
_21_KURVEN
100
AcDbSpline
 62
7
  6
CONTINUOUS
 70
0
 71
3
 72
8
 73
4
 74
0
 42
0.0000001
 43
0.0000001
 44
0.0000000001
 40
0.0
 40
0.0
 40
0.0
 40
0.0
 40
1.0
 40
1.0
 40
1.0
 40
1.0
 10
299.2890015177
 20
12.6774949033
 30
0.0
 10
299.3026188791
 20
12.7305713383
 30
0.0
 10
299.3113450581
 20
12.7817804975
 30
0.0
 10
299.3157350453
 20
12.8426563778
 30
0.0
  0
SPLINE
  5
2A1
100
AcDbEntity
  8
_30_VOLUMEN
100
AcDbSpline
 62
4
  6
CONTINUOUS
 70
0
 71
3
 72
17
 73
13
 74
0
 42
0.0000001
 43
0.0000001
 44
0.0000000001
 40
0.0
 40
0.0
 40
0.0
 40
0.0
 40
0.1248902586
 40
0.1877975029
 40
0.2508534546
 40
0.3768055017
 40
0.5026395015
 40
0.5655580937
 40
0.6282990089
 40
0.7527988016
 40
0.876581397
 40
1.0
 40
1.0
 40
1.0
 40
1.0
 10
295.5066399674
 20
16.4926397729
 30
0.0
 10
295.4627297861
 20
16.7363693151
 30
0.0
 10
295.337320989
 20
17.0954664308
 30
0.0
 10
295.0684861371
 20
17.5156777943
 30
0.0
 10
294.7369823869
 20
17.8917856298
 30
0.0
 10
294.2194944988
 20
18.2594454428
 30
0.0
 10
293.615108345
 20
18.4529168241
 30
0.0
 10
293.1161765322
 20
18.4920980361
 30
0.0
 10
292.6198555159
 20
18.4542914355
 30
0.0
 10
292.0218837423
 20
18.2626692612
 30
0.0
 10
291.4153644616
 20
17.8234397946
 30
0.0
 10
291.1232441832
 20
17.4174329833
 30
0.0
 10
291.013748759
 20
17.1985585099
 30
0.0
  0
SPLINE
  5
2A2
100
AcDbEntity
  8
_30_VOLUMEN
100
AcDbSpline
 62
4
  6
CONTINUOUS
 70
0
 71
3
 72
22
 73
18
 74
0
 42
0.0000001
 43
0.0000001
 44
0.0000000001
 40
0.0
 40
0.0
 40
0.0
 40
0.0
 40
0.0679741105
 40
0.1331767546
 40
0.1951414775
 40
0.253829619
 40
0.3098187176
 40
0.3643027653
 40
0.4187936318
 40
0.47464633
 40
0.5327303834
 40
0.5933934357
 40
0.6566029637
 40
0.7221126108
 40
0.7895770774
 40
0.8586216119
 40
1.0
 40
1.0
 40
1.0
 40
1.0
 10
256.7197402589
 20
5.3909646632
 30
0.0
 10
256.6778213817
 20
6.0419277184
 30
0.0
 10
256.6446967865
 20
7.3212835705
 30
0.0
 10
256.7687976328
 20
9.1929352074
 30
0.0
 10
257.0871984044
 20
10.9525952585
 30
0.0
 10
257.6204893817
 20
12.5687221913
 30
0.0
 10
258.384573408
 20
14.011024198
 30
0.0
 10
259.3815247786
 20
15.2533486977
 30
0.0
 10
260.5935980509
 20
16.2832660914
 30
0.0
 10
261.9903883083
 20
17.1093370365
 30
0.0
 10
263.5407887993
 20
17.7556250682
 30
0.0
 10
265.2177112148
 20
18.2512711762
 30
0.0
 10
266.9978635206
 20
18.6244076154
 30
0.0
 10
268.8610874051
 20
18.8998784757
 30
0.0
 10
270.789976783
 20
19.0988201442
 30
0.0
 10
273.4504160505
 20
19.2863671032
 30
0.0
 10
275.4691617154
 20
19.3564241375
 30
0.0
 10
276.8255896081
 20
19.3852010721
 30
0.0
  0
LINE
  5
2A3
100
AcDbEntity
  8
_30_VOLUMEN
100
AcDbLine
 62
4
  6
CONTINUOUS
 10
256.7197402589
 20
5.3909646632
 11
259.5949884055
 21
-5.3909646632
  0
SPLINE
  5
2A4
100
AcDbEntity
  8
_30_VOLUMEN
100
AcDbSpline
 62
7
  6
CONTINUOUS
 70
0
 71
3
 72
10
 73
6
 74
0
 42
0.0000001
 43
0.0000001
 44
0.0000000001
 40
0.0
 40
0.0
 40
0.0
 40
0.0
 40
0.5001572902
 40
0.7501266238
 40
1.0
 40
1.0
 40
1.0
 40
1.0
 10
276.8255832922
 20
19.3852017952
 30
0.0
 10
277.8647085739
 20
13.3107138886
 30
0.0
 10
279.3168469909
 20
4.1811771841
 30
0.0
 10
280.9663332542
 20
-8.0299369912
 30
0.0
 10
281.6757294414
 20
-14.1483641651
 30
0.0
 10
281.9946673328
 20
-17.2106336175
 30
0.0
  0
SPLINE
  5
2A5
100
AcDbEntity
  8
_30_VOLUMEN
100
AcDbSpline
 62
4
  6
CONTINUOUS
 70
0
 71
3
 72
15
 73
11
 74
0
 42
0.0000001
 43
0.0000001
 44
0.0000000001
 40
0.0
 40
0.0
 40
0.0
 40
0.0
 40
0.131675455
 40
0.2609327099
 40
0.3870180653
 40
0.5098615565
 40
0.6304096586
 40
0.750703807
 40
0.8732932245
 40
1.0
 40
1.0
 40
1.0
 40
1.0
 10
281.9946776908
 20
-17.2106328263
 30
0.0
 10
280.824773464
 20
-17.1476662822
 30
0.0
 10
278.5092766508
 20
-16.9553517177
 30
0.0
 10
275.1024840817
 20
-16.4308970274
 30
0.0
 10
271.8301597872
 20
-15.6222326113
 30
0.0
 10
268.7435057174
 20
-14.4634584814
 30
0.0
 10
265.902861805
 20
-12.8839534193
 30
0.0
 10
263.3791924616
 20
-10.8333337851
 30
0.0
 10
261.2368475177
 20
-8.315999179
 30
0.0
 10
260.0997924174
 20
-6.3990206287
 30
0.0
 10
259.5949884055
 20
-5.3909646632
 30
0.0
  0
SPLINE
  5
2A6
100
AcDbEntity
  8
0
100
AcDbSpline
 62
4
  6
CONTINUOUS
 70
0
 71
3
 72
11
 73
7
 74
0
 42
0.0000001
 43
0.0000001
 44
0.0000000001
 40
0.0
 40
0.0
 40
0.0
 40
0.0
 40
0.2500298805
 40
0.500000013
 40
0.7499701377
 40
1.0
 40
1.0
 40
1.0
 40
1.0
 10
1.5
 20
6.2449979984
 30
0.0
 10
1.1848641838
 20
5.2357556696
 30
0.0
 10
0.6797503601
 20
3.1743572523
 30
0.0
 10
0.4101755902
 20
-0.0000001335
 30
0.0
 10
0.6797503685
 20
-3.1743574439
 30
0.0
 10
1.1848642068
 20
-5.235755743
 30
0.0
 10
1.5
 20
-6.2449979984
 30
0.0
  0
ELLIPSE
  5
2A7
100
AcDbEntity
  8
_26_BEZUGSACHSEN
100
AcDbEllipse
 62
4
  6
CONTINUOUS
 10
285.4022235053
 20
-0.0
 30
0.0
 11
1.3804513733
 21
19.7495877642
 31
0.0
 40
0.0924374581
 41
-0.1294571959
 42
-0.0869081483
  0
ELLIPSE
  5
2A8
100
AcDbEntity
  8
_26_BEZUGSACHSEN
100
AcDbEllipse
 62
4
  6
CONTINUOUS
 10
255.7914780671
 20
0.0
 30
0.0
 11
31.7862538261
 21
19.6874471456
 31
0.0
 40
0.0494127035
 41
6.4322900841
 42
6.4561649159
  0
ELLIPSE
  5
2A9
100
AcDbEntity
  8
_30_VOLUMEN
100
AcDbEllipse
 62
4
  6
CONTINUOUS
 10
293.4576244094
 20
16.8456145104
 30
0.0
 11
-1.5867741923
 21
0.6319576135
 31
0.0
 40
0.8626104692
 41
-2.738514878
 42
0.1114453948
  0
ENDSEC
  0
SECTION
  2
OBJECTS
  0
DICTIONARY
  5
C
100
AcDbDictionary
280
0
281
1
  3
ACAD_GROUP
350
D
  3
ACAD_MLINESTYLE
350
17
  3
ACAD_LAYOUT
350
1A
  3
ACAD_PLOTSETTINGS
350
19
  3
ACAD_PLOTSTYLENAME
350
E
  0
DICTIONARY
  5
D
102
{ACAD_REACTORS
330
C
102
}
100
AcDbDictionary
280
0
281
1
  0
ACDBDICTIONARYWDFLT
  5
E
102
{ACAD_REACTORS
330
C
102
}
100
AcDbDictionary
281
1
  3
Normal
350
F
100
AcDbDictionaryWithDefault
340
F
  0
DICTIONARY
  5
17
102
{ACAD_REACTORS
330
C
102
}
100
AcDbDictionary
280
0
281
1
  3
Standard
350
18
  0
DICTIONARY
  5
19
102
{ACAD_REACTORS
330
C
102
}
100
AcDbDictionary
281
1
  0
DICTIONARY
  5
1A
102
{ACAD_REACTORS
330
C
102
}
100
AcDbDictionary
281
1
  3
Model
350
2AA
  3
Layout1
350
2AB
  0
ACDBPLACEHOLDER
  5
F
102
{ACAD_REACTORS
330
E
102
}
  0
MLINESTYLE
  5
18
102
{ACAD_REACTORS
330
17
102
}
100
AcDbMlineStyle
  2
STANDARD
 70
0
  3

 62
256
 51
90.0
 52
90.0
 71
2
 49
0.5
 62
256
  6
BYLAYER
 49
-0.5
 62
256
  6
BYLAYER
  0
LAYOUT
  5
2AA
102
{ACAD_REACTORS
330
1A
102
}
100
AcDbPlotSettings
  1

  2
none_device
  4
ISO_A3_(420.00_x_297.00_MM)
  6

 40
0.0
 41
0.0
 42
0.0
 43
0.0
 44
420.0
 45
297.0
 46
0.0
 47
0.0
 48
0.0
 49
0.0
140
0.0
141
0.0
142
1.0
143
1.0
 70
1024
 72
1
 73
0
 74
0
  7

 75
0
147
1.0
148
0.0
149
0.0
100
AcDbLayout
  1
Model
 70
0
 71
0
 10
0.0
 20
0.0
 11
420.0
 21
297.0
 12
0.0
 22
0.0
 32
0.0
 14
0.0
 24
0.0
 34
0.0
 15
0.0
 25
0.0
 35
0.0
146
0.0
 13
0.0
 23
0.0
 33
0.0
 16
1.0
 26
0.0
 36
0.0
 17
0.0
 27
1.0
 37
0.0
 76
0
330
20F
345
0
346
0
  0
LAYOUT
  5
2AB
102
{ACAD_REACTORS
330
1A
102
}
100
AcDbPlotSettings
  1

  2
none_device
  4
ISO_A3_(420.00_x_297.00_MM)
  6

 40
0.0
 41
0.0
 42
0.0
 43
0.0
 44
420.0
 45
297.0
 46
0.0
 47
0.0
 48
0.0
 49
0.0
140
0.0
141
0.0
142
1.0
143
1.0
 70
0
 72
1
 73
0
 74
0
  7

 75
0
147
1.0
148
0.0
149
0.0
100
AcDbLayout
  1
Layout1
 70
0
 71
1
 10
0.0
 20
0.0
 11
420.0
 21
297.0
 12
0.0
 22
0.0
 32
0.0
 14
0.0
 24
0.0
 34
0.0
 15
0.0
 25
0.0
 35
0.0
146
0.0
 13
0.0
 23
0.0
 33
0.0
 16
1.0
 26
0.0
 36
0.0
 17
0.0
 27
1.0
 37
0.0
 76
0
330
210
345
0
346
0
  0
ENDSEC
  0
EOF
