999
DXF file: 70569050.dxf
999
Pro/ENGINEER 2017380 by Parametric Technology Corporation
  0
SECTION
  2
HEADER
  9
$ACADVER
  1
AC1027
  9
$DWGCODEPAGE
  3
ANSI_1252
  9
$EXTMAX
 10
420.0
 20
297.0
 30
0.0
  9
$EXTMIN
 10
0.0
 20
0.0
 30
0.0
  9
$LIMMIN
 10
0.0
 20
0.0
  9
$LIMMAX
 10
420.0
 20
297.0
  9
$VIEWCTR
 10
210.0
 20
148.5
  9
$VIEWSIZE
 40
297.0
  9
$CLAYER
  8
0
  9
$LTSCALE
 40
23.1
  9
$CELTYPE
  6
BYLAYER
  9
$DIMSCALE
 40
1.0
  9
$DIMASZ
 40
3.5
  9
$DIMEXO
 40
0.0
  9
$DIMDLI
 40
15.96
  9
$DIMEXE
 40
1.5
  9
$DIMCEN
 40
3.78
  9
$DIMLFAC
 40
1.0
  9
$DIMBLK
  1
_FILLED
  9
$DIMALT
 70
0
  9
$DIMALTF
 40
25.4
  9
$DIMTXT
 40
3.5
  9
$DIMTOL
 70
1
  9
$DIMLIM
 70
0
  9
$DIMTFAC
 40
1.0
  9
$DIMTP
 40
0.05
  9
$DIMTM
 40
0.05
  9
$DIMGAP
 40
0.625
  9
$DIMDSEP
 70
46
  9
$AUNITS
 70
0
  9
$PDMODE
 70
3
  9
$PDSIZE
 40
0.3125
  9
$HANDSEED
  5
29F
  9
$TILEMODE
 70
1
  9
$MEASUREMENT
 70
1
  9
$INSUNITS
 70
4
  0
ENDSEC
  0
SECTION
  2
CLASSES
  0
CLASS
  1
ACDBDICTIONARYWDFLT
  2
AcDbDictionaryWithDefault
  3
AutoCAD 2000
 90
0
 91
1
280
0
281
0
  0
CLASS
  1
ACDBPLACEHOLDER
  2
AcDbPlaceHolder
  3
AutoCAD 2000
 90
0
 91
1
280
0
281
0
  0
CLASS
  1
LAYOUT
  2
AcDbLayout
  3
AutoCAD 2000
 90
0
 91
0
280
0
281
0
  0
ENDSEC
  0
SECTION
  2
TABLES
  0
TABLE
  2
VPORT
  5
8
100
AcDbSymbolTable
 70
2
  0
VPORT
  5
1F4
100
AcDbSymbolTableRecord
100
AcDbViewportTableRecord
  2
*ACTIVE
 70
0
 10
0.0
 20
0.0
 11
1.0
 21
1.0
 12
210.0
 22
148.5
 13
0.0
 23
0.0
 14
1.0
 24
1.0
 15
0.0
 25
0.0
 16
0.0
 26
0.0
 36
1.0
 17
0.0
 27
0.0
 37
0.0
 40
297.0
 41
1.4141414141
 42
50.0
 43
0.0
 44
0.0
 50
0.0
 51
0.0
 71
0
 72
100
 73
1
 74
1
 75
0
 76
0
 77
0
 78
0
  0
ENDTAB
  0
TABLE
  2
LTYPE
  5
5
100
AcDbSymbolTable
 70
6
  0
LTYPE
  5
14
100
AcDbSymbolTableRecord
100
AcDbLinetypeTableRecord
  2
BYBLOCK
 70
0
  3

 72
65
 73
0
 40
0.0
  0
LTYPE
  5
15
100
AcDbSymbolTableRecord
100
AcDbLinetypeTableRecord
  2
BYLAYER
 70
0
  3

 72
65
 73
0
 40
0.0
  0
LTYPE
  5
16
100
AcDbSymbolTableRecord
100
AcDbLinetypeTableRecord
  2
CONTINUOUS
 70
64
  3
Solid line
 72
65
 73
0
 40
0.0
  0
LTYPE
  5
1F5
100
AcDbSymbolTableRecord
100
AcDbLinetypeTableRecord
  2
CENTER
 70
64
  3
____ _ ____ _ ____ _ ____ _ ____ _ ____ _ ____
 72
65
 73
4
 40
0.6
 49
0.375
 74
0
 49
-0.075
 74
0
 49
0.075
 74
0
 49
-0.075
 74
0
  0
LTYPE
  5
1F6
100
AcDbSymbolTableRecord
100
AcDbLinetypeTableRecord
  2
HIDDEN
 70
64
  3
- - - - - - - - - - - - - - - - - - - -
 72
65
 73
2
 40
0.2
 49
0.1
 74
0
 49
-0.1
 74
0
  0
LTYPE
  5
1F7
100
AcDbSymbolTableRecord
100
AcDbLinetypeTableRecord
  2
PHANTOM
 70
64
  3
_____ _ _ _____ _ _ _____ _ _ _____
 72
65
 73
6
 40
0.8
 49
0.45
 74
0
 49
-0.05
 74
0
 49
0.1
 74
0
 49
-0.05
 74
0
 49
0.1
 74
0
 49
-0.05
 74
0
  0
LTYPE
  5
1F8
100
AcDbSymbolTableRecord
100
AcDbLinetypeTableRecord
  2
DOT
 70
64
  3
. . . . . . . . . . . . . . . . . . . .
 72
65
 73
2
 40
0.2
 49
0.1
 74
0
 49
-0.1
 74
0
  0
LTYPE
  5
1F9
100
AcDbSymbolTableRecord
100
AcDbLinetypeTableRecord
  2
DASHED
 70
64
  3
- - - - - - - - - - - - - - - - - - - -
 72
65
 73
2
 40
0.2
 49
0.1
 74
0
 49
-0.1
 74
0
  0
ENDTAB
  0
TABLE
  2
LAYER
  5
2
100
AcDbSymbolTable
 70
36
  0
LAYER
  5
10
100
AcDbSymbolTableRecord
100
AcDbLayerTableRecord
  2
0
 70
0
 62
7
  6
CONTINUOUS
370
-3
390
F
  0
LAYER
  5
1FA
100
AcDbSymbolTableRecord
100
AcDbLayerTableRecord
  2
DEFAULT_1
 70
0
 62
7
  6
CENTER
370
-3
390
F
  0
LAYER
  5
1FB
100
AcDbSymbolTableRecord
100
AcDbLayerTableRecord
  2
DEFAULT_2
 70
0
 62
1
  6
HIDDEN
370
-3
390
F
  0
LAYER
  5
1FC
100
AcDbSymbolTableRecord
100
AcDbLayerTableRecord
  2
DEFAULT_3
 70
0
 62
7
  6
PHANTOM
370
-3
390
F
  0
LAYER
  5
1FD
100
AcDbSymbolTableRecord
100
AcDbLayerTableRecord
  2
BG_STARTBEZUEGE
 70
0
 62
7
  6
CONTINUOUS
370
-3
390
F
  0
LAYER
  5
1FE
100
AcDbSymbolTableRecord
100
AcDbLayerTableRecord
  2
HILFEN
 70
0
 62
7
  6
CONTINUOUS
370
-3
390
F
  0
LAYER
  5
1FF
100
AcDbSymbolTableRecord
100
AcDbLayerTableRecord
  2
PLATZIERUNG
 70
0
 62
7
  6
CONTINUOUS
370
-3
390
F
  0
LAYER
  5
200
100
AcDbSymbolTableRecord
100
AcDbLayerTableRecord
  2
T_STARTBEZUEGE
 70
0
 62
7
  6
CONTINUOUS
370
-3
390
F
  0
LAYER
  5
201
100
AcDbSymbolTableRecord
100
AcDbLayerTableRecord
  2
_03_2D_ZEICHNUNG_BEMASSUNGEN
 70
0
 62
7
  6
CONTINUOUS
370
-3
390
F
  0
LAYER
  5
202
100
AcDbSymbolTableRecord
100
AcDbLayerTableRecord
  2
_04_NOTIZEN
 70
0
 62
7
  6
CONTINUOUS
370
-3
390
F
  0
LAYER
  5
203
100
AcDbSymbolTableRecord
100
AcDbLayerTableRecord
  2
_05_2D_ELEMENTE
 70
0
 62
7
  6
CONTINUOUS
370
-3
390
F
  0
LAYER
  5
204
100
AcDbSymbolTableRecord
100
AcDbLayerTableRecord
  2
_07_EINRASTLINIEN
 70
0
 62
7
  6
CONTINUOUS
370
-3
390
F
  0
LAYER
  5
205
100
AcDbSymbolTableRecord
100
AcDbLayerTableRecord
  2
_21_KURVEN
 70
0
 62
7
  6
CONTINUOUS
370
-3
390
F
  0
LAYER
  5
206
100
AcDbSymbolTableRecord
100
AcDbLayerTableRecord
  2
_22_FLAECHEN
 70
0
 62
7
  6
CONTINUOUS
370
-3
390
F
  0
LAYER
  5
207
100
AcDbSymbolTableRecord
100
AcDbLayerTableRecord
  2
_26_BEZUGSACHSEN
 70
0
 62
7
  6
CONTINUOUS
370
-3
390
F
  0
LAYER
  5
208
100
AcDbSymbolTableRecord
100
AcDbLayerTableRecord
  2
_27_BEZUGSEBENEN
 70
0
 62
7
  6
CONTINUOUS
370
-3
390
F
  0
LAYER
  5
209
100
AcDbSymbolTableRecord
100
AcDbLayerTableRecord
  2
_28_BEZUGSPUNKTE
 70
0
 62
7
  6
CONTINUOUS
370
-3
390
F
  0
LAYER
  5
20A
100
AcDbSymbolTableRecord
100
AcDbLayerTableRecord
  2
_29_KOORDINATENSYSTEME
 70
0
 62
7
  6
CONTINUOUS
370
-3
390
F
  0
LAYER
  5
20B
100
AcDbSymbolTableRecord
100
AcDbLayerTableRecord
  2
_30_VOLUMEN
 70
0
 62
7
  6
CONTINUOUS
370
-3
390
F
  0
ENDTAB
  0
TABLE
  2
STYLE
  5
3
100
AcDbSymbolTable
 70
1
  0
STYLE
  5
11
100
AcDbSymbolTableRecord
100
AcDbTextStyleTableRecord
  2
STANDARD
 70
0
 40
0.0
 41
0.7
 50
0.0
 71
0
 42
0.2
  3
SIMPLEX.SHX
  4

  0
STYLE
  5
20C
100
AcDbSymbolTableRecord
100
AcDbTextStyleTableRecord
  2
TEXTSTYLE_1
 70
0
 40
0.0
 41
0.8
 50
0.0
 71
0
 42
0.2
  3
gdt
  4

  0
STYLE
  5
20D
100
AcDbSymbolTableRecord
100
AcDbTextStyleTableRecord
  2
TEXTSTYLE_2
 70
0
 40
0.0
 41
0.7
 50
0.0
 71
0
 42
0.2
  3
gdt
  4

  0
ENDTAB
  0
TABLE
  2
VIEW
  5
6
100
AcDbSymbolTable
 70
0
  0
ENDTAB
  0
TABLE
  2
UCS
  5
7
100
AcDbSymbolTable
 70
0
  0
ENDTAB
  0
TABLE
  2
APPID
  5
9
100
AcDbSymbolTable
 70
1
  0
APPID
  5
20E
100
AcDbSymbolTableRecord
100
AcDbRegAppTableRecord
  2
ACAD
 70
0
  0
ENDTAB
  0
TABLE
  2
BLOCK_RECORD
  5
1
100
AcDbSymbolTable
 70
0
  0
BLOCK_RECORD
  5
20F
100
AcDbSymbolTableRecord
100
AcDbBlockTableRecord
  2
*Model_Space
  0
BLOCK_RECORD
  5
210
100
AcDbSymbolTableRecord
100
AcDbBlockTableRecord
  2
*Paper_Space
  0
BLOCK_RECORD
  5
211
100
AcDbSymbolTableRecord
100
AcDbBlockTableRecord
  2
_FILLED
  0
BLOCK_RECORD
  5
212
100
AcDbSymbolTableRecord
100
AcDbBlockTableRecord
  2
*D0
  0
BLOCK_RECORD
  5
213
100
AcDbSymbolTableRecord
100
AcDbBlockTableRecord
  2
*D1
  0
BLOCK_RECORD
  5
214
100
AcDbSymbolTableRecord
100
AcDbBlockTableRecord
  2
*D2
  0
BLOCK_RECORD
  5
215
100
AcDbSymbolTableRecord
100
AcDbBlockTableRecord
  2
*D3
  0
ENDTAB
  0
TABLE
  2
DIMSTYLE
  5
A
100
AcDbSymbolTable
 70
1
100
AcDbDimStyleTable
 71
0
  0
DIMSTYLE
105
216
100
AcDbSymbolTableRecord
100
AcDbDimStyleTableRecord
  2
STANDARD
 70
0
  3

  4

 40
1.0
 41
3.5
 42
0.0
 43
0.38
 44
1.5
 45
0.0
 46
0.0
 47
0.05
 48
0.05
140
3.5
141
0.09
142
0.0
143
25.4
144
1.0
145
0.0
146
1.0
147
0.625
 71
1.0
 72
0.0
 73
0
 74
0
 75
0
 76
0
 77
1
 78
8
 79
2
170
0
171
1
172
0
173
0
174
0
175
0
176
0
177
0
178
2
270
2
179
2
271
2
272
2
273
2
274
2
275
0
280
0
281
0
282
0
283
1
284
8
285
0
286
0
287
3
288
0
340
11
278
46
341
211
342
211
343
211
344
211
  0
DIMSTYLE
105
217
100
AcDbSymbolTableRecord
100
AcDbDimStyleTableRecord
  2
DIMSTYLE_1
 70
0
  3

  4

 40
1.0
 41
3.5
 42
0.0
 43
0.38
 44
1.5
 45
0.0
 46
0.0
 47
0.3
 48
0.3
140
3.5
141
0.09
142
0.0
143
25.4
144
1.0
145
0.0
146
1.0
147
0.875
 71
0.0
 72
0.0
 73
0
 74
0
 75
0
 76
0
 77
1
 78
8
 79
2
170
0
171
1
172
0
173
0
174
0
175
0
176
0
177
0
178
2
270
2
179
2
271
2
272
2
273
2
274
2
275
0
280
0
281
0
282
0
283
1
284
8
285
0
286
0
287
3
288
0
340
11
278
46
341
211
342
211
343
211
344
211
  0
DIMSTYLE
105
218
100
AcDbSymbolTableRecord
100
AcDbDimStyleTableRecord
  2
DIMSTYLE_2
 70
0
  3

  4

 40
1.0
 41
3.5
 42
0.0
 43
0.38
 44
1.5
 45
0.0
 46
0.0
 47
0.8
 48
0.8
140
3.5
141
0.09
142
0.0
143
25.4
144
1.0
145
0.0
146
1.0
147
0.875
 71
0.0
 72
0.0
 73
0
 74
0
 75
0
 76
0
 77
1
 78
8
 79
2
170
0
171
1
172
0
173
0
174
0
175
0
176
0
177
0
178
2
270
2
179
2
271
2
272
2
273
2
274
2
275
0
280
0
281
0
282
0
283
1
284
8
285
0
286
0
287
3
288
0
340
11
278
46
341
211
342
211
343
211
344
211
  0
ENDTAB
  0
ENDSEC
  0
SECTION
  2
BLOCKS
  0
BLOCK
  5
20
100
AcDbEntity
  8
0
100
AcDbBlockBegin
  2
*Model_Space
 70
0
 10
0.0
 20
0.0
 30
0.0
  3
*Model_Space
  1

  0
ENDBLK
  5
21
100
AcDbEntity
  8
0
100
AcDbBlockEnd
  0
BLOCK
  5
1C
100
AcDbEntity
  8
0
100
AcDbBlockBegin
  2
*Paper_Space
 70
0
 10
0.0
 20
0.0
 30
0.0
  3
*Paper_Space
  1

  0
ENDBLK
  5
1D
100
AcDbEntity
  8
0
100
AcDbBlockEnd
  0
BLOCK
  5
219
100
AcDbEntity
  8
0
100
AcDbBlockBegin
  2
_FILLED
 70
64
 10
0.0
 20
0.0
  3
_FILLED
  1

  0
SOLID
  5
21A
100
AcDbEntity
  8
0
  6
BYBLOCK
 62
0
100
AcDbTrace
 10
0.0
 20
0.0
 11
-1.0
 21
0.125
 12
-1.0
 22
-0.125
 13
-1.0
 23
-0.125
  0
ENDBLK
  5
21B
100
AcDbEntity
  8
0
  6
BYBLOCK
 62
0
100
AcDbBlockEnd
  0
BLOCK
  5
21C
100
AcDbEntity
  8
_03_2D_ZEICHNUNG_BEMASSUNGEN
100
AcDbBlockBegin
 62
7
  6
CONTINUOUS
  2
*D0
 70
65
 10
0.0
 20
0.0
  3
*D0
  1

  0
TEXT
  5
21D
100
AcDbEntity
  8
_03_2D_ZEICHNUNG_BEMASSUNGEN
100
AcDbText
 62
2
  6
CONTINUOUS
 10
-9.875
 20
-4.9583333333
  7
TEXTSTYLE_2
 40
3.5
  1
n
 50
90.0
 41
1.0
 72
1
 11
-9.875
 21
-2.625
100
AcDbText
  0
TEXT
  5
21E
100
AcDbEntity
  8
_03_2D_ZEICHNUNG_BEMASSUNGEN
100
AcDbText
 62
2
  6
CONTINUOUS
 10
-9.875
 20
-0.2916666667
  7
STANDARD
 40
3.5
  1
50
 50
90.0
 41
0.75
 72
1
 11
-9.875
 21
2.3333333333
100
AcDbText
  0
LINE
  5
21F
100
AcDbEntity
  8
_03_2D_ZEICHNUNG_BEMASSUNGEN
100
AcDbLine
 62
7
  6
CONTINUOUS
 10
1.5
 20
25.0
 11
-10.5
 21
25.0
  0
LINE
  5
220
100
AcDbEntity
  8
_03_2D_ZEICHNUNG_BEMASSUNGEN
100
AcDbLine
 62
7
  6
CONTINUOUS
 10
1.5
 20
-25.0
 11
-10.5
 21
-25.0
  0
LINE
  5
221
100
AcDbEntity
  8
_03_2D_ZEICHNUNG_BEMASSUNGEN
100
AcDbLine
 62
7
  6
CONTINUOUS
 10
-9.0
 20
25.0
 11
-9.0
 21
0.0
  0
LINE
  5
222
100
AcDbEntity
  8
_03_2D_ZEICHNUNG_BEMASSUNGEN
100
AcDbLine
 62
7
  6
CONTINUOUS
 10
-9.0
 20
-25.0
 11
-9.0
 21
0.0
  0
INSERT
  5
223
100
AcDbEntity
  8
_03_2D_ZEICHNUNG_BEMASSUNGEN
100
AcDbBlockReference
 62
7
  6
CONTINUOUS
  2
_FILLED
 10
-9.0
 20
25.0
 41
3.5
 42
3.5
 43
3.5
 50
90.0
  0
INSERT
  5
224
100
AcDbEntity
  8
_03_2D_ZEICHNUNG_BEMASSUNGEN
100
AcDbBlockReference
 62
7
  6
CONTINUOUS
  2
_FILLED
 10
-9.0
 20
-25.0
 41
3.5
 42
3.5
 43
3.5
 50
270.0
  0
ENDBLK
  5
225
100
AcDbEntity
  8
0
  6
BYBLOCK
 62
0
100
AcDbBlockEnd
  0
BLOCK
  5
226
100
AcDbEntity
  8
_03_2D_ZEICHNUNG_BEMASSUNGEN
100
AcDbBlockBegin
 62
7
  6
CONTINUOUS
  2
*D1
 70
65
 10
0.0
 20
0.0
  3
*D1
  1

  0
TEXT
  5
227
100
AcDbEntity
  8
_03_2D_ZEICHNUNG_BEMASSUNGEN
100
AcDbText
 62
2
  6
CONTINUOUS
 10
229.2046618707
 20
43.859940318
  7
STANDARD
 40
3.5
  1
450
 41
0.7619047619
 72
1
 11
233.2046618707
 21
43.859940318
100
AcDbText
  0
LINE
  5
228
100
AcDbEntity
  8
_03_2D_ZEICHNUNG_BEMASSUNGEN
100
AcDbLine
 62
7
  6
CONTINUOUS
 10
450.0
 20
0.0
 11
450.0
 21
44.484940318
  0
LINE
  5
229
100
AcDbEntity
  8
_03_2D_ZEICHNUNG_BEMASSUNGEN
100
AcDbLine
 62
7
  6
CONTINUOUS
 10
0.0
 20
0.0
 11
0.0
 21
44.484940318
  0
LINE
  5
22A
100
AcDbEntity
  8
_03_2D_ZEICHNUNG_BEMASSUNGEN
100
AcDbLine
 62
7
  6
CONTINUOUS
 10
450.0
 20
42.984940318
 11
225.0
 21
42.984940318
  0
LINE
  5
22B
100
AcDbEntity
  8
_03_2D_ZEICHNUNG_BEMASSUNGEN
100
AcDbLine
 62
7
  6
CONTINUOUS
 10
0.0
 20
42.984940318
 11
225.0
 21
42.984940318
  0
INSERT
  5
22C
100
AcDbEntity
  8
_03_2D_ZEICHNUNG_BEMASSUNGEN
100
AcDbBlockReference
 62
7
  6
CONTINUOUS
  2
_FILLED
 10
450.0
 20
42.984940318
 41
3.5
 42
3.5
 43
3.5
  0
INSERT
  5
22D
100
AcDbEntity
  8
_03_2D_ZEICHNUNG_BEMASSUNGEN
100
AcDbBlockReference
 62
7
  6
CONTINUOUS
  2
_FILLED
 10
0.0
 20
42.984940318
 41
3.5
 42
3.5
 43
3.5
 50
180.0
  0
ENDBLK
  5
22E
100
AcDbEntity
  8
0
  6
BYBLOCK
 62
0
100
AcDbBlockEnd
  0
BLOCK
  5
22F
100
AcDbEntity
  8
_03_2D_ZEICHNUNG_BEMASSUNGEN
100
AcDbBlockBegin
 62
7
  6
CONTINUOUS
  2
*D2
 70
65
 10
0.0
 20
0.0
  3
*D2
  1

  0
TEXT
  5
230
100
AcDbEntity
  8
_03_2D_ZEICHNUNG_BEMASSUNGEN
100
AcDbText
 62
2
  6
CONTINUOUS
 10
431.906022885
 20
34.859940318
  7
STANDARD
 40
3.5
  1
31
 41
0.6428571429
 72
1
 11
434.156022885
 21
34.859940318
100
AcDbText
  0
LINE
  5
231
100
AcDbEntity
  8
_03_2D_ZEICHNUNG_BEMASSUNGEN
100
AcDbLine
 62
7
  6
CONTINUOUS
 10
450.0
 20
-36.8681494765
 11
450.0
 21
35.484940318
  0
LINE
  5
232
100
AcDbEntity
  8
_03_2D_ZEICHNUNG_BEMASSUNGEN
100
AcDbLine
 62
7
  6
CONTINUOUS
 10
419.0
 20
-36.8681494765
 11
419.0
 21
35.484940318
  0
LINE
  5
233
100
AcDbEntity
  8
_03_2D_ZEICHNUNG_BEMASSUNGEN
100
AcDbLine
 62
7
  6
CONTINUOUS
 10
450.0
 20
33.984940318
 11
434.5
 21
33.984940318
  0
LINE
  5
234
100
AcDbEntity
  8
_03_2D_ZEICHNUNG_BEMASSUNGEN
100
AcDbLine
 62
7
  6
CONTINUOUS
 10
419.0
 20
33.984940318
 11
434.5
 21
33.984940318
  0
INSERT
  5
235
100
AcDbEntity
  8
_03_2D_ZEICHNUNG_BEMASSUNGEN
100
AcDbBlockReference
 62
7
  6
CONTINUOUS
  2
_FILLED
 10
450.0
 20
33.984940318
 41
3.5
 42
3.5
 43
3.5
  0
INSERT
  5
236
100
AcDbEntity
  8
_03_2D_ZEICHNUNG_BEMASSUNGEN
100
AcDbBlockReference
 62
7
  6
CONTINUOUS
  2
_FILLED
 10
419.0
 20
33.984940318
 41
3.5
 42
3.5
 43
3.5
 50
180.0
  0
ENDBLK
  5
237
100
AcDbEntity
  8
0
  6
BYBLOCK
 62
0
100
AcDbBlockEnd
  0
BLOCK
  5
238
100
AcDbEntity
  8
_03_2D_ZEICHNUNG_BEMASSUNGEN
100
AcDbBlockBegin
 62
7
  6
CONTINUOUS
  2
*D3
 70
65
 10
0.0
 20
0.0
  3
*D3
  1

  0
TEXT
  5
239
100
AcDbEntity
  8
_03_2D_ZEICHNUNG_BEMASSUNGEN
100
AcDbText
 62
2
  6
CONTINUOUS
 10
458.2176428916
 20
-20.0
  7
STANDARD
 40
3.5
  1
35
 50
90.0
 41
0.7142857143
 72
1
 11
458.2176428916
 21
-17.5
100
AcDbText
  0
LINE
  5
23A
100
AcDbEntity
  8
_03_2D_ZEICHNUNG_BEMASSUNGEN
100
AcDbLine
 62
7
  6
CONTINUOUS
 10
453.0926428916
 20
0.0
 11
460.5926428916
 21
0.0
  0
LINE
  5
23B
100
AcDbEntity
  8
_03_2D_ZEICHNUNG_BEMASSUNGEN
100
AcDbLine
 62
7
  6
CONTINUOUS
 10
450.0
 20
-35.0
 11
460.5926428916
 21
-35.0
  0
LINE
  5
23C
100
AcDbEntity
  8
_03_2D_ZEICHNUNG_BEMASSUNGEN
100
AcDbLine
 62
7
  6
CONTINUOUS
 10
459.0926428916
 20
0.0
 11
459.0926428916
 21
6.0
  0
LINE
  5
23D
100
AcDbEntity
  8
_03_2D_ZEICHNUNG_BEMASSUNGEN
100
AcDbLine
 62
7
  6
CONTINUOUS
 10
459.0926428916
 20
6.0
 11
459.0926428916
 21
-17.5
  0
LINE
  5
23E
100
AcDbEntity
  8
_03_2D_ZEICHNUNG_BEMASSUNGEN
100
AcDbLine
 62
7
  6
CONTINUOUS
 10
459.0926428916
 20
-35.0
 11
459.0926428916
 21
-41.0
  0
LINE
  5
23F
100
AcDbEntity
  8
_03_2D_ZEICHNUNG_BEMASSUNGEN
100
AcDbLine
 62
7
  6
CONTINUOUS
 10
459.0926428916
 20
-41.0
 11
459.0926428916
 21
-17.5
  0
INSERT
  5
240
100
AcDbEntity
  8
_03_2D_ZEICHNUNG_BEMASSUNGEN
100
AcDbBlockReference
 62
7
  6
CONTINUOUS
  2
_FILLED
 10
459.0926428916
 20
0.0
 41
3.5
 42
3.5
 43
3.5
 50
270.0
  0
INSERT
  5
241
100
AcDbEntity
  8
_03_2D_ZEICHNUNG_BEMASSUNGEN
100
AcDbBlockReference
 62
7
  6
CONTINUOUS
  2
_FILLED
 10
459.0926428916
 20
-35.0
 41
3.5
 42
3.5
 43
3.5
 50
90.0
  0
ENDBLK
  5
242
100
AcDbEntity
  8
0
  6
BYBLOCK
 62
0
100
AcDbBlockEnd
  0
ENDSEC
  0
SECTION
  2
ENTITIES
  0
DIMENSION
  5
243
100
AcDbEntity
  8
_03_2D_ZEICHNUNG_BEMASSUNGEN
100
AcDbDimension
 62
7
  6
CONTINUOUS
  2
*D0
 10
-9.0
 20
-25.0
 11
-9.0
 21
-0.0
 70
160
 71
2
 42
50.0
  1
%%c<>
  3
DIMSTYLE_1
100
AcDbAlignedDimension
 13
1.5
 23
25.0
 14
1.5
 24
-25.0
 50
270.0
100
AcDbRotatedDimension
  0
DIMENSION
  5
244
100
AcDbEntity
  8
_03_2D_ZEICHNUNG_BEMASSUNGEN
100
AcDbDimension
 62
7
  6
CONTINUOUS
  2
*D1
 10
0.0
 20
42.984940318
 11
232.7046606445
 21
42.984940318
 70
160
 71
2
 42
450.0
  3
DIMSTYLE_2
100
AcDbAlignedDimension
 13
450.0
 23
0.0
 14
0.0
 24
0.0
 50
180.0
100
AcDbRotatedDimension
  0
DIMENSION
  5
245
100
AcDbEntity
  8
_03_2D_ZEICHNUNG_BEMASSUNGEN
100
AcDbDimension
 62
7
  6
CONTINUOUS
  2
*D2
 10
419.0
 20
33.984940318
 11
433.6560241699
 21
33.984940318
 70
160
 71
2
 42
31.0
  3
DIMSTYLE_1
100
AcDbAlignedDimension
 13
450.0
 23
-36.8681494765
 14
419.0
 24
-36.8681494765
 50
180.0
100
AcDbRotatedDimension
  0
DIMENSION
  5
246
100
AcDbEntity
  8
_03_2D_ZEICHNUNG_BEMASSUNGEN
100
AcDbDimension
 62
7
  6
CONTINUOUS
  2
*D3
 10
459.0926428916
 20
-35.0
 11
459.0926428916
 21
-18.0000025108
 70
160
 71
2
 42
35.0
  3
DIMSTYLE_1
100
AcDbAlignedDimension
 13
453.0926428916
 23
0.0
 14
450.0
 24
-35.0
 50
270.0
100
AcDbRotatedDimension
  0
LINE
  5
247
100
AcDbEntity
  8
0
100
AcDbLine
 62
4
  6
CONTINUOUS
 10
0.0
 20
-23.4999663715
 11
-0.0
 21
23.4999668386
  0
LINE
  5
248
100
AcDbEntity
  8
0
100
AcDbLine
 62
4
  6
CONTINUOUS
 10
1.5
 20
-25.0
 11
1.5
 21
-11.874342087
  0
LINE
  5
249
100
AcDbEntity
  8
0
100
AcDbLine
 62
4
  6
CONTINUOUS
 10
1.5
 20
11.874342087
 11
1.5
 21
25.0
  0
LINE
  5
24A
100
AcDbEntity
  8
_30_VOLUMEN
100
AcDbLine
 62
4
  6
CONTINUOUS
 10
-0.0
 20
23.5
 11
1.5
 21
25.0
  0
LINE
  5
24B
100
AcDbEntity
  8
_30_VOLUMEN
100
AcDbLine
 62
4
  6
CONTINUOUS
 10
0.0
 20
-23.5
 11
1.5
 21
-25.0
  0
LINE
  5
24C
100
AcDbEntity
  8
_30_VOLUMEN
100
AcDbLine
 62
4
  6
CONTINUOUS
 10
443.0001819803
 20
-21.1315483966
 11
443.1840185568
 21
-21.1255159071
  0
LINE
  5
24D
100
AcDbEntity
  8
_30_VOLUMEN
100
AcDbLine
 62
4
  6
CONTINUOUS
 10
1.5
 20
-25.0
 11
419.0
 21
-25.0
  0
LINE
  5
24E
100
AcDbEntity
  8
_30_VOLUMEN
100
AcDbLine
 62
4
  6
CONTINUOUS
 10
419.0
 20
-24.75
 11
435.0
 21
-24.75
  0
LINE
  5
24F
100
AcDbEntity
  8
_30_VOLUMEN
100
AcDbLine
 62
4
  6
CONTINUOUS
 10
1.5
 20
-11.874342087
 11
400.6598159369
 21
-11.874342087
  0
LINE
  5
250
100
AcDbEntity
  8
_26_BEZUGSACHSEN
100
AcDbLine
 62
7
  6
CENTER
 10
-3.0
 20
0.0
 11
453.0926428916
 21
0.0
  0
LINE
  5
251
100
AcDbEntity
  8
_30_VOLUMEN
100
AcDbLine
 62
4
  6
CONTINUOUS
 10
1.5
 20
11.874342087
 11
414.3832749309
 21
11.874342087
  0
LINE
  5
252
100
AcDbEntity
  8
_30_VOLUMEN
100
AcDbLine
 62
4
  6
CONTINUOUS
 10
1.5
 20
25.0
 11
417.3498643923
 21
25.0
  0
LINE
  5
253
100
AcDbEntity
  8
_30_VOLUMEN
100
AcDbLine
 62
4
  6
CONTINUOUS
 10
448.7967606776
 20
-34.8875044753
 11
437.370327678
 21
-28.0148263284
  0
LINE
  5
254
100
AcDbEntity
  8
_21_KURVEN
100
AcDbLine
 62
7
  6
CONTINUOUS
 10
448.7967606776
 20
-34.8875044753
 11
437.370327678
 21
-28.0148263284
  0
LINE
  5
255
100
AcDbEntity
  8
_26_BEZUGSACHSEN
100
AcDbLine
 62
4
  6
CONTINUOUS
 10
436.2208038287
 20
-12.5701305382
 11
448.4912881737
 21
-19.9504818353
  0
LINE
  5
256
100
AcDbEntity
  8
_30_VOLUMEN
100
AcDbLine
 62
4
  6
CONTINUOUS
 10
437.5166860427
 20
-13.3495672507
 11
448.9431190423
 21
-20.2222453976
  0
LINE
  5
257
100
AcDbEntity
  8
_21_KURVEN
100
AcDbLine
 62
7
  6
CONTINUOUS
 10
437.5166860427
 20
-13.3495672507
 11
448.9431190423
 21
-20.2222453976
  0
LINE
  5
258
100
AcDbEntity
  8
_30_VOLUMEN
100
AcDbLine
 62
4
  6
CONTINUOUS
 10
435.0
 20
-24.75
 11
436.6406482268
 21
-25.8711096217
  0
LINE
  5
259
100
AcDbEntity
  8
_28_BEZUGSPUNKTE
100
AcDbLine
 62
1
  6
CONTINUOUS
 10
450.15625
 20
-35.15625
 11
449.84375
 21
-34.84375
  0
LINE
  5
25A
100
AcDbEntity
  8
0
100
AcDbLine
 62
4
  6
CONTINUOUS
 10
417.3497411622
 20
25.0000962779
 11
419.0
 21
23.7107727679
  0
LINE
  5
25B
100
AcDbEntity
  8
_30_VOLUMEN
100
AcDbLine
 62
4
  6
CONTINUOUS
 10
419.0
 20
23.7107727679
 11
447.3644956672
 21
1.55
  0
LINE
  5
25C
100
AcDbEntity
  8
_28_BEZUGSPUNKTE
100
AcDbLine
 62
1
  6
CONTINUOUS
 10
450.15625
 20
-34.84375
 11
449.84375
 21
-35.15625
  0
LINE
  5
25D
100
AcDbEntity
  8
_30_VOLUMEN
100
AcDbLine
 62
4
  6
CONTINUOUS
 10
437.1052120722
 20
-27.7489578677
 11
436.4514325639
 21
-26.6521517642
  0
LINE
  5
25E
100
AcDbEntity
  8
_30_VOLUMEN
100
AcDbLine
 62
7
  6
CONTINUOUS
 10
436.997711675
 20
-27.3944153485
 11
436.3439321668
 21
-26.297609245
  0
LINE
  5
25F
100
AcDbEntity
  8
_30_VOLUMEN
100
AcDbLine
 62
4
  6
CONTINUOUS
 10
419.0
 20
-24.2058053939
 11
419.0
 21
-24.9999982736
  0
LINE
  5
260
100
AcDbEntity
  8
_30_VOLUMEN
100
AcDbLine
 62
4
  6
CONTINUOUS
 10
419.0
 20
15.6183173986
 11
419.0
 21
23.7107727679
  0
LINE
  5
261
100
AcDbEntity
  8
_30_VOLUMEN
100
AcDbLine
 62
7
  6
CONTINUOUS
 10
448.9431190423
 20
-20.2222453976
 11
448.4633486406
 21
-19.4173637851
  0
LINE
  5
262
100
AcDbEntity
  8
_30_VOLUMEN
100
AcDbLine
 62
4
  6
CONTINUOUS
 10
449.2082346481
 20
-20.4881138583
 11
448.5544551399
 21
-19.3913077548
  0
LINE
  5
263
100
AcDbEntity
  8
_30_VOLUMEN
100
AcDbLine
 62
4
  6
CONTINUOUS
 10
436.3097294098
 20
-25.6449817633
 11
436.3439321668
 21
-26.297609245
  0
LINE
  5
264
100
AcDbEntity
  8
_30_VOLUMEN
100
AcDbLine
 62
4
  6
CONTINUOUS
 10
436.997711675
 20
-27.3944153485
 11
436.2999388794
 21
-14.0801172583
  0
LINE
  5
265
100
AcDbEntity
  8
_21_KURVEN
100
AcDbLine
 62
7
  6
CONTINUOUS
 10
436.997711675
 20
-27.3944153485
 11
436.2999388794
 21
-14.0801172583
  0
LINE
  5
266
100
AcDbEntity
  8
_26_BEZUGSACHSEN
100
AcDbLine
 62
4
  6
CONTINUOUS
 10
436.2208038287
 20
-12.5701305382
 11
436.918876944
 21
-25.8901590703
  0
LINE
  5
267
100
AcDbEntity
  8
_26_BEZUGSACHSEN
100
AcDbLine
 62
4
  6
CONTINUOUS
 10
447.3644956672
 20
1.55
 11
448.4912881737
 21
-19.9504818353
  0
LINE
  5
268
100
AcDbEntity
  8
_30_VOLUMEN
100
AcDbLine
 62
4
  6
CONTINUOUS
 10
449.3157350453
 20
-20.8426563775
 11
450.0135078409
 21
-34.1569544677
  0
LINE
  5
269
100
AcDbEntity
  8
_21_KURVEN
100
AcDbLine
 62
7
  6
CONTINUOUS
 10
449.3157350453
 20
-20.8426563775
 11
450.0135078409
 21
-34.1569544677
  0
LINE
  5
26A
100
AcDbEntity
  8
_30_VOLUMEN
100
AcDbLine
 62
4
  6
CONTINUOUS
 10
435.0
 20
-24.5117426789
 11
435.0
 21
-24.75
  0
ARC
  5
26B
100
AcDbEntity
  8
_30_VOLUMEN
100
AcDbCircle
 62
7
  6
CONTINUOUS
 10
-866.7978349756
 20
636.2341563821
 40
1445.4228338052
100
AcDbArc
 50
332.7999712665
 51
334.3414744467
  0
ARC
  5
26C
100
AcDbEntity
  8
_26_BEZUGSACHSEN
100
AcDbCircle
 62
4
  6
CONTINUOUS
 10
696.766045119
 20
337.8648015792
 40
447.0326858359
100
AcDbArc
 50
234.1571879982
 51
234.4600072358
  0
ARC
  5
26D
100
AcDbEntity
  8
_30_VOLUMEN
100
AcDbCircle
 62
4
  6
CONTINUOUS
 10
443.2169090073
 20
-24.2192661717
 40
3.095272077
100
AcDbArc
 50
94.0150080619
 51
150.991600994
  0
ARC
  5
26E
100
AcDbEntity
  8
_30_VOLUMEN
100
AcDbCircle
 62
4
  6
CONTINUOUS
 10
443.0046569572
 20
-23.9388039731
 40
2.5852771779
100
AcDbArc
 50
153.1389667175
 51
153.8828525348
  0
ARC
  5
26F
100
AcDbEntity
  8
_30_VOLUMEN
100
AcDbCircle
 62
4
  6
CONTINUOUS
 10
442.4327491076
 20
-23.0570577149
 40
2.5020916501
100
AcDbArc
 50
221.4003679117
 51
231.2949099896
  0
ARC
  5
270
100
AcDbEntity
  8
_30_VOLUMEN
100
AcDbCircle
 62
4
  6
CONTINUOUS
 10
442.4212731027
 20
-23.0707078048
 40
2.4842634152
100
AcDbArc
 50
231.3045971387
 51
233.8941458079
  0
ARC
  5
271
100
AcDbEntity
  8
_30_VOLUMEN
100
AcDbCircle
 62
4
  6
CONTINUOUS
 10
447.894879983
 20
-19.7846925307
 40
0.7679974767
100
AcDbArc
 50
30.8127550157
 51
42.9789765217
  0
SPLINE
  5
272
100
AcDbEntity
  8
_30_VOLUMEN
100
AcDbSpline
 62
4
  6
CONTINUOUS
 70
0
 71
3
 72
11
 73
7
 74
0
 42
0.0000001
 43
0.0000001
 44
0.0000000001
 40
0.0
 40
0.0
 40
0.0
 40
0.0
 40
0.2488963829
 40
0.50002533
 40
0.7511370757
 40
1.0
 40
1.0
 40
1.0
 40
1.0
 10
448.7967606776
 20
-34.8875044753
 30
0.0
 10
448.9185573261
 20
-34.9607617345
 30
0.0
 10
449.2104318084
 20
-35.0404457504
 30
0.0
 10
449.6422967789
 20
-34.91714089
 30
0.0
 10
449.9541270067
 20
-34.593935406
 30
0.0
 10
450.0209453712
 20
-34.2988709994
 30
0.0
 10
450.0135078409
 20
-34.1569544677
 30
0.0
  0
SPLINE
  5
273
100
AcDbEntity
  8
_30_VOLUMEN
100
AcDbSpline
 62
4
  6
CONTINUOUS
 70
0
 71
3
 72
8
 73
4
 74
0
 42
0.0000001
 43
0.0000001
 44
0.0000000001
 40
0.0
 40
0.0
 40
0.0
 40
0.0
 40
1.0
 40
1.0
 40
1.0
 40
1.0
 10
449.3157350453
 20
-20.8426563775
 30
0.0
 10
449.3092717936
 20
-20.7193301886
 30
0.0
 10
449.2714823242
 20
-20.5941839303
 30
0.0
 10
449.2082509647
 20
-20.48810416
 30
0.0
  0
SPLINE
  5
274
100
AcDbEntity
  8
_30_VOLUMEN
100
AcDbSpline
 62
4
  6
CONTINUOUS
 70
0
 71
3
 72
9
 73
5
 74
0
 42
0.0000001
 43
0.0000001
 44
0.0000000001
 40
0.0
 40
0.0
 40
0.0
 40
0.0
 40
0.5017613651
 40
1.0
 40
1.0
 40
1.0
 40
1.0
 10
442.6357980493
 20
-25.5567388593
 30
0.0
 10
442.3400594844
 20
-25.5772328273
 30
0.0
 10
441.7388934742
 20
-25.516097863
 30
0.0
 10
441.1951801938
 20
-25.2512768915
 30
0.0
 10
440.9573490637
 20
-25.0778179474
 30
0.0
  0
SPLINE
  5
275
100
AcDbEntity
  8
_30_VOLUMEN
100
AcDbSpline
 62
4
  6
CONTINUOUS
 70
0
 71
3
 72
8
 73
4
 74
0
 42
0.0000001
 43
0.0000001
 44
0.0000000001
 40
0.0
 40
0.0
 40
0.0
 40
0.0
 40
1.0
 40
1.0
 40
1.0
 40
1.0
 10
437.1051957557
 20
-27.748967566
 30
0.0
 10
437.1692772561
 20
-27.8564735708
 30
0.0
 10
437.263077153
 20
-27.9503181534
 30
0.0
 10
437.370327678
 20
-28.0148263284
 30
0.0
  0
SPLINE
  5
276
100
AcDbEntity
  8
_30_VOLUMEN
100
AcDbSpline
 62
4
  6
CONTINUOUS
 70
0
 71
3
 72
8
 73
4
 74
0
 42
0.0000001
 43
0.0000001
 44
0.0000000001
 40
0.0
 40
0.0
 40
0.0
 40
0.0
 40
1.0
 40
1.0
 40
1.0
 40
1.0
 10
436.4514162474
 20
-26.6521614625
 30
0.0
 10
436.3881848878
 20
-26.5460816922
 30
0.0
 10
436.3503954185
 20
-26.420935434
 30
0.0
 10
436.3439321668
 20
-26.297609245
 30
0.0
  0
SPLINE
  5
277
100
AcDbEntity
  8
_30_VOLUMEN
100
AcDbSpline
 62
4
  6
CONTINUOUS
 70
0
 71
3
 72
11
 73
7
 74
0
 42
0.0000001
 43
0.0000001
 44
0.0000000001
 40
0.0
 40
0.0
 40
0.0
 40
0.0
 40
0.2581954648
 40
0.5103771455
 40
0.7571501383
 40
1.0
 40
1.0
 40
1.0
 40
1.0
 10
442.8912108237
 20
-21.3202502035
 30
0.0
 10
443.1237462907
 20
-21.3041360575
 30
0.0
 10
443.5901223547
 20
-21.3346425011
 30
0.0
 10
444.2433736426
 20
-21.5628641215
 30
0.0
 10
444.7969681231
 20
-21.954472391
 30
0.0
 10
445.0785842748
 20
-22.3038105194
 30
0.0
 10
445.190838178
 20
-22.4921320632
 30
0.0
  0
SPLINE
  5
278
100
AcDbEntity
  8
_30_VOLUMEN
100
AcDbSpline
 62
4
  6
CONTINUOUS
 70
0
 71
3
 72
15
 73
11
 74
0
 42
0.0000001
 43
0.0000001
 44
0.0000000001
 40
0.0
 40
0.0
 40
0.0
 40
0.0
 40
0.123521899
 40
0.2474922042
 40
0.3720351227
 40
0.497160282
 40
0.6227518141
 40
0.7485676622
 40
0.8745397825
 40
1.0
 40
1.0
 40
1.0
 40
1.0
 10
444.9138790021
 20
-22.1080072992
 30
0.0
 10
444.9822872801
 20
-22.2923952831
 30
0.0
 10
445.0753310741
 20
-22.6798289233
 30
0.0
 10
445.0746949821
 20
-23.2774381666
 30
0.0
 10
444.9341247679
 20
-23.8611734713
 30
0.0
 10
444.6617260595
 20
-24.3989283656
 30
0.0
 10
444.272601052
 20
-24.8618930957
 30
0.0
 10
443.787302106
 20
-25.2251881713
 30
0.0
 10
443.2326311906
 20
-25.4683936499
 30
0.0
 10
442.8350751008
 20
-25.542929441
 30
0.0
 10
442.6357980493
 20
-25.5567388593
 30
0.0
  0
SPLINE
  5
279
100
AcDbEntity
  8
_30_VOLUMEN
100
AcDbSpline
 62
4
  6
CONTINUOUS
 70
0
 71
3
 72
11
 73
7
 74
0
 42
0.0000001
 43
0.0000001
 44
0.0000000001
 40
0.0
 40
0.0
 40
0.0
 40
0.0
 40
0.2437738751
 40
0.4910825957
 40
0.7426247813
 40
1.0
 40
1.0
 40
1.0
 40
1.0
 10
440.7585195283
 20
-25.1341296761
 30
0.0
 10
440.657517278
 20
-24.964684346
 30
0.0
 10
440.496829276
 20
-24.595889988
 30
0.0
 10
440.3992676908
 20
-23.9967663937
 30
0.0
 10
440.4542895112
 20
-23.3811122871
 30
0.0
 10
440.5916648305
 20
-22.9877497516
 30
0.0
 10
440.6833472546
 20
-22.8007445057
 30
0.0
  0
SPLINE
  5
27A
100
AcDbEntity
  8
_30_VOLUMEN
100
AcDbSpline
 62
4
  6
CONTINUOUS
 70
0
 71
3
 72
11
 73
7
 74
0
 42
0.0000001
 43
0.0000001
 44
0.0000000001
 40
0.0
 40
0.0
 40
0.0
 40
0.0
 40
0.2479192967
 40
0.4989499228
 40
0.7507404333
 40
1.0
 40
1.0
 40
1.0
 40
1.0
 10
440.6983182008
 20
-22.7707031096
 30
0.0
 10
440.8006617247
 20
-22.5686327795
 30
0.0
 10
441.0617960998
 20
-22.1876403073
 30
0.0
 10
441.5861048839
 20
-21.7341700589
 30
0.0
 10
442.209478512
 20
-21.4280640859
 30
0.0
 10
442.6640215057
 20
-21.3359938744
 30
0.0
 10
442.8912108237
 20
-21.3202502035
 30
0.0
  0
SPLINE
  5
27B
100
AcDbEntity
  8
_30_VOLUMEN
100
AcDbSpline
 62
7
  6
CONTINUOUS
 70
0
 71
3
 72
11
 73
7
 74
0
 42
0.0000001
 43
0.0000001
 44
0.0000000001
 40
0.0
 40
0.0
 40
0.0
 40
0.0
 40
0.2516284992
 40
0.5023850768
 40
0.7515074034
 40
1.0
 40
1.0
 40
1.0
 40
1.0
 10
443.1075330505
 20
-26.3481399694
 30
0.0
 10
442.8753865694
 20
-26.3642271597
 30
0.0
 10
442.4051132008
 20
-26.3330499809
 30
0.0
 10
441.7414243305
 20
-26.0998770405
 30
0.0
 10
441.1688774093
 20
-25.6957321522
 30
0.0
 10
440.8763998681
 20
-25.3313953172
 30
0.0
 10
440.7586076881
 20
-25.1340770509
 30
0.0
  0
SPLINE
  5
27C
100
AcDbEntity
  8
_30_VOLUMEN
100
AcDbSpline
 62
4
  6
CONTINUOUS
 70
0
 71
3
 72
15
 73
11
 74
0
 42
0.0000001
 43
0.0000001
 44
0.0000000001
 40
0.0
 40
0.0
 40
0.0
 40
0.0
 40
0.1258510403
 40
0.251317177
 40
0.3759659059
 40
0.5002691577
 40
0.6245184735
 40
0.7490746609
 40
0.8742029618
 40
1.0
 40
1.0
 40
1.0
 40
1.0
 10
443.2774128481
 20
-26.9948105285
 30
0.0
 10
443.0177460853
 20
-27.0128048078
 30
0.0
 10
442.4919539479
 20
-26.9801867427
 30
0.0
 10
441.7465500554
 20
-26.7297748633
 30
0.0
 10
441.0961114403
 20
-26.2922509931
 30
0.0
 10
440.5873543372
 20
-25.6993497998
 30
0.0
 10
440.2551760139
 20
-24.9924274985
 30
0.0
 10
440.1230045603
 20
-24.2207955527
 30
0.0
 10
440.2001242399
 20
-23.43916738
 30
0.0
 10
440.3870561823
 20
-22.9474210844
 30
0.0
 10
440.5104266664
 20
-22.7183529396
 30
0.0
  0
SPLINE
  5
27D
100
AcDbEntity
  8
_30_VOLUMEN
100
AcDbSpline
 62
7
  6
CONTINUOUS
 70
0
 71
3
 72
15
 73
11
 74
0
 42
0.0000001
 43
0.0000001
 44
0.0000000001
 40
0.0
 40
0.0
 40
0.0
 40
0.0
 40
0.1255894307
 40
0.2517681445
 40
0.3776928888
 40
0.5032873722
 40
0.6283126585
 40
0.7526950747
 40
0.8765095119
 40
1.0
 40
1.0
 40
1.0
 40
1.0
 10
443.1075330505
 20
-26.3481399694
 30
0.0
 10
443.3257487847
 20
-26.3330181462
 30
0.0
 10
443.7611444545
 20
-26.2462352034
 30
0.0
 10
444.3606309699
 20
-25.9598192989
 30
0.0
 10
444.8703441643
 20
-25.532834225
 30
0.0
 10
445.2563788159
 20
-24.9940942008
 30
0.0
 10
445.4947267631
 20
-24.3784294455
 30
0.0
 10
445.5688514246
 20
-23.7252271939
 30
0.0
 10
445.473519509
 20
-23.0778828783
 30
0.0
 10
445.3009971258
 20
-22.6768639102
 30
0.0
 10
445.1907500182
 20
-22.4921846884
 30
0.0
  0
SPLINE
  5
27E
100
AcDbEntity
  8
_30_VOLUMEN
100
AcDbSpline
 62
4
  6
CONTINUOUS
 70
0
 71
3
 72
15
 73
11
 74
0
 42
0.0000001
 43
0.0000001
 44
0.0000000001
 40
0.0
 40
0.0
 40
0.0
 40
0.0
 40
0.1260837366
 40
0.2523562893
 40
0.3780935016
 40
0.5028932482
 40
0.6268623342
 40
0.7505857789
 40
0.8747534984
 40
1.0
 40
1.0
 40
1.0
 40
1.0
 10
443.2774128481
 20
-26.9948105285
 30
0.0
 10
443.6550981316
 20
-26.9686378508
 30
0.0
 10
444.4083338276
 20
-26.7697040022
 30
0.0
 10
445.3434476575
 20
-26.0813776742
 30
0.0
 10
445.9598512725
 20
-25.0998658597
 30
0.0
 10
446.1649777012
 20
-23.9656728506
 30
0.0
 10
445.9268491081
 20
-22.8433310776
 30
0.0
 10
445.2779737468
 20
-21.8990495667
 30
0.0
 10
444.3168869752
 20
-21.271044185
 30
0.0
 10
443.5600722725
 20
-21.1258509561
 30
0.0
 10
443.1839970257
 20
-21.1246743231
 30
0.0
  0
SPLINE
  5
27F
100
AcDbEntity
  8
_30_VOLUMEN
100
AcDbSpline
 62
4
  6
CONTINUOUS
 70
0
 71
3
 72
8
 73
4
 74
0
 42
0.0000001
 43
0.0000001
 44
0.0000000001
 40
0.0
 40
0.0
 40
0.0
 40
0.0
 40
1.0
 40
1.0
 40
1.0
 40
1.0
 10
449.2082509647
 20
-20.48810416
 30
0.0
 10
449.1441694643
 20
-20.3805981552
 30
0.0
 10
449.0503695673
 20
-20.2867535726
 30
0.0
 10
448.9431190423
 20
-20.2222453976
 30
0.0
  0
SPLINE
  5
280
100
AcDbEntity
  8
_30_VOLUMEN
100
AcDbSpline
 62
4
  6
CONTINUOUS
 70
0
 71
3
 72
11
 73
7
 74
0
 42
0.0000001
 43
0.0000001
 44
0.0000000001
 40
0.0
 40
0.0
 40
0.0
 40
0.0
 40
0.2488963829
 40
0.50002533
 40
0.7511370757
 40
1.0
 40
1.0
 40
1.0
 40
1.0
 10
437.5166860427
 20
-13.3495672507
 30
0.0
 10
437.3948893942
 20
-13.2763099915
 30
0.0
 10
437.103014912
 20
-13.1966259756
 30
0.0
 10
436.6711499415
 20
-13.319930836
 30
0.0
 10
436.3593197136
 20
-13.6431363199
 30
0.0
 10
436.2925013492
 20
-13.9382007266
 30
0.0
 10
436.2999388794
 20
-14.0801172583
 30
0.0
  0
SPLINE
  5
281
100
AcDbEntity
  8
_30_VOLUMEN
100
AcDbSpline
 62
4
  6
CONTINUOUS
 70
0
 71
3
 72
8
 73
4
 74
0
 42
0.0000001
 43
0.0000001
 44
0.0000000001
 40
0.0
 40
0.0
 40
0.0
 40
0.0
 40
1.0
 40
1.0
 40
1.0
 40
1.0
 10
436.997711675
 20
-27.3944153485
 30
0.0
 10
437.0041749267
 20
-27.5177415374
 30
0.0
 10
437.0419643961
 20
-27.6428877957
 30
0.0
 10
437.1051957557
 20
-27.748967566
 30
0.0
  0
SPLINE
  5
282
100
AcDbEntity
  8
_30_VOLUMEN
100
AcDbSpline
 62
4
  6
CONTINUOUS
 70
0
 71
3
 72
19
 73
15
 74
0
 42
0.0000001
 43
0.0000001
 44
0.0000000001
 40
0.0
 40
0.0
 40
0.0
 40
0.0
 40
0.12494907
 40
0.2488460892
 40
0.310884931
 40
0.3728837749
 40
0.4349418536
 40
0.4971487882
 40
0.559563285
 40
0.6222264655
 40
0.6851283322
 40
0.7482380675
 40
0.8741916172
 40
1.0
 40
1.0
 40
1.0
 40
1.0
 10
443.1840292198
 20
-21.1244310724
 30
0.0
 10
443.5685864798
 20
-21.1212248886
 30
0.0
 10
444.3439526624
 20
-21.2612481572
 30
0.0
 10
445.1708162571
 20
-21.7919860582
 30
0.0
 10
445.669678634
 20
-22.3750066831
 30
0.0
 10
445.9515430335
 20
-22.8780149526
 30
0.0
 10
446.1302813115
 20
-23.4265816262
 30
0.0
 10
446.1984374948
 20
-24.0007913885
 30
0.0
 10
446.1546370592
 20
-24.579178906
 30
0.0
 10
445.9997039793
 20
-25.1403211531
 30
0.0
 10
445.7397811586
 20
-25.6636884089
 30
0.0
 10
445.2676213109
 20
-26.2838954472
 30
0.0
 10
444.4696144566
 20
-26.8753536157
 30
0.0
 10
443.6995537756
 20
-27.0787544324
 30
0.0
 10
443.31326474
 20
-27.1055233294
 30
0.0
  0
SPLINE
  5
283
100
AcDbEntity
  8
_30_VOLUMEN
100
AcDbSpline
 62
4
  6
CONTINUOUS
 70
0
 71
3
 72
16
 73
12
 74
0
 42
0.0000001
 43
0.0000001
 44
0.0000000001
 40
0.0
 40
0.0
 40
0.0
 40
0.0
 40
0.1258714882
 40
0.2512181039
 40
0.3758204036
 40
0.5000858758
 40
0.5623197872
 40
0.6245901181
 40
0.7491151287
 40
0.8742138624
 40
1.0
 40
1.0
 40
1.0
 40
1.0
 10
443.31326474
 20
-27.1055233294
 30
0.0
 10
443.0471561879
 20
-27.1239640091
 30
0.0
 10
442.508534897
 20
-27.0905032513
 30
0.0
 10
441.745571735
 20
-26.8318893861
 30
0.0
 10
441.0812601628
 20
-26.3814991535
 30
0.0
 10
440.6484442173
 20
-25.8725581309
 30
0.0
 10
440.3950719203
 20
-25.4086345133
 30
0.0
 10
440.2058680047
 20
-24.9144850018
 30
0.0
 10
440.0982101882
 20
-24.2533360201
 30
0.0
 10
440.1843891334
 20
-23.4535201904
 30
0.0
 10
440.3810208657
 20
-22.9515679371
 30
0.0
 10
440.5100153388
 20
-22.7182917418
 30
0.0
  0
SPLINE
  5
284
100
AcDbEntity
  8
_21_KURVEN
100
AcDbSpline
 62
7
  6
CONTINUOUS
 70
0
 71
3
 72
9
 73
5
 74
0
 42
0.0000001
 43
0.0000001
 44
0.0000000001
 40
0.0
 40
0.0
 40
0.0
 40
0.0
 40
0.5
 40
1.0
 40
1.0
 40
1.0
 40
1.0
 10
449.3157350453
 20
-20.8426563775
 30
0.0
 10
449.3138132585
 20
-20.8152571983
 30
0.0
 10
449.3089903464
 20
-20.7604599648
 30
0.0
 10
449.2965085923
 20
-20.7069969729
 30
0.0
 10
449.2890015176
 20
-20.677494903
 30
0.0
  0
SPLINE
  5
285
100
AcDbEntity
  8
_21_KURVEN
100
AcDbSpline
 62
7
  6
CONTINUOUS
 70
0
 71
3
 72
9
 73
5
 74
0
 42
0.0000001
 43
0.0000001
 44
0.0000000001
 40
0.0
 40
0.0
 40
0.0
 40
0.0
 40
0.5
 40
1.0
 40
1.0
 40
1.0
 40
1.0
 10
449.2890015177
 20
-20.6774949033
 30
0.0
 10
449.2795968843
 20
-20.6460060441
 30
0.0
 10
449.2585474586
 20
-20.5806838791
 30
0.0
 10
449.2263150382
 20
-20.5201691825
 30
0.0
 10
449.2082346458
 20
-20.4881138545
 30
0.0
  0
SPLINE
  5
286
100
AcDbEntity
  8
_21_KURVEN
100
AcDbSpline
 62
7
  6
CONTINUOUS
 70
0
 71
3
 72
9
 73
5
 74
0
 42
0.0000001
 43
0.0000001
 44
0.0000000001
 40
0.0
 40
0.0
 40
0.0
 40
0.0
 40
0.5
 40
1.0
 40
1.0
 40
1.0
 40
1.0
 10
449.2082346481
 20
-20.4881138583
 30
0.0
 10
449.1862933284
 20
-20.4534455302
 30
0.0
 10
449.1388357589
 20
-20.3827652689
 30
0.0
 10
449.0770085144
 20
-20.3240630406
 30
0.0
 10
449.0451962795
 20
-20.2955104948
 30
0.0
  0
SPLINE
  5
287
100
AcDbEntity
  8
_21_KURVEN
100
AcDbSpline
 62
7
  6
CONTINUOUS
 70
0
 71
3
 72
8
 73
4
 74
0
 42
0.0000001
 43
0.0000001
 44
0.0000000001
 40
0.0
 40
0.0
 40
0.0
 40
0.0
 40
1.0
 40
1.0
 40
1.0
 40
1.0
 10
449.0451962813
 20
-20.2955104962
 30
0.0
 10
449.0156262892
 20
-20.2710383391
 30
0.0
 10
448.9796903838
 20
-20.2449368251
 30
0.0
 10
448.9431190471
 20
-20.2222454005
 30
0.0
  0
SPLINE
  5
288
100
AcDbEntity
  8
_21_KURVEN
100
AcDbSpline
 62
7
  6
CONTINUOUS
 70
0
 71
3
 72
9
 73
5
 74
0
 42
0.0000001
 43
0.0000001
 44
0.0000000001
 40
0.0
 40
0.0
 40
0.0
 40
0.0
 40
0.5
 40
1.0
 40
1.0
 40
1.0
 40
1.0
 10
448.7967606776
 20
-34.8875044753
 30
0.0
 10
448.8448460776
 20
-34.9141626631
 30
0.0
 10
448.9499591879
 20
-34.9671334156
 30
0.0
 10
449.0610978647
 20
-34.9870733607
 30
0.0
 10
449.1201902189
 20
-34.9955671821
 30
0.0
  0
SPLINE
  5
289
100
AcDbEntity
  8
_21_KURVEN
100
AcDbSpline
 62
7
  6
CONTINUOUS
 70
0
 71
3
 72
9
 73
5
 74
0
 42
0.0000001
 43
0.0000001
 44
0.0000000001
 40
0.0
 40
0.0
 40
0.0
 40
0.0
 40
0.5
 40
1.0
 40
1.0
 40
1.0
 40
1.0
 10
449.1201902246
 20
-34.9955671827
 30
0.0
 10
449.1755110315
 20
-34.9994806728
 30
0.0
 10
449.2928342321
 20
-35.0036133739
 30
0.0
 10
449.4070154076
 20
-34.974138971
 30
0.0
 10
449.4634248721
 20
-34.9573312322
 30
0.0
  0
SPLINE
  5
28A
100
AcDbEntity
  8
_21_KURVEN
100
AcDbSpline
 62
7
  6
CONTINUOUS
 70
0
 71
3
 72
9
 73
5
 74
0
 42
0.0000001
 43
0.0000001
 44
0.0000000001
 40
0.0
 40
0.0
 40
0.0
 40
0.0
 40
0.5
 40
1.0
 40
1.0
 40
1.0
 40
1.0
 10
449.4634248666
 20
-34.9573312341
 30
0.0
 10
449.5156502754
 20
-34.9376734063
 30
0.0
 10
449.6246286748
 20
-34.8922396321
 30
0.0
 10
449.7163786421
 20
-34.8179271509
 30
0.0
 10
449.7606487007
 20
-34.7792878591
 30
0.0
  0
SPLINE
  5
28B
100
AcDbEntity
  8
_21_KURVEN
100
AcDbSpline
 62
7
  6
CONTINUOUS
 70
0
 71
3
 72
9
 73
5
 74
0
 42
0.0000001
 43
0.0000001
 44
0.0000000001
 40
0.0
 40
0.0
 40
0.0
 40
0.0
 40
0.5
 40
1.0
 40
1.0
 40
1.0
 40
1.0
 10
449.7606486997
 20
-34.7792878601
 30
0.0
 10
449.7999822295
 20
-34.739755052
 30
0.0
 10
449.8801742577
 20
-34.6532961223
 30
0.0
 10
449.9322886093
 20
-34.5481028856
 30
0.0
 10
449.9559820706
 20
-34.4954933366
 30
0.0
  0
SPLINE
  5
28C
100
AcDbEntity
  8
_21_KURVEN
100
AcDbSpline
 62
7
  6
CONTINUOUS
 70
0
 71
3
 72
9
 73
5
 74
0
 42
0.0000001
 43
0.0000001
 44
0.0000000001
 40
0.0
 40
0.0
 40
0.0
 40
0.0
 40
0.5
 40
1.0
 40
1.0
 40
1.0
 40
1.0
 10
449.9559820696
 20
-34.4954933392
 30
0.0
 10
449.9750920697
 20
-34.4435163308
 30
0.0
 10
450.011554901
 20
-34.3322788791
 30
0.0
 10
450.0143622613
 20
-34.215935979
 30
0.0
 10
450.0135078407
 20
-34.1569544632
 30
0.0
  0
SPLINE
  5
28D
100
AcDbEntity
  8
_21_KURVEN
100
AcDbSpline
 62
1
  6
CENTER
 70
0
 71
3
 72
163
 73
159
 74
0
 42
0.0000001
 43
0.0000001
 44
0.0000000001
 40
0.0
 40
0.0
 40
0.0
 40
0.0
 40
0.015625
 40
0.03125
 40
0.0390625
 40
0.046875
 40
0.0546875
 40
0.05859375
 40
0.060546875
 40
0.0625
 40
0.064453125
 40
0.06640625
 40
0.0703125
 40
0.078125
 40
0.09375
 40
0.109375
 40
0.1171875
 40
0.12109375
 40
0.123046875
 40
0.125
 40
0.126953125
 40
0.12890625
 40
0.1328125
 40
0.140625
 40
0.15625
 40
0.171875
 40
0.1796875
 40
0.18359375
 40
0.185546875
 40
0.1875
 40
0.189453125
 40
0.19140625
 40
0.1953125
 40
0.203125
 40
0.21875
 40
0.234375
 40
0.2421875
 40
0.24609375
 40
0.248046875
 40
0.25
 40
0.251953125
 40
0.25390625
 40
0.2578125
 40
0.265625
 40
0.28125
 40
0.296875
 40
0.3046875
 40
0.30859375
 40
0.310546875
 40
0.3125
 40
0.314453125
 40
0.31640625
 40
0.3203125
 40
0.328125
 40
0.34375
 40
0.359375
 40
0.3671875
 40
0.37109375
 40
0.373046875
 40
0.375
 40
0.376953125
 40
0.37890625
 40
0.3828125
 40
0.390625
 40
0.40625
 40
0.421875
 40
0.4296875
 40
0.43359375
 40
0.435546875
 40
0.4375
 40
0.439453125
 40
0.44140625
 40
0.4453125
 40
0.453125
 40
0.46875
 40
0.484375
 40
0.4921875
 40
0.49609375
 40
0.498046875
 40
0.5
 40
0.501953125
 40
0.50390625
 40
0.5078125
 40
0.515625
 40
0.53125
 40
0.546875
 40
0.5546875
 40
0.55859375
 40
0.560546875
 40
0.5625
 40
0.564453125
 40
0.56640625
 40
0.5703125
 40
0.578125
 40
0.59375
 40
0.609375
 40
0.6171875
 40
0.62109375
 40
0.623046875
 40
0.625
 40
0.626953125
 40
0.62890625
 40
0.6328125
 40
0.640625
 40
0.65625
 40
0.671875
 40
0.6796875
 40
0.68359375
 40
0.685546875
 40
0.6875
 40
0.689453125
 40
0.69140625
 40
0.6953125
 40
0.703125
 40
0.71875
 40
0.734375
 40
0.7421875
 40
0.74609375
 40
0.748046875
 40
0.75
 40
0.751953125
 40
0.75390625
 40
0.7578125
 40
0.765625
 40
0.78125
 40
0.796875
 40
0.8046875
 40
0.80859375
 40
0.810546875
 40
0.8125
 40
0.814453125
 40
0.81640625
 40
0.8203125
 40
0.828125
 40
0.84375
 40
0.859375
 40
0.8671875
 40
0.87109375
 40
0.873046875
 40
0.875
 40
0.876953125
 40
0.87890625
 40
0.8828125
 40
0.890625
 40
0.90625
 40
0.921875
 40
0.9296875
 40
0.93359375
 40
0.935546875
 40
0.9375
 40
0.939453125
 40
0.94140625
 40
0.9453125
 40
0.953125
 40
0.9609375
 40
0.96875
 40
0.984375
 40
1.0
 40
1.0
 40
1.0
 40
1.0
 10
443.4837094661
 20
-30.3578024457
 30
0.0
 10
443.5852895611
 20
-30.3408250733
 30
0.0
 10
443.7884486892
 20
-30.3068661823
 30
0.0
 10
444.0424029093
 20
-30.2644382996
 30
0.0
 10
444.2455551343
 20
-30.2304524583
 30
0.0
 10
444.3979495704
 20
-30.2050812442
 30
0.0
 10
444.5248486888
 20
-30.1835628159
 30
0.0
 10
444.6138669442
 20
-30.1692372927
 30
0.0
 10
444.6644396109
 20
-30.1598999302
 30
0.0
 10
444.7031998707
 20
-30.1561402773
 30
0.0
 10
444.7387845451
 20
-30.139982823
 30
0.0
 10
444.7873383913
 20
-30.1227637231
 30
0.0
 10
444.8717922275
 20
-30.0906187909
 30
0.0
 10
445.0410696623
 20
-30.0277651108
 30
0.0
 10
445.2826702904
 20
-29.9371583169
 30
0.0
 10
445.5244637241
 20
-29.8470792233
 30
0.0
 10
445.6934712311
 20
-29.7834867626
 30
0.0
 10
445.778296218
 20
-29.7523576537
 30
0.0
 10
445.8262523671
 20
-29.7335026827
 30
0.0
 10
445.8636735137
 20
-29.7223715746
 30
0.0
 10
445.8955361573
 20
-29.6997334402
 30
0.0
 10
445.9399584177
 20
-29.6735627465
 30
0.0
 10
446.0167954103
 20
-29.6258970265
 30
0.0
 10
446.1711145905
 20
-29.5318988613
 30
0.0
 10
446.3911943939
 20
-29.3968563038
 30
0.0
 10
446.6115499276
 20
-29.2623120329
 30
0.0
 10
446.7654830853
 20
-29.1676162664
 30
0.0
 10
446.8428508587
 20
-29.1209097481
 30
0.0
 10
446.8864183552
 20
-29.0931943659
 30
0.0
 10
446.9209073299
 20
-29.0753024117
 30
0.0
 10
446.9484642249
 20
-29.0463450992
 30
0.0
 10
446.9876245849
 20
-29.0115947697
 30
0.0
 10
447.0550302426
 20
-28.9489865324
 30
0.0
 10
447.1906476019
 20
-28.8250500279
 30
0.0
 10
447.3839061525
 20
-28.6472847666
 30
0.0
 10
447.5775515177
 20
-28.469933915
 30
0.0
 10
447.7126273367
 20
-28.3454172368
 30
0.0
 10
447.7807776123
 20
-28.2836067383
 30
0.0
 10
447.8187388474
 20
-28.2475717385
 30
0.0
 10
447.8499801505
 20
-28.222561679
 30
0.0
 10
447.8706308361
 20
-28.1898442156
 30
0.0
 10
447.9018589445
 20
-28.1489091567
 30
0.0
 10
447.9547897544
 20
-28.0760223483
 30
0.0
 10
448.061879163
 20
-27.931141012
 30
0.0
 10
448.2141594412
 20
-27.7236650147
 30
0.0
 10
448.3669194391
 20
-27.5165000744
 30
0.0
 10
448.4733372402
 20
-27.3711832584
 30
0.0
 10
448.5271915104
 20
-27.2988952346
 30
0.0
 10
448.556932488
 20
-27.2569958992
 30
0.0
 10
448.5821525032
 20
-27.2272412531
 30
0.0
 10
448.5962318356
 20
-27.1911031319
 30
0.0
 10
448.6188899981
 20
-27.1451454225
 30
0.0
 10
448.65673412
 20
-27.063683846
 30
0.0
 10
448.7337142866
 20
-26.9014988386
 30
0.0
 10
448.842941829
 20
-26.6693966377
 30
0.0
 10
448.9526850625
 20
-26.4375257779
 30
0.0
 10
449.0289432616
 20
-26.2750168929
 30
0.0
 10
449.0677800887
 20
-26.1940006481
 30
0.0
 10
449.0888396091
 20
-26.1473257812
 30
0.0
 10
449.1078308984
 20
-26.1133911839
 30
0.0
 10
449.1146020677
 20
-26.0753603104
 30
0.0
 10
449.1278925027
 20
-26.0260811946
 30
0.0
 10
449.1491679868
 20
-25.9391781946
 30
0.0
 10
449.1931356831
 20
-25.7658460071
 30
0.0
 10
449.2551334487
 20
-25.5179647595
 30
0.0
 10
449.3176856007
 20
-25.2702363592
 30
0.0
 10
449.3608771562
 20
-25.0966901856
 30
0.0
 10
449.3832198339
 20
-25.0100814165
 30
0.0
 10
449.3947916714
 20
-24.9603284743
 30
0.0
 10
449.4068433701
 20
-24.9237534705
 30
0.0
 10
449.4060014899
 20
-24.8843507642
 30
0.0
 10
449.4093760825
 20
-24.8328000556
 30
0.0
 10
449.4131896003
 20
-24.7421278253
 30
0.0
 10
449.4223110958
 20
-24.5611075245
 30
0.0
 10
449.4344865421
 20
-24.3023485279
 30
0.0
 10
449.4472364443
 20
-24.0436063514
 30
0.0
 10
449.4555537017
 20
-23.8625625024
 30
0.0
 10
449.4604730469
 20
-23.7719226507
 30
0.0
 10
449.4620668264
 20
-23.7203198001
 30
0.0
 10
449.4666966382
 20
-23.6810773047
 30
0.0
 10
449.4581971787
 20
-23.6439005637
 30
0.0
 10
449.451443867
 20
-23.5936110619
 30
0.0
 10
449.4374953602
 20
-23.5059396883
 30
0.0
 10
449.4111195519
 20
-23.3303565849
 30
0.0
 10
449.3725735604
 20
-23.0796680348
 30
0.0
 10
449.3345950966
 20
-22.8288594871
 30
0.0
 10
449.3074247494
 20
-22.6534443805
 30
0.0
 10
449.2945687336
 20
-22.5655420114
 30
0.0
 10
449.2860560857
 20
-22.5156245022
 30
0.0
 10
449.2829623286
 20
-22.477304784
 30
0.0
 10
449.267288833
 20
-22.4423552031
 30
0.0
 10
449.2507784688
 20
-22.3945802915
 30
0.0
 10
449.2198443022
 20
-22.3115211546
 30
0.0
 10
449.1594332636
 20
-22.1450105997
 30
0.0
 10
449.0723037071
 20
-21.9073753121
 30
0.0
 10
448.9857106427
 20
-21.6695394914
 30
0.0
 10
448.9245485151
 20
-21.5033096829
 30
0.0
 10
448.8946470959
 20
-21.4198645196
 30
0.0
 10
448.876473606
 20
-21.3727112609
 30
0.0
 10
448.8659101982
 20
-21.3358516012
 30
0.0
 10
448.8436234341
 20
-21.3047059585
 30
0.0
 10
448.8179966872
 20
-21.2611854583
 30
0.0
 10
448.7712477727
 20
-21.185951777
 30
0.0
 10
448.679108305
 20
-21.0348212118
 30
0.0
 10
448.5467065826
 20
-20.8193067473
 30
0.0
 10
448.4148131506
 20
-20.6035101547
 30
0.0
 10
448.3219620764
 20
-20.4527745687
 30
0.0
 10
448.2761916207
 20
-20.376997791
 30
0.0
 10
448.2489891739
 20
-20.3343518877
 30
0.0
 10
448.2315438749
 20
-20.3005189754
 30
0.0
 10
448.2027963816
 20
-20.2737524462
 30
0.0
 10
448.1684084162
 20
-20.2355990646
 30
0.0
 10
448.106395887
 20
-20.1699774042
 30
0.0
 10
447.9836782704
 20
-20.0379125441
 30
0.0
 10
447.8076384011
 20
-19.8497373231
 30
0.0
 10
447.6320241205
 20
-19.6611714794
 30
0.0
 10
447.5087106797
 20
-19.529653491
 30
0.0
 10
447.4475174089
 20
-19.463279882
 30
0.0
 10
447.4118101183
 20
-19.4263374305
 30
0.0
 10
447.3871163578
 20
-19.3958502209
 30
0.0
 10
447.3544456214
 20
-19.3759918329
 30
0.0
 10
447.3136668879
 20
-19.3458067963
 30
0.0
 10
447.2410099106
 20
-19.2947075591
 30
0.0
 10
447.0966194761
 20
-19.1912768893
 30
0.0
 10
446.8898269339
 20
-19.0442257392
 30
0.0
 10
446.6833572775
 20
-18.8966938298
 30
0.0
 10
446.5385148028
 20
-18.7939362229
 30
0.0
 10
446.4664793808
 20
-18.7419115243
 30
0.0
 10
446.4246997012
 20
-18.7132168411
 30
0.0
 10
446.3951044526
 20
-18.688779222
 30
0.0
 10
446.3588594502
 20
-18.6754911719
 30
0.0
 10
446.3128521068
 20
-18.6538849534
 30
0.0
 10
446.2312604669
 20
-18.617883172
 30
0.0
 10
446.0688461903
 20
-18.5445866943
 30
0.0
 10
445.8363988472
 20
-18.4406218487
 30
0.0
 10
445.6041945277
 20
-18.3361420652
 30
0.0
 10
445.4414400182
 20
-18.2635665005
 30
0.0
 10
445.3603161985
 20
-18.2265734637
 30
0.0
 10
445.3135554823
 20
-18.2065635526
 30
0.0
 10
445.2796252785
 20
-18.1883707193
 30
0.0
 10
445.2413358651
 20
-18.1823550024
 30
0.0
 10
445.191803737
 20
-18.1700868366
 30
0.0
 10
445.1044153041
 20
-18.1505933443
 30
0.0
 10
444.9301427229
 20
-18.1101946367
 30
0.0
 10
444.6809006455
 20
-18.0532924059
 30
0.0
 10
444.4318230141
 20
-17.9958383371
 30
0.0
 10
444.2573202086
 20
-17.9562122028
 30
0.0
 10
444.170248334
 20
-17.9356564222
 30
0.0
 10
444.1202064236
 20
-17.9250989545
 30
0.0
 10
444.0834833576
 20
-17.9138269798
 30
0.0
 10
444.043670101
 20
-17.9153761543
 30
0.0
 10
443.9916636519
 20
-17.9129695598
 30
0.0
 10
443.9001501556
 20
-17.9108416824
 30
0.0
 10
443.7696791514
 20
-17.906712492
 30
0.0
 10
443.6130015583
 20
-17.9022237602
 30
0.0
 10
443.404137372
 20
-17.8960758485
 30
0.0
 10
443.1430435751
 20
-17.8884472362
 30
0.0
 10
442.9341726714
 20
-17.8823271951
 30
0.0
 10
442.8297367028
 20
-17.8792693185
 30
0.0
  0
SPLINE
  5
28E
100
AcDbEntity
  8
_21_KURVEN
100
AcDbSpline
 62
1
  6
CENTER
 70
0
 71
3
 72
95
 73
91
 74
0
 42
0.0000001
 43
0.0000001
 44
0.0000000001
 40
0.0
 40
0.0
 40
0.0
 40
0.0
 40
0.03125
 40
0.0625
 40
0.078125
 40
0.09375
 40
0.109375
 40
0.1171875
 40
0.12109375
 40
0.125
 40
0.12890625
 40
0.1328125
 40
0.140625
 40
0.15625
 40
0.171875
 40
0.1875
 40
0.203125
 40
0.21875
 40
0.234375
 40
0.2421875
 40
0.24609375
 40
0.25
 40
0.25390625
 40
0.2578125
 40
0.265625
 40
0.28125
 40
0.296875
 40
0.3125
 40
0.328125
 40
0.34375
 40
0.359375
 40
0.3671875
 40
0.37109375
 40
0.375
 40
0.37890625
 40
0.3828125
 40
0.390625
 40
0.40625
 40
0.421875
 40
0.4375
 40
0.453125
 40
0.46875
 40
0.484375
 40
0.4921875
 40
0.49609375
 40
0.5
 40
0.50390625
 40
0.5078125
 40
0.515625
 40
0.53125
 40
0.546875
 40
0.5625
 40
0.578125
 40
0.59375
 40
0.609375
 40
0.6171875
 40
0.62109375
 40
0.625
 40
0.62890625
 40
0.6328125
 40
0.640625
 40
0.65625
 40
0.671875
 40
0.6875
 40
0.703125
 40
0.71875
 40
0.734375
 40
0.7421875
 40
0.74609375
 40
0.75
 40
0.75390625
 40
0.7578125
 40
0.765625
 40
0.78125
 40
0.796875
 40
0.8125
 40
0.828125
 40
0.84375
 40
0.859375
 40
0.8671875
 40
0.87109375
 40
0.875
 40
0.87890625
 40
0.8828125
 40
0.890625
 40
0.90625
 40
0.921875
 40
0.9375
 40
0.96875
 40
1.0
 40
1.0
 40
1.0
 40
1.0
 10
442.8297372542
 20
-17.8792692803
 30
0.0
 10
442.7157267712
 20
-17.8997372191
 30
0.0
 10
442.4877072777
 20
-17.9406783034
 30
0.0
 10
442.2026755481
 20
-17.991828625
 30
0.0
 10
441.9746656263
 20
-18.0328035531
 30
0.0
 10
441.8036162169
 20
-18.063386357
 30
0.0
 10
441.6612084933
 20
-18.0893438881
 30
0.0
 10
441.5612612011
 20
-18.106588173
 30
0.0
 10
441.5045573743
 20
-18.1178878977
 30
0.0
 10
441.4608775938
 20
-18.1222897161
 30
0.0
 10
441.421600999
 20
-18.1422605112
 30
0.0
 10
441.367696321
 20
-18.163457595
 30
0.0
 10
441.2740787774
 20
-18.2030828249
 30
0.0
 10
441.1399649156
 20
-18.2583666359
 30
0.0
 10
440.9791901926
 20
-18.3252771595
 30
0.0
 10
440.8183670467
 20
-18.3920257383
 30
0.0
 10
440.6575756813
 20
-18.4588521458
 30
0.0
 10
440.4967056169
 20
-18.5255291831
 30
0.0
 10
440.3628830764
 20
-18.5815264245
 30
0.0
 10
440.2687464511
 20
-18.6198804512
 30
0.0
 10
440.2156733631
 20
-18.6431140545
 30
0.0
 10
440.1738424099
 20
-18.656829362
 30
0.0
 10
440.1397563707
 20
-18.6847257408
 30
0.0
 10
440.0916067991
 20
-18.7169743877
 30
0.0
 10
440.0086038027
 20
-18.775714281
 30
0.0
 10
439.8893694722
 20
-18.8584227867
 30
0.0
 10
439.7465725067
 20
-18.95819198
 30
0.0
 10
439.603692411
 20
-19.0578142316
 30
0.0
 10
439.4608606045
 20
-19.1575052633
 30
0.0
 10
439.3179187717
 20
-19.2570681164
 30
0.0
 10
439.1991270913
 20
-19.3404071061
 30
0.0
 10
439.1153353728
 20
-19.3980235915
 30
0.0
 10
439.0684493662
 20
-19.4320719836
 30
0.0
 10
439.0304820901
 20
-19.4544401641
 30
0.0
 10
439.0032284108
 20
-19.4889184558
 30
0.0
 10
438.9631531409
 20
-19.5306653624
 30
0.0
 10
438.8947626536
 20
-19.6056906252
 30
0.0
 10
438.7961509519
 20
-19.7118400484
 30
0.0
 10
438.6782097703
 20
-19.8396623808
 30
0.0
 10
438.5601547557
 20
-19.9673598525
 30
0.0
 10
438.4421622129
 20
-20.0951137427
 30
0.0
 10
438.324033616
 20
-20.2227668198
 30
0.0
 10
438.2259945724
 20
-20.3294334123
 30
0.0
 10
438.1565837125
 20
-20.4035371734
 30
0.0
 10
438.118143121
 20
-20.4467603633
 30
0.0
 10
438.0858682719
 20
-20.4767040203
 30
0.0
 10
438.0667596662
 20
-20.5161035272
 30
0.0
 10
438.0366889825
 20
-20.565337892
 30
0.0
 10
437.986205133
 20
-20.6530348217
 30
0.0
 10
437.9129658384
 20
-20.7775123188
 30
0.0
 10
437.8255612519
 20
-20.9272310391
 30
0.0
 10
437.7380176124
 20
-21.0768529937
 30
0.0
 10
437.6505476182
 20
-21.2265162876
 30
0.0
 10
437.5629220955
 20
-21.3761109898
 30
0.0
 10
437.4903578839
 20
-21.5009674313
 30
0.0
 10
437.4386711592
 20
-21.5879891509
 30
0.0
 10
437.4105275306
 20
-21.6383052299
 30
0.0
 10
437.3854996743
 20
-21.674382083
 30
0.0
 10
437.3754565364
 20
-21.7168050696
 30
0.0
 10
437.3568388378
 20
-21.7711554468
 30
0.0
 10
437.3266932551
 20
-21.8672999915
 30
0.0
 10
437.2823540463
 20
-22.0041099199
 30
0.0
 10
437.2296960259
 20
-22.168513605
 30
0.0
 10
437.17688043
 20
-22.3328532801
 30
0.0
 10
437.1241461059
 20
-22.4972172243
 30
0.0
 10
437.0712442701
 20
-22.661548102
 30
0.0
 10
437.0276500529
 20
-22.7985804976
 30
0.0
 10
436.9961770306
 20
-22.8943286463
 30
0.0
 10
436.9796859445
 20
-22.9493140661
 30
0.0
 10
436.9631105845
 20
-22.9897864203
 30
0.0
 10
436.9626166569
 20
-23.0331895209
 30
0.0
 10
436.9563486923
 20
-23.0900380443
 30
0.0
 10
436.9479933831
 20
-23.1899992601
 30
0.0
 10
436.9346899235
 20
-23.3325519678
 30
0.0
 10
436.9193148205
 20
-23.5037218714
 30
0.0
 10
436.9037712094
 20
-23.674863604
 30
0.0
 10
436.8883125819
 20
-23.8460113665
 30
0.0
 10
436.8726825279
 20
-24.0171631804
 30
0.0
 10
436.8601580849
 20
-24.1597711625
 30
0.0
 10
436.8504147098
 20
-24.2596338893
 30
0.0
 10
436.8463704834
 20
-24.316640196
 30
0.0
 10
436.839045997
 20
-24.3595586406
 30
0.0
 10
436.8481250688
 20
-24.4018512814
 30
0.0
 10
436.854508753
 20
-24.4584597565
 30
0.0
 10
436.8683460678
 20
-24.5574228838
 30
0.0
 10
436.8867199108
 20
-24.6988519522
 30
0.0
 10
436.909365109
 20
-24.8685440742
 30
0.0
 10
436.9393502441
 20
-25.0948081898
 30
0.0
 10
436.9769036649
 20
-25.3776355874
 30
0.0
 10
437.0069244581
 20
-25.6038983426
 30
0.0
 10
437.0219375976
 20
-25.7170296156
 30
0.0
  0
SPLINE
  5
28F
100
AcDbEntity
  8
_21_KURVEN
100
AcDbSpline
 62
1
  6
CENTER
 70
0
 71
3
 72
65
 73
61
 74
0
 42
0.0000001
 43
0.0000001
 44
0.0000000001
 40
0.0
 40
0.0
 40
0.0
 40
0.0
 40
0.03125
 40
0.0625
 40
0.09375
 40
0.109375
 40
0.125
 40
0.1328125
 40
0.140625
 40
0.15625
 40
0.171875
 40
0.1875
 40
0.21875
 40
0.25
 40
0.265625
 40
0.2734375
 40
0.28125
 40
0.28515625
 40
0.2890625
 40
0.296875
 40
0.3125
 40
0.34375
 40
0.375
 40
0.40625
 40
0.4140625
 40
0.421875
 40
0.4296875
 40
0.4375
 40
0.453125
 40
0.46875
 40
0.5
 40
0.53125
 40
0.546875
 40
0.5625
 40
0.5703125
 40
0.578125
 40
0.5859375
 40
0.59375
 40
0.625
 40
0.65625
 40
0.6875
 40
0.703125
 40
0.7109375
 40
0.71484375
 40
0.71875
 40
0.7265625
 40
0.734375
 40
0.75
 40
0.78125
 40
0.8125
 40
0.828125
 40
0.84375
 40
0.859375
 40
0.8671875
 40
0.875
 40
0.890625
 40
0.90625
 40
0.9375
 40
0.96875
 40
1.0
 40
1.0
 40
1.0
 40
1.0
 10
437.0219375957
 20
-25.7170296079
 30
0.0
 10
437.0517459614
 20
-25.8004507913
 30
0.0
 10
437.1113570736
 20
-25.9672952757
 30
0.0
 10
437.2008074574
 20
-26.217549298
 30
0.0
 10
437.2752511072
 20
-26.4261313706
 30
0.0
 10
437.3350251772
 20
-26.5929144513
 30
0.0
 10
437.371885264
 20
-26.6973417931
 30
0.0
 10
437.4025154426
 20
-26.7804533115
 30
0.0
 10
437.4289761501
 20
-26.8651359173
 30
0.0
 10
437.4918954313
 20
-26.9597439628
 30
0.0
 10
437.5604227147
 20
-27.0759015808
 30
0.0
 10
437.654224011
 20
-27.2298651806
 30
0.0
 10
437.7706783774
 20
-27.4225989533
 30
0.0
 10
437.8872822784
 20
-27.6153571646
 30
0.0
 10
437.9691490643
 20
-27.7500411004
 30
0.0
 10
438.0154668441
 20
-27.8274191243
 30
0.0
 10
438.0455154498
 20
-27.8747997169
 30
0.0
 10
438.0670301606
 20
-27.9149538608
 30
0.0
 10
438.0977615719
 20
-27.9468938632
 30
0.0
 10
438.1499351746
 20
-28.0042204993
 30
0.0
 10
438.2554216684
 20
-28.1178584532
 30
0.0
 10
438.4055305702
 20
-28.2807203614
 30
0.0
 10
438.5858703938
 20
-28.4759699035
 30
0.0
 10
438.7212011445
 20
-28.6223349343
 30
0.0
 10
438.8112298166
 20
-28.7200895648
 30
0.0
 10
438.856602515
 20
-28.7686350355
 30
0.0
 10
438.9005801298
 20
-28.8184722958
 30
0.0
 10
438.9775045617
 20
-28.8679888888
 30
0.0
 10
439.0673967761
 20
-28.9356857914
 30
0.0
 10
439.2147343775
 20
-29.0407395778
 30
0.0
 10
439.3976342436
 20
-29.1733115991
 30
0.0
 10
439.5812350797
 20
-29.3049410392
 30
0.0
 10
439.727451129
 20
-29.4115029554
 30
0.0
 10
439.8201472237
 20
-29.4754295335
 30
0.0
 10
439.8913237011
 20
-29.5326752917
 30
0.0
 10
439.9528606158
 20
-29.5589008949
 30
0.0
 10
440.0135680598
 20
-29.5868260244
 30
0.0
 10
440.1354091195
 20
-29.6418031416
 30
0.0
 10
440.3179991646
 20
-29.7246194968
 30
0.0
 10
440.5615151178
 20
-29.8349172974
 30
0.0
 10
440.7645415143
 20
-29.9266220555
 30
0.0
 10
440.9064301075
 20
-29.9913107981
 30
0.0
 10
440.9776939163
 20
-30.0229671964
 30
0.0
 10
441.0179011982
 20
-30.042165176
 30
0.0
 10
441.0632784432
 20
-30.050231821
 30
0.0
 10
441.1182300651
 20
-30.0641258186
 30
0.0
 10
441.2071403146
 20
-30.0842304596
 30
0.0
 10
441.3622745113
 20
-30.1203941387
 30
0.0
 10
441.584123144
 20
-30.1716233413
 30
0.0
 10
441.8059321602
 20
-30.2227176005
 30
0.0
 10
441.9832917714
 20
-30.264263429
 30
0.0
 10
442.1165980549
 20
-30.293492503
 30
0.0
 10
442.2267678747
 20
-30.324005047
 30
0.0
 10
442.3186785946
 20
-30.323136137
 30
0.0
 10
442.4099300738
 20
-30.326681932
 30
0.0
 10
442.5242201483
 20
-30.3296025705
 30
0.0
 10
442.7069581054
 20
-30.3351204549
 30
0.0
 10
442.9354238646
 20
-30.3417277608
 30
0.0
 10
443.2095641178
 20
-30.3497814722
 30
0.0
 10
443.3923278405
 20
-30.3551268143
 30
0.0
 10
443.4837092576
 20
-30.3578024601
 30
0.0
  0
SPLINE
  5
290
100
AcDbEntity
  8
_21_KURVEN
100
AcDbSpline
 62
7
  6
CONTINUOUS
 70
0
 71
3
 72
9
 73
5
 74
0
 42
0.0000001
 43
0.0000001
 44
0.0000000001
 40
0.0
 40
0.0
 40
0.0
 40
0.0
 40
0.5
 40
1.0
 40
1.0
 40
1.0
 40
1.0
 10
436.997711675
 20
-27.3944153485
 30
0.0
 10
436.9996334618
 20
-27.4218145277
 30
0.0
 10
437.0044563739
 20
-27.4766117612
 30
0.0
 10
437.016938128
 20
-27.5300747531
 30
0.0
 10
437.0244452027
 20
-27.559576823
 30
0.0
  0
SPLINE
  5
291
100
AcDbEntity
  8
_21_KURVEN
100
AcDbSpline
 62
7
  6
CONTINUOUS
 70
0
 71
3
 72
9
 73
5
 74
0
 42
0.0000001
 43
0.0000001
 44
0.0000000001
 40
0.0
 40
0.0
 40
0.0
 40
0.0
 40
0.5
 40
1.0
 40
1.0
 40
1.0
 40
1.0
 10
437.0244452026
 20
-27.5595768227
 30
0.0
 10
437.0484562031
 20
-27.6323544524
 30
0.0
 10
437.1046307816
 20
-27.7770311175
 30
0.0
 10
437.2122195038
 20
-27.8889883267
 30
0.0
 10
437.2682504442
 20
-27.9415612341
 30
0.0
  0
SPLINE
  5
292
100
AcDbEntity
  8
_21_KURVEN
100
AcDbSpline
 62
7
  6
CONTINUOUS
 70
0
 71
3
 72
8
 73
4
 74
0
 42
0.0000001
 43
0.0000001
 44
0.0000000001
 40
0.0
 40
0.0
 40
0.0
 40
0.0
 40
1.0
 40
1.0
 40
1.0
 40
1.0
 10
437.2682504391
 20
-27.9415612298
 30
0.0
 10
437.2978204311
 20
-27.9660333869
 30
0.0
 10
437.3337563365
 20
-27.9921349009
 30
0.0
 10
437.3703276732
 20
-28.0148263255
 30
0.0
  0
SPLINE
  5
293
100
AcDbEntity
  8
_21_KURVEN
100
AcDbSpline
 62
7
  6
CONTINUOUS
 70
0
 71
3
 72
35
 73
31
 74
0
 42
0.0000001
 43
0.0000001
 44
0.0000000001
 40
0.0
 40
0.0
 40
0.0
 40
0.0
 40
0.0625
 40
0.09375
 40
0.125
 40
0.1875
 40
0.21875
 40
0.25
 40
0.28125
 40
0.3125
 40
0.375
 40
0.40625
 40
0.4375
 40
0.453125
 40
0.46875
 40
0.5
 40
0.53125
 40
0.546875
 40
0.5625
 40
0.59375
 40
0.625
 40
0.6875
 40
0.71875
 40
0.75
 40
0.78125
 40
0.8125
 40
0.875
 40
0.90625
 40
0.9375
 40
1.0
 40
1.0
 40
1.0
 40
1.0
 10
437.5166860427
 20
-13.3495672507
 30
0.0
 10
437.4848164256
 20
-13.3344546288
 30
0.0
 10
437.4365651115
 20
-13.3127556509
 30
0.0
 10
437.3740175798
 20
-13.2799438607
 30
0.0
 10
437.3021318748
 20
-13.2670234285
 30
0.0
 10
437.2337927475
 20
-13.2430140553
 30
0.0
 10
437.160852688
 20
-13.2431202498
 30
0.0
 10
437.1067555716
 20
-13.2396147647
 30
0.0
 10
437.0525272085
 20
-13.2383920196
 30
0.0
 10
436.9809206147
 20
-13.2526538986
 30
0.0
 10
436.908623088
 20
-13.2601436392
 30
0.0
 10
436.8405971292
 20
-13.2873233402
 30
0.0
 10
436.798185963
 20
-13.3030768249
 30
0.0
 10
436.7629369987
 20
-13.3137183107
 30
0.0
 10
436.7328841133
 20
-13.3331920671
 30
0.0
 10
436.6940893247
 20
-13.3554576265
 30
0.0
 10
436.6561202894
 20
-13.3791036435
 30
0.0
 10
436.6247461988
 20
-13.3963686676
 30
0.0
 10
436.5986965636
 20
-13.4223891828
 30
0.0
 10
436.5647548374
 20
-13.4523014949
 30
0.0
 10
436.5086291305
 20
-13.4993755365
 30
0.0
 10
436.4678320768
 20
-13.5595261861
 30
0.0
 10
436.4213948253
 20
-13.6158654684
 30
0.0
 10
436.3968213941
 20
-13.6642172492
 30
0.0
 10
436.3743217405
 20
-13.7135397556
 30
0.0
 10
436.3397252327
 20
-13.777723295
 30
0.0
 10
436.3285629878
 20
-13.8494441979
 30
0.0
 10
436.3059258319
 20
-13.9185177171
 30
0.0
 10
436.3053266561
 20
-13.9906349338
 30
0.0
 10
436.3016657937
 20
-14.0442630403
 30
0.0
 10
436.2999388811
 20
-14.0801172904
 30
0.0
  0
SPLINE
  5
294
100
AcDbEntity
  8
0
100
AcDbSpline
 62
4
  6
CONTINUOUS
 70
0
 71
3
 72
8
 73
4
 74
0
 42
0.0000001
 43
0.0000001
 44
0.0000000001
 40
0.0
 40
0.0
 40
0.0
 40
0.0
 40
1.0
 40
1.0
 40
1.0
 40
1.0
 10
1.5
 20
11.874342087
 30
0.0
 10
0.9405365624
 20
10.6964590652
 30
0.0
 10
0.4324709825
 20
9.4915495456
 30
0.0
 10
-0.0
 20
8.2613558209
 30
0.0
  0
LINE
  5
295
100
AcDbEntity
  8
_30_VOLUMEN
100
AcDbLine
 62
4
  6
CONTINUOUS
 10
418.7845684026
 20
-24.4662693859
 11
419.0
 21
-24.4711952602
  0
SPLINE
  5
296
100
AcDbEntity
  8
_30_VOLUMEN
100
AcDbSpline
 62
4
  6
CONTINUOUS
 70
0
 71
3
 72
22
 73
18
 74
0
 42
0.0000001
 43
0.0000001
 44
0.0000000001
 40
0.0
 40
0.0
 40
0.0
 40
0.0
 40
0.1484410727
 40
0.2211260891
 40
0.2922734374
 40
0.3614107759
 40
0.4279956996
 40
0.4914414264
 40
0.5512196005
 40
0.607109084
 40
0.6596084549
 40
0.7102866451
 40
0.7615013353
 40
0.8153895904
 40
0.8730857074
 40
0.9347517828
 40
1.0
 40
1.0
 40
1.0
 40
1.0
 10
418.7845687533
 20
-24.4662693564
 30
0.0
 10
417.436700196
 20
-24.4353731827
 30
0.0
 10
415.4290734741
 20
-24.3634094743
 30
0.0
 10
412.7802950044
 20
-24.1844912078
 30
0.0
 10
410.8544599358
 20
-24.0000951623
 30
0.0
 10
408.9915881609
 20
-23.7507003755
 30
0.0
 10
407.2123326074
 20
-23.4183190997
 30
0.0
 10
405.542781936
 20
-22.9806610176
 30
0.0
 10
404.0150407693
 20
-22.4107627667
 30
0.0
 10
402.6673878185
 20
-21.6773375624
 30
0.0
 10
401.5457966587
 20
-20.7482529321
 30
0.0
 10
400.7037620107
 20
-19.6076589587
 30
0.0
 10
400.1768981083
 20
-18.2789927846
 30
0.0
 10
399.9518695003
 20
-16.8077142897
 30
0.0
 10
399.9849915087
 20
-15.2288933496
 30
0.0
 10
400.2303047913
 20
-13.5671296719
 30
0.0
 10
400.5017353286
 20
-12.4454889816
 30
0.0
 10
400.6598159369
 20
-11.874342087
 30
0.0
  0
SPLINE
  5
297
100
AcDbEntity
  8
_30_VOLUMEN
100
AcDbSpline
 62
4
  6
CONTINUOUS
 70
0
 71
3
 72
9
 73
5
 74
0
 42
0.0000001
 43
0.0000001
 44
0.0000000001
 40
0.0
 40
0.0
 40
0.0
 40
0.0
 40
0.4991746864
 40
1.0
 40
1.0
 40
1.0
 40
1.0
 10
419.0
 20
15.6183173986
 30
0.0
 10
419.9457824218
 20
16.2853432613
 30
0.0
 10
421.9185471715
 20
17.5144572182
 30
0.0
 10
424.0185406018
 20
18.5094687588
 30
0.0
 10
425.0926010897
 20
18.9507111085
 30
0.0
  0
LINE
  5
298
100
AcDbEntity
  8
_30_VOLUMEN
100
AcDbLine
 62
4
  6
CONTINUOUS
 10
414.3832749309
 20
11.874342087
 11
400.6598159369
 21
-11.874342087
  0
SPLINE
  5
299
100
AcDbEntity
  8
_30_VOLUMEN
100
AcDbSpline
 62
4
  6
CONTINUOUS
 70
0
 71
3
 72
9
 73
5
 74
0
 42
0.0000001
 43
0.0000001
 44
0.0000000001
 40
0.0
 40
0.0
 40
0.0
 40
0.0
 40
0.5040083779
 40
1.0
 40
1.0
 40
1.0
 40
1.0
 10
414.3832749309
 20
11.874342087
 30
0.0
 10
415.0978832472
 20
12.6078469096
 30
0.0
 10
416.5758589249
 20
14.0062272754
 30
0.0
 10
418.1772895449
 20
15.2625398565
 30
0.0
 10
419.0
 20
15.8445588754
 30
0.0
  0
SPLINE
  5
29A
100
AcDbEntity
  8
0
100
AcDbSpline
 62
4
  6
CONTINUOUS
 70
0
 71
3
 72
8
 73
4
 74
0
 42
0.0000001
 43
0.0000001
 44
0.0000000001
 40
0.0
 40
0.0
 40
0.0
 40
0.0
 40
1.0
 40
1.0
 40
1.0
 40
1.0
 10
0.0
 20
-8.2613558209
 30
0.0
 10
0.4324709825
 20
-9.4915495456
 30
0.0
 10
0.9405365624
 20
-10.6964590652
 30
0.0
 10
1.5
 20
-11.874342087
 30
0.0
  0
ELLIPSE
  5
29B
100
AcDbEntity
  8
_26_BEZUGSACHSEN
100
AcDbEllipse
 62
4
  6
CONTINUOUS
 10
435.0754477238
 20
-1.1744367373
 30
0.0
 11
-1.7370646804
 21
24.7510255554
 31
0.0
 40
0.092516273
 41
-3.214686221
 42
-3.0942759912
  0
ELLIPSE
  5
29C
100
AcDbEntity
  8
_30_VOLUMEN
100
AcDbEllipse
 62
4
  6
CONTINUOUS
 10
508.7173705151
 20
0.0
 30
0.0
 11
239.1127773018
 21
4.3428961933
 31
0.0
 40
0.1019016888
 41
-1.9572691337
 42
-1.8860471983
  0
ENDSEC
  0
SECTION
  2
OBJECTS
  0
DICTIONARY
  5
C
100
AcDbDictionary
280
0
281
1
  3
ACAD_GROUP
350
D
  3
ACAD_MLINESTYLE
350
17
  3
ACAD_LAYOUT
350
1A
  3
ACAD_PLOTSETTINGS
350
19
  3
ACAD_PLOTSTYLENAME
350
E
  0
DICTIONARY
  5
D
102
{ACAD_REACTORS
330
C
102
}
100
AcDbDictionary
280
0
281
1
  0
ACDBDICTIONARYWDFLT
  5
E
102
{ACAD_REACTORS
330
C
102
}
100
AcDbDictionary
281
1
  3
Normal
350
F
100
AcDbDictionaryWithDefault
340
F
  0
DICTIONARY
  5
17
102
{ACAD_REACTORS
330
C
102
}
100
AcDbDictionary
280
0
281
1
  3
Standard
350
18
  0
DICTIONARY
  5
19
102
{ACAD_REACTORS
330
C
102
}
100
AcDbDictionary
281
1
  0
DICTIONARY
  5
1A
102
{ACAD_REACTORS
330
C
102
}
100
AcDbDictionary
281
1
  3
Model
350
29D
  3
Layout1
350
29E
  0
ACDBPLACEHOLDER
  5
F
102
{ACAD_REACTORS
330
E
102
}
  0
MLINESTYLE
  5
18
102
{ACAD_REACTORS
330
17
102
}
100
AcDbMlineStyle
  2
STANDARD
 70
0
  3

 62
256
 51
90.0
 52
90.0
 71
2
 49
0.5
 62
256
  6
BYLAYER
 49
-0.5
 62
256
  6
BYLAYER
  0
LAYOUT
  5
29D
102
{ACAD_REACTORS
330
1A
102
}
100
AcDbPlotSettings
  1

  2
none_device
  4
ISO_A3_(420.00_x_297.00_MM)
  6

 40
0.0
 41
0.0
 42
0.0
 43
0.0
 44
420.0
 45
297.0
 46
0.0
 47
0.0
 48
0.0
 49
0.0
140
0.0
141
0.0
142
1.0
143
1.0
 70
1024
 72
1
 73
0
 74
0
  7

 75
0
147
1.0
148
0.0
149
0.0
100
AcDbLayout
  1
Model
 70
0
 71
0
 10
0.0
 20
0.0
 11
420.0
 21
297.0
 12
0.0
 22
0.0
 32
0.0
 14
0.0
 24
0.0
 34
0.0
 15
0.0
 25
0.0
 35
0.0
146
0.0
 13
0.0
 23
0.0
 33
0.0
 16
1.0
 26
0.0
 36
0.0
 17
0.0
 27
1.0
 37
0.0
 76
0
330
20F
345
0
346
0
  0
LAYOUT
  5
29E
102
{ACAD_REACTORS
330
1A
102
}
100
AcDbPlotSettings
  1

  2
none_device
  4
ISO_A3_(420.00_x_297.00_MM)
  6

 40
0.0
 41
0.0
 42
0.0
 43
0.0
 44
420.0
 45
297.0
 46
0.0
 47
0.0
 48
0.0
 49
0.0
140
0.0
141
0.0
142
1.0
143
1.0
 70
0
 72
1
 73
0
 74
0
  7

 75
0
147
1.0
148
0.0
149
0.0
100
AcDbLayout
  1
Layout1
 70
0
 71
1
 10
0.0
 20
0.0
 11
420.0
 21
297.0
 12
0.0
 22
0.0
 32
0.0
 14
0.0
 24
0.0
 34
0.0
 15
0.0
 25
0.0
 35
0.0
146
0.0
 13
0.0
 23
0.0
 33
0.0
 16
1.0
 26
0.0
 36
0.0
 17
0.0
 27
1.0
 37
0.0
 76
0
330
210
345
0
346
0
  0
ENDSEC
  0
EOF
