999
DXF file: 70572032.dxf
999
Pro/ENGINEER 2016380 by Parametric Technology Corporation
  0
SECTION
  2
HEADER
  9
$ACADVER
  1
AC1027
  9
$DWGCODEPAGE
  3
ANSI_1252
  9
$EXTMAX
 10
420.0
 20
297.0
 30
0.0
  9
$EXTMIN
 10
0.0
 20
0.0
 30
0.0
  9
$LIMMIN
 10
0.0
 20
0.0
  9
$LIMMAX
 10
420.0
 20
297.0
  9
$VIEWCTR
 10
210.0
 20
148.5
  9
$VIEWSIZE
 40
297.0
  9
$CLAYER
  8
0
  9
$LTSCALE
 40
23.1
  9
$CELTYPE
  6
BYLAYER
  9
$DIMSCALE
 40
1.0
  9
$DIMASZ
 40
3.5
  9
$DIMEXO
 40
0.0
  9
$DIMDLI
 40
15.96
  9
$DIMEXE
 40
1.5
  9
$DIMCEN
 40
3.78
  9
$DIMLFAC
 40
1.0
  9
$DIMBLK
  1
_FILLED
  9
$DIMALT
 70
0
  9
$DIMALTF
 40
25.4
  9
$DIMTXT
 40
3.5
  9
$DIMTOL
 70
1
  9
$DIMLIM
 70
0
  9
$DIMTFAC
 40
1.0
  9
$DIMTP
 40
0.05
  9
$DIMTM
 40
0.05
  9
$DIMGAP
 40
0.625
  9
$DIMDSEP
 70
46
  9
$AUNITS
 70
0
  9
$PDMODE
 70
3
  9
$PDSIZE
 40
0.3125
  9
$HANDSEED
  5
2B2
  9
$TILEMODE
 70
1
  9
$MEASUREMENT
 70
1
  9
$INSUNITS
 70
4
  0
ENDSEC
  0
SECTION
  2
CLASSES
  0
CLASS
  1
ACDBDICTIONARYWDFLT
  2
AcDbDictionaryWithDefault
  3
AutoCAD 2000
 90
0
 91
1
280
0
281
0
  0
CLASS
  1
ACDBPLACEHOLDER
  2
AcDbPlaceHolder
  3
AutoCAD 2000
 90
0
 91
1
280
0
281
0
  0
CLASS
  1
LAYOUT
  2
AcDbLayout
  3
AutoCAD 2000
 90
0
 91
0
280
0
281
0
  0
ENDSEC
  0
SECTION
  2
TABLES
  0
TABLE
  2
VPORT
  5
8
100
AcDbSymbolTable
 70
2
  0
VPORT
  5
1F4
100
AcDbSymbolTableRecord
100
AcDbViewportTableRecord
  2
*ACTIVE
 70
0
 10
0.0
 20
0.0
 11
1.0
 21
1.0
 12
210.0
 22
148.5
 13
0.0
 23
0.0
 14
1.0
 24
1.0
 15
0.0
 25
0.0
 16
0.0
 26
0.0
 36
1.0
 17
0.0
 27
0.0
 37
0.0
 40
297.0
 41
1.4141414141
 42
50.0
 43
0.0
 44
0.0
 50
0.0
 51
0.0
 71
0
 72
100
 73
1
 74
1
 75
0
 76
0
 77
0
 78
0
  0
ENDTAB
  0
TABLE
  2
LTYPE
  5
5
100
AcDbSymbolTable
 70
6
  0
LTYPE
  5
14
100
AcDbSymbolTableRecord
100
AcDbLinetypeTableRecord
  2
BYBLOCK
 70
0
  3

 72
65
 73
0
 40
0.0
  0
LTYPE
  5
15
100
AcDbSymbolTableRecord
100
AcDbLinetypeTableRecord
  2
BYLAYER
 70
0
  3

 72
65
 73
0
 40
0.0
  0
LTYPE
  5
16
100
AcDbSymbolTableRecord
100
AcDbLinetypeTableRecord
  2
CONTINUOUS
 70
64
  3
Solid line
 72
65
 73
0
 40
0.0
  0
LTYPE
  5
1F5
100
AcDbSymbolTableRecord
100
AcDbLinetypeTableRecord
  2
CENTER
 70
64
  3
____ _ ____ _ ____ _ ____ _ ____ _ ____ _ ____
 72
65
 73
4
 40
0.6
 49
0.375
 74
0
 49
-0.075
 74
0
 49
0.075
 74
0
 49
-0.075
 74
0
  0
LTYPE
  5
1F6
100
AcDbSymbolTableRecord
100
AcDbLinetypeTableRecord
  2
HIDDEN
 70
64
  3
- - - - - - - - - - - - - - - - - - - -
 72
65
 73
2
 40
0.2
 49
0.1
 74
0
 49
-0.1
 74
0
  0
LTYPE
  5
1F7
100
AcDbSymbolTableRecord
100
AcDbLinetypeTableRecord
  2
PHANTOM
 70
64
  3
_____ _ _ _____ _ _ _____ _ _ _____
 72
65
 73
6
 40
0.8
 49
0.45
 74
0
 49
-0.05
 74
0
 49
0.1
 74
0
 49
-0.05
 74
0
 49
0.1
 74
0
 49
-0.05
 74
0
  0
LTYPE
  5
1F8
100
AcDbSymbolTableRecord
100
AcDbLinetypeTableRecord
  2
DOT
 70
64
  3
. . . . . . . . . . . . . . . . . . . .
 72
65
 73
2
 40
0.2
 49
0.1
 74
0
 49
-0.1
 74
0
  0
LTYPE
  5
1F9
100
AcDbSymbolTableRecord
100
AcDbLinetypeTableRecord
  2
DASHED
 70
64
  3
- - - - - - - - - - - - - - - - - - - -
 72
65
 73
2
 40
0.2
 49
0.1
 74
0
 49
-0.1
 74
0
  0
ENDTAB
  0
TABLE
  2
LAYER
  5
2
100
AcDbSymbolTable
 70
36
  0
LAYER
  5
10
100
AcDbSymbolTableRecord
100
AcDbLayerTableRecord
  2
0
 70
0
 62
7
  6
CONTINUOUS
370
-3
390
F
  0
LAYER
  5
1FA
100
AcDbSymbolTableRecord
100
AcDbLayerTableRecord
  2
DEFAULT_1
 70
0
 62
7
  6
CENTER
370
-3
390
F
  0
LAYER
  5
1FB
100
AcDbSymbolTableRecord
100
AcDbLayerTableRecord
  2
DEFAULT_2
 70
0
 62
1
  6
HIDDEN
370
-3
390
F
  0
LAYER
  5
1FC
100
AcDbSymbolTableRecord
100
AcDbLayerTableRecord
  2
DEFAULT_3
 70
0
 62
7
  6
PHANTOM
370
-3
390
F
  0
LAYER
  5
1FD
100
AcDbSymbolTableRecord
100
AcDbLayerTableRecord
  2
BG_STARTBEZUEGE
 70
0
 62
7
  6
CONTINUOUS
370
-3
390
F
  0
LAYER
  5
1FE
100
AcDbSymbolTableRecord
100
AcDbLayerTableRecord
  2
HILFEN
 70
0
 62
7
  6
CONTINUOUS
370
-3
390
F
  0
LAYER
  5
1FF
100
AcDbSymbolTableRecord
100
AcDbLayerTableRecord
  2
PLATZIERUNG
 70
0
 62
7
  6
CONTINUOUS
370
-3
390
F
  0
LAYER
  5
200
100
AcDbSymbolTableRecord
100
AcDbLayerTableRecord
  2
T_STARTBEZUEGE
 70
0
 62
7
  6
CONTINUOUS
370
-3
390
F
  0
LAYER
  5
201
100
AcDbSymbolTableRecord
100
AcDbLayerTableRecord
  2
_03_2D_ZEICHNUNG_BEMASSUNGEN
 70
0
 62
7
  6
CONTINUOUS
370
-3
390
F
  0
LAYER
  5
202
100
AcDbSymbolTableRecord
100
AcDbLayerTableRecord
  2
_04_NOTIZEN
 70
0
 62
7
  6
CONTINUOUS
370
-3
390
F
  0
LAYER
  5
203
100
AcDbSymbolTableRecord
100
AcDbLayerTableRecord
  2
_05_2D_ELEMENTE
 70
0
 62
7
  6
CONTINUOUS
370
-3
390
F
  0
LAYER
  5
204
100
AcDbSymbolTableRecord
100
AcDbLayerTableRecord
  2
_07_EINRASTLINIEN
 70
0
 62
7
  6
CONTINUOUS
370
-3
390
F
  0
LAYER
  5
205
100
AcDbSymbolTableRecord
100
AcDbLayerTableRecord
  2
_21_KURVEN
 70
0
 62
7
  6
CONTINUOUS
370
-3
390
F
  0
LAYER
  5
206
100
AcDbSymbolTableRecord
100
AcDbLayerTableRecord
  2
_26_BEZUGSACHSEN
 70
0
 62
7
  6
CONTINUOUS
370
-3
390
F
  0
LAYER
  5
207
100
AcDbSymbolTableRecord
100
AcDbLayerTableRecord
  2
_27_BEZUGSEBENEN
 70
0
 62
7
  6
CONTINUOUS
370
-3
390
F
  0
LAYER
  5
208
100
AcDbSymbolTableRecord
100
AcDbLayerTableRecord
  2
_28_BEZUGSPUNKTE
 70
0
 62
7
  6
CONTINUOUS
370
-3
390
F
  0
LAYER
  5
209
100
AcDbSymbolTableRecord
100
AcDbLayerTableRecord
  2
_29_KOORDINATENSYSTEME
 70
0
 62
7
  6
CONTINUOUS
370
-3
390
F
  0
LAYER
  5
20A
100
AcDbSymbolTableRecord
100
AcDbLayerTableRecord
  2
_30_VOLUMEN
 70
0
 62
7
  6
CONTINUOUS
370
-3
390
F
  0
ENDTAB
  0
TABLE
  2
STYLE
  5
3
100
AcDbSymbolTable
 70
1
  0
STYLE
  5
11
100
AcDbSymbolTableRecord
100
AcDbTextStyleTableRecord
  2
STANDARD
 70
0
 40
0.0
 41
0.7
 50
0.0
 71
0
 42
0.2
  3
SIMPLEX.SHX
  4

  0
STYLE
  5
20B
100
AcDbSymbolTableRecord
100
AcDbTextStyleTableRecord
  2
TEXTSTYLE_1
 70
0
 40
0.0
 41
0.8
 50
0.0
 71
0
 42
0.2
  3
gdt
  4

  0
STYLE
  5
20C
100
AcDbSymbolTableRecord
100
AcDbTextStyleTableRecord
  2
TEXTSTYLE_2
 70
0
 40
0.0
 41
0.7
 50
0.0
 71
0
 42
0.2
  3
gdt
  4

  0
ENDTAB
  0
TABLE
  2
VIEW
  5
6
100
AcDbSymbolTable
 70
0
  0
ENDTAB
  0
TABLE
  2
UCS
  5
7
100
AcDbSymbolTable
 70
0
  0
ENDTAB
  0
TABLE
  2
APPID
  5
9
100
AcDbSymbolTable
 70
1
  0
APPID
  5
20D
100
AcDbSymbolTableRecord
100
AcDbRegAppTableRecord
  2
ACAD
 70
0
  0
ENDTAB
  0
TABLE
  2
BLOCK_RECORD
  5
1
100
AcDbSymbolTable
 70
0
  0
BLOCK_RECORD
  5
20E
100
AcDbSymbolTableRecord
100
AcDbBlockTableRecord
  2
*Model_Space
  0
BLOCK_RECORD
  5
20F
100
AcDbSymbolTableRecord
100
AcDbBlockTableRecord
  2
*Paper_Space
  0
BLOCK_RECORD
  5
210
100
AcDbSymbolTableRecord
100
AcDbBlockTableRecord
  2
_FILLED
  0
BLOCK_RECORD
  5
211
100
AcDbSymbolTableRecord
100
AcDbBlockTableRecord
  2
*D0
  0
BLOCK_RECORD
  5
212
100
AcDbSymbolTableRecord
100
AcDbBlockTableRecord
  2
*D1
  0
BLOCK_RECORD
  5
213
100
AcDbSymbolTableRecord
100
AcDbBlockTableRecord
  2
*D2
  0
BLOCK_RECORD
  5
214
100
AcDbSymbolTableRecord
100
AcDbBlockTableRecord
  2
*D3
  0
ENDTAB
  0
TABLE
  2
DIMSTYLE
  5
A
100
AcDbSymbolTable
 70
1
100
AcDbDimStyleTable
 71
0
  0
DIMSTYLE
105
215
100
AcDbSymbolTableRecord
100
AcDbDimStyleTableRecord
  2
STANDARD
 70
0
  3

  4

 40
1.0
 41
3.5
 42
0.0
 43
0.38
 44
1.5
 45
0.0
 46
0.0
 47
0.05
 48
0.05
140
3.5
141
0.09
142
0.0
143
25.4
144
1.0
145
0.0
146
1.0
147
0.625
 71
1.0
 72
0.0
 73
0
 74
0
 75
0
 76
0
 77
1
 78
8
170
0
171
1
172
0
173
0
174
0
175
0
176
0
177
0
178
2
270
2
271
2
272
2
273
2
274
2
275
0
280
0
281
0
282
0
283
1
284
8
285
0
286
0
287
3
288
0
340
11
278
46
341
210
342
210
343
210
344
210
  0
DIMSTYLE
105
216
100
AcDbSymbolTableRecord
100
AcDbDimStyleTableRecord
  2
DIMSTYLE_1
 70
0
  3

  4

 40
1.0
 41
3.5
 42
0.0
 43
0.38
 44
1.5
 45
0.0
 46
0.0
 47
0.5
 48
0.5
140
3.5
141
0.09
142
0.0
143
25.4
144
1.0
145
0.0
146
1.0
147
0.875
 71
0.0
 72
0.0
 73
0
 74
0
 75
0
 76
0
 77
1
 78
8
170
0
171
1
172
0
173
0
174
0
175
0
176
0
177
0
178
2
270
2
271
2
272
2
273
2
274
2
275
0
280
0
281
0
282
0
283
1
284
8
285
0
286
0
287
3
288
0
340
11
278
46
341
210
342
210
343
210
344
210
  0
DIMSTYLE
105
217
100
AcDbSymbolTableRecord
100
AcDbDimStyleTableRecord
  2
DIMSTYLE_2
 70
0
  3

  4

 40
1.0
 41
3.5
 42
0.0
 43
0.38
 44
1.5
 45
0.0
 46
0.0
 47
0.3
 48
0.3
140
3.5
141
0.09
142
0.0
143
25.4
144
1.0
145
0.0
146
1.0
147
0.875
 71
0.0
 72
0.0
 73
0
 74
0
 75
0
 76
0
 77
1
 78
8
170
0
171
1
172
0
173
0
174
0
175
0
176
0
177
0
178
2
270
2
271
2
272
2
273
2
274
2
275
0
280
0
281
0
282
0
283
1
284
8
285
0
286
0
287
3
288
0
340
11
278
46
341
210
342
210
343
210
344
210
  0
DIMSTYLE
105
218
100
AcDbSymbolTableRecord
100
AcDbDimStyleTableRecord
  2
DIMSTYLE_3
 70
0
  3

  4

 40
1.0
 41
3.5
 42
0.0
 43
0.38
 44
1.5
 45
0.0
 46
0.0
 47
0.2
 48
0.2
140
3.5
141
0.09
142
0.0
143
25.4
144
1.0
145
0.0
146
1.0
147
0.875
 71
0.0
 72
0.0
 73
0
 74
0
 75
0
 76
0
 77
1
 78
8
170
0
171
1
172
0
173
0
174
0
175
0
176
0
177
0
178
2
270
2
271
2
272
2
273
2
274
2
275
0
280
0
281
0
282
0
283
1
284
8
285
0
286
0
287
3
288
0
340
11
278
46
341
210
342
210
343
210
344
210
  0
ENDTAB
  0
ENDSEC
  0
SECTION
  2
BLOCKS
  0
BLOCK
  5
20
100
AcDbEntity
  8
0
100
AcDbBlockBegin
  2
*Model_Space
 70
0
 10
0.0
 20
0.0
 30
0.0
  3
*Model_Space
  1

  0
ENDBLK
  5
21
100
AcDbEntity
  8
0
100
AcDbBlockEnd
  0
BLOCK
  5
1C
100
AcDbEntity
  8
0
100
AcDbBlockBegin
  2
*Paper_Space
 70
0
 10
0.0
 20
0.0
 30
0.0
  3
*Paper_Space
  1

  0
ENDBLK
  5
1D
100
AcDbEntity
  8
0
100
AcDbBlockEnd
  0
BLOCK
  5
219
100
AcDbEntity
  8
0
100
AcDbBlockBegin
  2
_FILLED
 70
64
 10
0.0
 20
0.0
  3
_FILLED
  1

  0
SOLID
  5
21A
100
AcDbEntity
  8
0
  6
BYBLOCK
 62
0
100
AcDbTrace
 10
0.0
 20
0.0
 11
-1.0
 21
0.125
 12
-1.0
 22
-0.125
 13
-1.0
 23
-0.125
  0
ENDBLK
  5
21B
100
AcDbEntity
  8
0
  6
BYBLOCK
 62
0
100
AcDbBlockEnd
  0
BLOCK
  5
21C
100
AcDbEntity
  8
_03_2D_ZEICHNUNG_BEMASSUNGEN
100
AcDbBlockBegin
 62
7
  6
CONTINUOUS
  2
*D0
 70
65
 10
0.0
 20
0.0
  3
*D0
  1

  0
TEXT
  5
21D
100
AcDbEntity
  8
_03_2D_ZEICHNUNG_BEMASSUNGEN
100
AcDbText
 62
2
  6
CONTINUOUS
 10
121.0
 20
36.9082540421
  7
STANDARD
 40
3.5
  1
250
 41
0.7619047619
 72
1
 11
125.0
 21
36.9082540421
100
AcDbText
  0
LINE
  5
21E
100
AcDbEntity
  8
_03_2D_ZEICHNUNG_BEMASSUNGEN
100
AcDbLine
 62
7
  6
CONTINUOUS
 10
0.0
 20
-23.3654591471
 11
-0.0
 21
37.5332540421
  0
LINE
  5
21F
100
AcDbEntity
  8
_03_2D_ZEICHNUNG_BEMASSUNGEN
100
AcDbLine
 62
7
  6
CONTINUOUS
 10
250.0
 20
-23.3654591471
 11
250.0
 21
37.5332540421
  0
LINE
  5
220
100
AcDbEntity
  8
_03_2D_ZEICHNUNG_BEMASSUNGEN
100
AcDbLine
 62
7
  6
CONTINUOUS
 10
-0.0
 20
36.0332540421
 11
125.0
 21
36.0332540421
  0
LINE
  5
221
100
AcDbEntity
  8
_03_2D_ZEICHNUNG_BEMASSUNGEN
100
AcDbLine
 62
7
  6
CONTINUOUS
 10
250.0
 20
36.0332540421
 11
125.0
 21
36.0332540421
  0
INSERT
  5
222
100
AcDbEntity
  8
_03_2D_ZEICHNUNG_BEMASSUNGEN
100
AcDbBlockReference
 62
7
  6
CONTINUOUS
  2
_FILLED
 10
-0.0
 20
36.0332540421
 41
3.5
 42
3.5
 43
3.5
 50
180.0
  0
INSERT
  5
223
100
AcDbEntity
  8
_03_2D_ZEICHNUNG_BEMASSUNGEN
100
AcDbBlockReference
 62
7
  6
CONTINUOUS
  2
_FILLED
 10
250.0
 20
36.0332540421
 41
3.5
 42
3.5
 43
3.5
 50
0.0
  0
ENDBLK
  5
224
100
AcDbEntity
  8
0
  6
BYBLOCK
 62
0
100
AcDbBlockEnd
  0
BLOCK
  5
225
100
AcDbEntity
  8
_03_2D_ZEICHNUNG_BEMASSUNGEN
100
AcDbBlockBegin
 62
7
  6
CONTINUOUS
  2
*D1
 70
65
 10
0.0
 20
0.0
  3
*D1
  1

  0
TEXT
  5
226
100
AcDbEntity
  8
_03_2D_ZEICHNUNG_BEMASSUNGEN
100
AcDbText
 62
2
  6
CONTINUOUS
 10
222.375
 20
27.9082540421
  7
STANDARD
 40
3.5
  1
50
 41
0.75
 72
1
 11
225.0
 21
27.9082540421
100
AcDbText
  0
LINE
  5
227
100
AcDbEntity
  8
_03_2D_ZEICHNUNG_BEMASSUNGEN
100
AcDbLine
 62
7
  6
CONTINUOUS
 10
250.0
 20
-23.3654591471
 11
250.0
 21
28.5332540421
  0
LINE
  5
228
100
AcDbEntity
  8
_03_2D_ZEICHNUNG_BEMASSUNGEN
100
AcDbLine
 62
7
  6
CONTINUOUS
 10
200.0
 20
-23.3654591471
 11
200.0
 21
28.5332540421
  0
LINE
  5
229
100
AcDbEntity
  8
_03_2D_ZEICHNUNG_BEMASSUNGEN
100
AcDbLine
 62
7
  6
CONTINUOUS
 10
250.0
 20
27.0332540421
 11
225.0
 21
27.0332540421
  0
LINE
  5
22A
100
AcDbEntity
  8
_03_2D_ZEICHNUNG_BEMASSUNGEN
100
AcDbLine
 62
7
  6
CONTINUOUS
 10
200.0
 20
27.0332540421
 11
225.0
 21
27.0332540421
  0
INSERT
  5
22B
100
AcDbEntity
  8
_03_2D_ZEICHNUNG_BEMASSUNGEN
100
AcDbBlockReference
 62
7
  6
CONTINUOUS
  2
_FILLED
 10
250.0
 20
27.0332540421
 41
3.5
 42
3.5
 43
3.5
  0
INSERT
  5
22C
100
AcDbEntity
  8
_03_2D_ZEICHNUNG_BEMASSUNGEN
100
AcDbBlockReference
 62
7
  6
CONTINUOUS
  2
_FILLED
 10
200.0
 20
27.0332540421
 41
3.5
 42
3.5
 43
3.5
 50
180.0
  0
ENDBLK
  5
22D
100
AcDbEntity
  8
0
  6
BYBLOCK
 62
0
100
AcDbBlockEnd
  0
BLOCK
  5
22E
100
AcDbEntity
  8
_03_2D_ZEICHNUNG_BEMASSUNGEN
100
AcDbBlockBegin
 62
7
  6
CONTINUOUS
  2
*D2
 70
65
 10
0.0
 20
0.0
  3
*D2
  1

  0
TEXT
  5
22F
100
AcDbEntity
  8
_03_2D_ZEICHNUNG_BEMASSUNGEN
100
AcDbText
 62
2
  6
CONTINUOUS
 10
-9.875
 20
-4.9583333333
  7
TEXTSTYLE_2
 40
3.5
  1
n
 50
90.0
 41
1.0
 72
1
 11
-9.875
 21
-2.625
100
AcDbText
  0
TEXT
  5
230
100
AcDbEntity
  8
_03_2D_ZEICHNUNG_BEMASSUNGEN
100
AcDbText
 62
2
  6
CONTINUOUS
 10
-9.875
 20
-0.2916666667
  7
STANDARD
 40
3.5
  1
32
 50
90.0
 41
0.75
 72
1
 11
-9.875
 21
2.3333333333
100
AcDbText
  0
LINE
  5
231
100
AcDbEntity
  8
_03_2D_ZEICHNUNG_BEMASSUNGEN
100
AcDbLine
 62
7
  6
CONTINUOUS
 10
0.5
 20
16.0
 11
-10.5
 21
16.0
  0
LINE
  5
232
100
AcDbEntity
  8
_03_2D_ZEICHNUNG_BEMASSUNGEN
100
AcDbLine
 62
7
  6
CONTINUOUS
 10
0.5
 20
-16.0
 11
-10.5
 21
-16.0
  0
LINE
  5
233
100
AcDbEntity
  8
_03_2D_ZEICHNUNG_BEMASSUNGEN
100
AcDbLine
 62
7
  6
CONTINUOUS
 10
-9.0
 20
16.0
 11
-9.0
 21
22.0
  0
LINE
  5
234
100
AcDbEntity
  8
_03_2D_ZEICHNUNG_BEMASSUNGEN
100
AcDbLine
 62
7
  6
CONTINUOUS
 10
-9.0
 20
22.0
 11
-9.0
 21
0.0
  0
LINE
  5
235
100
AcDbEntity
  8
_03_2D_ZEICHNUNG_BEMASSUNGEN
100
AcDbLine
 62
7
  6
CONTINUOUS
 10
-9.0
 20
-16.0
 11
-9.0
 21
-22.0
  0
LINE
  5
236
100
AcDbEntity
  8
_03_2D_ZEICHNUNG_BEMASSUNGEN
100
AcDbLine
 62
7
  6
CONTINUOUS
 10
-9.0
 20
-22.0
 11
-9.0
 21
0.0
  0
INSERT
  5
237
100
AcDbEntity
  8
_03_2D_ZEICHNUNG_BEMASSUNGEN
100
AcDbBlockReference
 62
7
  6
CONTINUOUS
  2
_FILLED
 10
-9.0
 20
16.0
 41
3.5
 42
3.5
 43
3.5
 50
270.0
  0
INSERT
  5
238
100
AcDbEntity
  8
_03_2D_ZEICHNUNG_BEMASSUNGEN
100
AcDbBlockReference
 62
7
  6
CONTINUOUS
  2
_FILLED
 10
-9.0
 20
-16.0
 41
3.5
 42
3.5
 43
3.5
 50
90.0
  0
ENDBLK
  5
239
100
AcDbEntity
  8
0
  6
BYBLOCK
 62
0
100
AcDbBlockEnd
  0
BLOCK
  5
23A
100
AcDbEntity
  8
_03_2D_ZEICHNUNG_BEMASSUNGEN
100
AcDbBlockBegin
 62
7
  6
CONTINUOUS
  2
*D3
 70
65
 10
0.0
 20
0.0
  3
*D3
  1

  0
TEXT
  5
23B
100
AcDbEntity
  8
_03_2D_ZEICHNUNG_BEMASSUNGEN
100
AcDbText
 62
2
  6
CONTINUOUS
 10
258.1648100979
 20
8.25
  7
STANDARD
 40
3.5
  1
22
 50
90.0
 41
0.7857142857
 72
1
 11
258.1648100979
 21
11.0
100
AcDbText
  0
LINE
  5
23C
100
AcDbEntity
  8
_03_2D_ZEICHNUNG_BEMASSUNGEN
100
AcDbLine
 62
7
  6
CONTINUOUS
 10
254.4511087624
 20
0.0
 11
260.5398100979
 21
0.0
  0
LINE
  5
23D
100
AcDbEntity
  8
_03_2D_ZEICHNUNG_BEMASSUNGEN
100
AcDbLine
 62
7
  6
CONTINUOUS
 10
250.0
 20
22.0
 11
260.5398100979
 21
22.0
  0
LINE
  5
23E
100
AcDbEntity
  8
_03_2D_ZEICHNUNG_BEMASSUNGEN
100
AcDbLine
 62
7
  6
CONTINUOUS
 10
259.0398100979
 20
0.0
 11
259.0398100979
 21
-6.0
  0
LINE
  5
23F
100
AcDbEntity
  8
_03_2D_ZEICHNUNG_BEMASSUNGEN
100
AcDbLine
 62
7
  6
CONTINUOUS
 10
259.0398100979
 20
-6.0
 11
259.0398100979
 21
11.0
  0
LINE
  5
240
100
AcDbEntity
  8
_03_2D_ZEICHNUNG_BEMASSUNGEN
100
AcDbLine
 62
7
  6
CONTINUOUS
 10
259.0398100979
 20
22.0
 11
259.0398100979
 21
28.0
  0
LINE
  5
241
100
AcDbEntity
  8
_03_2D_ZEICHNUNG_BEMASSUNGEN
100
AcDbLine
 62
7
  6
CONTINUOUS
 10
259.0398100979
 20
28.0
 11
259.0398100979
 21
11.0
  0
INSERT
  5
242
100
AcDbEntity
  8
_03_2D_ZEICHNUNG_BEMASSUNGEN
100
AcDbBlockReference
 62
7
  6
CONTINUOUS
  2
_FILLED
 10
259.0398100979
 20
0.0
 41
3.5
 42
3.5
 43
3.5
 50
90.0
  0
INSERT
  5
243
100
AcDbEntity
  8
_03_2D_ZEICHNUNG_BEMASSUNGEN
100
AcDbBlockReference
 62
7
  6
CONTINUOUS
  2
_FILLED
 10
259.0398100979
 20
22.0
 41
3.5
 42
3.5
 43
3.5
 50
270.0
  0
ENDBLK
  5
244
100
AcDbEntity
  8
0
  6
BYBLOCK
 62
0
100
AcDbBlockEnd
  0
ENDSEC
  0
SECTION
  2
ENTITIES
  0
DIMENSION
  5
245
100
AcDbEntity
  8
_03_2D_ZEICHNUNG_BEMASSUNGEN
100
AcDbDimension
 62
7
  6
CONTINUOUS
  2
*D0
 10
250.0
 20
36.0332540421
 11
124.5000009155
 21
36.0332540421
 70
160
 71
2
 42
250.0
  3
DIMSTYLE_1
100
AcDbAlignedDimension
 13
0.0
 23
-23.3654591471
 14
250.0
 24
-23.3654591471
100
AcDbRotatedDimension
  0
DIMENSION
  5
246
100
AcDbEntity
  8
_03_2D_ZEICHNUNG_BEMASSUNGEN
100
AcDbDimension
 62
7
  6
CONTINUOUS
  2
*D1
 10
200.0
 20
27.0332540421
 11
224.4999975586
 21
27.0332540421
 70
160
 71
2
 42
50.0
  3
DIMSTYLE_2
100
AcDbAlignedDimension
 13
250.0
 23
-23.3654591471
 14
200.0
 24
-23.3654591471
 50
180.0
100
AcDbRotatedDimension
  0
DIMENSION
  5
247
100
AcDbEntity
  8
_03_2D_ZEICHNUNG_BEMASSUNGEN
100
AcDbDimension
 62
7
  6
CONTINUOUS
  2
*D2
 10
-9.0
 20
-16.0
 11
-9.0
 21
-0.0
 70
160
 71
2
 42
32.0
  1
%%c<>
  3
DIMSTYLE_2
100
AcDbAlignedDimension
 13
0.5
 23
16.0
 14
0.5
 24
-16.0
 50
270.0
100
AcDbRotatedDimension
  0
DIMENSION
  5
248
100
AcDbEntity
  8
_03_2D_ZEICHNUNG_BEMASSUNGEN
100
AcDbDimension
 62
7
  6
CONTINUOUS
  2
*D3
 10
259.0398100979
 20
22.0
 11
259.0398100979
 21
10.4999939793
 70
160
 71
2
 42
22.0
  3
DIMSTYLE_3
100
AcDbAlignedDimension
 13
254.4511087624
 23
0.0
 14
250.0
 24
22.0
 50
90.0
100
AcDbRotatedDimension
  0
LINE
  5
249
100
AcDbEntity
  8
0
100
AcDbLine
 62
4
  6
CONTINUOUS
 10
0.0
 20
-15.4998947484
 11
-0.0
 21
15.4998953973
  0
LINE
  5
24A
100
AcDbEntity
  8
0
100
AcDbLine
 62
4
  6
CONTINUOUS
 10
0.5
 20
-16.0
 11
0.5
 21
-7.7459666924
  0
LINE
  5
24B
100
AcDbEntity
  8
0
100
AcDbLine
 62
4
  6
CONTINUOUS
 10
0.5
 20
7.7459666924
 11
0.5
 21
16.0
  0
LINE
  5
24C
100
AcDbEntity
  8
_30_VOLUMEN
100
AcDbLine
 62
4
  6
CONTINUOUS
 10
0.0
 20
-15.5
 11
0.5
 21
-16.0
  0
LINE
  5
24D
100
AcDbEntity
  8
_30_VOLUMEN
100
AcDbLine
 62
4
  6
CONTINUOUS
 10
-0.0
 20
15.5
 11
0.5
 21
16.0
  0
LINE
  5
24E
100
AcDbEntity
  8
_30_VOLUMEN
100
AcDbLine
 62
4
  6
CONTINUOUS
 10
0.5
 20
-16.0
 11
200.0
 21
-16.0
  0
LINE
  5
24F
100
AcDbEntity
  8
0
100
AcDbLine
 62
4
  6
CONTINUOUS
 10
226.1580589411
 20
-15.9754998411
 11
234.3660233754
 21
-15.9754998411
  0
LINE
  5
250
100
AcDbEntity
  8
_30_VOLUMEN
100
AcDbLine
 62
4
  6
CONTINUOUS
 10
200.0
 20
-15.75
 11
226.0
 21
-15.75
  0
LINE
  5
251
100
AcDbEntity
  8
0
100
AcDbLine
 62
4
  6
CONTINUOUS
 10
0.5
 20
-7.7459666924
 11
200.0
 21
-7.7459666924
  0
LINE
  5
252
100
AcDbEntity
  8
0
100
AcDbLine
 62
4
  6
CONTINUOUS
 10
200.0
 20
-7.2154348448
 11
214.3354564591
 21
-7.2154348448
  0
LINE
  5
253
100
AcDbEntity
  8
_26_BEZUGSACHSEN
100
AcDbLine
 62
7
  6
CENTER
 10
-3.0
 20
0.0
 11
254.4511087624
 21
0.0
  0
LINE
  5
254
100
AcDbEntity
  8
0
100
AcDbLine
 62
4
  6
CONTINUOUS
 10
200.0
 20
7.2154348448
 11
208.6459335456
 21
7.2154348448
  0
LINE
  5
255
100
AcDbEntity
  8
0
100
AcDbLine
 62
4
  6
CONTINUOUS
 10
0.5
 20
7.7459666924
 11
200.0
 21
7.7459666924
  0
LINE
  5
256
100
AcDbEntity
  8
_30_VOLUMEN
100
AcDbLine
 62
4
  6
CONTINUOUS
 10
241.4669967716
 20
21.4106971387
 11
249.5674741537
 21
21.9989530499
  0
LINE
  5
257
100
AcDbEntity
  8
_21_KURVEN
100
AcDbLine
 62
5
  6
CONTINUOUS
 10
241.4669967716
 20
21.4106971387
 11
249.5674741537
 21
21.9989530499
  0
LINE
  5
258
100
AcDbEntity
  8
_30_VOLUMEN
100
AcDbLine
 62
4
  6
CONTINUOUS
 10
200.0
 20
15.75
 11
226.0
 21
15.75
  0
LINE
  5
259
100
AcDbEntity
  8
_30_VOLUMEN
100
AcDbLine
 62
4
  6
CONTINUOUS
 10
0.5
 20
16.0
 11
200.0
 21
16.0
  0
LINE
  5
25A
100
AcDbEntity
  8
_30_VOLUMEN
100
AcDbLine
 62
4
  6
CONTINUOUS
 10
229.5640564595
 20
20.84
 11
240.1688561175
 21
20.84
  0
LINE
  5
25B
100
AcDbEntity
  8
_30_VOLUMEN
100
AcDbLine
 62
4
  6
CONTINUOUS
 10
233.6009786331
 20
17.8859087404
 11
241.4002647458
 21
21.3938613463
  0
LINE
  5
25C
100
AcDbEntity
  8
_21_KURVEN
100
AcDbLine
 62
5
  6
CONTINUOUS
 10
234.0306955801
 20
18.0791862613
 11
241.4002647458
 21
21.3938613463
  0
LINE
  5
25D
100
AcDbEntity
  8
0
100
AcDbLine
 62
4
  6
CONTINUOUS
 10
226.1580591754
 20
-15.9754998411
 11
226.1577328306
 21
-15.9752660854
  0
LINE
  5
25E
100
AcDbEntity
  8
0
100
AcDbLine
 62
4
  6
CONTINUOUS
 10
200.0
 20
15.9999877303
 11
200.0
 21
7.2154348448
  0
LINE
  5
25F
100
AcDbEntity
  8
0
100
AcDbLine
 62
4
  6
CONTINUOUS
 10
200.0
 20
-7.2154348448
 11
200.0
 21
-15.9999895302
  0
LINE
  5
260
100
AcDbEntity
  8
_30_VOLUMEN
100
AcDbLine
 62
4
  6
CONTINUOUS
 10
226.0
 20
15.75
 11
229.5640563695
 21
20.84
  0
LINE
  5
261
100
AcDbEntity
  8
_30_VOLUMEN
100
AcDbLine
 62
4
  6
CONTINUOUS
 10
244.7538801214
 20
5.3477575108
 11
244.4887645434
 21
5.5364201499
  0
LINE
  5
262
100
AcDbEntity
  8
_21_KURVEN
100
AcDbLine
 62
5
  6
CONTINUOUS
 10
245.2466455758
 20
6.0066621506
 11
238.5857763502
 21
10.7466973308
  0
LINE
  5
263
100
AcDbEntity
  8
_30_VOLUMEN
100
AcDbLine
 62
4
  6
CONTINUOUS
 10
238.5570438383
 20
10.7671440792
 11
245.2466455758
 21
6.0066621506
  0
LINE
  5
264
100
AcDbEntity
  8
_30_VOLUMEN
100
AcDbLine
 62
4
  6
CONTINUOUS
 10
226.0
 20
-15.75
 11
226.1577330111
 21
-15.9752660854
  0
LINE
  5
265
100
AcDbEntity
  8
_30_VOLUMEN
100
AcDbLine
 62
4
  6
CONTINUOUS
 10
233.8785051853
 20
17.957315774
 11
233.7090320349
 21
17.7307036116
  0
LINE
  5
266
100
AcDbEntity
  8
_30_VOLUMEN
100
AcDbLine
 62
7
  6
CONTINUOUS
 10
238.5369251169
 20
10.7960420935
 11
238.5302814541
 21
10.7871584752
  0
LINE
  5
267
100
AcDbEntity
  8
0
100
AcDbLine
 62
4
  6
CONTINUOUS
 10
226.0
 20
15.75
 11
226.0
 21
15.4213971741
  0
LINE
  5
268
100
AcDbEntity
  8
0
100
AcDbLine
 62
4
  6
CONTINUOUS
 10
226.0
 20
-13.3033961814
 11
226.0
 21
-15.75
  0
LINE
  5
269
100
AcDbEntity
  8
_30_VOLUMEN
100
AcDbLine
 62
4
  6
CONTINUOUS
 10
245.7940923807
 20
6.0890725016
 11
245.8354187856
 21
6.1552034755
  0
LINE
  5
26A
100
AcDbEntity
  8
_30_VOLUMEN
100
AcDbLine
 62
7
  6
CONTINUOUS
 10
245.2466455758
 20
6.0066621506
 11
244.7538801214
 21
5.3477575108
  0
LINE
  5
26B
100
AcDbEntity
  8
_30_VOLUMEN
100
AcDbLine
 62
4
  6
CONTINUOUS
 10
245.7951728871
 20
6.0882685486
 11
245.3024074327
 21
5.4293639088
  0
LINE
  5
26C
100
AcDbEntity
  8
_21_KURVEN
100
AcDbLine
 62
5
  6
CONTINUOUS
 10
238.5369251169
 20
10.7960420935
 11
233.872934274
 21
17.4952786486
  0
LINE
  5
26D
100
AcDbEntity
  8
_30_VOLUMEN
100
AcDbLine
 62
4
  6
CONTINUOUS
 10
233.6009786331
 20
17.8859087404
 11
238.5570438383
 21
10.7671440792
  0
LINE
  5
26E
100
AcDbEntity
  8
0
100
AcDbLine
 62
7
  6
CONTINUOUS
 10
234.9983705791
 20
-14.6316936303
 11
226.3302095726
 21
15.9242390337
  0
LINE
  5
26F
100
AcDbEntity
  8
_30_VOLUMEN
100
AcDbLine
 62
4
  6
CONTINUOUS
 10
244.8446558712
 20
6.2927277192
 11
234.9983705791
 21
-14.6316936303
  0
LINE
  5
270
100
AcDbEntity
  8
0
100
AcDbLine
 62
4
  6
CONTINUOUS
 10
234.9992928294
 20
-14.6297337485
 11
234.3660207984
 21
-15.9755053175
  0
LINE
  5
271
100
AcDbEntity
  8
_30_VOLUMEN
100
AcDbLine
 62
4
  6
CONTINUOUS
 10
249.2719053249
 20
13.4426959419
 11
245.8354187856
 21
6.1552034755
  0
LINE
  5
272
100
AcDbEntity
  8
_21_KURVEN
100
AcDbLine
 62
5
  6
CONTINUOUS
 10
249.2719053249
 20
13.4426959419
 11
245.8354187856
 21
6.1552034755
  0
LINE
  5
273
100
AcDbEntity
  8
_30_VOLUMEN
100
AcDbLine
 62
4
  6
CONTINUOUS
 10
249.9984860574
 20
21.5635867622
 11
249.2897861173
 21
13.5088764969
  0
LINE
  5
274
100
AcDbEntity
  8
_21_KURVEN
100
AcDbLine
 62
5
  6
CONTINUOUS
 10
249.9984860574
 20
21.5635867622
 11
249.2897861173
 21
13.5088764969
  0
ARC
  5
275
100
AcDbEntity
  8
_30_VOLUMEN
100
AcDbCircle
 62
4
  6
CONTINUOUS
 10
539.3615130567
 20
-190.9359341768
 40
375.2062475781
100
AcDbArc
 50
145.637600836
 51
146.5421141992
  0
ARC
  5
276
100
AcDbEntity
  8
_26_BEZUGSACHSEN
100
AcDbCircle
 62
4
  6
CONTINUOUS
 10
357.7448511559
 20
-70.7338542625
 40
157.4148441418
100
AcDbArc
 50
146.5981455731
 51
146.817105421
  0
ARC
  5
277
100
AcDbEntity
  8
0
100
AcDbCircle
 62
4
  6
CONTINUOUS
 10
335.2430439513
 20
50.9324222449
 40
126.7291719401
100
AcDbArc
 50
210.4558822777
 51
210.6116615958
  0
ARC
  5
278
100
AcDbEntity
  8
0
100
AcDbCircle
 62
4
  6
CONTINUOUS
 10
24.3056339539
 20
3.7963428696
 40
26.4562491289
100
AcDbArc
 50
203.2617115426
 51
205.8667153736
  0
ARC
  5
279
100
AcDbEntity
  8
0
100
AcDbCircle
 62
4
  6
CONTINUOUS
 10
24.3056339539
 20
-3.7963428696
 40
26.4562491289
100
AcDbArc
 50
154.1332846264
 51
156.7382884574
  0
ARC
  5
27A
100
AcDbEntity
  8
_30_VOLUMEN
100
AcDbCircle
 62
4
  6
CONTINUOUS
 10
242.5755954123
 20
14.6116257547
 40
2.5290911667
100
AcDbArc
 50
126.5780772509
 51
135.3417544446
  0
ARC
  5
27B
100
AcDbEntity
  8
_30_VOLUMEN
100
AcDbCircle
 62
4
  6
CONTINUOUS
 10
242.6636064125
 20
14.5481800316
 40
2.5229412645
100
AcDbArc
 50
332.7604373809
 51
339.9480348649
  0
ARC
  5
27C
100
AcDbEntity
  8
_30_VOLUMEN
100
AcDbCircle
 62
4
  6
CONTINUOUS
 10
238.7029562184
 20
10.9116414696
 40
0.2023105099
100
AcDbArc
 50
214.8476167371
 51
234.5263462999
  0
SPLINE
  5
27D
100
AcDbEntity
  8
_30_VOLUMEN
100
AcDbSpline
 62
4
  6
CONTINUOUS
 70
0
 71
3
 72
8
 73
4
 74
0
 42
0.0000001
 43
0.0000001
 44
0.0000000001
 40
0.0
 40
0.0
 40
0.0
 40
0.0
 40
1.0
 40
1.0
 40
1.0
 40
1.0
 10
234.0306955801
 20
18.0791862613
 30
0.0
 10
233.9714327758
 20
18.0525311154
 30
0.0
 10
233.917723033
 20
18.0091279957
 30
0.0
 10
233.8785985642
 20
17.9572449279
 30
0.0
  0
SPLINE
  5
27E
100
AcDbEntity
  8
_30_VOLUMEN
100
AcDbSpline
 62
4
  6
CONTINUOUS
 70
0
 71
3
 72
8
 73
4
 74
0
 42
0.0000001
 43
0.0000001
 44
0.0000000001
 40
0.0
 40
0.0
 40
0.0
 40
0.0
 40
1.0
 40
1.0
 40
1.0
 40
1.0
 10
241.4002647458
 20
21.3938613463
 30
0.0
 10
241.4211868736
 20
21.4032716733
 30
0.0
 10
241.4441160203
 20
21.4090355407
 30
0.0
 10
241.4669967716
 20
21.4106971387
 30
0.0
  0
SPLINE
  5
27F
100
AcDbEntity
  8
_30_VOLUMEN
100
AcDbSpline
 62
4
  6
CONTINUOUS
 70
0
 71
3
 72
11
 73
7
 74
0
 42
0.0000001
 43
0.0000001
 44
0.0000000001
 40
0.0
 40
0.0
 40
0.0
 40
0.0
 40
0.2485787177
 40
0.4992240505
 40
0.7503437491
 40
1.0
 40
1.0
 40
1.0
 40
1.0
 10
249.9984860574
 20
21.5635867622
 30
0.0
 10
250.0034982467
 20
21.6205526667
 30
0.0
 10
249.9875132061
 20
21.7385838925
 30
0.0
 10
249.8925608569
 20
21.8890314069
 30
0.0
 10
249.7428570916
 20
21.9855444074
 30
0.0
 10
249.6247571755
 20
22.0031129376
 30
0.0
 10
249.5674741537
 20
21.9989530499
 30
0.0
  0
SPLINE
  5
280
100
AcDbEntity
  8
_30_VOLUMEN
100
AcDbSpline
 62
4
  6
CONTINUOUS
 70
0
 71
3
 72
8
 73
4
 74
0
 42
0.0000001
 43
0.0000001
 44
0.0000000001
 40
0.0
 40
0.0
 40
0.0
 40
0.0
 40
1.0
 40
1.0
 40
1.0
 40
1.0
 10
249.2897861173
 20
13.5088764969
 30
0.0
 10
249.2877832758
 20
13.486113256
 30
0.0
 10
249.2816517228
 20
13.4633643777
 30
0.0
 10
249.2719053249
 20
13.4426959419
 30
0.0
  0
SPLINE
  5
281
100
AcDbEntity
  8
_30_VOLUMEN
100
AcDbSpline
 62
4
  6
CONTINUOUS
 70
0
 71
3
 72
11
 73
7
 74
0
 42
0.0000001
 43
0.0000001
 44
0.0000000001
 40
0.0
 40
0.0
 40
0.0
 40
0.0
 40
0.2482430545
 40
0.4979959434
 40
0.7489144289
 40
1.0
 40
1.0
 40
1.0
 40
1.0
 10
245.0336121113
 20
13.6831334365
 30
0.0
 10
245.1533238574
 20
14.0112129953
 30
0.0
 10
245.2545099993
 20
14.7289937249
 30
0.0
 10
244.9584191917
 20
15.7705058126
 30
0.0
 10
244.2719632966
 20
16.6124869924
 30
0.0
 10
243.6240896555
 20
16.9478334374
 30
0.0
 10
243.2840467785
 20
17.0434739643
 30
0.0
  0
SPLINE
  5
282
100
AcDbEntity
  8
_30_VOLUMEN
100
AcDbSpline
 62
4
  6
CONTINUOUS
 70
0
 71
3
 72
11
 73
7
 74
0
 42
0.0000001
 43
0.0000001
 44
0.0000000001
 40
0.0
 40
0.0
 40
0.0
 40
0.0
 40
0.2487438275
 40
0.4983081243
 40
0.7491588645
 40
1.0
 40
1.0
 40
1.0
 40
1.0
 10
241.0684653375
 20
16.6426011527
 30
0.0
 10
241.2233780833
 20
16.7575461594
 30
0.0
 10
241.5616816293
 20
16.9524996211
 30
0.0
 10
242.1226509457
 20
17.1217755981
 30
0.0
 10
242.7089152703
 20
17.158897856
 30
0.0
 10
243.0967864444
 20
17.0961428429
 30
0.0
 10
243.2840467785
 20
17.0434739643
 30
0.0
  0
SPLINE
  5
283
100
AcDbEntity
  8
_30_VOLUMEN
100
AcDbSpline
 62
4
  6
CONTINUOUS
 70
0
 71
3
 72
11
 73
7
 74
0
 42
0.0000001
 43
0.0000001
 44
0.0000000001
 40
0.0
 40
0.0
 40
0.0
 40
0.0
 40
0.2488877241
 40
0.497972742
 40
0.7489948545
 40
1.0
 40
1.0
 40
1.0
 40
1.0
 10
245.302222999
 20
5.4294935151
 30
0.0
 10
245.2717860218
 20
5.3890566211
 30
0.0
 10
245.1945776791
 20
5.3189538971
 30
0.0
 10
245.0472353548
 20
5.2669405947
 30
0.0
 10
244.8910881285
 20
5.2748696491
 30
0.0
 10
244.795467285
 20
5.3181630823
 30
0.0
 10
244.7538801214
 20
5.3477575108
 30
0.0
  0
SPLINE
  5
284
100
AcDbEntity
  8
_30_VOLUMEN
100
AcDbSpline
 62
4
  6
CONTINUOUS
 70
0
 71
3
 72
15
 73
11
 74
0
 42
0.0000001
 43
0.0000001
 44
0.0000000001
 40
0.0
 40
0.0
 40
0.0
 40
0.0
 40
0.12550181
 40
0.2514741487
 40
0.3771303346
 40
0.5024863175
 40
0.6274505827
 40
0.7519625193
 40
0.8760810344
 40
1.0
 40
1.0
 40
1.0
 40
1.0
 10
242.407072576
 20
12.7305781787
 30
0.0
 10
242.2068549446
 20
12.7868914293
 30
0.0
 10
241.8179518126
 20
12.9492714992
 30
0.0
 10
241.3092581063
 20
13.3220595989
 30
0.0
 10
240.9039110348
 20
13.8055440862
 30
0.0
 10
240.6262896271
 20
14.3700240947
 30
0.0
 10
240.4911667091
 20
14.9825823207
 30
0.0
 10
240.5084241502
 20
15.6077766741
 30
0.0
 10
240.6759474335
 20
16.2081745223
 30
0.0
 10
240.8821449197
 20
16.5694787077
 30
0.0
 10
241.005114056
 20
16.7339554443
 30
0.0
  0
SPLINE
  5
285
100
AcDbEntity
  8
_30_VOLUMEN
100
AcDbSpline
 62
4
  6
CONTINUOUS
 70
0
 71
3
 72
11
 73
7
 74
0
 42
0.0000001
 43
0.0000001
 44
0.0000000001
 40
0.0
 40
0.0
 40
0.0
 40
0.0
 40
0.2513480312
 40
0.501977564
 40
0.7512507583
 40
1.0
 40
1.0
 40
1.0
 40
1.0
 10
242.407072576
 20
12.7305781787
 30
0.0
 10
242.6529598933
 20
12.6614198631
 30
0.0
 10
243.1677870553
 20
12.5961213894
 30
0.0
 10
243.9310454306
 20
12.7282605837
 30
0.0
 10
244.6182837642
 20
13.0801512025
 30
0.0
 10
244.9859958614
 20
13.4411723451
 30
0.0
 10
245.1373618912
 20
13.6436312006
 30
0.0
  0
SPLINE
  5
286
100
AcDbEntity
  8
_30_VOLUMEN
100
AcDbSpline
 62
4
  6
CONTINUOUS
 70
0
 71
3
 72
15
 73
11
 74
0
 42
0.0000001
 43
0.0000001
 44
0.0000000001
 40
0.0
 40
0.0
 40
0.0
 40
0.0
 40
0.1259035517
 40
0.251745741
 40
0.377078994
 40
0.5016813848
 40
0.6257888515
 40
0.7499305943
 40
0.8745864388
 40
1.0
 40
1.0
 40
1.0
 40
1.0
 10
243.8452836325
 20
18.0047519479
 30
0.0
 10
244.2115459066
 20
17.9017369482
 30
0.0
 10
244.9108719726
 20
17.5487415327
 30
0.0
 10
245.6764438129
 20
16.6678261148
 30
0.0
 10
246.0524280996
 20
15.5651780968
 30
0.0
 10
245.9772494355
 20
14.4074581048
 30
0.0
 10
245.461400734
 20
13.3718105757
 30
0.0
 10
244.5826312458
 20
12.6186526766
 30
0.0
 10
243.4793467519
 20
12.2621265145
 30
0.0
 10
242.7034380337
 20
12.3255907481
 30
0.0
 10
242.3386011763
 20
12.4282048348
 30
0.0
  0
SPLINE
  5
287
100
AcDbEntity
  8
_30_VOLUMEN
100
AcDbSpline
 62
4
  6
CONTINUOUS
 70
0
 71
3
 72
11
 73
7
 74
0
 42
0.0000001
 43
0.0000001
 44
0.0000000001
 40
0.0
 40
0.0
 40
0.0
 40
0.0
 40
0.2487492417
 40
0.498022436
 40
0.7486519688
 40
1.0
 40
1.0
 40
1.0
 40
1.0
 10
241.005114056
 20
16.7339554443
 30
0.0
 10
241.1564800857
 20
16.9364142998
 30
0.0
 10
241.524192183
 20
17.2974354424
 30
0.0
 10
242.2114305166
 20
17.6493260612
 30
0.0
 10
242.9746888918
 20
17.7814652555
 30
0.0
 10
243.4895160539
 20
17.7161667818
 30
0.0
 10
243.7354033712
 20
17.6470084662
 30
0.0
  0
SPLINE
  5
288
100
AcDbEntity
  8
_30_VOLUMEN
100
AcDbSpline
 62
4
  6
CONTINUOUS
 70
0
 71
3
 72
11
 73
7
 74
0
 42
0.0000001
 43
0.0000001
 44
0.0000000001
 40
0.0
 40
0.0
 40
0.0
 40
0.0
 40
0.2510051455
 40
0.502027258
 40
0.7511122759
 40
1.0
 40
1.0
 40
1.0
 40
1.0
 10
245.2466455758
 20
6.0066621506
 30
0.0
 10
245.2882327394
 20
5.9770677221
 30
0.0
 10
245.3838535829
 20
5.9337742889
 30
0.0
 10
245.5400008092
 20
5.9258452344
 30
0.0
 10
245.6873431335
 20
5.9778585369
 30
0.0
 10
245.7645514762
 20
6.0479612609
 30
0.0
 10
245.7949884534
 20
6.0883981549
 30
0.0
  0
SPLINE
  5
289
100
AcDbEntity
  8
_30_VOLUMEN
100
AcDbSpline
 62
4
  6
CONTINUOUS
 70
0
 71
3
 72
15
 73
11
 74
0
 42
0.0000001
 43
0.0000001
 44
0.0000000001
 40
0.0
 40
0.0
 40
0.0
 40
0.0
 40
0.1259035517
 40
0.251745741
 40
0.377078994
 40
0.5016813848
 40
0.6257888515
 40
0.7499305943
 40
0.8745864388
 40
1.0
 40
1.0
 40
1.0
 40
1.0
 10
242.3386011763
 20
12.4282048348
 30
0.0
 10
241.9723389023
 20
12.5312198345
 30
0.0
 10
241.2730128362
 20
12.88421525
 30
0.0
 10
240.507440996
 20
13.7651306679
 30
0.0
 10
240.1314567092
 20
14.8677786859
 30
0.0
 10
240.2066353733
 20
16.0254986779
 30
0.0
 10
240.7224840749
 20
17.061146207
 30
0.0
 10
241.601253563
 20
17.8143041061
 30
0.0
 10
242.7045380569
 20
18.1708302682
 30
0.0
 10
243.4804467752
 20
18.1073660346
 30
0.0
 10
243.8452836325
 20
18.0047519479
 30
0.0
  0
SPLINE
  5
28A
100
AcDbEntity
  8
_30_VOLUMEN
100
AcDbSpline
 62
4
  6
CONTINUOUS
 70
0
 71
3
 72
9
 73
5
 74
0
 42
0.0000001
 43
0.0000001
 44
0.0000000001
 40
0.0
 40
0.0
 40
0.0
 40
0.0
 40
0.4979043951
 40
1.0
 40
1.0
 40
1.0
 40
1.0
 10
233.8785985642
 20
17.9572449279
 30
0.0
 10
233.8300714198
 20
17.8928929456
 30
0.0
 10
233.7736528867
 20
17.7276728336
 30
0.0
 10
233.8264955915
 20
17.5619819785
 30
0.0
 10
233.872934274
 20
17.4952786486
 30
0.0
  0
SPLINE
  5
28B
100
AcDbEntity
  8
_30_VOLUMEN
100
AcDbSpline
 62
4
  6
CONTINUOUS
 70
0
 71
3
 72
15
 73
11
 74
0
 42
0.0000001
 43
0.0000001
 44
0.0000000001
 40
0.0
 40
0.0
 40
0.0
 40
0.0
 40
0.1239189656
 40
0.2480374807
 40
0.3725494173
 40
0.4975136825
 40
0.6228696654
 40
0.7485258513
 40
0.87449819
 40
1.0
 40
1.0
 40
1.0
 40
1.0
 10
245.1373618912
 20
13.6436312006
 30
0.0
 10
245.2603310275
 20
13.8081079372
 30
0.0
 10
245.4665285137
 20
14.1694121226
 30
0.0
 10
245.6340517969
 20
14.7698099707
 30
0.0
 10
245.6513092381
 20
15.3950043242
 30
0.0
 10
245.5161863201
 20
16.0075625501
 30
0.0
 10
245.2385649124
 20
16.5720425587
 30
0.0
 10
244.8332178408
 20
17.055527046
 30
0.0
 10
244.3245241346
 20
17.4283151457
 30
0.0
 10
243.9356210025
 20
17.5906952156
 30
0.0
 10
243.7354033712
 20
17.6470084662
 30
0.0
  0
SPLINE
  5
28C
100
AcDbEntity
  8
_21_KURVEN
100
AcDbSpline
 62
5
  6
CONTINUOUS
 70
0
 71
3
 72
9
 73
5
 74
0
 42
0.0000001
 43
0.0000001
 44
0.0000000001
 40
0.0
 40
0.0
 40
0.0
 40
0.0
 40
0.5
 40
1.0
 40
1.0
 40
1.0
 40
1.0
 10
249.9984860574
 20
21.5635867622
 30
0.0
 10
249.9999903047
 20
21.6008533199
 30
0.0
 10
249.9990282792
 20
21.679905022
 30
0.0
 10
249.9694491189
 20
21.7507525461
 30
0.0
 10
249.9525156605
 20
21.7864399346
 30
0.0
  0
SPLINE
  5
28D
100
AcDbEntity
  8
_21_KURVEN
100
AcDbSpline
 62
5
  6
CONTINUOUS
 70
0
 71
3
 72
9
 73
5
 74
0
 42
0.0000001
 43
0.0000001
 44
0.0000000001
 40
0.0
 40
0.0
 40
0.0
 40
0.0
 40
0.5
 40
1.0
 40
1.0
 40
1.0
 40
1.0
 10
249.9525156564
 20
21.7864399423
 30
0.0
 10
249.9332222088
 20
21.8187144496
 30
0.0
 10
249.8888572754
 20
21.8849074758
 30
0.0
 10
249.8253183705
 20
21.9285389296
 30
0.0
 10
249.791262772
 20
21.9496079113
 30
0.0
  0
SPLINE
  5
28E
100
AcDbEntity
  8
_21_KURVEN
100
AcDbSpline
 62
5
  6
CONTINUOUS
 70
0
 71
3
 72
9
 73
5
 74
0
 42
0.0000001
 43
0.0000001
 44
0.0000000001
 40
0.0
 40
0.0
 40
0.0
 40
0.0
 40
0.5
 40
1.0
 40
1.0
 40
1.0
 40
1.0
 10
249.7912627787
 20
21.9496079076
 30
0.0
 10
249.7574827074
 20
21.9662697506
 30
0.0
 10
249.6849284275
 20
21.9977994271
 30
0.0
 10
249.6061859266
 20
21.9998792145
 30
0.0
 10
249.5674741491
 20
21.9989530496
 30
0.0
  0
SPLINE
  5
28F
100
AcDbEntity
  8
_21_KURVEN
100
AcDbSpline
 62
5
  6
CONTINUOUS
 70
0
 71
3
 72
8
 73
4
 74
0
 42
0.0000001
 43
0.0000001
 44
0.0000000001
 40
0.0
 40
0.0
 40
0.0
 40
0.0
 40
1.0
 40
1.0
 40
1.0
 40
1.0
 10
249.2719053249
 20
13.4426959419
 30
0.0
 10
249.2747848384
 20
13.4489450551
 30
0.0
 10
249.2777740601
 20
13.4561986452
 30
0.0
 10
249.2807232028
 20
13.4648112211
 30
0.0
  0
LINE
  5
290
100
AcDbEntity
  8
_21_KURVEN
100
AcDbLine
 62
5
  6
CONTINUOUS
 10
249.2807232029
 20
13.4648112215
 11
249.2841540411
 21
13.4764280872
  0
SPLINE
  5
291
100
AcDbEntity
  8
_21_KURVEN
100
AcDbSpline
 62
5
  6
CONTINUOUS
 70
0
 71
3
 72
8
 73
4
 74
0
 42
0.0000001
 43
0.0000001
 44
0.0000000001
 40
0.0
 40
0.0
 40
0.0
 40
0.0
 40
1.0
 40
1.0
 40
1.0
 40
1.0
 10
249.284154041
 20
13.4764280869
 30
0.0
 10
249.2864828325
 20
13.4857910141
 30
0.0
 10
249.2885336663
 20
13.4967873446
 30
0.0
 10
249.2897861173
 20
13.5088764973
 30
0.0
  0
SPLINE
  5
292
100
AcDbEntity
  8
_21_KURVEN
100
AcDbSpline
 62
5
  6
CONTINUOUS
 70
0
 71
3
 72
11
 73
7
 74
0
 42
0.0000001
 43
0.0000001
 44
0.0000000001
 40
0.0
 40
0.0
 40
0.0
 40
0.0
 40
0.25
 40
0.5
 40
0.75
 40
1.0
 40
1.0
 40
1.0
 40
1.0
 10
245.2466455758
 20
6.0066621506
 30
0.0
 10
245.2735413461
 20
5.9904991703
 30
0.0
 10
245.3279137435
 20
5.9592244856
 30
0.0
 10
245.4188705877
 20
5.9321172774
 30
0.0
 10
245.513443802
 20
5.9305767467
 30
0.0
 10
245.5741502821
 20
5.9440820797
 30
0.0
 10
245.6043710337
 20
5.9514256875
 30
0.0
  0
SPLINE
  5
293
100
AcDbEntity
  8
_21_KURVEN
100
AcDbSpline
 62
5
  6
CONTINUOUS
 70
0
 71
3
 72
9
 73
5
 74
0
 42
0.0000001
 43
0.0000001
 44
0.0000000001
 40
0.0
 40
0.0
 40
0.0
 40
0.0
 40
0.5
 40
1.0
 40
1.0
 40
1.0
 40
1.0
 10
245.6043710238
 20
5.9514256842
 30
0.0
 10
245.6504969367
 20
5.9698737517
 30
0.0
 10
245.744907952
 20
6.0156238829
 30
0.0
 10
245.8031155681
 20
6.0992860327
 30
0.0
 10
245.8293311653
 20
6.142864887
 30
0.0
  0
LINE
  5
294
100
AcDbEntity
  8
_21_KURVEN
100
AcDbLine
 62
5
  6
CONTINUOUS
 10
245.829331165
 20
6.1428648864
 11
245.8354187856
 21
6.1552034754
  0
SPLINE
  5
295
100
AcDbEntity
  8
_21_KURVEN
100
AcDbSpline
 62
1
  6
CENTER
 70
0
 71
3
 72
74
 73
70
 74
0
 42
0.0000001
 43
0.0000001
 44
0.0000000001
 40
0.0
 40
0.0
 40
0.0
 40
0.0
 40
0.03125
 40
0.0625
 40
0.09375
 40
0.109375
 40
0.125
 40
0.1328125
 40
0.140625
 40
0.15625
 40
0.171875
 40
0.1875
 40
0.21875
 40
0.234375
 40
0.25
 40
0.265625
 40
0.2734375
 40
0.28125
 40
0.28515625
 40
0.2890625
 40
0.296875
 40
0.3125
 40
0.34375
 40
0.375
 40
0.40625
 40
0.4140625
 40
0.421875
 40
0.4296875
 40
0.43359375
 40
0.4375
 40
0.4453125
 40
0.453125
 40
0.46875
 40
0.5
 40
0.53125
 40
0.546875
 40
0.5546875
 40
0.5625
 40
0.56640625
 40
0.5703125
 40
0.578125
 40
0.5859375
 40
0.59375
 40
0.625
 40
0.65625
 40
0.6875
 40
0.703125
 40
0.7109375
 40
0.71484375
 40
0.71875
 40
0.7265625
 40
0.734375
 40
0.75
 40
0.765625
 40
0.78125
 40
0.8125
 40
0.828125
 40
0.84375
 40
0.8515625
 40
0.85546875
 40
0.857421875
 40
0.859375
 40
0.8671875
 40
0.875
 40
0.890625
 40
0.90625
 40
0.9375
 40
0.96875
 40
1.0
 40
1.0
 40
1.0
 40
1.0
 10
241.4572717553
 20
9.1662201886
 30
0.0
 10
241.5571813659
 20
9.1495516495
 30
0.0
 10
241.7570002774
 20
9.1162072189
 30
0.0
 10
242.0567305028
 20
9.0662346872
 30
0.0
 10
242.3065002709
 20
9.0244622441
 30
0.0
 10
242.5063281636
 20
8.9913310325
 30
0.0
 10
242.6311931108
 20
8.9699715013
 30
0.0
 10
242.7311480148
 20
8.9543782482
 30
0.0
 10
242.8308731227
 20
8.9333295269
 30
0.0
 10
242.9571742948
 20
8.9460666716
 30
0.0
 10
243.1083511898
 20
8.9522208883
 30
0.0
 10
243.3100546257
 20
8.9636230403
 30
0.0
 10
243.5117216296
 20
8.9741067283
 30
0.0
 10
243.7133972476
 20
8.9849484112
 30
0.0
 10
243.8646645508
 20
8.9929241525
 30
0.0
 10
243.9906817484
 20
8.999939842
 30
0.0
 10
244.0915835438
 20
9.0047439817
 30
0.0
 10
244.1544465169
 20
9.0095829795
 30
0.0
 10
244.2051964437
 20
9.0092488957
 30
0.0
 10
244.2542686966
 20
9.0242668116
 30
0.0
 10
244.3404373948
 20
9.0478725867
 30
0.0
 10
244.512569142
 20
9.09698013
 30
0.0
 10
244.7585643143
 20
9.1661714099
 30
0.0
 10
245.0537837297
 20
9.2494865434
 30
0.0
 10
245.2750114539
 20
9.3122709247
 30
0.0
 10
245.4228001212
 20
9.3535412111
 30
0.0
 10
245.4961496982
 20
9.3752489461
 30
0.0
 10
245.559039615
 20
9.3898610805
 30
0.0
 10
245.6020929735
 20
9.4158510191
 30
0.0
 10
245.6464139601
 20
9.4393435848
 30
0.0
 10
245.701381202
 20
9.4695643003
 30
0.0
 10
245.7895710773
 20
9.5174401376
 30
0.0
 10
245.9437896827
 20
9.6014465342
 30
0.0
 10
246.164167765
 20
9.7213283065
 30
0.0
 10
246.3844992184
 20
9.8412934819
 30
0.0
 10
246.5387831043
 20
9.9251831141
 30
0.0
 10
246.6268703959
 20
9.9732424383
 30
0.0
 10
246.6820999258
 20
10.0029940111
 30
0.0
 10
246.7258823477
 20
10.0274498829
 30
0.0
 10
246.7711295993
 20
10.0495157046
 30
0.0
 10
246.8172039436
 20
10.0942050904
 30
0.0
 10
246.8749408793
 20
10.1438384483
 30
0.0
 10
246.9891568445
 20
10.2451587036
 30
0.0
 10
247.1609914672
 20
10.396290284
 30
0.0
 10
247.3898965104
 20
10.5982189256
 30
0.0
 10
247.5804354701
 20
10.7666022169
 30
0.0
 10
247.714355659
 20
10.8840570396
 30
0.0
 10
247.780557879
 20
10.9433759491
 30
0.0
 10
247.8196093727
 20
10.9763175408
 30
0.0
 10
247.8463943984
 20
11.0188483948
 30
0.0
 10
247.8840757393
 20
11.0687285835
 30
0.0
 10
247.9420184439
 20
11.1503719849
 30
0.0
 10
248.0152523961
 20
11.2517965059
 30
0.0
 10
248.1027875575
 20
11.3737759898
 30
0.0
 10
248.219625653
 20
11.5363184144
 30
0.0
 10
248.3364076297
 20
11.6989020447
 30
0.0
 10
248.4532645524
 20
11.8614347234
 30
0.0
 10
248.5261595298
 20
11.9631106885
 30
0.0
 10
248.577464878
 20
12.0340996239
 30
0.0
 10
248.6027361634
 20
12.0698460286
 30
0.0
 10
248.6177908694
 20
12.0898669736
 30
0.0
 10
248.6308160125
 20
12.126211411
 30
0.0
 10
248.6543570544
 20
12.1780835859
 30
0.0
 10
248.6932248004
 20
12.2722712653
 30
0.0
 10
248.7428308672
 20
12.3893311679
 30
0.0
 10
248.8216297045
 20
12.5770041119
 30
0.0
 10
248.9203242363
 20
12.8114658297
 30
0.0
 10
249.03867325
 20
13.0928756594
 30
0.0
 10
249.1175886733
 20
13.28047159
 30
0.0
 10
249.1570443749
 20
13.3742708831
 30
0.0
  0
SPLINE
  5
296
100
AcDbEntity
  8
_21_KURVEN
100
AcDbSpline
 62
1
  6
CENTER
 70
0
 71
3
 72
11
 73
7
 74
0
 42
0.0000001
 43
0.0000001
 44
0.0000000001
 40
0.0
 40
0.0
 40
0.0
 40
0.0
 40
0.375
 40
0.5625
 40
0.75
 40
1.0
 40
1.0
 40
1.0
 40
1.0
 10
249.1570443829
 20
13.3742709105
 30
0.0
 10
249.1601013024
 20
13.3847711598
 30
0.0
 10
249.164612302
 20
13.4002622101
 30
0.0
 10
249.1708135229
 20
13.421987525
 30
0.0
 10
249.1751546437
 20
13.4372101524
 30
0.0
 10
249.1806073154
 20
13.4568538615
 30
0.0
 10
249.1833290238
 20
13.4666114308
 30
0.0
  0
LINE
  5
297
100
AcDbEntity
  8
_21_KURVEN
100
AcDbLine
 62
1
  6
CENTER
 10
249.1833290238
 20
13.4666114306
 11
249.2012212348
 21
13.5327936234
  0
SPLINE
  5
298
100
AcDbEntity
  8
_21_KURVEN
100
AcDbSpline
 62
1
  6
CENTER
 70
0
 71
3
 72
11
 73
7
 74
0
 42
0.0000001
 43
0.0000001
 44
0.0000000001
 40
0.0
 40
0.0
 40
0.0
 40
0.0
 40
0.375
 40
0.5625
 40
0.75
 40
1.0
 40
1.0
 40
1.0
 40
1.0
 10
249.2012212351
 20
13.5327936243
 30
0.0
 10
249.2039990066
 20
13.5433741975
 30
0.0
 10
249.2080835729
 20
13.5589248313
 30
0.0
 10
249.2137462638
 20
13.5809702994
 30
0.0
 10
249.2175529409
 20
13.5957830266
 30
0.0
 10
249.2228962923
 20
13.6172358621
 30
0.0
 10
249.2255123008
 20
13.6276850046
 30
0.0
  0
SPLINE
  5
299
100
AcDbEntity
  8
_21_KURVEN
100
AcDbSpline
 62
1
  6
CENTER
 70
0
 71
3
 72
70
 73
66
 74
0
 42
0.0000001
 43
0.0000001
 44
0.0000000001
 40
0.0
 40
0.0
 40
0.0
 40
0.0
 40
0.03125
 40
0.0625
 40
0.09375
 40
0.109375
 40
0.125
 40
0.1328125
 40
0.140625
 40
0.15625
 40
0.171875
 40
0.1875
 40
0.21875
 40
0.234375
 40
0.25
 40
0.265625
 40
0.2734375
 40
0.28125
 40
0.28515625
 40
0.2890625
 40
0.296875
 40
0.3125
 40
0.34375
 40
0.375
 40
0.40625
 40
0.4140625
 40
0.421875
 40
0.4296875
 40
0.43359375
 40
0.4375
 40
0.4453125
 40
0.453125
 40
0.46875
 40
0.5
 40
0.53125
 40
0.546875
 40
0.5546875
 40
0.5625
 40
0.56640625
 40
0.5703125
 40
0.578125
 40
0.5859375
 40
0.59375
 40
0.625
 40
0.65625
 40
0.6875
 40
0.703125
 40
0.7109375
 40
0.71484375
 40
0.71875
 40
0.7265625
 40
0.734375
 40
0.75
 40
0.78125
 40
0.8125
 40
0.828125
 40
0.84375
 40
0.859375
 40
0.8671875
 40
0.875
 40
0.890625
 40
0.90625
 40
0.9375
 40
0.96875
 40
1.0
 40
1.0
 40
1.0
 40
1.0
 10
249.2255123011
 20
13.6276850058
 30
0.0
 10
249.2387049179
 20
13.7272626059
 30
0.0
 10
249.2650975456
 20
13.9264175448
 30
0.0
 10
249.3046421224
 20
14.2251515211
 30
0.0
 10
249.3377253335
 20
14.4740919283
 30
0.0
 10
249.3639035317
 20
14.6732544452
 30
0.0
 10
249.3809211336
 20
14.7977078271
 30
0.0
 10
249.3930323606
 20
14.8973236436
 30
0.0
 10
249.4106300235
 20
14.996745569
 30
0.0
 10
249.3933574004
 20
15.1224107702
 30
0.0
 10
249.3818124351
 20
15.2728845908
 30
0.0
 10
249.3632044875
 20
15.4736295581
 30
0.0
 10
249.3455201377
 20
15.6743441283
 30
0.0
 10
249.3274759901
 20
15.8750649848
 30
0.0
 10
249.3140986749
 20
16.0256171653
 30
0.0
 10
249.3025815098
 20
16.1510362362
 30
0.0
 10
249.2941764458
 20
16.2514643146
 30
0.0
 10
249.2870863118
 20
16.314020349
 30
0.0
 10
249.2856207631
 20
16.3645496063
 30
0.0
 10
249.2687985559
 20
16.4133103559
 30
0.0
 10
249.2420360878
 20
16.4989497546
 30
0.0
 10
249.1866145282
 20
16.6700116778
 30
0.0
 10
249.1084039604
 20
16.9144842791
 30
0.0
 10
249.0142635925
 20
17.2078746717
 30
0.0
 10
248.9433656697
 20
17.4277295427
 30
0.0
 10
248.8966780346
 20
17.5746053902
 30
0.0
 10
248.8722764725
 20
17.6474940881
 30
0.0
 10
248.8553713781
 20
17.7100144337
 30
0.0
 10
248.8277448677
 20
17.7527125308
 30
0.0
 10
248.8025811873
 20
17.7966886651
 30
0.0
 10
248.7702834048
 20
17.851221278
 30
0.0
 10
248.7190776577
 20
17.9387177363
 30
0.0
 10
248.6292470178
 20
18.0917219302
 30
0.0
 10
248.5010430959
 20
18.3103656649
 30
0.0
 10
248.3727570768
 20
18.5289624418
 30
0.0
 10
248.2830413729
 20
18.6820323765
 30
0.0
 10
248.2316550122
 20
18.7694255278
 30
0.0
 10
248.1998190259
 20
18.824222278
 30
0.0
 10
248.173707124
 20
18.8676560504
 30
0.0
 10
248.1499432821
 20
18.9125635094
 30
0.0
 10
248.1034319205
 20
18.9581497178
 30
0.0
 10
248.0515420271
 20
19.0153156915
 30
0.0
 10
247.9457447548
 20
19.1283821195
 30
0.0
 10
247.7878830754
 20
19.2984956243
 30
0.0
 10
247.5769865852
 20
19.5251040678
 30
0.0
 10
247.4011372727
 20
19.7137294463
 30
0.0
 10
247.2784386873
 20
19.8463103763
 30
0.0
 10
247.2165223319
 20
19.911842529
 30
0.0
 10
247.1820571029
 20
19.9505118422
 30
0.0
 10
247.1383979092
 20
19.9769073142
 30
0.0
 10
247.0869713981
 20
20.0141034772
 30
0.0
 10
247.0029330313
 20
20.0712733531
 30
0.0
 10
246.8566774613
 20
20.1724022678
 30
0.0
 10
246.6473694101
 20
20.3163909598
 30
0.0
 10
246.4380015983
 20
20.4602441451
 30
0.0
 10
246.2709479924
 20
20.5760368582
 30
0.0
 10
246.1443717139
 20
20.6608322026
 30
0.0
 10
246.0429947938
 20
20.7380297222
 30
0.0
 10
245.945039912
 20
20.772948938
 30
0.0
 10
245.8500282918
 20
20.812555271
 30
0.0
 10
245.7302559871
 20
20.8604583077
 30
0.0
 10
245.5391835652
 20
20.9380001617
 30
0.0
 10
245.3001496632
 20
21.034619532
 30
0.0
 10
245.0133922806
 20
21.1506954305
 30
0.0
 10
244.8222048255
 20
21.2280540954
 30
0.0
 10
244.7266130814
 20
21.2667365862
 30
0.0
  0
SPLINE
  5
29A
100
AcDbEntity
  8
_21_KURVEN
100
AcDbSpline
 62
1
  6
CENTER
 70
0
 71
3
 72
28
 73
24
 74
0
 42
0.0000001
 43
0.0000001
 44
0.0000000001
 40
0.0
 40
0.0
 40
0.0
 40
0.0
 40
0.125
 40
0.15625
 40
0.1875
 40
0.25
 40
0.3125
 40
0.34375
 40
0.375
 40
0.4375
 40
0.46875
 40
0.5
 40
0.53125
 40
0.5625
 40
0.625
 40
0.65625
 40
0.6875
 40
0.75
 40
0.8125
 40
0.84375
 40
0.875
 40
0.9375
 40
1.0
 40
1.0
 40
1.0
 40
1.0
 10
244.7266130536
 20
21.266736594
 30
0.0
 10
244.5975569895
 20
21.2973270338
 30
0.0
 10
244.4359360426
 20
21.3339082356
 30
0.0
 10
244.2428935068
 20
21.3827762215
 30
0.0
 10
244.1122729354
 20
21.4047510522
 30
0.0
 10
243.9482779689
 20
21.4280820913
 30
0.0
 10
243.7846637594
 20
21.4541576018
 30
0.0
 10
243.6534339768
 20
21.4717412784
 30
0.0
 10
243.5211686849
 20
21.4783107651
 30
0.0
 10
243.3892011719
 20
21.4884655029
 30
0.0
 10
243.257116954
 20
21.4961251299
 30
0.0
 10
243.1581061266
 20
21.5057699314
 30
0.0
 10
243.0589443076
 20
21.5010619634
 30
0.0
 10
242.926768184
 20
21.499985545
 30
0.0
 10
242.7946562333
 20
21.4964094315
 30
0.0
 10
242.6623220378
 20
21.4964317493
 30
0.0
 10
242.5307912574
 20
21.4853932687
 30
0.0
 10
242.3667135114
 20
21.4674860513
 30
0.0
 10
242.2023164245
 20
21.4523189435
 30
0.0
 10
242.0712965894
 20
21.4368962876
 30
0.0
 10
241.9420059413
 20
21.4106051169
 30
0.0
 10
241.779795379
 20
21.3814950813
 30
0.0
 10
241.6502089489
 20
21.3570629986
 30
0.0
 10
241.5853929814
 20
21.344989964
 30
0.0
  0
SPLINE
  5
29B
100
AcDbEntity
  8
_21_KURVEN
100
AcDbSpline
 62
1
  6
CENTER
 70
0
 71
3
 72
11
 73
7
 74
0
 42
0.0000001
 43
0.0000001
 44
0.0000000001
 40
0.0
 40
0.0
 40
0.0
 40
0.0
 40
0.375
 40
0.5625
 40
0.75
 40
1.0
 40
1.0
 40
1.0
 40
1.0
 10
241.5853931403
 20
21.3449900006
 30
0.0
 10
241.5746926523
 20
21.3425085032
 30
0.0
 10
241.5589774008
 20
21.3388662001
 30
0.0
 10
241.5367097364
 20
21.333578104
 30
0.0
 10
241.5218813452
 20
21.3300597145
 30
0.0
 10
241.4999709068
 20
21.3246877875
 30
0.0
 10
241.4893331975
 20
21.3220930627
 30
0.0
  0
LINE
  5
29C
100
AcDbEntity
  8
_21_KURVEN
100
AcDbLine
 62
1
  6
CENTER
 10
241.489333195
 20
21.322093062
 11
241.4226005223
 21
21.305241588
  0
SPLINE
  5
29D
100
AcDbEntity
  8
_21_KURVEN
100
AcDbSpline
 62
1
  6
CENTER
 70
0
 71
3
 72
11
 73
7
 74
0
 42
0.0000001
 43
0.0000001
 44
0.0000000001
 40
0.0
 40
0.0
 40
0.0
 40
0.0
 40
0.375
 40
0.5625
 40
0.75
 40
1.0
 40
1.0
 40
1.0
 40
1.0
 10
241.4226005214
 20
21.3052415877
 30
0.0
 10
241.4119743424
 20
21.3024762613
 30
0.0
 10
241.3962844058
 20
21.2983940786
 30
0.0
 10
241.3743980615
 20
21.2925767574
 30
0.0
 10
241.3589302277
 20
21.2884602911
 30
0.0
 10
241.3395467609
 20
21.2831581271
 30
0.0
 10
241.3298673894
 20
21.2805235253
 30
0.0
  0
SPLINE
  5
29E
100
AcDbEntity
  8
_21_KURVEN
100
AcDbSpline
 62
1
  6
CENTER
 70
0
 71
3
 72
17
 73
13
 74
0
 42
0.0000001
 43
0.0000001
 44
0.0000000001
 40
0.0
 40
0.0
 40
0.0
 40
0.0
 40
0.125
 40
0.1875
 40
0.25
 40
0.375
 40
0.5
 40
0.625
 40
0.75
 40
0.8125
 40
0.875
 40
1.0
 40
1.0
 40
1.0
 40
1.0
 10
241.3298673909
 20
21.2805235256
 30
0.0
 10
241.2929529772
 20
21.2698919398
 30
0.0
 10
241.2383190294
 20
21.2543504784
 30
0.0
 10
241.1625230749
 20
21.23200486
 30
0.0
 10
241.0768700161
 20
21.2045958576
 30
0.0
 10
240.9735725642
 20
21.1710560094
 30
0.0
 10
240.8487401652
 20
21.1279594195
 30
0.0
 10
240.7262383391
 20
21.0811414605
 30
0.0
 10
240.6236727503
 20
21.039620867
 30
0.0
 10
240.544423874
 20
21.0074377446
 30
0.0
 10
240.4562219523
 20
20.9685651558
 30
0.0
 10
240.3880658826
 20
20.9378244603
 30
0.0
 10
240.3430739757
 20
20.9176831642
 30
0.0
  0
SPLINE
  5
29F
100
AcDbEntity
  8
_21_KURVEN
100
AcDbSpline
 62
1
  6
CENTER
 70
0
 71
3
 72
19
 73
15
 74
0
 42
0.0000001
 43
0.0000001
 44
0.0000000001
 40
0.0
 40
0.0
 40
0.0
 40
0.0
 40
0.125
 40
0.25
 40
0.3125
 40
0.375
 40
0.4375
 40
0.5
 40
0.5625
 40
0.625
 40
0.75
 40
0.8125
 40
0.875
 40
1.0
 40
1.0
 40
1.0
 40
1.0
 10
240.3430739684
 20
20.9176831607
 30
0.0
 10
240.3381159258
 20
20.9153580346
 30
0.0
 10
240.3284569052
 20
20.9108439045
 30
0.0
 10
240.315097807
 20
20.9045206316
 30
0.0
 10
240.3071603093
 20
20.9007872637
 30
0.0
 10
240.2937543386
 20
20.8943678372
 30
0.0
 10
240.2792404733
 20
20.8873971931
 30
0.0
 10
240.2618388367
 20
20.8790677228
 30
0.0
 10
240.2570961797
 20
20.8767247751
 30
0.0
 10
240.2465051883
 20
20.8715947598
 30
0.0
 10
240.2362009295
 20
20.8665282099
 30
0.0
 10
240.2282891069
 20
20.8626724892
 30
0.0
 10
240.2104599278
 20
20.8538199386
 30
0.0
 10
240.194808074
 20
20.8460322207
 30
0.0
 10
240.1848801647
 20
20.8410955876
 30
0.0
  0
SPLINE
  5
2A0
100
AcDbEntity
  8
_21_KURVEN
100
AcDbSpline
 62
1
  6
CENTER
 70
0
 71
3
 72
8
 73
4
 74
0
 42
0.0000001
 43
0.0000001
 44
0.0000000001
 40
0.0
 40
0.0
 40
0.0
 40
0.0
 40
1.0
 40
1.0
 40
1.0
 40
1.0
 10
240.1848801612
 20
20.8410955858
 30
0.0
 10
240.1588072878
 20
20.8279571551
 30
0.0
 10
240.1326421018
 20
20.8145969025
 30
0.0
 10
240.1073673486
 20
20.8015252736
 30
0.0
  0
SPLINE
  5
2A1
100
AcDbEntity
  8
_21_KURVEN
100
AcDbSpline
 62
1
  6
CENTER
 70
0
 71
3
 72
85
 73
81
 74
0
 42
0.0000001
 43
0.0000001
 44
0.0000000001
 40
0.0
 40
0.0
 40
0.0
 40
0.0
 40
0.0625
 40
0.078125
 40
0.09375
 40
0.1015625
 40
0.10546875
 40
0.109375
 40
0.1171875
 40
0.125
 40
0.140625
 40
0.15625
 40
0.171875
 40
0.1875
 40
0.203125
 40
0.2109375
 40
0.21875
 40
0.22265625
 40
0.2265625
 40
0.234375
 40
0.25
 40
0.28125
 40
0.296875
 40
0.3125
 40
0.3203125
 40
0.328125
 40
0.33203125
 40
0.3359375
 40
0.34375
 40
0.359375
 40
0.375
 40
0.390625
 40
0.40625
 40
0.421875
 40
0.4296875
 40
0.4375
 40
0.4453125
 40
0.44921875
 40
0.453125
 40
0.46875
 40
0.5
 40
0.53125
 40
0.546875
 40
0.55078125
 40
0.5546875
 40
0.5625
 40
0.5703125
 40
0.578125
 40
0.59375
 40
0.609375
 40
0.625
 40
0.640625
 40
0.65625
 40
0.6640625
 40
0.66796875
 40
0.671875
 40
0.6796875
 40
0.6875
 40
0.703125
 40
0.71875
 40
0.75
 40
0.765625
 40
0.7734375
 40
0.77734375
 40
0.78125
 40
0.7890625
 40
0.796875
 40
0.8125
 40
0.828125
 40
0.84375
 40
0.859375
 40
0.875
 40
0.8828125
 40
0.890625
 40
0.89453125
 40
0.8984375
 40
0.90625
 40
0.921875
 40
0.9375
 40
1.0
 40
1.0
 40
1.0
 40
1.0
 10
240.1073673503
 20
20.8015252745
 30
0.0
 10
239.9089393769
 20
20.6711447872
 30
0.0
 10
239.660936507
 20
20.5081232409
 30
0.0
 10
239.3632367729
 20
20.312635197
 30
0.0
 10
239.239323604
 20
20.2309980965
 30
0.0
 10
239.1523231985
 20
20.1742259403
 30
0.0
 10
239.1030179145
 20
20.1411990085
 30
0.0
 10
239.0521751966
 20
20.11037247
 30
0.0
 10
238.9996410122
 20
20.0560684722
 30
0.0
 10
238.9143863953
 20
19.9708993152
 30
0.0
 10
238.8082307798
 20
19.8638479867
 30
0.0
 10
238.6806631766
 20
19.735641968
 30
0.0
 10
238.5531587827
 20
19.6073574593
 30
0.0
 10
238.4255824164
 20
19.4791313348
 30
0.0
 10
238.3194560112
 20
19.3721470253
 30
0.0
 10
238.2341415132
 20
19.2868404795
 30
0.0
 10
238.1817597699
 20
19.2328862368
 30
0.0
 10
238.1377021557
 20
19.1911829808
 30
0.0
 10
238.1083486522
 20
19.1395040364
 30
0.0
 10
238.050142068
 20
19.0537049732
 30
0.0
 10
237.9385877565
 20
18.8788101371
 30
0.0
 10
237.8090384523
 20
18.6803290673
 30
0.0
 10
237.6801121562
 20
18.481419437
 30
0.0
 10
237.5996912532
 20
18.3570067003
 30
0.0
 10
237.5348195018
 20
18.2578097738
 30
0.0
 10
237.4955332135
 20
18.1950256465
 30
0.0
 10
237.461217405
 20
18.1466015445
 30
0.0
 10
237.4374418629
 20
18.091593482
 30
0.0
 10
237.4007317151
 20
17.9922703715
 30
0.0
 10
237.3457293459
 20
17.8519793704
 30
0.0
 10
237.2808178883
 20
17.6829462187
 30
0.0
 10
237.2156357701
 20
17.5140902181
 30
0.0
 10
237.1504449091
 20
17.3452095633
 30
0.0
 10
237.0963738848
 20
17.2044102388
 30
0.0
 10
237.0525101729
 20
17.0919401756
 30
0.0
 10
237.0212802504
 20
17.0071187064
 30
0.0
 10
236.989948649
 20
16.9379266395
 30
0.0
 10
236.9828287092
 20
16.8775257368
 30
0.0
 10
236.9675371281
 20
16.7882211716
 30
0.0
 10
236.9371209819
 20
16.5939701216
 30
0.0
 10
236.8883180741
 20
16.2956337191
 30
0.0
 10
236.8408659279
 20
15.9971172658
 30
0.0
 10
236.8086937915
 20
15.803100282
 30
0.0
 10
236.7951244316
 20
15.7135661518
 30
0.0
 10
236.7829391355
 20
15.6538404401
 30
0.0
 10
236.7906107778
 20
15.5794494024
 30
0.0
 10
236.7933148943
 20
15.4901046305
 30
0.0
 10
236.7991908491
 20
15.3710046139
 30
0.0
 10
236.805761933
 20
15.2221208144
 30
0.0
 10
236.8139560604
 20
15.0434628745
 30
0.0
 10
236.8221530563
 20
14.8648085025
 30
0.0
 10
236.8300297515
 20
14.6861372395
 30
0.0
 10
236.8376589428
 20
14.5372978503
 30
0.0
 10
236.8409024232
 20
14.4330056748
 30
0.0
 10
236.8460310343
 20
14.3735734665
 30
0.0
 10
236.8634960927
 20
14.3147563604
 30
0.0
 10
236.8811040053
 20
14.2410245681
 30
0.0
 10
236.9116335973
 20
14.1231701185
 30
0.0
 10
236.9490122405
 20
13.9758205593
 30
0.0
 10
237.0091176252
 20
13.7400300105
 30
0.0
 10
237.0699323858
 20
13.5045277773
 30
0.0
 10
237.1210866063
 20
13.2977270053
 30
0.0
 10
237.1494414071
 20
13.1953049581
 30
0.0
 10
237.1611764944
 20
13.1352061101
 30
0.0
 10
237.1897240382
 20
13.0810224172
 30
0.0
 10
237.2223324431
 20
13.0122105483
 30
0.0
 10
237.2762252472
 20
12.9027165261
 30
0.0
 10
237.343000179
 20
12.7656407492
 30
0.0
 10
237.4233882153
 20
12.6012419611
 30
0.0
 10
237.5036894961
 20
12.4368077947
 30
0.0
 10
237.5840796809
 20
12.2724229973
 30
0.0
 10
237.6508474512
 20
12.1353005848
 30
0.0
 10
237.7047549364
 20
12.0259021655
 30
0.0
 10
237.7373259674
 20
11.9568469173
 30
0.0
 10
237.7765617725
 20
11.9096108795
 30
0.0
 10
237.8134991136
 20
11.8609781882
 30
0.0
 10
237.8792101178
 20
11.7765215595
 30
0.0
 10
237.9725251594
 20
11.6555302745
 30
0.0
 10
238.1969419118
 20
11.3654311044
 30
0.0
 10
238.3838359106
 20
11.1236089018
 30
0.0
 10
238.5333894974
 20
10.9301744658
 30
0.0
  0
SPLINE
  5
2A2
100
AcDbEntity
  8
_21_KURVEN
100
AcDbSpline
 62
1
  6
CENTER
 70
0
 71
3
 72
17
 73
13
 74
0
 42
0.0000001
 43
0.0000001
 44
0.0000000001
 40
0.0
 40
0.0
 40
0.0
 40
0.0
 40
0.125
 40
0.1875
 40
0.25
 40
0.375
 40
0.5
 40
0.625
 40
0.75
 40
0.8125
 40
0.875
 40
1.0
 40
1.0
 40
1.0
 40
1.0
 10
238.53338969
 20
10.930174263
 30
0.0
 10
238.5372114743
 20
10.926164887
 30
0.0
 10
238.5423616004
 20
10.9207484132
 30
0.0
 10
238.5515586364
 20
10.9111360874
 30
0.0
 10
238.5684413598
 20
10.8936115895
 30
0.0
 10
238.5869382011
 20
10.8744850542
 30
0.0
 10
238.6104472826
 20
10.8503787205
 30
0.0
 10
238.6335351795
 20
10.8270775499
 30
0.0
 10
238.6539040765
 20
10.806736073
 30
0.0
 10
238.6680255858
 20
10.7925990023
 30
0.0
 10
238.6901552477
 20
10.7708708821
 30
0.0
 10
238.7085733982
 20
10.7528550388
 30
0.0
 10
238.7204475198
 20
10.741226644
 30
0.0
  0
SPLINE
  5
2A3
100
AcDbEntity
  8
_21_KURVEN
100
AcDbSpline
 62
1
  6
CENTER
 70
0
 71
3
 72
27
 73
23
 74
0
 42
0.0000001
 43
0.0000001
 44
0.0000000001
 40
0.0
 40
0.0
 40
0.0
 40
0.0
 40
0.125
 40
0.15625
 40
0.1875
 40
0.25
 40
0.3125
 40
0.34375
 40
0.375
 40
0.4375
 40
0.46875
 40
0.5
 40
0.53125
 40
0.5625
 40
0.625
 40
0.65625
 40
0.6875
 40
0.75
 40
0.8125
 40
0.84375
 40
0.875
 40
1.0
 40
1.0
 40
1.0
 40
1.0
 10
238.7204475213
 20
10.7412266425
 30
0.0
 10
238.8196428482
 20
10.6527205927
 30
0.0
 10
238.9447044734
 20
10.5433839854
 30
0.0
 10
239.091576024
 20
10.4082921918
 30
0.0
 10
239.1963221769
 20
10.3265251075
 30
0.0
 10
239.3298922244
 20
10.2275679134
 30
0.0
 10
239.461797964
 20
10.1264076229
 30
0.0
 10
239.5692070094
 20
10.0481654929
 30
0.0
 10
239.68286022
 20
9.9790011927
 30
0.0
 10
239.794515587
 20
9.9068631
 30
0.0
 10
239.9074813612
 20
9.8368380123
 30
0.0
 10
239.9902723137
 20
9.7809539739
 30
0.0
 10
240.080141575
 20
9.7374743236
 30
0.0
 10
240.1974156827
 20
9.6749993788
 30
0.0
 10
240.3158426168
 20
9.6147281248
 30
0.0
 10
240.4327247524
 20
9.5512223567
 30
0.0
 10
240.55424898
 20
9.4977163903
 30
0.0
 10
240.7078479704
 20
9.4345724534
 30
0.0
 10
240.860395655
 20
9.3688726439
 30
0.0
 10
240.9836019719
 20
9.3194560737
 30
0.0
 10
241.1739190349
 20
9.2605002629
 30
0.0
 10
241.3310823198
 20
9.2074201486
 30
0.0
 10
241.4572719134
 20
9.1662201442
 30
0.0
  0
SPLINE
  5
2A4
100
AcDbEntity
  8
_21_KURVEN
100
AcDbSpline
 62
5
  6
CONTINUOUS
 70
0
 71
3
 72
8
 73
4
 74
0
 42
0.0000001
 43
0.0000001
 44
0.0000000001
 40
0.0
 40
0.0
 40
0.0
 40
0.0
 40
1.0
 40
1.0
 40
1.0
 40
1.0
 10
238.5369251169
 20
10.7960420935
 30
0.0
 10
238.5501716213
 20
10.7780919506
 30
0.0
 10
238.5668500518
 20
10.7610168858
 30
0.0
 10
238.5857763485
 20
10.746697332
 30
0.0
  0
SPLINE
  5
2A5
100
AcDbEntity
  8
_21_KURVEN
100
AcDbSpline
 62
5
  6
CONTINUOUS
 70
0
 71
3
 72
9
 73
5
 74
0
 42
0.0000001
 43
0.0000001
 44
0.0000000001
 40
0.0
 40
0.0
 40
0.0
 40
0.0
 40
0.5
 40
1.0
 40
1.0
 40
1.0
 40
1.0
 10
234.0306955801
 20
18.0791862613
 30
0.0
 10
233.9868293344
 20
18.0560098424
 30
0.0
 10
233.8978823339
 20
18.000613291
 30
0.0
 10
233.8488656782
 20
17.9112232488
 30
0.0
 10
233.8274088436
 20
17.8650880057
 30
0.0
  0
SPLINE
  5
2A6
100
AcDbEntity
  8
_21_KURVEN
100
AcDbSpline
 62
5
  6
CONTINUOUS
 70
0
 71
3
 72
8
 73
4
 74
0
 42
0.0000001
 43
0.0000001
 44
0.0000000001
 40
0.0
 40
0.0
 40
0.0
 40
0.0
 40
1.0
 40
1.0
 40
1.0
 40
1.0
 10
233.8274088438
 20
17.8650880062
 30
0.0
 10
233.8152381205
 20
17.8314217631
 30
0.0
 10
233.806831776
 20
17.7964267546
 30
0.0
 10
233.8024977022
 20
17.7580197378
 30
0.0
  0
SPLINE
  5
2A7
100
AcDbEntity
  8
_21_KURVEN
100
AcDbSpline
 62
5
  6
CONTINUOUS
 70
0
 71
3
 72
9
 73
5
 74
0
 42
0.0000001
 43
0.0000001
 44
0.0000000001
 40
0.0
 40
0.0
 40
0.0
 40
0.0
 40
0.5
 40
1.0
 40
1.0
 40
1.0
 40
1.0
 10
233.8024977021
 20
17.7580197369
 30
0.0
 10
233.8011388755
 20
17.7124564375
 30
0.0
 10
233.8036931263
 20
17.6202319474
 30
0.0
 10
233.848207283
 20
17.5356538258
 30
0.0
 10
233.8729342694
 20
17.4952786553
 30
0.0
  0
SPLINE
  5
2A8
100
AcDbEntity
  8
_21_KURVEN
100
AcDbSpline
 62
5
  6
CONTINUOUS
 70
0
 71
3
 72
8
 73
4
 74
0
 42
0.0000001
 43
0.0000001
 44
0.0000000001
 40
0.0
 40
0.0
 40
0.0
 40
0.0
 40
1.0
 40
1.0
 40
1.0
 40
1.0
 10
241.4669967716
 20
21.4106971387
 30
0.0
 10
241.4600850198
 20
21.4101346484
 30
0.0
 10
241.4522432998
 20
21.4091771898
 30
0.0
 10
241.4432400275
 20
21.4075227967
 30
0.0
  0
LINE
  5
2A9
100
AcDbEntity
  8
_21_KURVEN
100
AcDbLine
 62
5
  6
CONTINUOUS
 10
241.4432400271
 20
21.4075227966
 11
241.4313765936
 21
21.4048195324
  0
SPLINE
  5
2AA
100
AcDbEntity
  8
_21_KURVEN
100
AcDbSpline
 62
5
  6
CONTINUOUS
 70
0
 71
3
 72
8
 73
4
 74
0
 42
0.0000001
 43
0.0000001
 44
0.0000000001
 40
0.0
 40
0.0
 40
0.0
 40
0.0
 40
1.0
 40
1.0
 40
1.0
 40
1.0
 10
241.4313765938
 20
21.4048195325
 30
0.0
 10
241.4220386297
 20
21.4022644195
 30
0.0
 10
241.4114223511
 20
21.3986734712
 30
0.0
 10
241.4002647455
 20
21.3938613462
 30
0.0
  0
SPLINE
  5
2AB
100
AcDbEntity
  8
0
100
AcDbSpline
 62
4
  6
CONTINUOUS
 70
0
 71
3
 72
20
 73
16
 74
0
 42
0.0000001
 43
0.0000001
 44
0.0000000001
 40
0.0
 40
0.0
 40
0.0
 40
0.0
 40
0.0618501636
 40
0.120836515
 40
0.1775774909
 40
0.2331467829
 40
0.2887573003
 40
0.3454087559
 40
0.4037183126
 40
0.4639460735
 40
0.5261035079
 40
0.5900607376
 40
0.7225458829
 40
0.8597307337
 40
1.0
 40
1.0
 40
1.0
 40
1.0
 10
208.6459335456
 20
7.2154348448
 30
0.0
 10
208.6859100127
 20
7.651001277
 30
0.0
 10
208.8178094241
 20
8.4986177763
 30
0.0
 10
209.1997072962
 20
9.7007463054
 30
0.0
 10
209.7648138665
 20
10.7798687085
 30
0.0
 10
210.503871519
 20
11.717887007
 30
0.0
 10
211.3957066244
 20
12.5094815545
 30
0.0
 10
212.41466847
 20
13.1626107186
 30
0.0
 10
213.5371696739
 20
13.6932555
 30
0.0
 10
214.7436585256
 20
14.11946954
 30
0.0
 10
216.0181666751
 20
14.4586130188
 30
0.0
 10
217.8119629776
 20
14.8190553144
 30
0.0
 10
220.154889648
 20
15.1180475373
 30
0.0
 10
223.0472301023
 20
15.3240980787
 30
0.0
 10
225.0083563917
 20
15.3960374197
 30
0.0
 10
226.0
 20
15.4213971741
 30
0.0
  0
SPLINE
  5
2AC
100
AcDbEntity
  8
0
100
AcDbSpline
 62
4
  6
CONTINUOUS
 70
0
 71
3
 72
9
 73
5
 74
0
 42
0.0000001
 43
0.0000001
 44
0.0000000001
 40
0.0
 40
0.0
 40
0.0
 40
0.0
 40
0.4937395337
 40
1.0
 40
1.0
 40
1.0
 40
1.0
 10
226.1750518846
 20
-13.6001751549
 30
0.0
 10
227.6061191289
 20
-13.9047239501
 30
0.0
 10
230.5414111777
 20
-14.3506918564
 30
0.0
 10
233.4990041497
 20
-14.5642715638
 30
0.0
 10
234.9977960691
 20
-14.6296684387
 30
0.0
  0
SPLINE
  5
2AD
100
AcDbEntity
  8
0
100
AcDbSpline
 62
4
  6
CONTINUOUS
 70
0
 71
3
 72
23
 73
19
 74
0
 42
0.0000001
 43
0.0000001
 44
0.0000000001
 40
0.0
 40
0.0
 40
0.0
 40
0.0
 40
0.2296501923
 40
0.431055939
 40
0.6030983231
 40
0.6778597917
 40
0.7449933749
 40
0.8044234209
 40
0.8560818474
 40
0.8999007705
 40
0.9358215051
 40
0.9638097371
 40
0.9748200453
 40
0.9838365848
 40
0.9908565137
 40
0.9958790848
 40
0.9989111338
 40
1.0
 40
1.0
 40
1.0
 40
1.0
 10
226.1750518836
 20
-13.6001749926
 30
0.0
 10
226.175051888
 20
-13.7820391503
 30
0.0
 10
226.1749031361
 20
-14.1234002143
 30
0.0
 10
226.1741345892
 20
-14.6010042475
 30
0.0
 10
226.1730166392
 20
-14.9559479915
 30
0.0
 10
226.1718052229
 20
-15.2045579594
 30
0.0
 10
226.1708094628
 20
-15.3639876575
 30
0.0
 10
226.1696872628
 20
-15.5051213611
 30
0.0
 10
226.1684398925
 20
-15.6277867205
 30
0.0
 10
226.1670778185
 20
-15.731841552
 30
0.0
 10
226.1655920905
 20
-15.8171212392
 30
0.0
 10
226.164207997
 20
-15.8764800167
 30
0.0
 10
226.1629473187
 20
-15.9144162723
 30
0.0
 10
226.1621113264
 20
-15.9359598403
 30
0.0
 10
226.1611093682
 20
-15.9522455136
 30
0.0
 10
226.1604615979
 20
-15.9649863568
 30
0.0
 10
226.1591789848
 20
-15.9706970249
 30
0.0
 10
226.1589211705
 20
-15.9754909724
 30
0.0
 10
226.1580588788
 20
-15.9754894901
 30
0.0
  0
SPLINE
  5
2AE
100
AcDbEntity
  8
0
100
AcDbSpline
 62
4
  6
CONTINUOUS
 70
0
 71
3
 72
11
 73
7
 74
0
 42
0.0000001
 43
0.0000001
 44
0.0000000001
 40
0.0
 40
0.0
 40
0.0
 40
0.0
 40
0.2537423685
 40
0.5024333942
 40
0.7495028375
 40
1.0
 40
1.0
 40
1.0
 40
1.0
 10
226.0
 20
-13.3033961814
 30
0.0
 10
224.8970165093
 20
-13.0620035405
 30
0.0
 10
222.7328458855
 20
-12.4812752768
 30
0.0
 10
219.635084501
 20
-11.216230234
 30
0.0
 10
216.7807612573
 20
-9.4901456618
 30
0.0
 10
215.105957369
 20
-8.0208980484
 30
0.0
 10
214.3354564591
 20
-7.2154348448
 30
0.0
  0
ELLIPSE
  5
2AF
100
AcDbEntity
  8
0
100
AcDbEllipse
 62
4
  6
CONTINUOUS
 10
178.0491011452
 20
201.9743406704
 30
0.0
 11
-81.1610399561
 21
286.0988934104
 31
0.0
 40
0.1059221884
 41
-3.9940751987
 42
-3.9228615337
  0
ENDSEC
  0
SECTION
  2
OBJECTS
  0
DICTIONARY
  5
C
100
AcDbDictionary
280
0
281
1
  3
ACAD_GROUP
350
D
  3
ACAD_MLINESTYLE
350
17
  3
ACAD_LAYOUT
350
1A
  3
ACAD_PLOTSETTINGS
350
19
  3
ACAD_PLOTSTYLENAME
350
E
  0
DICTIONARY
  5
D
102
{ACAD_REACTORS
330
C
102
}
100
AcDbDictionary
280
0
281
1
  0
ACDBDICTIONARYWDFLT
  5
E
102
{ACAD_REACTORS
330
C
102
}
100
AcDbDictionary
281
1
  3
Normal
350
F
100
AcDbDictionaryWithDefault
340
F
  0
DICTIONARY
  5
17
102
{ACAD_REACTORS
330
C
102
}
100
AcDbDictionary
280
0
281
1
  3
Standard
350
18
  0
DICTIONARY
  5
19
102
{ACAD_REACTORS
330
C
102
}
100
AcDbDictionary
281
1
  0
DICTIONARY
  5
1A
102
{ACAD_REACTORS
330
C
102
}
100
AcDbDictionary
281
1
  3
Model
350
2B0
  3
Layout1
350
2B1
  0
ACDBPLACEHOLDER
  5
F
102
{ACAD_REACTORS
330
E
102
}
  0
MLINESTYLE
  5
18
102
{ACAD_REACTORS
330
17
102
}
100
AcDbMlineStyle
  2
STANDARD
 70
0
  3

 62
256
 51
90.0
 52
90.0
 71
2
 49
0.5
 62
256
  6
BYLAYER
 49
-0.5
 62
256
  6
BYLAYER
  0
LAYOUT
  5
2B0
102
{ACAD_REACTORS
330
1A
102
}
100
AcDbPlotSettings
  1

  2
none_device
  4
ISO_A3_(420.00_x_297.00_MM)
  6

 40
0.0
 41
0.0
 42
0.0
 43
0.0
 44
420.0
 45
297.0
 46
0.0
 47
0.0
 48
0.0
 49
0.0
140
0.0
141
0.0
142
1.0
143
1.0
 70
1024
 72
1
 73
0
 74
0
  7

 75
0
147
1.0
148
0.0
149
0.0
100
AcDbLayout
  1
Model
 70
0
 71
0
 10
0.0
 20
0.0
 11
420.0
 21
297.0
 12
0.0
 22
0.0
 32
0.0
 14
0.0
 24
0.0
 34
0.0
 15
0.0
 25
0.0
 35
0.0
146
0.0
 13
0.0
 23
0.0
 33
0.0
 16
1.0
 26
0.0
 36
0.0
 17
0.0
 27
1.0
 37
0.0
 76
0
330
20E
345
0
346
0
  0
LAYOUT
  5
2B1
102
{ACAD_REACTORS
330
1A
102
}
100
AcDbPlotSettings
  1

  2
none_device
  4
ISO_A3_(420.00_x_297.00_MM)
  6

 40
0.0
 41
0.0
 42
0.0
 43
0.0
 44
420.0
 45
297.0
 46
0.0
 47
0.0
 48
0.0
 49
0.0
140
0.0
141
0.0
142
1.0
143
1.0
 70
0
 72
1
 73
0
 74
0
  7

 75
0
147
1.0
148
0.0
149
0.0
100
AcDbLayout
  1
Layout1
 70
0
 71
1
 10
0.0
 20
0.0
 11
420.0
 21
297.0
 12
0.0
 22
0.0
 32
0.0
 14
0.0
 24
0.0
 34
0.0
 15
0.0
 25
0.0
 35
0.0
146
0.0
 13
0.0
 23
0.0
 33
0.0
 16
1.0
 26
0.0
 36
0.0
 17
0.0
 27
1.0
 37
0.0
 76
0
330
20F
345
0
346
0
  0
ENDSEC
  0
EOF
